osu file format v14

[General]
AudioFilename: audio.mp3
AudioLeadIn: 0
PreviewTime: 101758
Countdown: 0
SampleSet: Normal
StackLeniency: 0.7
Mode: 1
LetterboxInBreaks: 0
WidescreenStoryboard: 0

[Editor]
Bookmarks: 111,25522,45287,79169,102463,122933,131403
DistanceSpacing: 0.1
BeatDivisor: 12
GridSize: 32
TimelineZoom: 8

[Metadata]
Title:fuuuuck we were supposed to wear argyle
TitleUnicode:fuuuuck we were supposed to wear argyle
Artist:leroy
ArtistUnicode:leroy
Creator:Ulqui
Version:rhomboid
Source:
Tags:english electronic instrumental dariacore hardstyle male vocals vocalist female brakence quorum dariacore 3... at least i think that's what it's called? fuck Jane Remover Dltzk
BeatmapID:4240002
BeatmapSetID:2033764

[Difficulty]
HPDrainRate:7
CircleSize:7
OverallDifficulty:7
ApproachRate:7
SliderMultiplier:1.4
SliderTickRate:1

[Events]
//Background and Video events
0,0,"jeffrihonesta-paint.jpg",0,0
//Break Periods
2,45488,49681
//Storyboard Layer 0 (Background)
//Storyboard Layer 1 (Fail)
//Storyboard Layer 2 (Pass)
//Storyboard Layer 3 (Foreground)
//Storyboard Layer 4 (Overlay)
//Storyboard Sound Samples

[TimingPoints]
111,352.941176470588,4,1,0,100,1,0
111,-100,4,1,0,100,0,0
1517,-111.105281108167,4,1,0,100,0,0
2929,-124.99631061657,4,1,0,100,0,0
4341,-142.857142857143,4,1,0,100,0,0
5405,-200,4,1,0,100,0,0
5758,-100,4,1,0,100,0,0
5929,-101.691657054979,4,1,0,100,0,0
6017,-102.559131446297,4,1,0,100,0,0
6194,-104.349541374889,4,1,0,100,0,0
6282,-105.263157894737,4,1,0,100,0,0
6458,-107.139240506329,4,1,0,100,0,0
6547,-108.113631718782,4,1,0,100,0,0
6811,-100,4,1,0,100,0,0
6988,-95.2252495279202,4,1,0,100,0,0
7164,-90.9090909090909,4,1,0,100,0,0
7253,-91.6089965397924,4,1,0,100,0,0
7341,-92.3117154811715,4,1,0,100,0,0
7429,-93.0252986647927,4,1,0,100,0,0
7605,-94.4860813704497,4,1,0,100,0,0
7694,-95.2423779116827,4,1,0,100,0,0
7782,-96.0021756867011,4,1,0,100,0,0
7870,-96.7741935483871,4,1,0,100,0,0
7958,-97.5587286964532,4,1,0,100,0,0
8228,-125,4,1,0,100,0,0
8576,-111.111111111111,4,1,0,100,0,0
8664,-108.849830403947,4,1,0,100,0,0
8753,-106.654581161719,4,1,0,100,0,0
8841,-104.569354958157,4,1,0,100,0,0
8929,-102.564102564103,4,1,0,100,0,0
9017,-100.634309742713,4,1,0,100,0,0
9105,-98.7757957327737,4,1,0,100,0,0
9282,-95.2380952380952,4,1,0,100,0,0
9370,-93.5719019218025,4,1,0,100,0,0
9458,-91.9630063827016,4,1,0,100,0,0
9547,-90.3911401318738,4,1,0,100,0,0
9635,-88.8888888888889,4,1,0,100,0,0
9811,-86.0293669652105,4,1,0,100,0,0
9988,-83.3333333333333,4,1,0,100,0,0
10165,-85.7212238950947,4,1,0,100,0,0
10253,-86.9600919691247,4,1,0,100,0,0
10341,-88.2352941176471,4,1,0,100,0,0
10429,-89.5484525621512,4,1,0,100,0,0
10517,-90.9012875536481,4,1,0,100,0,0
10605,-92.2956248910581,4,1,0,100,0,0
10694,-93.75,4,1,0,100,0,0
10782,-95.2338129496403,4,1,0,100,0,0
10875,-111.111111111111,4,1,0,100,0,0
11316,-125,4,1,0,100,0,0
11405,-125,4,1,0,100,0,0
11406,-50,4,1,0,100,0,0
11493,-125,4,1,0,100,0,0
12105,-122.451930027469,4,1,0,100,0,0
12635,-120.603730599459,4,1,0,100,0,0
12811,-120.002266866907,4,1,0,100,0,0
12988,-119.403405886997,4,1,0,100,0,0
13164,-118.813825608798,4,1,0,100,0,0
13517,-117.648692946634,4,1,0,100,0,0
13870,-116.506189821183,4,1,0,100,0,0
14047,-115.941632217264,4,1,0,100,0,0
14223,-115.385663297278,4,1,0,100,0,0
14576,-114.286485319516,4,1,0,100,0,0
14929,-113.2080515384,4,1,0,100,0,0
15458,-111.629500764405,4,1,0,100,0,0
15635,-111.111111111111,4,1,0,100,0,0
15811,-109.593294008072,4,1,0,100,0,0
15900,-108.841439913667,4,1,0,100,0,0
16076,-107.384591984181,4,1,0,100,0,0
16164,-106.670695776989,4,1,0,100,0,0
16341,-105.263157894737,4,1,0,100,0,0
16429,-104.577099688935,4,1,0,100,0,0
16605,-103.231466588683,4,1,0,100,0,0
16694,-102.564102564103,4,1,0,100,0,0
16870,-101.269454206412,4,1,0,100,0,0
17047,-100,4,1,0,100,0,0
17223,-98.7680246395072,4,1,0,100,0,0
17311,-98.1633504939474,4,1,0,100,0,0
17400,-97.5592892207702,4,1,0,100,0,0
17576,-96.386365188879,4,1,0,100,0,0
17664,-95.8104162422761,4,1,0,100,0,0
17753,-95.2348812095032,4,1,0,100,0,0
17929,-94.1168623265742,4,1,0,100,0,0
18017,-93.5676392572944,4,1,0,100,0,0
18105,-93.0247890295359,4,1,0,100,0,0
18282,-91.9517758227436,4,1,0,100,0,0
18458,-90.9090909090909,4,1,0,100,0,0
18635,-91.9570172582221,4,1,0,100,0,0
18723,-92.4870636012314,4,1,0,100,0,0
18811,-93.0232558139535,4,1,0,100,0,0
18900,-93.5719019218025,4,1,0,100,0,0
18988,-94.1207838954806,4,1,0,100,0,0
19164,-95.2380952380952,4,1,0,100,0,0
19253,-95.813259143652,4,1,0,100,0,0
19341,-96.3888320021844,4,1,0,100,0,0
19429,-96.9713618570153,4,1,0,100,0,0
19517,-97.5609756097561,4,1,0,100,0,0
19694,-98.7688864017907,4,1,0,100,0,0
19870,-100,4,1,0,100,0,0
20047,-98.5876157037983,4,1,0,100,0,0
20135,-97.9001584786054,4,1,0,100,0,0
20223,-97.2222222222222,4,1,0,100,0,0
20400,-95.8866899495538,4,1,0,100,0,0
20488,-95.2362599244585,4,1,0,100,0,0
20576,-94.5945945945946,4,1,0,100,0,0
20753,-93.329808128116,4,1,0,100,0,0
20841,-92.7134924208315,4,1,0,100,0,0
20929,-92.1052631578947,4,1,0,100,0,0
21105,-90.9124356144224,4,1,0,100,0,0
21282,-89.7435897435897,4,1,0,100,0,0
21458,-88.6107724306104,4,1,0,100,0,0
21547,-88.0487457240593,4,1,0,100,0,0
21635,-87.5,4,1,0,100,0,0
21723,-86.9580518018018,4,1,0,100,0,0
21811,-86.4227756015669,4,1,0,100,0,0
21988,-85.3658536585366,4,1,0,100,0,0
22076,-84.8499416248884,4,1,0,100,0,0
22164,-84.3402280019114,4,1,0,100,0,0
22253,-83.8309132853847,4,1,0,100,0,0
22610,-20,4,1,0,100,0,0
22699,-111.111111111111,4,1,0,100,0,0
22700,-40,4,1,0,100,0,0
22787,-111.111111111111,4,1,0,100,0,0
24811,-99.9999999999999,4,1,0,100,0,0
24988,-108.0998315725,4,1,0,100,0,0
25164,-105.263157894737,4,1,0,100,0,0
25341,-102.556653108658,4,1,0,100,0,0
25429,-101.262191623637,4,1,0,100,0,0
25517,-100,4,1,0,100,0,0
25522,-100,4,1,0,100,0,1
25694,-100.842736751893,4,1,0,100,0,1
25782,-101.267033229739,4,1,0,100,0,1
25870,-101.694915254237,4,1,0,100,0,1
25958,-102.126428468104,4,1,0,100,0,1
26047,-102.566585956417,4,1,0,100,0,1
26135,-103.005544207762,4,1,0,100,0,1
26223,-103.448275862069,4,1,0,100,0,1
26400,-104.350396610337,4,1,0,100,0,1
26488,-104.804789945074,4,1,0,100,0,1
26576,-105.263157894737,4,1,0,100,0,1
26664,-105.725552837818,4,1,0,100,0,1
26753,-106.197352587244,4,1,0,100,0,1
26929,-107.142857142857,4,1,0,100,0,1
27105,-108.105349122091,4,1,0,100,0,1
27194,-108.598677126596,4,1,0,100,0,1
27282,-109.090909090909,4,1,0,100,0,1
27370,-109.587623531847,4,1,0,100,0,1
27458,-110.088881958522,4,1,0,100,0,1
27635,-111.111111111111,4,1,0,100,0,1
27811,-108.116385911179,4,1,0,100,0,1
27988,-105.263157894737,4,1,0,100,0,1
28164,-102.571553101845,4,1,0,100,0,1
28341,-100,4,1,0,100,0,1
28517,-100.838334762313,4,1,0,100,0,1
28605,-101.26279536975,4,1,0,100,0,1
28782,-102.12745429109,4,1,0,100,0,1
28870,-102.562860326535,4,1,0,100,0,1
29047,-103.449960906959,4,1,0,100,0,1
29223,-104.347397476341,4,1,0,100,0,1
29311,-104.80198019802,4,1,0,100,0,1
29488,-105.728412325825,4,1,0,100,0,1
29576,-106.195134186105,4,1,0,100,0,1
29753,-107.146472315012,4,1,0,100,0,1
29929,-108.109488305587,4,1,0,100,0,1
30017,-108.597517184775,4,1,0,100,0,1
30105,-109.089972173555,4,1,0,100,0,1
30194,-109.592586840607,4,1,0,100,0,1
30282,-110.094128659837,4,1,0,100,0,1
30458,-111.111111111111,4,1,0,100,0,1
30635,-108.0998315725,4,1,0,100,0,1
30811,-105.263157894737,4,1,0,100,0,1
30988,-102.556653108658,4,1,0,100,0,1
31076,-101.262191623637,4,1,0,100,0,1
31164,-100,4,1,0,100,0,1
31341,-100.777577647937,4,1,0,100,0,1
31429,-101.168687982359,4,1,0,100,0,1
31517,-101.562845884801,4,1,0,100,0,1
31605,-101.960087114983,4,1,0,100,0,1
31694,-102.365015618028,4,1,0,100,0,1
31782,-102.76856912463,4,1,0,100,0,1
31870,-103.175317081947,4,1,0,100,0,1
32047,-104.003264269846,4,1,0,100,0,1
32135,-104.419864354317,4,1,0,100,0,1
32223,-104.839815364928,4,1,0,100,0,1
32311,-105.263157894737,4,1,0,100,0,1
32400,-105.694802801327,4,1,0,100,0,1
32576,-106.558900037161,4,1,0,100,0,1
32753,-107.44227436654,4,1,0,100,0,1
32841,-107.886939754503,4,1,0,100,0,1
32929,-108.335301062574,4,1,0,100,0,1
33105,-109.243297299871,4,1,0,100,0,1
33282,-110.171933531841,4,1,0,100,0,1
33458,-111.111111111111,4,1,0,100,0,1
33640,-111.111111111111,4,1,0,100,0,0
33816,-111.111111111111,4,1,0,100,0,0
33993,-125,4,1,0,100,0,0
35929,-125,4,1,0,100,0,0
36105,-121.222527472528,4,1,0,100,0,0
36194,-119.397936749535,4,1,0,100,0,0
36282,-117.647058823529,4,1,0,100,0,0
36370,-115.946789292166,4,1,0,100,0,0
36458,-114.29496519346,4,1,0,100,0,0
36547,-112.671560804341,4,1,0,100,0,0
36635,-111.111111111111,4,1,0,100,0,0
36816,-100,4,1,0,100,0,1
36988,-90.9090909090909,4,1,0,100,0,1
37076,-92.3050078520328,4,1,0,100,0,1
37164,-93.7444621655148,4,1,0,100,0,1
37253,-95.2466690673389,4,1,0,100,0,1
37341,-96.7800951335529,4,1,0,100,0,1
37429,-98.3637039791744,4,1,0,100,0,1
37522,-100,4,1,0,100,0,1
37694,-97.5542351803233,4,1,0,100,0,1
37782,-96.382252559727,4,1,0,100,0,1
37870,-95.2380952380952,4,1,0,100,0,1
37958,-94.1207838954806,4,1,0,100,0,1
38047,-93.0171277997365,4,1,0,100,0,1
38228,-100,4,1,0,100,0,1
38400,-93.0293846356569,4,1,0,100,0,1
38488,-94.1207838954806,4,1,0,100,0,1
38576,-95.2380952380952,4,1,0,100,0,1
38664,-96.382252559727,4,1,0,100,0,1
38753,-97.567716970702,4,1,0,100,0,1
38929,-100,4,1,0,100,0,1
39105,-111.111111111111,4,1,0,100,0,1
39194,-109.094658692514,4,1,0,100,0,1
39282,-107.150091148471,4,1,0,100,0,1
39458,-103.461764130647,4,1,0,100,0,1
39640,-100,4,1,0,100,0,1
39811,-90.9090909090909,4,1,0,100,0,1
39900,-92.3184114265807,4,1,0,100,0,1
39988,-93.7555280382098,4,1,0,100,0,1
40076,-95.2380952380952,4,1,0,100,0,1
40164,-96.7683038159576,4,1,0,100,0,1
40253,-98.3667409057164,4,1,0,100,0,1
40346,-100,4,1,0,100,0,1
40522,-97.5542351803233,4,1,0,100,0,1
40610,-96.382252559727,4,1,0,100,0,1
40698,-95.2380952380952,4,1,0,100,0,1
40786,-94.1207838954806,4,1,0,100,0,1
40875,-93.0171277997365,4,1,0,100,0,1
41052,-100,4,1,0,100,0,1
41228,-93.0293846356569,4,1,0,100,0,1
41316,-94.1207838954806,4,1,0,100,0,1
41404,-95.2380952380952,4,1,0,100,0,1
41492,-96.382252559727,4,1,0,100,0,1
41581,-97.567716970702,4,1,0,100,0,1
41758,-100,4,1,0,100,0,1
41929,-90.9090909090909,4,1,0,100,0,1
42017,-92.3050078520328,4,1,0,100,0,1
42105,-93.7444621655148,4,1,0,100,0,1
42282,-96.7800951335529,4,1,0,100,0,1
42370,-98.3637039791744,4,1,0,100,0,1
42458,-100,4,1,0,100,0,1
42635,-90.9090909090909,4,1,0,100,0,1
42723,-92.3050078520328,4,1,0,100,0,1
42811,-93.7444621655148,4,1,0,100,0,1
42900,-95.2466690673389,4,1,0,100,0,1
42988,-96.7800951335529,4,1,0,100,0,1
43076,-98.3637039791744,4,1,0,100,0,1
43164,-100,4,1,0,100,0,1
43346,-97.5542351803233,4,1,0,100,0,1
43434,-96.382252559727,4,1,0,100,0,1
43522,-95.2380952380952,4,1,0,100,0,1
43610,-94.1207838954806,4,1,0,100,0,1
43699,-93.0171277997365,4,1,0,100,0,1
43875,-100,4,1,0,100,0,1
44052,-93.0293846356569,4,1,0,100,0,1
44140,-94.1207838954806,4,1,0,100,0,1
44228,-95.2380952380952,4,1,0,100,0,1
44316,-96.382252559727,4,1,0,100,0,1
44405,-97.567716970702,4,1,0,100,0,1
44581,-100,4,1,0,100,0,1
44934,-111.111111111111,4,1,0,100,0,0
45110,-90.9090909090909,4,1,0,100,0,0
45287,-100,4,1,0,100,0,0
45288,-40,4,1,0,100,0,0
46699,-25,4,1,0,100,0,0
48110,-33.3333333333333,4,1,0,100,0,0
49522,-50,4,1,0,100,0,0
50581,-200,4,1,0,100,0,0
50934,-100,4,1,0,100,0,0
50935,-50,4,1,0,100,0,0
51287,-125,4,1,0,100,0,0
51400,-123.128647551383,4,1,0,100,0,0
51517,-121.327665958245,4,1,0,100,0,0
51635,-119.563878280153,4,1,0,100,0,0
51753,-117.850637522769,4,1,0,100,0,0
51870,-116.199712643678,4,1,0,100,0,0
51988,-114.580873671783,4,1,0,100,0,0
52105,-113.019680913008,4,1,0,100,0,0
52223,-111.487650775416,4,1,0,100,0,0
52341,-109.996599795988,4,1,0,100,0,0
52458,-108.557046979866,4,1,0,100,0,0
52576,-107.142857142857,4,1,0,100,0,0
52694,-105.765039232781,4,1,0,100,0,0
52811,-104.433444528139,4,1,0,100,0,0
52929,-103.124003825311,4,1,0,100,0,0
53047,-101.846993388603,4,1,0,100,0,0
53164,-100.611652498445,4,1,0,100,0,0
53282,-99.3957394510447,4,1,0,100,0,0
53400,-98.2088646023072,4,1,0,100,0,0
53517,-97.0597059705971,4,1,0,100,0,0
53635,-95.9276465355343,4,1,0,100,0,0
53753,-94.8216902784563,4,1,0,100,0,0
53870,-93.75,4,1,0,100,0,0
53988,-92.6934097421203,4,1,0,100,0,0
54105,-91.6690280532729,4,1,0,100,0,0
54223,-90.6585707613265,4,1,0,100,0,0
54341,-89.6701469093597,4,1,0,100,0,0
54458,-88.7111517367459,4,1,0,100,0,0
54576,-87.7645143787303,4,1,0,100,0,0
54694,-86.8378668575519,4,1,0,100,0,0
54811,-85.9381918002302,4,1,0,100,0,0
54929,-85.0495136272018,4,1,0,100,0,0
55047,-84.1790268019776,4,1,0,100,0,0
55164,-125,4,1,0,100,0,0
55282,-117.627457514162,4,1,0,100,0,0
55400,-111.076148521082,4,1,0,100,0,0
55517,-105.263157894737,4,1,0,100,0,0
55870,-90.9090909090909,4,1,0,100,0,0
56223,-80,4,1,0,100,0,0
56341,-76.9146965900425,4,1,0,100,0,0
56458,-74.0818467995803,4,1,0,100,0,0
56581,-100,4,1,0,100,0,1
56635,-99.1712319145947,4,1,0,100,0,1
56694,-98.3560880468097,4,1,0,100,0,1
56753,-97.5542351803233,4,1,0,100,0,1
56811,-96.7786154900617,4,1,0,100,0,1
56934,-96.7786154900617,4,1,0,100,0,0
57047,-93.7458504846634,4,1,0,100,0,0
57164,-92.3117154811715,4,1,0,100,0,0
57287,-90.9090909090909,4,1,0,100,0,1
57341,-90.5649886660108,4,1,0,100,0,1
57400,-90.2234815398709,4,1,0,100,0,1
57517,-89.5538168746035,4,1,0,100,0,1
57635,-88.8884224666275,4,1,0,100,0,1
57694,-88.5594195018925,4,1,0,100,0,1
57753,-88.2328430351265,4,1,0,100,0,1
57811,-87.9141409947687,4,1,0,100,0,1
57870,-87.5922976690314,4,1,0,100,0,1
57988,-86.955629016693,4,1,0,100,0,1
58105,-86.3334284665878,4,1,0,100,0,1
58223,-85.7148639896373,4,1,0,100,0,1
58282,-85.4088938186952,4,1,0,100,0,1
58341,-85.10510027732,4,1,0,100,0,1
58458,-84.5090096382176,4,1,0,100,0,1
58576,-83.916222482018,4,1,0,100,0,1
58694,-83.331693591232,4,1,0,100,0,1
58811,-82.7601031814274,4,1,0,100,0,1
58929,-82.1915149633195,4,1,0,100,0,1
59047,-81.6306861989206,4,1,0,100,0,1
59164,-81.08211598476,4,1,0,100,0,1
59282,-80.5362746030237,4,1,0,100,0,1
59400,-79.9977332401443,4,1,0,100,0,1
59517,-79.4708200412835,4,1,0,100,0,1
59635,-78.9463872940124,4,1,0,100,0,1
59753,-78.4288306974332,4,1,0,100,0,1
59811,-78.1769179650004,4,1,0,100,0,1
59870,-77.9223168779554,4,1,0,100,0,1
59988,-77.418057510557,4,1,0,100,0,1
60105,-76.9244741526501,4,1,0,100,0,1
60164,-76.6779525990839,4,1,0,100,0,1
60223,-76.4330060641063,4,1,0,100,0,1
60341,-75.9477780567412,4,1,0,100,0,1
60458,-75.4727068593731,4,1,0,100,0,1
60517,-75.2353881684136,4,1,0,100,0,1
60576,-74.9995572635345,4,1,0,100,0,1
60635,-74.7652001977262,4,1,0,100,0,1
60694,-74.5323031977614,4,1,0,100,0,1
60811,-74.0747218918352,4,1,0,100,0,1
60929,-73.6188853735702,4,1,0,100,0,1
60988,-73.393064485382,4,1,0,100,0,1
61047,-73.1686247408431,4,1,0,100,0,1
61164,-72.7275849633357,4,1,0,100,0,1
61282,-72.2881283605018,4,1,0,100,0,1
61341,-72.070385623362,4,1,0,100,0,1
61400,-71.8539506947861,4,1,0,100,0,1
61517,-71.4285714285714,4,1,0,100,0,1
61635,-73.1757877280265,4,1,0,100,0,1
61753,-75.0106247343816,4,1,0,100,0,1
61870,-76.9230769230769,4,1,0,100,0,1
61988,-78.9532543055245,4,1,0,100,0,1
61993,-78.9532543055245,4,1,0,100,0,0
62228,-71.4285714285714,4,1,0,100,0,1
62341,-72.4166227067581,4,1,0,100,0,1
62458,-73.423664348963,4,1,0,100,0,1
62576,-74.468085106383,4,1,0,100,0,1
62694,-75.5426475084072,4,1,0,100,0,1
62811,-76.6391663048198,4,1,0,100,0,1
62929,-77.7777777777778,4,1,0,100,0,1
63047,-78.9507316761455,4,1,0,100,0,1
63164,-80.149205319494,4,1,0,100,0,1
63282,-81.3953488372093,4,1,0,100,0,1
63400,-82.6808539115305,4,1,0,100,0,1
63517,-83.9961928071249,4,1,0,100,0,1
63635,-85.3658536585366,4,1,0,100,0,1
63694,-86.0675722744688,4,1,0,100,0,1
63753,-86.7809229472501,4,1,0,100,0,1
63870,-88.231093337142,4,1,0,100,0,1
63988,-89.7435897435897,4,1,0,100,0,1
64223,-92.9156952696097,4,1,0,100,0,1
64341,-94.5945945945946,4,1,0,100,0,1
64458,-96.3202619474546,4,1,0,100,0,1
64576,-98.1256453022,4,1,0,100,0,1
64699,-100,4,1,0,100,0,0
65052,-71.4285714285714,4,1,0,100,0,1
65164,-72.2845291135351,4,1,0,100,0,1
65282,-73.1688352081281,4,1,0,100,0,1
65399,-74.0672718686047,4,1,0,100,0,1
65517,-74.9960150895277,4,1,0,100,0,1
65635,-75.9483454398709,4,1,0,100,0,1
65753,-76.9251730339528,4,1,0,100,0,1
65870,-77.9188517802926,4,1,0,100,0,1
65988,-78.9473684210526,4,1,0,100,0,1
66105,-79.9943326721451,4,1,0,100,0,1
66223,-81.0787523694641,4,1,0,100,0,1
66341,-82.1929773481628,4,1,0,100,0,1
66458,-83.3284137198182,4,1,0,100,0,1
66576,-84.5057774052565,4,1,0,100,0,1
66694,-85.7168883220987,4,1,0,100,0,1
66811,-86.9525041581963,4,1,0,100,0,1
66929,-88.2352941176471,4,1,0,100,0,1
67047,-89.5565002220671,4,1,0,100,0,1
67164,-90.9061634572036,4,1,0,100,0,1
67282,-92.3092014910732,4,1,0,100,0,1
67400,-93.7562271670541,4,1,0,100,0,1
67517,-95.2364887659402,4,1,0,100,0,1
67576,-96.0008161599673,4,1,0,100,0,1
67640,-96.7775111415838,4,1,0,100,0,0
67875,-100,4,1,0,100,0,1
68228,-100,4,1,0,100,0,0
68341,-93.7458504846634,4,1,0,100,0,0
68458,-92.3117154811715,4,1,0,100,0,0
68581,-90.9090909090909,4,1,0,100,0,1
68635,-90.3599037526238,4,1,0,100,0,1
68694,-89.8173120960765,4,1,0,100,0,1
68811,-88.7603721398039,4,1,0,100,0,1
68929,-87.719298245614,4,1,0,100,0,1
68988,-87.2078660012846,4,1,0,100,0,1
69047,-86.7023628235987,4,1,0,100,0,1
69105,-86.2111073120695,4,1,0,100,0,1
69164,-85.7170608518284,4,1,0,100,0,1
69282,-84.7457627118644,4,1,0,100,0,1
69399,-83.8041878353355,4,1,0,100,0,1
69517,-82.8755223740433,4,1,0,100,0,1
69576,-82.4188652813448,4,1,0,100,0,1
69635,-81.9672131147541,4,1,0,100,0,1
69752,-81.0860476868654,4,1,0,100,0,1
69870,-80.2163341362541,4,1,0,100,0,1
69988,-79.3650793650794,4,1,0,100,0,1
70105,-78.5386908734926,4,1,0,100,0,1
70223,-77.7224888810604,4,1,0,100,0,1
70346,-76.9230769230769,4,1,0,100,0,1
70699,-90.9090909090909,4,1,0,100,0,1
70811,-90.0046766719102,4,1,0,100,0,1
70929,-89.1105779349244,4,1,0,100,0,1
71047,-88.2340682699121,4,1,0,100,0,1
71105,-87.8095317101497,4,1,0,100,0,1
71164,-87.3818466999628,4,1,0,100,0,1
71282,-86.5388545967379,4,1,0,100,0,1
71399,-85.7189132283273,4,1,0,100,0,1
71458,-85.3113036469877,4,1,0,100,0,1
71517,-84.9075522400032,4,1,0,100,0,1
71635,-84.1114068894275,4,1,0,100,0,1
71752,-83.3366137857733,4,1,0,100,0,1
71811,-82.9512950119509,4,1,0,100,0,1
71870,-82.5695229923164,4,1,0,100,0,1
71929,-82.1912489808596,4,1,0,100,0,1
71988,-81.8164251207729,4,1,0,100,0,1
72105,-81.0831514037305,4,1,0,100,0,1
72223,-80.3568039476181,4,1,0,100,0,1
72282,-79.9984884555795,4,1,0,100,0,1
72341,-79.6433542756104,4,1,0,100,0,1
72458,-78.948349804214,4,1,0,100,0,1
72576,-78.2595837492144,4,1,0,100,0,1
72635,-77.9196878795686,4,1,0,100,0,1
72694,-77.5827317037417,4,1,0,100,0,1
72811,-76.9230769230769,4,1,0,100,0,1
72929,-78.9532543055245,4,1,0,100,0,1
73047,-81.0934987365035,4,1,0,100,0,1
73164,-83.3333333333333,4,1,0,100,0,1
73287,-85.7212238950947,4,1,0,100,0,0
73522,-90.9090909090909,4,1,0,100,0,1
73635,-89.7403304884692,4,1,0,100,0,1
73752,-88.6107724306103,4,1,0,100,0,1
73870,-87.5,4,1,0,100,0,1
73988,-86.4167307826817,4,1,0,100,0,1
74105,-85.3688029020556,4,1,0,100,0,1
74223,-84.3373493975904,4,1,0,100,0,1
74341,-83.3305230499443,4,1,0,100,0,1
74458,-82.3556859085455,4,1,0,100,0,1
74576,-81.3953488372093,4,1,0,100,0,1
74694,-80.4571502995572,4,1,0,100,0,1
74811,-79.548015323697,4,1,0,100,0,1
74929,-78.6516853932584,4,1,0,100,0,1
74988,-78.2110527315313,4,1,0,100,0,1
75047,-77.7753297031884,4,1,0,100,0,1
75105,-77.3516982313351,4,1,0,100,0,1
75164,-76.9254716393749,4,1,0,100,0,1
75282,-76.0869565217391,4,1,0,100,0,1
75517,-74.4703294053826,4,1,0,100,0,1
75635,-73.6842105263158,4,1,0,100,0,1
75870,-72.1670560747664,4,1,0,100,0,1
75993,-71.4285714285714,4,1,0,100,0,0
76346,-90.9090909090909,4,1,0,100,0,1
76458,-89.8262522057825,4,1,0,100,0,1
76576,-88.75997585675,4,1,0,100,0,1
76693,-87.7274384383389,4,1,0,100,0,1
76811,-86.7101254627051,4,1,0,100,0,1
76929,-85.7161361354878,4,1,0,100,0,1
77047,-84.7446774451737,4,1,0,100,0,1
77164,-83.8029506743494,4,1,0,100,0,1
77282,-82.874139010645,4,1,0,100,0,1
77399,-81.9733052553343,4,1,0,100,0,1
77517,-81.0843927094501,4,1,0,100,0,1
77635,-80.2145519561199,4,1,0,100,0,1
77752,-82.4251105436881,4,1,0,100,0,1
77753,-79.3631757263215,4,1,0,100,0,1
77870,-78.5366722050795,4,1,0,100,0,1
77988,-77.7203593869282,4,1,0,100,0,1
78105,-76.927548025226,4,1,0,100,0,1
78223,-76.1441762793775,4,1,0,100,0,1
78341,-75.3765982287781,4,1,0,100,0,1
78458,-74.6306529829706,4,1,0,100,0,1
78576,-73.8931382949026,4,1,0,100,0,1
78694,-73.1700574966829,4,1,0,100,0,1
78811,-72.4669422618885,4,1,0,100,0,1
78870,-72.1174803836094,4,1,0,100,0,1
78934,-71.7713727935794,4,1,0,100,0,0
79169,-111.111111111111,4,1,0,100,0,0
79170,-50,4,1,0,100,0,0
79346,-111.111111111111,4,1,0,100,0,0
81905,-125,4,1,0,100,0,0
82164,-126.312022900763,4,1,0,100,0,0
82341,-127.659574468085,4,1,0,100,0,0
82517,-129.02832774901,4,1,0,100,0,0
82694,-130.434782608696,4,1,0,100,0,0
83223,-134.82716913871,4,1,0,100,0,0
83311,-135.586710197811,4,1,0,100,0,0
83400,-136.363636363636,4,1,0,100,0,0
83576,-137.926543370669,4,1,0,100,0,0
83753,-139.53488372093,4,1,0,100,0,0
83929,-141.171765646871,4,1,0,100,0,0
84105,-142.847507924732,4,1,0,100,0,0
84199,-111.111111111111,4,1,0,100,0,0
84375,-100,4,1,0,100,0,0
84728,-50,4,1,0,100,0,0
84816,-111.111111111111,4,1,0,100,0,0
84817,-50,4,1,0,100,0,0
84905,-111.111111111111,4,1,0,100,0,0
87258,-66.6666666666667,4,1,0,100,0,0
87640,-100,4,1,0,100,0,0
87811,-99.1758756321408,4,1,0,100,0,0
87988,-98.3606557377049,4,1,0,100,0,0
88164,-97.5632226265604,4,1,0,100,0,0
88341,-96.7741935483871,4,1,0,100,0,0
88870,-94.4902966763328,4,1,0,100,0,0
88958,-94.1207838954806,4,1,0,100,0,0
89047,-93.75,4,1,0,100,0,0
89223,-93.0252986647927,4,1,0,100,0,0
89400,-92.3076923076923,4,1,0,100,0,0
89576,-91.6050343843259,4,1,0,100,0,0
89753,-90.9090909090909,4,1,0,100,0,0
90022,-66.6666666666667,4,1,0,100,0,0
90375,-111.111111111111,4,1,0,100,0,0
90635,-112.363127069009,4,1,0,100,0,0
90811,-113.636363636364,4,1,0,100,0,0
91164,-116.279069767442,4,1,0,100,0,0
91341,-117.650979869351,4,1,0,100,0,0
91517,-119.047619047619,4,1,0,100,0,0
91870,-121.951219512195,4,1,0,100,0,0
92047,-123.461108002238,4,1,0,100,0,0
92223,-125,4,1,0,100,0,0
92400,-122.44190079778,4,1,0,100,0,0
92488,-121.208652855671,4,1,0,100,0,0
92753,-117.640524327927,4,1,0,100,0,0
92841,-116.501650165017,4,1,0,100,0,0
92929,-115.384615384615,4,1,0,100,0,0
93105,-113.213598460552,4,1,0,100,0,0
93282,-111.111111111111,4,1,0,100,0,0
93458,-112.355974282259,4,1,0,100,0,0
93635,-113.636363636364,4,1,0,100,0,0
93988,-116.279069767442,4,1,0,100,0,0
94164,-117.643138039059,4,1,0,100,0,0
94341,-119.047619047619,4,1,0,100,0,0
94694,-121.951219512195,4,1,0,100,0,0
94870,-123.452472546688,4,1,0,100,0,0
95047,-125,4,1,0,100,0,0
95223,-122.453703703704,4,1,0,100,0,0
95311,-121.21906507791,4,1,0,100,0,0
95576,-117.647058823529,4,1,0,100,0,0
95664,-116.506992621958,4,1,0,100,0,0
95753,-115.376226826609,4,1,0,100,0,0
95929,-113.20350952279,4,1,0,100,0,0
96105,-111.125110243165,4,1,0,100,0,0
96458,-106.393244873341,4,1,0,100,0,0
96811,-102.04790003471,4,1,0,100,0,0
97164,-98.0435749221876,4,1,0,100,0,0
97517,-94.3416408171997,4,1,0,100,0,0
97870,-90.9090909090909,4,1,0,100,0,0
98047,-92.3117154811715,4,1,0,100,0,0
98135,-93.0252986647927,4,1,0,100,0,0
98223,-93.75,4,1,0,100,0,0
98316,-95.2423779116827,4,1,0,100,0,0
98581,-96.7741935483871,4,1,0,100,0,0
98753,-98.3652238528701,4,1,0,100,0,0
98841,-99.1758756321408,4,1,0,100,0,0
98929,-100,4,1,0,100,0,0
99282,-102.564102564103,4,1,0,100,0,0
99635,-105.263157894737,4,1,0,100,0,0
99988,-108.108108108108,4,1,0,100,0,0
100346,-111.111111111111,4,1,0,100,0,0
100517,-110.694377669388,4,1,0,100,0,0
100605,-110.184395234478,4,1,0,100,0,0
100694,-109.481364269868,4,1,0,100,0,0
100870,-107.615184101725,4,1,0,100,0,0
100958,-106.492231001557,4,1,0,100,0,0
101047,-105.263157894737,4,1,0,100,0,0
101223,-102.664506813002,4,1,0,100,0,0
101311,-101.333847873092,4,1,0,100,0,0
101400,-100,4,1,0,100,0,0
101758,-125,4,1,0,100,0,0
102105,-107.150091148471,4,1,0,100,0,0
102282,-103.441533046539,4,1,0,100,0,0
102370,-101.691657054979,4,1,0,100,0,0
102463,-100,4,1,0,100,0,1
102546,-98.8489423723746,4,1,0,100,0,1
102634,-97.7240818739378,4,1,0,100,0,1
102722,-96.6245342295609,4,1,0,100,0,1
102810,-95.5494545191821,4,1,0,100,0,1
102899,-94.4862200153607,4,1,0,100,0,1
102987,-93.4579439252336,4,1,0,100,0,1
103163,-100,4,1,0,100,0,1
103252,-98.8381851071369,4,1,0,100,0,1
103340,-97.7156658492966,4,1,0,100,0,1
103428,-96.6183574879227,4,1,0,100,0,1
103516,-95.545420129437,4,1,0,100,0,1
103605,-94.4842585659785,4,1,0,100,0,1
103693,-93.4579439252336,4,1,0,100,0,1
103781,-92.4518079658855,4,1,0,100,0,1
103869,-91.4671046943892,4,1,0,100,0,1
103958,-90.4923192719559,4,1,0,100,0,1
104046,-89.548701628466,4,1,0,100,0,1
104134,-88.6245602278439,4,1,0,100,0,1
104222,-87.719298245614,4,1,0,100,0,1
104399,-86.9565217391304,4,1,0,100,0,1
104487,-87.717553455992,4,1,0,100,0,1
104575,-88.4920236781379,4,1,0,100,0,1
104634,-89.0189745660073,4,1,0,100,0,1
104693,-89.5522388059701,4,1,0,100,0,1
104752,-90.0919305413687,4,1,0,100,0,1
104840,-90.9090909090909,4,1,0,100,0,1
104928,-90.0919305413687,4,1,0,100,0,1
104987,-89.5522388059701,4,1,0,100,0,1
105046,-89.0189745660073,4,1,0,100,0,1
105105,-88.4920236781379,4,1,0,100,0,1
105193,-87.717553455992,4,1,0,100,0,1
105281,-86.9565217391304,4,1,0,100,0,1
105458,-86.9565217391304,4,1,0,100,0,1
105546,-87.9120879120879,4,1,0,100,0,1
105634,-88.8888888888889,4,1,0,100,0,1
105722,-89.8876404494382,4,1,0,100,0,1
105810,-90.9090909090909,4,1,0,100,0,1
105987,-95.2380952380952,4,1,0,100,0,1
106075,-94.4902966763328,4,1,0,100,0,1
106163,-93.7541498826967,4,1,0,100,0,1
106252,-93.021213052835,4,1,0,100,0,1
106340,-92.3076923076923,4,1,0,100,0,1
106428,-91.6050343843259,4,1,0,100,0,1
106516,-90.912993089239,4,1,0,100,0,1
106605,-90.223642172524,4,1,0,100,0,1
106693,-89.5522388059701,4,1,0,100,0,1
106781,-88.8907541864272,4,1,0,100,0,1
106869,-88.2389701287339,4,1,0,100,0,1
106958,-87.5894297175468,4,1,0,100,0,1
107046,-86.9565217391304,4,1,0,100,0,1
107222,-86.9565217391304,4,1,0,100,0,1
107310,-85.1115129596142,4,1,0,100,0,1
107405,-83.3234981706597,4,1,0,100,0,0
107458,-82.1790245605867,4,1,0,100,0,0
107516,-81.0841851383944,4,1,0,100,0,0
107575,-80,4,1,0,100,0,0
107928,-97.0873786407767,4,1,0,100,0,0
108016,-95.4699121027721,4,1,0,100,0,0
108110,-93.8879727645087,4,1,0,100,0,1
108193,-92.3745224263359,4,1,0,100,0,1
108281,-90.9090909090909,4,1,0,100,0,1
108369,-89.4894285859149,4,1,0,100,0,1
108458,-88.0980308967032,4,1,0,100,0,1
108546,-86.7641636966941,4,1,0,100,0,1
108634,-85.4700854700855,4,1,0,100,0,1
108810,-97.0873786407767,4,1,0,100,0,1
108899,-95.4518414363745,4,1,0,100,0,1
108987,-93.8879727645087,4,1,0,100,0,1
109075,-92.3745224263359,4,1,0,100,0,1
109163,-90.9090909090909,4,1,0,100,0,1
109252,-89.4735508072897,4,1,0,100,0,1
109340,-88.0980308967032,4,1,0,100,0,1
109428,-86.7641636966941,4,1,0,100,0,1
109516,-85.4700854700855,4,1,0,100,0,1
109605,-84.1999809178513,4,1,0,100,0,1
109693,-82.9807240244476,4,1,0,100,0,1
109781,-81.7962739827602,4,1,0,100,0,1
109869,-80.6451612903226,4,1,0,100,0,1
110046,-80.6451612903226,4,1,0,100,0,1
110134,-81.9672131147541,4,1,0,100,0,1
110222,-83.3333333333333,4,1,0,100,0,1
110399,-100,4,1,0,100,0,1
110487,-99.0121239335429,4,1,0,100,0,1
110575,-98.0435749221876,4,1,0,100,0,1
110663,-97.0937912813738,4,1,0,100,0,1
110752,-96.1517497002071,4,1,0,100,0,1
110840,-95.2380952380952,4,1,0,100,0,1
110928,-94.3416408171997,4,1,0,100,0,1
111016,-93.4619052665042,4,1,0,100,0,1
111105,-92.5887045979425,4,1,0,100,0,1
111193,-91.7412107343457,4,1,0,100,0,1
111281,-90.9090909090909,4,1,0,100,0,1
111458,-100,4,1,0,100,0,1
111546,-103.626943005181,4,1,0,100,0,1
111640,-107.52688172043,4,1,0,100,0,0
111810,-110.643947776057,4,1,0,100,0,0
111987,-108.982772786261,4,1,0,100,0,0
112163,-107.379714303934,4,1,0,100,0,0
112252,-106.58689781421,4,1,0,100,0,0
112340,-105.814416580742,4,1,0,100,0,0
112428,-105.053051791155,4,1,0,100,0,0
112516,-104.302565201761,4,1,0,100,0,0
112693,-102.82507740582,4,1,0,100,0,0
112869,-101.396864868004,4,1,0,100,0,0
113046,-100,4,1,0,100,0,0
113399,-111.111111111111,4,1,0,100,0,0
113575,-100,4,1,0,100,0,0
113663,-99.3293942674016,4,1,0,100,0,0
113758,-98.6607439200153,4,1,0,100,0,1
113840,-98.0093537631746,4,1,0,100,0,1
113928,-97.3679130941384,4,1,0,100,0,1
114016,-96.7366590612558,4,1,0,100,0,1
114105,-96.1088160195213,4,1,0,100,0,1
114193,-95.498696029256,4,1,0,100,0,1
114281,-94.8993697444645,4,1,0,100,0,1
114369,-94.3110059562957,4,1,0,100,0,1
114458,-93.727263247611,4,1,0,100,0,1
114546,-93.1614002427257,4,1,0,100,0,1
114634,-92.6069205573636,4,1,0,100,0,1
114722,-92.0639374710059,4,1,0,100,0,1
114810,-91.5325523101386,4,1,0,100,0,1
114899,-91.007016993253,4,1,0,100,0,1
114987,-90.4992215431572,4,1,0,100,0,1
115075,-90.0032640579507,4,1,0,100,0,1
115163,-89.5192048851123,4,1,0,100,0,1
115340,-88.5818210222668,4,1,0,100,0,1
115428,-88.1338728939091,4,1,0,100,0,1
115516,-87.6979848351371,4,1,0,100,0,1
115605,-87.2694335590529,4,1,0,100,0,1
115693,-86.8578669541113,4,1,0,100,0,1
115781,-86.4584131868747,4,1,0,100,0,1
115869,-86.0710794884968,4,1,0,100,0,1
115928,-85.8181784652137,4,1,0,100,0,1
115987,-85.5707267530727,4,1,0,100,0,1
116046,-85.328723470235,4,1,0,100,0,1
116134,-84.9778895177665,4,1,0,100,0,1
116222,-84.639165009963,4,1,0,100,0,1
116281,-84.4188415483776,4,1,0,100,0,1
116340,-84.2039529158375,4,1,0,100,0,1
116399,-83.9944948741411,4,1,0,100,0,1
116487,-83.6921632645323,4,1,0,100,0,1
116575,-83.4018855893739,4,1,0,100,0,1
116752,-82.8544613473642,4,1,0,100,0,1
116840,-82.6003673904274,4,1,0,100,0,1
116928,-82.3582478201478,4,1,0,100,0,1
117016,-82.1280810789676,4,1,0,100,0,1
117105,-81.9074339035596,4,1,0,100,0,1
117193,-81.7012426354127,4,1,0,100,0,1
117281,-81.5069386953804,4,1,0,100,0,1
117457,-81.1539080753253,4,1,0,100,0,1
117546,-80.9934041498708,4,1,0,100,0,1
117634,-80.8465763071388,4,1,0,100,0,1
117722,-80.7115355784417,4,1,0,100,0,1
117810,-80.5882646072184,4,1,0,100,0,1
117899,-80.4755474300572,4,1,0,100,0,1
117987,-80.3759019330771,4,1,0,100,0,1
118075,-80.2879812843831,4,1,0,100,0,1
118163,-80.2117733052505,4,1,0,100,0,1
118252,-80.1466014855037,4,1,0,100,0,1
118340,-80.0939211299705,4,1,0,100,0,1
118428,-80.0529259583065,4,1,0,100,0,1
118516,-80.0236100581272,4,1,0,100,0,1
118605,-80.0058357919603,4,1,0,100,0,1
118699,-80,4,1,0,100,0,0
119046,-90.9090909090909,4,1,0,100,0,0
119222,-83.3333333333333,4,1,0,100,0,0
119310,-81.6420664206642,4,1,0,100,0,0
119405,-80,4,1,0,100,0,1
119575,-78.7671458999115,4,1,0,100,0,1
119663,-78.1671518673543,4,1,0,100,0,1
119752,-77.5723210302593,4,1,0,100,0,1
119840,-76.9965827185627,4,1,0,100,0,1
119928,-76.4336972901931,4,1,0,100,0,1
120016,-75.8841339454175,4,1,0,100,0,1
120105,-75.3423132097539,4,1,0,100,0,1
120281,-74.3137963055651,4,1,0,100,0,1
120369,-73.8216079809095,4,1,0,100,0,1
120457,-73.3445288131735,4,1,0,100,0,1
120546,-72.8776608416382,4,1,0,100,0,1
120634,-72.4317297295937,4,1,0,100,0,1
120722,-72.0016085837237,4,1,0,100,0,1
120810,-71.5874806794033,4,1,0,100,0,1
120899,-71.1850788086128,4,1,0,100,0,1
120987,-70.8035890968797,4,1,0,100,0,1
121075,-70.4385220853419,4,1,0,100,0,1
121163,-70.0899854615437,4,1,0,100,0,1
121252,-69.7543962528549,4,1,0,100,0,1
121340,-69.439376102579,4,1,0,100,0,1
121428,-69.1411273059591,4,1,0,100,0,1
121516,-68.8597068257406,4,1,0,100,0,1
121693,-68.3448161267562,4,1,0,100,0,1
121781,-68.1143266199702,4,1,0,100,0,1
121869,-67.9008103685775,4,1,0,100,0,1
121957,-67.7042877389164,4,1,0,100,0,1
122046,-67.5228324258102,4,1,0,100,0,1
122134,-67.3605341990691,4,1,0,100,0,1
122222,-67.2152664333417,4,1,0,100,0,1
122399,-66.9746801311209,4,1,0,100,0,1
122487,-66.8807280957576,4,1,0,100,0,1
122575,-66.8038218544261,4,1,0,100,0,1
122663,-66.7439623657881,4,1,0,100,0,1
122752,-66.7007615492926,4,1,0,100,0,1
122840,-66.6751903885775,4,1,0,100,0,1
122934,-66.6666666666667,4,1,0,100,0,0
122935,-50,4,1,0,100,0,0
123285,-90.9090909090909,4,1,0,100,0,0
123457,-93.7583001328021,4,1,0,100,0,0
123545,-95.2423779116827,4,1,0,100,0,0
123633,-96.7741935483871,4,1,0,100,0,0
123722,-98.3743613562471,4,1,0,100,0,0
123810,-100.009443762395,4,1,0,100,0,0
124346,-111.111111111111,4,1,0,100,0,1
130346,-111.111111111111,4,1,0,100,0,0
131315,-40,4,1,0,100,0,0
131403,-111.111111111111,4,1,0,100,0,0

[HitObjects]
448,320,5405,5,12,0:0:0:0:
136,214,5758,1,0,0:0:0:0:
140,217,5934,1,8,0:0:0:0:
138,219,6022,1,0,0:0:0:0:
141,217,6199,1,8,0:0:0:0:
138,218,6287,1,0,0:0:0:0:
145,206,6463,1,8,0:0:0:0:
141,217,6552,1,0,0:0:0:0:
138,219,6816,1,8,0:0:0:0:
163,166,6993,1,0,0:0:0:0:
163,166,7169,1,0,0:0:0:0:
200,126,7258,1,0,0:0:0:0:
166,177,7346,1,8,0:0:0:0:
152,191,7434,1,0,0:0:0:0:
204,158,7610,1,0,0:0:0:0:
155,194,7699,1,8,0:0:0:0:
204,158,7787,1,0,0:0:0:0:
188,105,7875,1,0,0:0:0:0:
159,200,7963,1,8,0:0:0:0:
274,126,8228,1,0,0:0:0:0:
268,126,8287,1,0,0:0:0:0:
448,64,8346,1,8,0:0:0:0:
64,64,8405,1,0,0:0:0:0:
181,95,8581,1,0,0:0:0:0:
194,91,8669,1,0,0:0:0:0:
183,95,8758,1,8,0:0:0:0:
181,95,8846,1,0,0:0:0:0:
179,72,8934,1,0,0:0:0:0:
179,72,9022,1,8,0:0:0:0:
167,55,9110,1,0,0:0:0:0:
166,92,9287,1,0,0:0:0:0:
185,73,9375,1,8,0:0:0:0:
162,109,9463,1,0,0:0:0:0:
184,66,9552,1,0,0:0:0:0:
208,89,9640,1,8,0:0:0:0:
196,96,9816,1,8,0:0:0:0:
186,89,9993,1,0,0:0:0:0:
163,161,10169,1,8,0:0:0:0:
163,161,10258,1,0,0:0:0:0:
161,115,10346,1,0,0:0:0:0:
161,115,10434,1,8,0:0:0:0:
161,115,10522,1,0,0:0:0:0:
189,167,10610,1,0,0:0:0:0:
200,95,10699,1,0,0:0:0:0:
205,82,10787,1,8,0:0:0:0:
188,122,11052,1,0,0:0:0:0:
181,157,11406,1,12,0:0:0:0:
154,197,12110,1,8,0:0:0:0:
190,153,12640,1,0,0:0:0:0:
160,191,12816,1,8,0:0:0:0:
175,146,12993,1,0,0:0:0:0:
177,146,13169,1,0,0:0:0:0:
175,146,13522,1,8,0:0:0:0:
175,157,13875,1,0,0:0:0:0:
189,166,14052,1,8,0:0:0:0:
177,156,14228,1,8,0:0:0:0:
178,202,14581,1,0,0:0:0:0:
178,202,14934,1,8,0:0:0:0:
164,219,15463,1,0,0:0:0:0:
164,219,15640,1,8,0:0:0:0:
164,188,15816,1,0,0:0:0:0:
160,198,15905,1,0,0:0:0:0:
164,188,16081,1,8,0:0:0:0:
160,198,16169,1,0,0:0:0:0:
160,198,16346,1,8,0:0:0:0:
170,197,16434,1,8,0:0:0:0:
170,197,16610,1,0,0:0:0:0:
170,197,16699,1,8,0:0:0:0:
166,160,16875,1,0,0:0:0:0:
161,158,17052,1,8,0:0:0:0:
210,107,17228,1,0,0:0:0:0:
155,117,17316,1,8,0:0:0:0:
152,123,17405,1,8,0:0:0:0:
203,113,17581,1,0,0:0:0:0:
199,80,17669,1,0,0:0:0:0:
201,113,17758,1,8,0:0:0:0:
206,119,17934,1,0,0:0:0:0:
203,119,18022,1,8,0:0:0:0:
206,118,18110,1,8,0:0:0:0:
185,78,18287,1,0,0:0:0:0:
185,78,18463,1,8,0:0:0:0:
174,84,18640,1,0,0:0:0:0:
170,98,18728,1,8,0:0:0:0:
169,82,18816,1,8,0:0:0:0:
199,53,18905,1,0,0:0:0:0:
195,54,18993,1,8,0:0:0:0:
179,100,19169,1,0,0:0:0:0:
177,100,19258,1,8,0:0:0:0:
224,65,19346,1,0,0:0:0:0:
173,97,19434,1,8,0:0:0:0:
166,102,19522,1,8,0:0:0:0:
208,128,19699,1,0,0:0:0:0:
204,126,19875,1,8,0:0:0:0:
210,137,20052,1,0,0:0:0:0:
219,55,20140,1,8,0:0:0:0:
210,137,20228,1,8,0:0:0:0:
216,115,20405,1,0,0:0:0:0:
211,111,20493,1,0,0:0:0:0:
216,113,20581,1,8,0:0:0:0:
194,69,20758,1,0,0:0:0:0:
185,59,20846,1,8,0:0:0:0:
194,69,20934,1,8,0:0:0:0:
174,102,21110,1,0,0:0:0:0:
161,104,21287,1,8,0:0:0:0:
185,141,21463,1,0,0:0:0:0:
185,141,21552,1,8,0:0:0:0:
174,143,21640,1,0,0:0:0:0:
174,84,21728,1,0,0:0:0:0:
172,88,21816,1,8,0:0:0:0:
203,100,21993,1,0,0:0:0:0:
203,100,22081,1,8,0:0:0:0:
164,31,22169,1,0,0:0:0:0:
199,94,22258,1,0,0:0:0:0:
234,140,22700,1,4,0:0:0:0:
210,191,23052,1,8,0:0:0:0:
206,183,23110,1,8,0:0:0:0:
170,171,23405,1,0,0:0:0:0:
175,173,23463,1,0,0:0:0:0:
177,177,23758,1,8,0:0:0:0:
175,176,23816,1,8,0:0:0:0:
189,82,23934,1,0,0:0:0:0:
189,82,23993,1,0,0:0:0:0:
165,79,24110,1,0,0:0:0:0:
160,78,24169,1,0,0:0:0:0:
168,77,24463,1,8,0:0:0:0:
163,82,24522,1,8,0:0:0:0:
181,104,24816,1,12,0:0:0:0:
170,162,24993,1,0,0:0:0:0:
170,162,25169,1,0,0:0:0:0:
113,220,25346,1,8,0:0:0:0:
113,220,25434,1,8,0:0:0:0:
123,215,25522,1,0,0:0:0:0:
159,168,25699,1,8,0:0:0:0:
165,167,25787,1,8,0:0:0:0:
161,168,25875,1,0,0:0:0:0:
174,121,25963,1,8,0:0:0:0:
178,119,26052,1,0,0:0:0:0:
174,121,26140,1,0,0:0:0:0:
175,117,26228,1,8,0:0:0:0:
183,110,26405,1,0,0:0:0:0:
187,92,26493,1,0,0:0:0:0:
181,92,26581,1,0,0:0:0:0:
183,149,26669,1,8,0:0:0:0:
161,131,26758,1,8,0:0:0:0:
160,133,26934,1,8,0:0:0:0:
162,90,27110,1,0,0:0:0:0:
162,90,27199,1,0,0:0:0:0:
163,84,27287,1,0,0:0:0:0:
203,80,27375,1,0,0:0:0:0:
197,130,27463,1,8,0:0:0:0:
185,130,27640,1,8,0:0:0:0:
179,108,27816,1,0,0:0:0:0:
179,108,27993,1,8,0:0:0:0:
181,131,28169,1,8,0:0:0:0:
179,126,28346,1,0,0:0:0:0:
157,143,28522,1,8,0:0:0:0:
160,149,28610,1,0,0:0:0:0:
175,168,28787,1,0,0:0:0:0:
179,168,28875,1,0,0:0:0:0:
177,171,29052,1,8,0:0:0:0:
158,88,29228,1,0,0:0:0:0:
163,100,29316,1,0,0:0:0:0:
161,91,29493,1,0,0:0:0:0:
172,69,29581,1,8,0:0:0:0:
190,111,29758,1,8,0:0:0:0:
190,111,29934,1,0,0:0:0:0:
160,104,30022,1,0,0:0:0:0:
164,94,30110,1,0,0:0:0:0:
174,88,30199,1,8,0:0:0:0:
193,102,30287,1,0,0:0:0:0:
175,100,30463,1,8,0:0:0:0:
206,107,30640,1,0,0:0:0:0:
205,107,30816,1,8,0:0:0:0:
156,107,30993,1,8,0:0:0:0:
167,94,31081,1,8,0:0:0:0:
156,107,31169,1,0,0:0:0:0:
174,113,31346,1,0,0:0:0:0:
163,121,31434,1,8,0:0:0:0:
160,126,31522,1,0,0:0:0:0:
173,113,31610,1,0,0:0:0:0:
162,127,31699,1,8,0:0:0:0:
170,115,31787,1,8,0:0:0:0:
168,115,31875,1,8,0:0:0:0:
170,67,32052,1,0,0:0:0:0:
169,80,32140,1,8,0:0:0:0:
170,67,32228,1,0,0:0:0:0:
170,80,32316,1,0,0:0:0:0:
168,82,32405,1,8,0:0:0:0:
158,111,32581,1,8,0:0:0:0:
157,111,32758,1,0,0:0:0:0:
159,99,32846,1,8,0:0:0:0:
158,111,32934,1,0,0:0:0:0:
172,140,33110,1,8,0:0:0:0:
172,140,33287,1,8,0:0:0:0:
154,146,33463,1,0,0:0:0:0:
165,169,33816,1,8,0:0:0:0:
165,169,33993,1,0,0:0:0:0:
192,191,34258,1,0,0:0:0:0:
192,191,34522,1,8,0:0:0:0:
192,191,34610,1,8,0:0:0:0:
192,191,34699,1,0,0:0:0:0:
197,106,34963,1,0,0:0:0:0:
193,107,35228,1,0,0:0:0:0:
197,106,35405,1,8,0:0:0:0:
191,146,35669,1,8,0:0:0:0:
191,146,35934,1,0,0:0:0:0:
191,146,36110,1,8,0:0:0:0:
165,137,36199,1,8,0:0:0:0:
165,137,36287,1,0,0:0:0:0:
162,111,36375,1,0,0:0:0:0:
162,111,36463,1,8,0:0:0:0:
158,106,36552,1,0,0:0:0:0:
157,105,36640,1,8,0:0:0:0:
165,173,36816,1,0,0:0:0:0:
160,180,36993,1,0,0:0:0:0:
179,89,37081,1,8,0:0:0:0:
156,115,37169,1,8,0:0:0:0:
160,122,37258,1,0,0:0:0:0:
157,111,37346,1,8,0:0:0:0:
160,122,37434,1,0,0:0:0:0:
157,112,37522,1,0,0:0:0:0:
177,73,37699,1,0,0:0:0:0:
193,101,37787,1,0,0:0:0:0:
176,73,37875,1,8,0:0:0:0:
179,63,37963,1,8,0:0:0:0:
194,98,38052,1,0,0:0:0:0:
177,73,38228,1,8,0:0:0:0:
167,120,38405,1,0,0:0:0:0:
167,120,38493,1,8,0:0:0:0:
171,109,38581,1,8,0:0:0:0:
167,120,38669,1,0,0:0:0:0:
160,91,38758,1,0,0:0:0:0:
172,126,38934,1,8,0:0:0:0:
170,124,39110,1,0,0:0:0:0:
172,124,39199,1,0,0:0:0:0:
170,124,39287,1,8,0:0:0:0:
190,160,39463,1,8,0:0:0:0:
165,173,39640,1,0,0:0:0:0:
160,180,39816,1,0,0:0:0:0:
179,89,39905,1,0,0:0:0:0:
156,115,39993,1,8,0:0:0:0:
160,122,40081,1,0,0:0:0:0:
157,111,40169,1,8,0:0:0:0:
160,122,40258,1,8,0:0:0:0:
157,112,40346,1,0,0:0:0:0:
177,73,40522,1,8,0:0:0:0:
193,101,40610,1,0,0:0:0:0:
176,73,40699,1,8,0:0:0:0:
179,63,40787,1,8,0:0:0:0:
194,98,40875,1,0,0:0:0:0:
177,73,41052,1,8,0:0:0:0:
167,120,41228,1,0,0:0:0:0:
167,120,41316,1,8,0:0:0:0:
171,109,41405,1,8,0:0:0:0:
167,120,41493,1,0,0:0:0:0:
160,91,41581,1,8,0:0:0:0:
172,126,41758,1,0,0:0:0:0:
170,124,41934,1,8,0:0:0:0:
172,124,42022,1,0,0:0:0:0:
170,124,42110,1,8,0:0:0:0:
190,160,42287,1,8,0:0:0:0:
190,164,42375,1,8,0:0:0:0:
183,168,42463,1,0,0:0:0:0:
152,117,42640,1,0,0:0:0:0:
152,117,42728,1,8,0:0:0:0:
162,111,42816,1,0,0:0:0:0:
147,117,42905,1,8,0:0:0:0:
143,117,42993,1,8,0:0:0:0:
141,118,43081,1,0,0:0:0:0:
185,80,43169,1,0,0:0:0:0:
194,88,43346,1,0,0:0:0:0:
193,88,43434,1,8,0:0:0:0:
193,88,43522,1,8,0:0:0:0:
172,73,43610,1,0,0:0:0:0:
175,61,43699,1,8,0:0:0:0:
175,95,43875,1,0,0:0:0:0:
170,97,44052,1,8,0:0:0:0:
173,102,44140,1,0,0:0:0:0:
170,97,44228,1,8,0:0:0:0:
172,102,44316,1,8,0:0:0:0:
174,102,44405,1,0,0:0:0:0:
208,92,44581,1,8,0:0:0:0:
205,95,44758,1,0,0:0:0:0:
181,119,44934,1,8,0:0:0:0:
198,86,45022,1,8,0:0:0:0:
199,83,45110,1,0,0:0:0:0:
186,75,45199,1,0,0:0:0:0:
202,83,45288,1,12,0:0:0:0:
173,126,50581,5,8,0:0:0:0:
198,184,50935,5,12,0:0:0:0:
179,215,51287,1,8,0:0:0:0:
179,215,51405,1,8,0:0:0:0:
179,215,51522,1,0,0:0:0:0:
173,213,51640,1,8,0:0:0:0:
167,168,51758,1,0,0:0:0:0:
167,168,51875,1,0,0:0:0:0:
167,168,51993,1,8,0:0:0:0:
167,168,52110,1,0,0:0:0:0:
167,168,52228,1,8,0:0:0:0:
165,171,52346,1,8,0:0:0:0:
165,171,52463,1,0,0:0:0:0:
163,172,52581,1,0,0:0:0:0:
172,120,52699,1,8,0:0:0:0:
172,120,52816,1,0,0:0:0:0:
172,120,52934,1,0,0:0:0:0:
205,85,53052,1,8,0:0:0:0:
188,119,53169,1,8,0:0:0:0:
190,119,53287,1,0,0:0:0:0:
208,73,53405,1,8,0:0:0:0:
208,73,53522,1,0,0:0:0:0:
210,73,53640,1,8,0:0:0:0:
210,73,53758,1,8,0:0:0:0:
205,85,53875,1,0,0:0:0:0:
208,86,53993,1,0,0:0:0:0:
209,88,54110,1,8,0:0:0:0:
190,102,54228,1,0,0:0:0:0:
190,102,54346,1,0,0:0:0:0:
190,102,54463,1,8,0:0:0:0:
179,138,54581,1,0,0:0:0:0:
183,131,54699,1,0,0:0:0:0:
179,138,54816,1,8,0:0:0:0:
192,154,54934,1,8,0:0:0:0:
192,154,55052,1,8,0:0:0:0:
181,65,55169,1,0,0:0:0:0:
188,142,55287,1,0,0:0:0:0:
185,138,55405,1,0,0:0:0:0:
205,102,55522,1,8,0:0:0:0:
188,148,55875,1,8,0:0:0:0:
188,149,56228,1,8,0:0:0:0:
188,157,56346,1,8,0:0:0:0:
186,157,56463,1,8,0:0:0:0:
174,169,56581,1,0,0:0:0:0:
170,159,56640,1,0,0:0:0:0:
178,169,56699,1,0,0:0:0:0:
178,169,56758,1,0,0:0:0:0:
173,159,56816,1,8,0:0:0:0:
152,135,57052,1,0,0:0:0:0:
152,135,57169,1,0,0:0:0:0:
152,135,57287,1,8,0:0:0:0:
157,115,57346,1,8,0:0:0:0:
157,115,57405,1,0,0:0:0:0:
157,115,57522,1,0,0:0:0:0:
157,130,57640,1,8,0:0:0:0:
156,140,57699,1,8,0:0:0:0:
152,135,57758,1,8,0:0:0:0:
214,151,57816,1,8,0:0:0:0:
152,135,57875,1,0,0:0:0:0:
157,86,57993,1,8,0:0:0:0:
160,89,58110,1,0,0:0:0:0:
160,89,58228,1,0,0:0:0:0:
157,86,58287,1,0,0:0:0:0:
159,91,58346,1,8,0:0:0:0:
237,181,58463,1,0,0:0:0:0:
226,178,58581,1,0,0:0:0:0:
228,178,58699,1,8,0:0:0:0:
177,87,58816,1,0,0:0:0:0:
177,87,58934,1,8,0:0:0:0:
177,86,59052,1,8,0:0:0:0:
164,118,59169,1,0,0:0:0:0:
164,118,59287,1,0,0:0:0:0:
165,122,59405,1,8,0:0:0:0:
240,220,59522,1,0,0:0:0:0:
240,220,59640,1,0,0:0:0:0:
240,220,59758,1,8,0:0:0:0:
223,93,59816,1,0,0:0:0:0:
151,144,59875,1,0,0:0:0:0:
151,144,59993,1,0,0:0:0:0:
151,144,60110,1,8,0:0:0:0:
219,88,60169,1,8,0:0:0:0:
165,164,60228,1,0,0:0:0:0:
165,164,60346,1,0,0:0:0:0:
165,164,60463,1,8,0:0:0:0:
196,94,60522,1,8,0:0:0:0:
226,127,60581,1,8,0:0:0:0:
195,133,60640,1,8,0:0:0:0:
222,126,60699,1,0,0:0:0:0:
217,125,60816,1,8,0:0:0:0:
199,98,60934,1,8,0:0:0:0:
183,70,60993,1,8,0:0:0:0:
198,101,61052,1,0,0:0:0:0:
196,104,61169,1,8,0:0:0:0:
175,88,61287,1,8,0:0:0:0:
175,88,61346,1,8,0:0:0:0:
175,148,61405,1,0,0:0:0:0:
154,169,61522,1,8,0:0:0:0:
154,169,61640,1,8,0:0:0:0:
162,163,61758,1,0,0:0:0:0:
163,164,61875,1,0,0:0:0:0:
179,141,61993,1,8,0:0:0:0:
179,229,62228,1,8,0:0:0:0:
179,229,62346,1,0,0:0:0:0:
179,229,62463,1,0,0:0:0:0:
179,164,62581,1,8,0:0:0:0:
179,164,62699,1,0,0:0:0:0:
179,166,62816,1,8,0:0:0:0:
179,164,62934,1,8,0:0:0:0:
191,140,63052,1,0,0:0:0:0:
191,140,63169,1,0,0:0:0:0:
190,148,63287,1,8,0:0:0:0:
171,109,63405,1,8,0:0:0:0:
177,64,63522,1,0,0:0:0:0:
171,109,63640,1,8,0:0:0:0:
169,82,63699,1,8,0:0:0:0:
174,146,63758,1,8,0:0:0:0:
175,149,63875,1,0,0:0:0:0:
174,151,63993,1,8,0:0:0:0:
160,117,64228,1,0,0:0:0:0:
156,160,64346,1,8,0:0:0:0:
151,162,64463,1,0,0:0:0:0:
151,162,64581,1,0,0:0:0:0:
151,162,64699,1,8,0:0:0:0:
169,172,65052,1,8,0:0:0:0:
164,170,65169,1,0,0:0:0:0:
165,170,65287,1,0,0:0:0:0:
164,169,65405,1,8,0:0:0:0:
181,114,65522,1,0,0:0:0:0:
148,122,65640,1,8,0:0:0:0:
155,125,65758,1,8,0:0:0:0:
179,90,65875,1,0,0:0:0:0:
172,93,65993,1,8,0:0:0:0:
156,95,66110,1,8,0:0:0:0:
176,120,66228,1,0,0:0:0:0:
175,120,66346,1,0,0:0:0:0:
176,120,66463,1,8,0:0:0:0:
171,142,66581,1,8,0:0:0:0:
168,138,66699,1,0,0:0:0:0:
172,138,66816,1,8,0:0:0:0:
174,139,66934,1,8,0:0:0:0:
176,97,67052,1,0,0:0:0:0:
172,102,67169,1,8,0:0:0:0:
161,124,67287,1,0,0:0:0:0:
158,124,67405,1,0,0:0:0:0:
158,124,67522,1,8,0:0:0:0:
137,104,67581,1,8,0:0:0:0:
141,106,67640,1,0,0:0:0:0:
189,155,67875,1,4,0:0:0:0:
152,135,68346,1,0,0:0:0:0:
152,135,68463,1,8,0:0:0:0:
152,135,68581,1,8,0:0:0:0:
157,115,68640,1,8,0:0:0:0:
157,115,68699,1,0,0:0:0:0:
157,115,68816,1,0,0:0:0:0:
157,130,68934,1,8,0:0:0:0:
156,140,68993,1,8,0:0:0:0:
152,135,69052,1,0,0:0:0:0:
214,151,69110,1,0,0:0:0:0:
152,135,69169,1,8,0:0:0:0:
157,86,69287,1,8,0:0:0:0:
160,89,69405,1,0,0:0:0:0:
160,89,69522,1,8,0:0:0:0:
157,86,69581,1,0,0:0:0:0:
159,91,69640,1,8,0:0:0:0:
237,181,69758,1,0,0:0:0:0:
226,178,69875,1,8,0:0:0:0:
228,178,69993,1,8,0:0:0:0:
177,87,70110,1,0,0:0:0:0:
177,87,70228,1,0,0:0:0:0:
177,86,70346,1,8,0:0:0:0:
165,122,70699,1,8,0:0:0:0:
240,220,70816,1,0,0:0:0:0:
240,220,70934,1,8,0:0:0:0:
240,220,71052,1,8,0:0:0:0:
223,93,71110,1,0,0:0:0:0:
151,144,71169,1,0,0:0:0:0:
151,144,71287,1,8,0:0:0:0:
151,144,71405,1,8,0:0:0:0:
219,88,71463,1,8,0:0:0:0:
165,164,71522,1,0,0:0:0:0:
165,164,71640,1,0,0:0:0:0:
165,164,71758,1,8,0:0:0:0:
196,94,71816,1,8,0:0:0:0:
226,127,71875,1,0,0:0:0:0:
195,133,71934,1,0,0:0:0:0:
222,126,71993,1,8,0:0:0:0:
217,125,72110,1,8,0:0:0:0:
199,98,72228,1,8,0:0:0:0:
183,70,72287,1,8,0:0:0:0:
198,101,72346,1,0,0:0:0:0:
196,104,72463,1,8,0:0:0:0:
175,88,72581,1,8,0:0:0:0:
175,88,72640,1,8,0:0:0:0:
175,148,72699,1,0,0:0:0:0:
154,169,72816,1,8,0:0:0:0:
154,169,72934,1,8,0:0:0:0:
162,163,73052,1,0,0:0:0:0:
163,164,73169,1,0,0:0:0:0:
179,141,73287,1,8,0:0:0:0:
179,229,73522,1,8,0:0:0:0:
179,229,73640,1,0,0:0:0:0:
179,229,73758,1,8,0:0:0:0:
179,164,73875,1,8,0:0:0:0:
179,164,73993,1,0,0:0:0:0:
179,166,74110,1,8,0:0:0:0:
179,164,74228,1,8,0:0:0:0:
191,140,74346,1,0,0:0:0:0:
191,140,74463,1,0,0:0:0:0:
190,148,74581,1,8,0:0:0:0:
171,109,74699,1,8,0:0:0:0:
177,64,74816,1,0,0:0:0:0:
171,109,74934,1,8,0:0:0:0:
169,82,74993,1,0,0:0:0:0:
174,146,75052,1,8,0:0:0:0:
178,79,75110,1,8,0:0:0:0:
175,149,75169,1,0,0:0:0:0:
174,151,75287,1,8,0:0:0:0:
160,117,75522,1,0,0:0:0:0:
156,160,75640,1,8,0:0:0:0:
151,162,75875,1,0,0:0:0:0:
151,162,75993,1,12,0:0:0:0:
169,172,76346,1,8,0:0:0:0:
164,170,76463,1,0,0:0:0:0:
165,170,76581,1,8,0:0:0:0:
164,169,76699,1,8,0:0:0:0:
181,114,76816,1,0,0:0:0:0:
148,122,76934,1,8,0:0:0:0:
155,125,77052,1,8,0:0:0:0:
179,90,77169,1,0,0:0:0:0:
172,93,77287,1,8,0:0:0:0:
156,95,77405,1,8,0:0:0:0:
176,120,77522,1,0,0:0:0:0:
175,120,77640,1,0,0:0:0:0:
176,120,77758,1,8,0:0:0:0:
171,142,77875,1,8,0:0:0:0:
168,138,77993,1,0,0:0:0:0:
172,138,78110,1,8,0:0:0:0:
174,139,78228,1,8,0:0:0:0:
176,97,78346,1,0,0:0:0:0:
172,102,78463,1,8,0:0:0:0:
161,124,78581,1,8,0:0:0:0:
158,124,78699,1,0,0:0:0:0:
158,124,78816,1,8,0:0:0:0:
137,104,78875,1,8,0:0:0:0:
141,106,78934,1,8,0:0:0:0:
189,155,79170,1,4,0:0:0:0:
64,64,79522,1,0,0:0:0:0:
250,178,79699,1,0,0:0:0:0:
246,173,79875,1,8,0:0:0:0:
192,135,80228,1,8,0:0:0:0:
187,44,80493,1,0,0:0:0:0:
174,24,80581,1,8,0:0:0:0:
187,44,80669,1,8,0:0:0:0:
192,135,80758,1,0,0:0:0:0:
192,135,80934,1,8,0:0:0:0:
185,73,81022,1,0,0:0:0:0:
192,135,81110,1,8,0:0:0:0:
192,135,81287,1,8,0:0:0:0:
216,197,81993,1,8,0:0:0:0:
216,197,82169,1,8,0:0:0:0:
216,197,82346,1,8,0:0:0:0:
216,197,82522,1,8,0:0:0:0:
214,193,82699,1,8,0:0:0:0:
227,128,83228,1,8,0:0:0:0:
227,128,83316,1,8,0:0:0:0:
221,138,83581,1,8,0:0:0:0:
221,137,83758,1,8,0:0:0:0:
221,136,83934,1,8,0:0:0:0:
220,135,84110,1,8,0:0:0:0:
210,120,84463,1,12,0:0:0:0:
170,137,84817,1,4,0:0:0:0:
448,64,85169,1,8,0:0:0:0:
217,120,85346,1,0,0:0:0:0:
219,120,85522,1,8,0:0:0:0:
196,129,85875,1,0,0:0:0:0:
196,129,86140,1,8,0:0:0:0:
196,129,86405,1,0,0:0:0:0:
196,129,86581,1,8,0:0:0:0:
196,129,86758,1,8,0:0:0:0:
196,129,86934,1,8,0:0:0:0:
159,130,87287,1,8,0:0:0:0:
159,130,87640,1,0,0:0:0:0:
159,130,87816,1,0,0:0:0:0:
159,130,87993,1,0,0:0:0:0:
159,130,88169,1,0,0:0:0:0:
159,130,88346,1,0,0:0:0:0:
192,118,88875,1,0,0:0:0:0:
192,118,88963,1,0,0:0:0:0:
197,119,89228,1,0,0:0:0:0:
193,125,89405,1,0,0:0:0:0:
193,123,89581,1,0,0:0:0:0:
196,125,89758,1,0,0:0:0:0:
163,158,90110,1,12,0:0:0:0:
195,138,90463,1,8,0:0:0:0:
194,158,90640,1,0,0:0:0:0:
194,158,90816,1,0,0:0:0:0:
159,161,91169,1,8,0:0:0:0:
159,161,91346,1,0,0:0:0:0:
159,161,91522,1,0,0:0:0:0:
175,129,91875,1,8,0:0:0:0:
175,129,92052,1,0,0:0:0:0:
171,129,92228,1,0,0:0:0:0:
163,136,92405,1,8,0:0:0:0:
161,136,92493,1,8,0:0:0:0:
179,143,92758,1,0,0:0:0:0:
169,138,92846,1,0,0:0:0:0:
178,142,92934,1,0,0:0:0:0:
176,142,93110,1,0,0:0:0:0:
173,140,93287,1,8,0:0:0:0:
172,144,93463,1,8,0:0:0:0:
173,144,93640,1,0,0:0:0:0:
198,153,93993,1,8,0:0:0:0:
198,153,94169,1,8,0:0:0:0:
198,153,94346,1,0,0:0:0:0:
198,153,94699,1,8,0:0:0:0:
198,153,94875,1,8,0:0:0:0:
198,153,95052,1,0,0:0:0:0:
197,143,95228,1,8,0:0:0:0:
196,143,95316,1,8,0:0:0:0:
197,142,95581,1,0,0:0:0:0:
195,140,95669,1,0,0:0:0:0:
197,142,95758,1,0,0:0:0:0:
197,142,95934,1,0,0:0:0:0:
197,143,96110,1,8,0:0:0:0:
209,130,96463,1,0,0:0:0:0:
206,136,96816,1,8,0:0:0:0:
209,130,97169,1,0,0:0:0:0:
205,130,97522,1,8,0:0:0:0:
209,130,97875,1,0,0:0:0:0:
212,129,98052,1,8,0:0:0:0:
212,129,98140,1,8,0:0:0:0:
205,130,98228,1,0,0:0:0:0:
204,138,98405,1,8,0:0:0:0:
197,140,98581,1,8,0:0:0:0:
170,122,98758,1,0,0:0:0:0:
170,122,98846,1,0,0:0:0:0:
163,120,98934,1,8,0:0:0:0:
179,107,99287,1,0,0:0:0:0:
179,106,99640,1,8,0:0:0:0:
179,107,99993,1,0,0:0:0:0:
183,131,100346,1,0,0:0:0:0:
176,135,100522,1,8,0:0:0:0:
188,75,100610,1,8,0:0:0:0:
175,134,100699,1,0,0:0:0:0:
200,109,100875,1,8,0:0:0:0:
194,118,100963,1,8,0:0:0:0:
196,111,101052,1,0,0:0:0:0:
174,104,101228,1,8,0:0:0:0:
142,62,101316,1,0,0:0:0:0:
195,118,101405,1,8,0:0:0:0:
154,124,101758,5,4,0:0:0:0:
205,206,102110,5,8,0:0:0:0:
183,182,102287,1,0,0:0:0:0:
183,182,102375,1,0,0:0:0:0:
201,180,102463,1,8,0:0:0:0:
198,179,102552,1,0,0:0:0:0:
196,179,102640,1,0,0:0:0:0:
199,180,102728,1,8,0:0:0:0:
200,155,102816,1,0,0:0:0:0:
194,132,102905,1,8,0:0:0:0:
192,157,102993,1,8,0:0:0:0:
168,150,103169,1,8,0:0:0:0:
168,150,103258,1,0,0:0:0:0:
168,150,103346,1,0,0:0:0:0:
185,116,103434,1,8,0:0:0:0:
179,146,103522,1,0,0:0:0:0:
210,108,103610,1,8,0:0:0:0:
178,140,103699,1,8,0:0:0:0:
239,84,103787,1,0,0:0:0:0:
186,158,103875,1,8,0:0:0:0:
167,161,103963,1,0,0:0:0:0:
166,164,104052,1,0,0:0:0:0:
157,174,104140,1,8,0:0:0:0:
153,177,104228,1,8,0:0:0:0:
170,86,104405,1,8,0:0:0:0:
180,82,104493,1,0,0:0:0:0:
180,82,104581,1,8,0:0:0:0:
224,123,104640,1,8,0:0:0:0:
224,123,104699,1,0,0:0:0:0:
224,123,104758,1,0,0:0:0:0:
224,123,104846,1,8,0:0:0:0:
221,118,104934,1,0,0:0:0:0:
221,118,104993,1,0,0:0:0:0:
221,118,105052,1,8,0:0:0:0:
224,123,105110,1,8,0:0:0:0:
204,113,105199,1,0,0:0:0:0:
190,113,105287,1,8,0:0:0:0:
183,124,105463,1,0,0:0:0:0:
181,123,105552,1,8,0:0:0:0:
177,125,105640,1,0,0:0:0:0:
175,128,105728,1,8,0:0:0:0:
183,124,105816,1,8,0:0:0:0:
178,124,105993,1,8,0:0:0:0:
155,131,106081,1,0,0:0:0:0:
155,131,106169,1,0,0:0:0:0:
155,131,106258,1,8,0:0:0:0:
157,133,106346,1,0,0:0:0:0:
159,142,106434,1,8,0:0:0:0:
159,142,106522,1,8,0:0:0:0:
195,115,106610,1,0,0:0:0:0:
167,136,106699,1,8,0:0:0:0:
171,153,106787,1,0,0:0:0:0:
171,151,106875,1,0,0:0:0:0:
171,151,106963,1,8,0:0:0:0:
188,98,107052,1,8,0:0:0:0:
236,118,107228,1,0,0:0:0:0:
230,119,107405,1,8,0:0:0:0:
206,65,107463,1,8,0:0:0:0:
171,82,107522,1,0,0:0:0:0:
244,140,107581,1,8,0:0:0:0:
173,123,107934,1,0,0:0:0:0:
163,120,108022,1,0,0:0:0:0:
172,117,108110,1,8,0:0:0:0:
234,208,108199,1,8,0:0:0:0:
234,208,108287,1,0,0:0:0:0:
195,38,108375,1,8,0:0:0:0:
228,208,108463,1,0,0:0:0:0:
234,208,108552,1,0,0:0:0:0:
193,117,108640,1,8,0:0:0:0:
184,131,108816,1,8,0:0:0:0:
186,88,108905,1,8,0:0:0:0:
186,88,108993,1,0,0:0:0:0:
186,88,109081,1,8,0:0:0:0:
206,77,109169,1,0,0:0:0:0:
203,69,109346,1,8,0:0:0:0:
191,91,109434,1,0,0:0:0:0:
186,88,109522,1,8,0:0:0:0:
201,73,109610,1,8,0:0:0:0:
186,88,109699,1,0,0:0:0:0:
179,67,109787,1,0,0:0:0:0:
179,67,109875,1,8,0:0:0:0:
180,57,110052,1,0,0:0:0:0:
184,81,110140,1,8,0:0:0:0:
180,71,110228,1,0,0:0:0:0:
184,101,110405,1,8,0:0:0:0:
183,101,110493,1,0,0:0:0:0:
180,100,110581,1,0,0:0:0:0:
161,62,110669,1,0,0:0:0:0:
164,80,110758,1,8,0:0:0:0:
175,88,110846,1,8,0:0:0:0:
168,77,110934,1,0,0:0:0:0:
195,211,111022,1,8,0:0:0:0:
195,211,111110,1,8,0:0:0:0:
172,102,111199,1,8,0:0:0:0:
195,211,111287,1,0,0:0:0:0:
166,98,111463,1,8,0:0:0:0:
158,97,111552,1,8,0:0:0:0:
162,98,111640,1,0,0:0:0:0:
157,97,111816,1,8,0:0:0:0:
155,97,111993,1,8,0:0:0:0:
172,102,112169,1,0,0:0:0:0:
172,102,112258,1,8,0:0:0:0:
170,104,112346,1,8,0:0:0:0:
166,57,112434,1,0,0:0:0:0:
169,104,112522,1,8,0:0:0:0:
165,75,112699,1,8,0:0:0:0:
165,75,112875,1,8,0:0:0:0:
166,113,113052,1,0,0:0:0:0:
161,124,113405,1,8,0:0:0:0:
158,127,113581,1,0,0:0:0:0:
157,127,113669,1,8,0:0:0:0:
204,94,113758,1,0,0:0:0:0:
191,198,113846,1,0,0:0:0:0:
191,198,113934,1,8,0:0:0:0:
191,169,114022,1,8,0:0:0:0:
191,198,114110,1,0,0:0:0:0:
175,84,114199,1,0,0:0:0:0:
177,86,114287,1,8,0:0:0:0:
165,80,114375,1,0,0:0:0:0:
165,80,114463,1,8,0:0:0:0:
174,66,114552,1,0,0:0:0:0:
168,64,114640,1,0,0:0:0:0:
167,64,114728,1,8,0:0:0:0:
181,94,114816,1,8,0:0:0:0:
181,93,114905,1,0,0:0:0:0:
181,99,114993,1,0,0:0:0:0:
181,98,115081,1,8,0:0:0:0:
179,98,115169,1,0,0:0:0:0:
208,103,115346,1,8,0:0:0:0:
208,103,115434,1,0,0:0:0:0:
208,103,115522,1,8,0:0:0:0:
208,103,115610,1,8,0:0:0:0:
208,103,115699,1,0,0:0:0:0:
206,99,115787,1,8,0:0:0:0:
208,103,115875,1,0,0:0:0:0:
213,97,115934,1,0,0:0:0:0:
211,101,115993,1,8,0:0:0:0:
214,99,116052,1,8,0:0:0:0:
214,98,116140,1,0,0:0:0:0:
215,98,116228,1,8,0:0:0:0:
170,45,116287,1,8,0:0:0:0:
170,45,116346,1,0,0:0:0:0:
181,45,116405,1,0,0:0:0:0:
183,70,116493,1,8,0:0:0:0:
183,82,116581,1,0,0:0:0:0:
161,129,116758,1,8,0:0:0:0:
168,118,116846,1,0,0:0:0:0:
168,118,116934,1,8,0:0:0:0:
163,118,117022,1,0,0:0:0:0:
161,129,117110,1,0,0:0:0:0:
150,122,117199,1,8,0:0:0:0:
161,129,117287,1,0,0:0:0:0:
190,61,117463,1,8,0:0:0:0:
197,59,117552,1,0,0:0:0:0:
190,61,117640,1,8,0:0:0:0:
197,57,117728,1,8,0:0:0:0:
193,57,117816,1,0,0:0:0:0:
199,57,117905,1,8,0:0:0:0:
195,57,117993,1,0,0:0:0:0:
203,80,118081,1,8,0:0:0:0:
168,91,118169,1,8,0:0:0:0:
183,86,118258,1,0,0:0:0:0:
179,88,118346,1,8,0:0:0:0:
183,86,118434,1,0,0:0:0:0:
180,57,118522,1,8,0:0:0:0:
177,51,118610,1,8,0:0:0:0:
174,51,118699,1,0,0:0:0:0:
156,149,119052,1,0,0:0:0:0:
156,149,119228,1,8,0:0:0:0:
156,149,119316,1,8,0:0:0:0:
182,129,119405,1,0,0:0:0:0:
154,197,119581,1,8,0:0:0:0:
160,198,119669,1,0,0:0:0:0:
154,197,119758,1,8,0:0:0:0:
146,191,119846,1,0,0:0:0:0:
173,114,119934,1,8,0:0:0:0:
174,114,120022,1,8,0:0:0:0:
174,118,120110,1,0,0:0:0:0:
174,118,120287,1,8,0:0:0:0:
174,117,120375,1,0,0:0:0:0:
178,122,120463,1,8,0:0:0:0:
175,117,120552,1,8,0:0:0:0:
177,117,120640,1,0,0:0:0:0:
177,64,120728,1,8,0:0:0:0:
177,64,120816,1,0,0:0:0:0:
228,74,120905,1,0,0:0:0:0:
176,77,120993,1,8,0:0:0:0:
175,76,121081,1,0,0:0:0:0:
175,75,121169,1,8,0:0:0:0:
166,66,121258,1,0,0:0:0:0:
178,86,121346,1,0,0:0:0:0:
181,53,121434,1,8,0:0:0:0:
181,55,121522,1,0,0:0:0:0:
167,91,121699,1,0,0:0:0:0:
168,91,121787,1,0,0:0:0:0:
197,114,121875,1,8,0:0:0:0:
234,219,121963,1,0,0:0:0:0:
186,121,122052,1,8,0:0:0:0:
169,149,122140,1,0,0:0:0:0:
169,149,122228,1,0,0:0:0:0:
174,146,122405,1,0,0:0:0:0:
174,146,122493,1,8,0:0:0:0:
180,113,122581,1,0,0:0:0:0:
167,140,122669,1,0,0:0:0:0:
159,108,122758,1,8,0:0:0:0:
159,108,122846,1,8,0:0:0:0:
153,118,122935,1,4,0:0:0:0:
179,189,123287,1,8,0:0:0:0:
179,189,123463,1,0,0:0:0:0:
179,189,123552,1,8,0:0:0:0:
162,188,123640,1,8,0:0:0:0:
199,188,123728,1,0,0:0:0:0:
194,186,123816,1,8,0:0:0:0:
64,64,124346,1,0,0:0:0:0:
174,126,124699,1,8,0:0:0:0:
174,126,124875,1,0,0:0:0:0:
174,126,125052,1,0,0:0:0:0:
174,126,125405,1,8,0:0:0:0:
156,76,125581,1,0,0:0:0:0:
148,82,126110,1,8,0:0:0:0:
148,89,126640,1,0,0:0:0:0:
148,89,126816,1,8,0:0:0:0:
152,89,126993,1,0,0:0:0:0:
153,89,127346,1,0,0:0:0:0:
153,89,127522,1,8,0:0:0:0:
155,77,128052,1,0,0:0:0:0:
154,78,128228,1,8,0:0:0:0:
154,78,128405,1,0,0:0:0:0:
152,95,128758,1,0,0:0:0:0:
153,93,128934,1,8,0:0:0:0:
154,88,129463,1,0,0:0:0:0:
157,89,129640,1,8,0:0:0:0:
154,111,129816,1,8,0:0:0:0:
157,115,129993,1,0,0:0:0:0:
256,192,130346,12,0,130699,0:0:0:0:
176,88,130993,5,8,0:0:0:0:
199,149,131316,1,4,0:0:0:0:
