osu file format v14

[General]
AudioFilename: audio.mp3
AudioLeadIn: 0
PreviewTime: 101758
Countdown: 0
SampleSet: Normal
StackLeniency: 0.7
Mode: 1
LetterboxInBreaks: 0
WidescreenStoryboard: 1

[Editor]
Bookmarks: 111,25522,45287,79169,102463,122933,131403
DistanceSpacing: 0.1
BeatDivisor: 1
GridSize: 32
TimelineZoom: 0.7000054

[Metadata]
Title:fuuuuck we were supposed to wear argyle
TitleUnicode:fuuuuck we were supposed to wear argyle
Artist:leroy
ArtistUnicode:leroy
Creator:Ulqui
Version:kantan
Source:
Tags:english electronic instrumental dariacore hardstyle male vocals vocalist female brakence quorum dariacore 3... at least i think that's what it's called? fuck Jane Remover Dltzk
BeatmapID:4286707
BeatmapSetID:2033764

[Difficulty]
HPDrainRate:7
CircleSize:7
OverallDifficulty:3
ApproachRate:7
SliderMultiplier:1.4
SliderTickRate:1

[Events]
//Background and Video events
0,0,"jeffrihonesta-paint.jpg",0,0
//Break Periods
2,45487,49681
//Storyboard Layer 0 (Background)
//Storyboard Layer 1 (Fail)
//Storyboard Layer 2 (Pass)
//Storyboard Layer 3 (Foreground)
//Storyboard Layer 4 (Overlay)
//Storyboard Sound Samples

[TimingPoints]
111,352.941176470588,4,1,0,100,1,0
25522,-100,4,1,0,100,0,1
33640,-100,4,1,0,100,0,0
36816,-100,4,1,0,100,0,1
44934,-100,4,1,0,100,0,0
56581,-100,4,1,0,100,0,1
56934,-100,4,1,0,100,0,0
57287,-100,4,1,0,100,0,1
67640,-100,4,1,0,100,0,0
67875,-100,4,1,0,100,0,1
68228,-100,4,1,0,100,0,0
68581,-100,4,1,0,100,0,1
70346,-100,4,1,0,100,0,1
70699,-100,4,1,0,100,0,1
78934,-100,4,1,0,100,0,0
102463,-100,4,1,0,100,0,1
107405,-100,4,1,0,100,0,0
108110,-100,4,1,0,100,0,1
111640,-100,4,1,0,100,0,0
113758,-100,4,1,0,100,0,1
118699,-100,4,1,0,100,0,0
119405,-100,4,1,0,100,0,1
122934,-100,4,1,0,100,0,0
124346,-100,4,1,0,100,0,1
130346,-100,4,1,0,100,0,0

[HitObjects]
448,320,5405,5,12,0:0:0:0:
448,64,6110,1,8,0:0:0:0:
64,64,6463,1,0,0:0:0:0:
448,64,6816,1,8,0:0:0:0:
64,64,7169,1,0,0:0:0:0:
448,64,7522,1,8,0:0:0:0:
448,64,7875,1,8,0:0:0:0:
64,64,8581,1,0,0:0:0:0:
448,64,8934,1,8,0:0:0:0:
64,64,9287,1,0,0:0:0:0:
448,64,9640,1,8,0:0:0:0:
448,64,9993,1,0,0:0:0:0:
64,64,10346,1,0,0:0:0:0:
448,64,10699,1,8,0:0:0:0:
448,320,11405,1,12,0:0:0:0:
448,64,12816,1,8,0:0:0:0:
448,64,13522,1,8,0:0:0:0:
448,64,14228,1,8,0:0:0:0:
448,64,15640,1,8,0:0:0:0:
448,64,16346,1,8,0:0:0:0:
64,64,16699,1,0,0:0:0:0:
448,64,17052,1,8,0:0:0:0:
448,64,17758,1,8,0:0:0:0:
448,64,18463,1,8,0:0:0:0:
448,64,19169,1,8,0:0:0:0:
448,64,19875,1,8,0:0:0:0:
448,64,20581,1,8,0:0:0:0:
448,64,21287,1,8,0:0:0:0:
448,64,21993,1,8,0:0:0:0:
64,320,22699,1,4,0:0:0:0:
448,320,24816,1,12,0:0:0:0:
448,64,25522,1,8,0:0:0:0:
448,64,26228,1,8,0:0:0:0:
64,64,26934,1,0,0:0:0:0:
448,64,27287,1,8,0:0:0:0:
448,64,27640,1,8,0:0:0:0:
64,64,28346,1,0,0:0:0:0:
448,64,29052,1,8,0:0:0:0:
448,64,29758,1,8,0:0:0:0:
64,64,30110,1,0,0:0:0:0:
448,64,30463,1,8,0:0:0:0:
64,64,31169,1,0,0:0:0:0:
64,64,31522,1,0,0:0:0:0:
448,64,31875,1,8,0:0:0:0:
64,64,32228,1,0,0:0:0:0:
64,64,32581,1,0,0:0:0:0:
448,64,33287,1,8,0:0:0:0:
64,64,33993,1,0,0:0:0:0:
64,64,36816,1,0,0:0:0:0:
448,64,37169,1,8,0:0:0:0:
448,64,37875,1,8,0:0:0:0:
64,64,38228,1,0,0:0:0:0:
448,64,38581,1,8,0:0:0:0:
64,64,39640,1,0,0:0:0:0:
448,64,39993,1,8,0:0:0:0:
448,64,40699,1,8,0:0:0:0:
64,64,41052,1,0,0:0:0:0:
448,64,41405,1,8,0:0:0:0:
448,64,42110,1,8,0:0:0:0:
64,64,42463,1,0,0:0:0:0:
64,64,43169,1,0,0:0:0:0:
448,64,43875,1,8,0:0:0:0:
448,64,44581,1,0,0:0:0:0:
448,320,45287,1,12,0:0:0:0:
448,64,50581,5,8,0:0:0:0:
448,320,50934,1,12,0:0:0:0:
448,64,51287,1,8,0:0:0:0:
448,64,51640,1,8,0:0:0:0:
448,64,52346,1,8,0:0:0:0:
448,64,52699,1,8,0:0:0:0:
448,64,53052,1,8,0:0:0:0:
448,64,53758,1,8,0:0:0:0:
448,64,54110,1,8,0:0:0:0:
448,64,54463,1,8,0:0:0:0:
64,64,55169,1,0,0:0:0:0:
64,64,56581,1,4,0:0:0:0:
64,64,57287,1,0,0:0:0:0:
448,64,57640,1,8,0:0:0:0:
64,64,57993,1,0,0:0:0:0:
448,64,58699,1,8,0:0:0:0:
64,64,59052,1,0,0:0:0:0:
448,64,59405,1,8,0:0:0:0:
64,64,60110,1,0,0:0:0:0:
448,64,60463,1,8,0:0:0:0:
448,64,60816,1,0,0:0:0:0:
448,64,61169,1,8,0:0:0:0:
448,64,61522,1,0,0:0:0:0:
448,64,62228,1,8,0:0:0:0:
64,64,62934,1,0,0:0:0:0:
448,64,63287,1,8,0:0:0:0:
448,64,63640,1,8,0:0:0:0:
64,64,63993,1,0,0:0:0:0:
448,64,64346,1,8,0:0:0:0:
448,64,65052,1,8,0:0:0:0:
166,193,65405,1,0,0:0:0:0:
64,64,65758,1,0,0:0:0:0:
448,64,66110,1,8,0:0:0:0:
448,64,66463,1,0,0:0:0:0:
64,320,67875,1,4,0:0:0:0:
64,64,68581,1,0,0:0:0:0:
448,64,68934,1,8,0:0:0:0:
64,64,69287,1,0,0:0:0:0:
448,64,69993,1,8,0:0:0:0:
64,64,70346,1,0,0:0:0:0:
448,64,70699,1,8,0:0:0:0:
64,64,71405,1,0,0:0:0:0:
448,64,71758,1,8,0:0:0:0:
448,64,72110,1,0,0:0:0:0:
448,64,72463,1,8,0:0:0:0:
64,64,72816,1,0,0:0:0:0:
448,64,73522,1,8,0:0:0:0:
64,64,74228,1,0,0:0:0:0:
448,64,74581,1,8,0:0:0:0:
448,64,74934,1,8,0:0:0:0:
64,64,75287,1,0,0:0:0:0:
448,64,75640,1,8,0:0:0:0:
448,64,76346,1,8,0:0:0:0:
64,64,77052,1,0,0:0:0:0:
448,64,77405,1,8,0:0:0:0:
448,64,77758,1,0,0:0:0:0:
448,64,78110,1,0,0:0:0:0:
448,64,78463,1,8,0:0:0:0:
64,320,79169,1,4,0:0:0:0:
448,64,81993,1,8,0:0:0:0:
448,64,82346,1,8,0:0:0:0:
448,64,82699,1,8,0:0:0:0:
448,64,83228,1,8,0:0:0:0:
448,64,83758,1,8,0:0:0:0:
448,64,84110,1,8,0:0:0:0:
64,320,84816,1,4,0:0:0:0:
448,64,85522,1,8,0:0:0:0:
64,64,87640,1,0,0:0:0:0:
64,64,87993,1,0,0:0:0:0:
64,64,88346,1,0,0:0:0:0:
64,64,88875,1,0,0:0:0:0:
64,64,89405,1,0,0:0:0:0:
64,64,89758,1,0,0:0:0:0:
448,320,90110,1,12,0:0:0:0:
64,64,90463,1,0,0:0:0:0:
64,64,91169,1,0,0:0:0:0:
64,64,91875,1,0,0:0:0:0:
448,64,92934,1,8,0:0:0:0:
64,64,93287,1,0,0:0:0:0:
64,64,93993,1,0,0:0:0:0:
64,64,94699,1,0,0:0:0:0:
64,64,95758,1,0,0:0:0:0:
448,64,96110,1,8,0:0:0:0:
448,64,96816,1,8,0:0:0:0:
448,64,97522,1,8,0:0:0:0:
448,64,98228,1,8,0:0:0:0:
64,64,98581,1,0,0:0:0:0:
448,64,98934,1,8,0:0:0:0:
448,64,99640,1,8,0:0:0:0:
64,64,100346,1,0,0:0:0:0:
64,64,100699,1,0,0:0:0:0:
64,64,101052,1,0,0:0:0:0:
448,64,101405,1,8,0:0:0:0:
448,64,102463,1,8,0:0:0:0:
448,64,103169,1,8,0:0:0:0:
448,64,103875,1,8,0:0:0:0:
173,75,104228,1,0,0:0:0:0:
64,64,104581,1,8,0:0:0:0:
64,64,104934,1,0,0:0:0:0:
448,64,105287,1,8,0:0:0:0:
448,64,105993,1,8,0:0:0:0:
448,64,106699,1,8,0:0:0:0:
64,64,108110,1,0,0:0:0:0:
64,64,108816,1,0,0:0:0:0:
64,64,109522,1,0,0:0:0:0:
448,64,109875,1,8,0:0:0:0:
64,64,110228,1,0,0:0:0:0:
448,64,110581,1,8,0:0:0:0:
64,64,110934,1,0,0:0:0:0:
64,64,111640,1,0,0:0:0:0:
448,64,113052,1,8,0:0:0:0:
64,64,113758,1,0,0:0:0:0:
448,64,114110,1,8,0:0:0:0:
64,64,114463,1,0,0:0:0:0:
448,64,114816,1,8,0:0:0:0:
64,64,115169,1,0,0:0:0:0:
448,64,115875,1,8,0:0:0:0:
448,64,116228,1,8,0:0:0:0:
64,64,116581,1,0,0:0:0:0:
448,64,117287,1,8,0:0:0:0:
64,64,117993,1,0,0:0:0:0:
448,64,119405,1,8,0:0:0:0:
64,64,119758,1,0,0:0:0:0:
448,64,120110,1,8,0:0:0:0:
64,64,120463,1,0,0:0:0:0:
448,64,120816,1,8,0:0:0:0:
64,64,121522,1,0,0:0:0:0:
64,64,121875,1,0,0:0:0:0:
448,64,122228,1,8,0:0:0:0:
64,320,122934,1,4,0:0:0:0:
64,64,124346,1,0,0:0:0:0:
448,64,124699,1,8,0:0:0:0:
124,113,125405,1,8,0:0:0:0:
64,64,125758,1,0,0:0:0:0:
448,64,126110,1,8,0:0:0:0:
448,64,126463,1,8,0:0:0:0:
64,64,127169,1,0,0:0:0:0:
448,64,127522,1,8,0:0:0:0:
64,64,127875,1,0,0:0:0:0:
448,64,128581,1,8,0:0:0:0:
64,64,128934,1,0,0:0:0:0:
448,64,129287,1,8,0:0:0:0:
448,64,129640,1,8,0:0:0:0:
64,64,129993,1,0,0:0:0:0:
148,164,131316,1,4,0:0:0:0:
