osu file format v14

[General]
AudioFilename: audio.mp3
AudioLeadIn: 0
PreviewTime: 27754
Countdown: 0
SampleSet: Normal
StackLeniency: 0
Mode: 1
LetterboxInBreaks: 0
WidescreenStoryboard: 0

[Editor]
Bookmarks: 17857,37651,57444,77238
DistanceSpacing: 1
BeatDivisor: 4
GridSize: 32
TimelineZoom: 2.799999

[Metadata]
Title:dyed my hair black
TitleUnicode:dyed my hair black
Artist:leroy
ArtistUnicode:leroy
Creator:Genjuro
Version:Oni
Source:
Tags:electronic instrumental dariacore 2: enter here, hell to the left
BeatmapID:3548339
BeatmapSetID:1507426

[Difficulty]
HPDrainRate:5.5
CircleSize:2
OverallDifficulty:5.5
ApproachRate:10
SliderMultiplier:1.4
SliderTickRate:1

[Events]
//Background and Video events
0,0,"blak.jpg",0,50
//Break Periods
//Storyboard Layer 0 (Background)
//Storyboard Layer 1 (Fail)
//Storyboard Layer 2 (Pass)
//Storyboard Layer 3 (Foreground)
//Storyboard Layer 4 (Overlay)
//Storyboard Sound Samples

[TimingPoints]
3012,309.278350515464,4,1,0,75,1,0
3012,-114.285714285714,4,1,0,75,0,0
6720,-116.927665920955,4,1,0,75,0,0
6823,-118.751893365647,4,1,0,75,0,0
6926,-120.633943683644,4,1,0,75,0,0
7029,-122.576610381488,4,1,0,75,0,0
7184,-125.620894087486,4,1,0,75,0,0
7338,-128.799080006571,4,1,0,75,0,0
7545,-133.333333333333,4,1,0,75,0,0
7957,-114.285714285714,4,1,0,75,0,0
17235,-133.333333333333,4,1,0,75,0,0
17780,-100,4,1,0,100,0,0
17857,-100,4,1,0,100,0,1
18009,-96.9625710366451,4,1,0,100,0,1
18163,-94.122122883774,4,1,0,100,0,1
18240,-92.7634045744282,4,1,0,100,0,1
18318,-91.4264597191427,4,1,0,100,0,1
18395,-90.1439242120605,4,1,0,100,0,1
18472,-88.896873877111,4,1,0,100,0,1
18627,-86.4883761580143,4,1,0,100,0,1
18782,-84.2069434989789,4,1,0,100,0,1
18859,-83.1177557534016,4,1,0,100,0,1
19091,-100,4,1,0,100,0,1
19246,-96.9625710366451,4,1,0,100,0,1
19323,-95.5212355212355,4,1,0,100,0,1
19400,-94.122122883774,4,1,0,100,0,1
19555,-91.4264597191427,4,1,0,100,0,1
19710,-88.8809053350099,4,1,0,100,0,1
19864,-86.4883761580143,4,1,0,100,0,1
19941,-85.339772335288,4,1,0,100,0,1
20019,-84.2069434989789,4,1,0,100,0,1
20173,-82.0563847429519,4,1,0,100,0,1
20251,-81.0085134250164,4,1,0,100,0,1
20328,-80,4,1,0,100,0,1
20483,-82.0563847429519,4,1,0,100,0,1
20637,-84.2069434989789,4,1,0,100,0,1
20947,-88.896873877111,4,1,0,100,0,1
21101,-91.4264597191427,4,1,0,100,0,1
21256,-94.122122883774,4,1,0,100,0,1
21411,-96.9815758526068,4,1,0,100,0,1
21565,-100,4,1,0,100,0,1
21568,-100,4,1,0,100,0,0
22187,-80,4,1,0,100,0,0
22802,-100,4,1,0,100,0,0
22805,-100,4,1,0,100,0,1
22957,-96.9625710366451,4,1,0,100,0,1
23111,-94.122122883774,4,1,0,100,0,1
23188,-92.7634045744282,4,1,0,100,0,1
23266,-91.4264597191427,4,1,0,100,0,1
23343,-90.1439242120605,4,1,0,100,0,1
23420,-88.896873877111,4,1,0,100,0,1
23575,-86.4883761580143,4,1,0,100,0,1
23730,-84.2069434989789,4,1,0,100,0,1
23807,-83.1177557534016,4,1,0,100,0,1
24039,-100,4,1,0,100,0,1
24194,-96.9625710366451,4,1,0,100,0,1
24271,-95.5212355212355,4,1,0,100,0,1
24348,-94.122122883774,4,1,0,100,0,1
24503,-91.4264597191427,4,1,0,100,0,1
24658,-88.8809053350099,4,1,0,100,0,1
24812,-86.4883761580143,4,1,0,100,0,1
24889,-85.339772335288,4,1,0,100,0,1
24967,-84.2069434989789,4,1,0,100,0,1
25121,-82.0563847429519,4,1,0,100,0,1
25199,-81.0085134250164,4,1,0,100,0,1
25277,-80,4,1,0,100,0,1
25431,-82.0427789752943,4,1,0,100,0,1
25586,-84.2069434989789,4,1,0,100,0,1
25740,-86.4732610975184,4,1,0,100,0,1
25895,-88.8809053350099,4,1,0,100,0,1
26050,-91.4264597191427,4,1,0,100,0,1
26204,-94.1042221376949,4,1,0,100,0,1
26359,-96.9625710366451,4,1,0,100,0,1
26514,-100,4,1,0,100,0,1
26517,-100,4,1,0,100,0,0
27441,-114.285714285714,4,1,0,100,0,0
27751,-80,4,1,0,100,0,0
27754,-80,4,1,0,100,0,1
27905,-82.044473946233,4,1,0,100,0,1
27983,-83.1203765971755,4,1,0,100,0,1
28060,-84.2105263157895,4,1,0,100,0,1
28215,-86.4940517844647,4,1,0,100,0,1
28369,-88.8888888888889,4,1,0,100,0,1
28524,-86.4827104435906,4,1,0,100,0,1
28601,-85.3351714630364,4,1,0,100,0,1
28679,-84.2033667743581,4,1,0,100,0,1
28756,-83.1151393084928,4,1,0,100,0,1
28833,-82.0546810273405,4,1,0,100,0,1
28988,-80,4,1,0,100,0,1
29143,-82.0580912863071,4,1,0,100,0,1
29220,-83.1203765971755,4,1,0,100,0,1
29297,-84.2105263157895,4,1,0,100,0,1
29452,-86.4940517844647,4,1,0,100,0,1
29606,-88.8888888888889,4,1,0,100,0,1
29761,-86.4827104435906,4,1,0,100,0,1
29838,-85.3351714630364,4,1,0,100,0,1
29916,-84.2033667743581,4,1,0,100,0,1
30070,-82.0546810273405,4,1,0,100,0,1
30148,-81.0076885326354,4,1,0,100,0,1
30225,-80,4,1,0,100,0,1
30380,-82.0563847429519,4,1,0,100,0,1
30534,-84.2069434989789,4,1,0,100,0,1
30844,-88.896873877111,4,1,0,100,0,1
30998,-91.4264597191427,4,1,0,100,0,1
31153,-94.122122883774,4,1,0,100,0,1
31307,-96.9625710366451,4,1,0,100,0,1
31462,-100,4,1,0,100,0,1
31465,-100,4,1,0,100,0,0
32084,-72.7272727272727,4,1,0,100,0,0
32699,-80,4,1,0,100,0,0
32702,-80,4,1,0,100,0,1
32853,-82.044473946233,4,1,0,100,0,1
32931,-83.1203765971755,4,1,0,100,0,1
33008,-84.2105263157895,4,1,0,100,0,1
33163,-86.4940517844647,4,1,0,100,0,1
33317,-88.8888888888889,4,1,0,100,0,1
33472,-86.4827104435906,4,1,0,100,0,1
33549,-85.3351714630364,4,1,0,100,0,1
33627,-84.2033667743581,4,1,0,100,0,1
33704,-83.1151393084928,4,1,0,100,0,1
33781,-82.0546810273405,4,1,0,100,0,1
33936,-80,4,1,0,100,0,1
34091,-82.0580912863071,4,1,0,100,0,1
34168,-83.1203765971755,4,1,0,100,0,1
34245,-84.2105263157895,4,1,0,100,0,1
34400,-86.4940517844647,4,1,0,100,0,1
34554,-88.8888888888889,4,1,0,100,0,1
34709,-86.4827104435906,4,1,0,100,0,1
34786,-85.3351714630364,4,1,0,100,0,1
34864,-84.2033667743581,4,1,0,100,0,1
35018,-82.0546810273405,4,1,0,100,0,1
35096,-81.0076885326354,4,1,0,100,0,1
35173,-80,4,1,0,100,0,1
35328,-82.0563847429519,4,1,0,100,0,1
35482,-84.2069434989789,4,1,0,100,0,1
35637,-86.4732610975184,4,1,0,100,0,1
35792,-88.896873877111,4,1,0,100,0,1
35946,-91.4264597191427,4,1,0,100,0,1
36101,-94.122122883774,4,1,0,100,0,1
36255,-96.9625710366451,4,1,0,100,0,1
36410,-100,4,1,0,100,0,1
36414,-100,4,1,0,100,0,0
37029,-72.7272727272727,4,1,0,100,0,0
37648,-100,4,1,0,100,0,0
41359,-114.285714285714,4,1,0,100,0,0
42210,-111.605532170776,4,1,0,100,0,0
42287,-109.080223332354,4,1,0,100,0,0
42441,-104.357604723081,4,1,0,100,0,0
42519,-102.118294360385,4,1,0,100,0,0
42596,-100,4,1,0,100,0,0
46307,-114.285714285714,4,1,0,100,0,0
47158,-111.605532170776,4,1,0,100,0,0
47235,-109.080223332354,4,1,0,100,0,0
47545,-80,4,1,0,100,0,0
51256,-100,4,1,0,100,0,0
52029,-114.285714285714,4,1,0,100,0,0
52107,-111.605532170776,4,1,0,100,0,0
52184,-109.080223332354,4,1,0,100,0,0
52493,-80,4,1,0,100,0,0
56204,-100,4,1,0,100,0,0
56978,-114.285714285714,4,1,0,100,0,0
57055,-111.605532170776,4,1,0,100,0,0
57132,-109.080223332354,4,1,0,100,0,0
57441,-80,4,1,0,100,0,0
57599,-133.333333333333,4,1,0,75,0,0
67264,-114.285714285714,4,1,0,88,0,0
74377,-88.8888888888889,4,1,0,88,0,0
74532,-114.285714285714,4,1,0,88,0,0
77235,-133.333333333333,4,1,0,88,0,0
87132,-123.069269991295,4,1,0,88,0,0
87287,-125.488206949024,4,1,0,88,0,0
87442,-128.004139179925,4,1,0,88,0,0
87519,-129.29187353018,4,1,0,88,0,0
87596,-130.605780651973,4,1,0,88,0,0
87751,-114.285714285714,4,1,0,88,0,0
87905,-116.355085243974,4,1,0,88,0,0
88060,-118.51497005988,4,1,0,88,0,0
88137,-119.618034570289,4,1,0,88,0,0
88369,-123.069269991295,4,1,0,88,0,0
88524,-125.488206949024,4,1,0,88,0,0
88679,-128.004139179925,4,1,0,88,0,0
88756,-129.29187353018,4,1,0,88,0,0
88833,-130.605780651973,4,1,0,88,0,0
88988,-114.285714285714,4,1,0,88,0,0
89142,-116.355085243974,4,1,0,88,0,0
89297,-118.51497005988,4,1,0,88,0,0
89374,-119.618034570289,4,1,0,88,0,0
89606,-123.069269991295,4,1,0,88,0,0
89761,-125.488206949024,4,1,0,88,0,0
89916,-128.004139179925,4,1,0,88,0,0
89993,-129.29187353018,4,1,0,88,0,0
90070,-130.605780651973,4,1,0,88,0,0
90225,-114.285714285714,4,1,0,88,0,0
90380,-116.368767638758,4,1,0,88,0,0
90534,-118.51497005988,4,1,0,88,0,0
90766,-121.90194629219,4,1,0,88,0,0
90844,-123.084577114428,4,1,0,88,0,0
90998,-125.488206949024,4,1,0,88,0,0
91076,-126.741803278689,4,1,0,88,0,0
91153,-128.004139179925,4,1,0,88,0,0
91307,-130.605780651973,4,1,0,88,0,0
91462,-133.333333333333,4,1,0,88,0,0
91617,-129.032258064516,4,1,0,88,0,0
91771,-125,4,1,0,88,0,0
92081,-123.069269991295,4,1,0,88,0,0
92236,-125.488206949024,4,1,0,88,0,0
92391,-128.004139179925,4,1,0,88,0,0
92468,-129.29187353018,4,1,0,88,0,0
92545,-130.605780651973,4,1,0,88,0,0
92700,-114.285714285714,4,1,0,88,0,0
92854,-116.355085243974,4,1,0,88,0,0
93009,-118.51497005988,4,1,0,88,0,0
93086,-119.618034570289,4,1,0,88,0,0
93318,-123.069269991295,4,1,0,88,0,0
93473,-125.488206949024,4,1,0,88,0,0
93628,-128.004139179925,4,1,0,88,0,0
93705,-129.29187353018,4,1,0,88,0,0
93782,-130.605780651973,4,1,0,88,0,0
93937,-114.285714285714,4,1,0,88,0,0
94091,-116.355085243974,4,1,0,88,0,0
94246,-118.51497005988,4,1,0,88,0,0
94323,-119.618034570289,4,1,0,88,0,0
94555,-123.069269991295,4,1,0,88,0,0
94710,-125.488206949024,4,1,0,88,0,0
94865,-128.004139179925,4,1,0,88,0,0
94942,-129.29187353018,4,1,0,88,0,0
95019,-130.605780651973,4,1,0,88,0,0
95174,-114.285714285714,4,1,0,88,0,0
95329,-116.368767638758,4,1,0,88,0,0
95483,-118.51497005988,4,1,0,88,0,0
95715,-121.90194629219,4,1,0,88,0,0
95793,-123.084577114428,4,1,0,88,0,0
95947,-125.488206949024,4,1,0,88,0,0
96025,-126.741803278689,4,1,0,88,0,0
96102,-128.004139179925,4,1,0,88,0,0
96955,-100,4,1,0,100,0,0
97029,-133.333333333333,4,1,0,100,0,0
97184,-127.991729128974,4,1,0,100,0,0
97338,-123.092219736515,4,1,0,100,0,0
97416,-120.751036332602,4,1,0,100,0,0
97493,-118.525610339876,4,1,0,100,0,0
97648,-114.285714285714,4,1,0,100,0,0
97802,-118.504314477469,4,1,0,100,0,0
97957,-123.076923076923,4,1,0,100,0,0
98034,-125.482233502538,4,1,0,100,0,0
98112,-128.016571724495,4,1,0,100,0,0
98189,-130.620871862616,4,1,0,100,0,0
98266,-133.333333333333,4,1,0,100,0,0
98421,-127.991729128974,4,1,0,100,0,0
98575,-123.092219736515,4,1,0,100,0,0
98653,-120.751036332602,4,1,0,100,0,0
98730,-118.525610339876,4,1,0,100,0,0
98885,-114.285714285714,4,1,0,100,0,0
99039,-118.504314477469,4,1,0,100,0,0
99194,-123.076923076923,4,1,0,100,0,0
99271,-125.482233502538,4,1,0,100,0,0
99503,-133.333333333333,4,1,0,100,0,0
99658,-127.991729128974,4,1,0,100,0,0
99813,-123.061630218688,4,1,0,100,0,0
99890,-120.751036332602,4,1,0,100,0,0
99967,-118.525610339876,4,1,0,100,0,0
100122,-114.285714285714,4,1,0,100,0,0
100277,-116.368767638758,4,1,0,100,0,0
100431,-118.51497005988,4,1,0,100,0,0
100663,-121.90194629219,4,1,0,100,0,0
100741,-123.084577114428,4,1,0,100,0,0
100895,-125.488206949024,4,1,0,100,0,0
100973,-126.741803278689,4,1,0,100,0,0
101050,-128.004139179925,4,1,0,100,0,0
101204,-130.605780651973,4,1,0,100,0,0
101359,-133.333333333333,4,1,0,100,0,0
101514,-129.032258064516,4,1,0,100,0,0
101668,-125,4,1,0,100,0,0
101978,-133.333333333333,4,1,0,100,0,0
102133,-127.991729128974,4,1,0,100,0,0
102287,-123.092219736515,4,1,0,100,0,0
102365,-120.751036332602,4,1,0,100,0,0
102442,-118.525610339876,4,1,0,100,0,0
102597,-114.285714285714,4,1,0,100,0,0
102751,-118.504314477469,4,1,0,100,0,0
102906,-123.076923076923,4,1,0,100,0,0
102983,-125.482233502538,4,1,0,100,0,0
103061,-128.016571724495,4,1,0,100,0,0
103138,-130.620871862616,4,1,0,100,0,0
103215,-133.333333333333,4,1,0,100,0,0
103370,-127.991729128974,4,1,0,100,0,0
103524,-123.092219736515,4,1,0,100,0,0
103602,-120.751036332602,4,1,0,100,0,0
103679,-118.525610339876,4,1,0,100,0,0
103834,-114.285714285714,4,1,0,100,0,0
103988,-118.504314477469,4,1,0,100,0,0
104143,-123.076923076923,4,1,0,100,0,0
104220,-125.482233502538,4,1,0,100,0,0
104452,-133.333333333333,4,1,0,100,0,0
104607,-127.991729128974,4,1,0,100,0,0
104762,-123.061630218688,4,1,0,100,0,0
104839,-120.751036332602,4,1,0,100,0,0
104916,-118.525610339876,4,1,0,100,0,0
105071,-114.285714285714,4,1,0,100,0,0
105226,-116.368767638758,4,1,0,100,0,0
105380,-118.51497005988,4,1,0,100,0,0
105612,-121.90194629219,4,1,0,100,0,0
105690,-123.084577114428,4,1,0,100,0,0
105844,-125.488206949024,4,1,0,100,0,0
105922,-126.741803278689,4,1,0,100,0,0
105999,-128.004139179925,4,1,0,100,0,0
106153,-130.605780651973,4,1,0,100,0,0
106308,-133.333333333333,4,1,0,100,0,0
106463,-129.032258064516,4,1,0,100,0,0
106617,-125,4,1,0,100,0,0
106926,-133.333333333333,4,1,0,100,0,0
107081,-127.991729128974,4,1,0,100,0,0
107235,-123.092219736515,4,1,0,100,0,0
107313,-120.751036332602,4,1,0,100,0,0
107390,-118.525610339876,4,1,0,100,0,0
107545,-114.285714285714,4,1,0,100,0,0
107699,-118.504314477469,4,1,0,100,0,0
107854,-123.076923076923,4,1,0,100,0,0
107931,-125.482233502538,4,1,0,100,0,0
108009,-128.016571724495,4,1,0,100,0,0
108086,-130.620871862616,4,1,0,100,0,0
108163,-133.333333333333,4,1,0,100,0,0
108318,-127.991729128974,4,1,0,100,0,0
108472,-123.092219736515,4,1,0,100,0,0
108550,-120.751036332602,4,1,0,100,0,0
108627,-118.525610339876,4,1,0,100,0,0
108704,-116.380728554642,4,1,0,100,0,0
108782,-114.285714285714,4,1,0,100,0,0
108936,-118.504314477469,4,1,0,100,0,0
109091,-123.076923076923,4,1,0,100,0,0
109168,-125.482233502538,4,1,0,100,0,0
109400,-133.333333333333,4,1,0,100,0,0
109555,-127.991729128974,4,1,0,100,0,0
109710,-123.061630218688,4,1,0,100,0,0
109787,-120.751036332602,4,1,0,100,0,0
109864,-118.525610339876,4,1,0,100,0,0
110019,-114.285714285714,4,1,0,100,0,0
110174,-116.368767638758,4,1,0,100,0,0
110328,-118.51497005988,4,1,0,100,0,0
110560,-121.90194629219,4,1,0,100,0,0
110638,-123.084577114428,4,1,0,100,0,0
110792,-125.488206949024,4,1,0,100,0,0
110870,-126.741803278689,4,1,0,100,0,0
110947,-128.004139179925,4,1,0,100,0,0
111101,-130.605780651973,4,1,0,100,0,0
111256,-133.333333333333,4,1,0,100,0,0
111411,-129.032258064516,4,1,0,100,0,0
111565,-125,4,1,0,100,0,0
111874,-133.333333333333,4,1,0,100,0,0
112029,-127.991729128974,4,1,0,100,0,0
112183,-123.092219736515,4,1,0,100,0,0
112261,-120.751036332602,4,1,0,100,0,0
112338,-118.525610339876,4,1,0,100,0,0
112493,-114.285714285714,4,1,0,100,0,0
112647,-118.504314477469,4,1,0,100,0,0
112802,-123.076923076923,4,1,0,100,0,0
112879,-125.482233502538,4,1,0,100,0,0
112957,-128.016571724495,4,1,0,100,0,0
113034,-130.620871862616,4,1,0,100,0,0
113111,-133.333333333333,4,1,0,100,0,0
113266,-127.991729128974,4,1,0,100,0,0
113420,-123.092219736515,4,1,0,100,0,0
113498,-120.751036332602,4,1,0,100,0,0
113575,-118.525610339876,4,1,0,100,0,0
113652,-116.380728554642,4,1,0,100,0,0
113730,-114.285714285714,4,1,0,100,0,0
113884,-118.504314477469,4,1,0,100,0,0
114039,-123.076923076923,4,1,0,100,0,0
114116,-125.482233502538,4,1,0,100,0,0
114348,-133.333333333333,4,1,0,100,0,0
114503,-127.991729128974,4,1,0,100,0,0
114658,-123.061630218688,4,1,0,100,0,0
114735,-120.751036332602,4,1,0,100,0,0
114812,-118.525610339876,4,1,0,100,0,0
114967,-114.285714285714,4,1,0,100,0,0
115122,-116.368767638758,4,1,0,100,0,0
115276,-118.51497005988,4,1,0,100,0,0
115508,-121.90194629219,4,1,0,100,0,0
115586,-123.084577114428,4,1,0,100,0,0
115740,-125.488206949024,4,1,0,100,0,0
115818,-126.741803278689,4,1,0,100,0,0
115895,-128.004139179925,4,1,0,100,0,0
116826,309.278350515464,4,1,0,88,1,8
117343,454.545454545455,4,1,0,88,1,1
117343,-66.6666666666667,4,1,0,88,0,1
122343,-50,4,1,0,88,0,0

[HitObjects]
256,192,537,12,0,1774,0:0:0:0:
256,192,3012,5,4,0:0:0:0:
256,192,3321,1,8,0:0:0:0:
256,192,3475,1,0,0:0:0:0:
256,192,3785,1,0,0:0:0:0:
256,192,4094,1,8,0:0:0:0:
256,192,4403,1,0,0:0:0:0:
256,192,4713,1,8,0:0:0:0:
256,192,4867,1,8,0:0:0:0:
256,192,5176,1,8,0:0:0:0:
256,192,5486,1,0,0:0:0:0:
256,192,5795,1,8,0:0:0:0:
256,192,5950,1,0,0:0:0:0:
256,192,6259,1,0,0:0:0:0:
256,192,6568,1,8,0:0:0:0:
256,192,6826,1,8,0:0:0:0:
256,192,6929,1,8,0:0:0:0:
256,192,7032,1,8,0:0:0:0:
256,192,7187,1,8,0:0:0:0:
256,192,7341,1,8,0:0:0:0:
256,192,7548,1,8,0:0:0:0:
256,192,7960,1,4,0:0:0:0:
256,192,8424,1,0,0:0:0:0:
256,192,8579,1,8,0:0:0:0:
256,192,8888,1,0,0:0:0:0:
256,192,9352,1,8,0:0:0:0:
256,192,9506,1,0,0:0:0:0:
256,192,9816,1,8,0:0:0:0:
256,192,10434,1,0,0:0:0:0:
256,192,10898,1,0,0:0:0:0:
256,192,11053,1,8,0:0:0:0:
256,192,11362,1,0,0:0:0:0:
256,192,11517,1,8,0:0:0:0:
256,192,11671,1,0,0:0:0:0:
256,192,11826,1,8,0:0:0:0:
256,192,11981,1,0,0:0:0:0:
256,192,12290,1,8,0:0:0:0:
256,192,12444,1,0,0:0:0:0:
256,192,12908,1,0,0:0:0:0:
256,192,13218,1,0,0:0:0:0:
256,192,13527,1,8,0:0:0:0:
256,192,13836,1,0,0:0:0:0:
256,192,13991,1,8,0:0:0:0:
256,192,14300,1,8,0:0:0:0:
256,192,14455,1,0,0:0:0:0:
256,192,14609,1,0,0:0:0:0:
256,192,14764,1,8,0:0:0:0:
256,192,14919,1,0,0:0:0:0:
256,192,15228,1,8,0:0:0:0:
256,192,15383,1,0,0:0:0:0:
256,192,15692,1,0,0:0:0:0:
256,192,16001,1,8,0:0:0:0:
256,192,16310,1,0,0:0:0:0:
256,192,16465,1,8,0:0:0:0:
256,192,16620,1,0,0:0:0:0:
256,192,16774,1,8,0:0:0:0:
256,192,16929,1,0,0:0:0:0:
256,192,17238,1,8,0:0:0:0:
256,192,17341,1,8,0:0:0:0:
256,192,17444,1,8,0:0:0:0:
256,192,17857,1,0,0:0:0:0:
256,192,18012,1,8,0:0:0:0:
256,192,18166,1,0,0:0:0:0:
256,192,18243,1,0,0:0:0:0:
256,192,18321,1,0,0:0:0:0:
256,192,18398,1,0,0:0:0:0:
256,192,18475,1,8,0:0:0:0:
256,192,18630,1,0,0:0:0:0:
256,192,18785,1,8,0:0:0:0:
256,192,18862,1,8,0:0:0:0:
256,192,19094,1,0,0:0:0:0:
256,192,19249,1,8,0:0:0:0:
256,192,19326,1,0,0:0:0:0:
256,192,19403,1,8,0:0:0:0:
256,192,19558,1,0,0:0:0:0:
256,192,19713,1,8,0:0:0:0:
256,192,19867,1,0,0:0:0:0:
256,192,19944,1,0,0:0:0:0:
256,192,20022,1,0,0:0:0:0:
256,192,20176,1,8,0:0:0:0:
256,192,20254,1,8,0:0:0:0:
256,192,20331,1,0,0:0:0:0:
256,192,20486,1,8,0:0:0:0:
256,192,20640,1,0,0:0:0:0:
256,192,20950,1,8,0:0:0:0:
256,192,21104,1,0,0:0:0:0:
256,192,21259,1,8,0:0:0:0:
256,192,21414,1,8,0:0:0:0:
256,192,21568,1,0,0:0:0:0:
256,192,22032,1,0,0:0:0:0:
256,192,22187,1,8,0:0:0:0:
256,192,22341,1,8,0:0:0:0:
256,192,22805,1,0,0:0:0:0:
256,192,22960,1,8,0:0:0:0:
256,192,23115,1,0,0:0:0:0:
256,192,23192,1,8,0:0:0:0:
256,192,23269,1,0,0:0:0:0:
256,192,23347,1,0,0:0:0:0:
256,192,23424,1,8,0:0:0:0:
256,192,23579,1,0,0:0:0:0:
256,192,23733,1,8,0:0:0:0:
256,192,23810,1,8,0:0:0:0:
256,192,24042,1,0,0:0:0:0:
256,192,24197,1,0,0:0:0:0:
256,192,24274,1,0,0:0:0:0:
256,192,24352,1,8,0:0:0:0:
256,192,24506,1,0,0:0:0:0:
256,192,24661,1,8,0:0:0:0:
256,192,24816,1,0,0:0:0:0:
256,192,24893,1,0,0:0:0:0:
256,192,24970,1,0,0:0:0:0:
256,192,25125,1,8,0:0:0:0:
256,192,25202,1,8,0:0:0:0:
256,192,25280,1,0,0:0:0:0:
256,192,25434,1,8,0:0:0:0:
256,192,25589,1,0,0:0:0:0:
256,192,25743,1,0,0:0:0:0:
256,192,25898,1,8,0:0:0:0:
256,192,26053,1,0,0:0:0:0:
256,192,26207,1,8,0:0:0:0:
256,192,26362,1,8,0:0:0:0:
256,192,26517,1,0,0:0:0:0:
256,192,26826,1,0,0:0:0:0:
256,192,27135,1,8,0:0:0:0:
256,192,27444,1,8,0:0:0:0:
256,192,27522,1,8,0:0:0:0:
256,192,27754,1,0,0:0:0:0:
256,192,27908,1,8,0:0:0:0:
256,192,27986,1,8,0:0:0:0:
256,192,28063,1,0,0:0:0:0:
256,192,28218,1,0,0:0:0:0:
256,192,28372,1,8,0:0:0:0:
256,192,28527,1,0,0:0:0:0:
256,192,28604,1,0,0:0:0:0:
256,192,28682,1,0,0:0:0:0:
256,192,28759,1,0,0:0:0:0:
256,192,28836,1,8,0:0:0:0:
256,192,28991,1,0,0:0:0:0:
256,192,29146,1,8,0:0:0:0:
256,192,29223,1,0,0:0:0:0:
256,192,29300,1,8,0:0:0:0:
256,192,29455,1,0,0:0:0:0:
256,192,29609,1,8,0:0:0:0:
256,192,29764,1,0,0:0:0:0:
256,192,29841,1,0,0:0:0:0:
256,192,29919,1,0,0:0:0:0:
256,192,30073,1,8,0:0:0:0:
256,192,30151,1,8,0:0:0:0:
256,192,30228,1,0,0:0:0:0:
256,192,30383,1,8,0:0:0:0:
256,192,30537,1,0,0:0:0:0:
256,192,30847,1,8,0:0:0:0:
256,192,31001,1,0,0:0:0:0:
256,192,31156,1,8,0:0:0:0:
256,192,31310,1,8,0:0:0:0:
256,192,31465,1,0,0:0:0:0:
256,192,31929,1,0,0:0:0:0:
256,192,32084,1,8,0:0:0:0:
256,192,32238,1,8,0:0:0:0:
256,192,32702,1,0,0:0:0:0:
256,192,32857,1,8,0:0:0:0:
256,192,32934,1,8,0:0:0:0:
256,192,33012,1,0,0:0:0:0:
256,192,33166,1,0,0:0:0:0:
256,192,33321,1,8,0:0:0:0:
256,192,33475,1,0,0:0:0:0:
256,192,33553,1,8,0:0:0:0:
256,192,33630,1,0,0:0:0:0:
256,192,33707,1,0,0:0:0:0:
256,192,33785,1,8,0:0:0:0:
256,192,33939,1,0,0:0:0:0:
256,192,34094,1,0,0:0:0:0:
256,192,34171,1,0,0:0:0:0:
256,192,34249,1,8,0:0:0:0:
256,192,34403,1,0,0:0:0:0:
256,192,34558,1,8,0:0:0:0:
256,192,34713,1,0,0:0:0:0:
256,192,34790,1,0,0:0:0:0:
256,192,34867,1,0,0:0:0:0:
256,192,35022,1,8,0:0:0:0:
256,192,35099,1,8,0:0:0:0:
256,192,35176,1,0,0:0:0:0:
256,192,35331,1,8,0:0:0:0:
256,192,35486,1,0,0:0:0:0:
256,192,35640,1,0,0:0:0:0:
256,192,35795,1,8,0:0:0:0:
256,192,35950,1,0,0:0:0:0:
256,192,36104,1,8,0:0:0:0:
256,192,36259,1,8,0:0:0:0:
256,192,36414,1,0,0:0:0:0:
256,192,36723,1,0,0:0:0:0:
256,192,37032,1,8,0:0:0:0:
256,192,37187,1,8,0:0:0:0:
256,192,37651,1,0,0:0:0:0:
256,192,37805,1,8,0:0:0:0:
256,192,37960,1,0,0:0:0:0:
256,192,38063,1,8,0:0:0:0:
256,192,38269,1,0,0:0:0:0:
256,192,38424,1,0,0:0:0:0:
256,192,38579,1,8,0:0:0:0:
256,192,38888,1,0,0:0:0:0:
256,192,39042,1,8,0:0:0:0:
256,192,39197,1,0,0:0:0:0:
256,192,39300,1,8,0:0:0:0:
256,192,39403,1,8,0:0:0:0:
256,192,39506,1,0,0:0:0:0:
256,192,39661,1,0,0:0:0:0:
256,192,39816,1,8,0:0:0:0:
256,192,39970,1,8,0:0:0:0:
256,192,40048,1,8,0:0:0:0:
256,192,40125,1,0,0:0:0:0:
256,192,40280,1,8,0:0:0:0:
256,192,40434,1,0,0:0:0:0:
256,192,40537,1,8,0:0:0:0:
256,192,40743,1,0,0:0:0:0:
256,192,40898,1,0,0:0:0:0:
256,192,41053,1,8,0:0:0:0:
256,192,41362,1,0,0:0:0:0:
256,192,41671,1,0,0:0:0:0:
256,192,42135,1,0,0:0:0:0:
256,192,42213,1,0,0:0:0:0:
256,192,42290,1,0,0:0:0:0:
256,192,42444,1,8,0:0:0:0:
256,192,42522,1,8,0:0:0:0:
256,192,42599,1,0,0:0:0:0:
256,192,42754,1,8,0:0:0:0:
256,192,42908,1,0,0:0:0:0:
256,192,43012,1,8,0:0:0:0:
256,192,43218,1,0,0:0:0:0:
256,192,43372,1,0,0:0:0:0:
256,192,43527,1,8,0:0:0:0:
256,192,43836,1,0,0:0:0:0:
256,192,43991,1,8,0:0:0:0:
256,192,44146,1,0,0:0:0:0:
256,192,44249,1,8,0:0:0:0:
256,192,44352,1,8,0:0:0:0:
256,192,44455,1,0,0:0:0:0:
256,192,44609,1,0,0:0:0:0:
256,192,44764,1,8,0:0:0:0:
256,192,44919,1,8,0:0:0:0:
256,192,44996,1,8,0:0:0:0:
256,192,45073,1,0,0:0:0:0:
256,192,45228,1,8,0:0:0:0:
256,192,45383,1,0,0:0:0:0:
256,192,45486,1,8,0:0:0:0:
256,192,45692,1,0,0:0:0:0:
256,192,45847,1,0,0:0:0:0:
256,192,46001,1,8,0:0:0:0:
256,192,46310,1,0,0:0:0:0:
256,192,46620,1,0,0:0:0:0:
256,192,47084,1,0,0:0:0:0:
256,192,47161,1,0,0:0:0:0:
256,192,47238,1,0,0:0:0:0:
256,192,47548,1,0,0:0:0:0:
256,192,47702,1,0,0:0:0:0:
256,192,47857,1,8,0:0:0:0:
256,192,48012,1,0,0:0:0:0:
256,192,48089,1,8,0:0:0:0:
256,192,48243,1,8,0:0:0:0:
256,192,48321,1,0,0:0:0:0:
256,192,48475,1,8,0:0:0:0:
256,192,48630,1,0,0:0:0:0:
256,192,48707,1,8,0:0:0:0:
256,192,48785,1,0,0:0:0:0:
256,192,48862,1,8,0:0:0:0:
256,192,48939,1,0,0:0:0:0:
256,192,49094,1,8,0:0:0:0:
256,192,49249,1,0,0:0:0:0:
256,192,49326,1,8,0:0:0:0:
256,192,49481,1,0,0:0:0:0:
256,192,49558,1,0,0:0:0:0:
256,192,49713,1,8,0:0:0:0:
256,192,49867,1,8,0:0:0:0:
256,192,49944,1,8,0:0:0:0:
256,192,50022,1,0,0:0:0:0:
256,192,50176,1,0,0:0:0:0:
256,192,50331,1,8,0:0:0:0:
256,192,50486,1,0,0:0:0:0:
256,192,50563,1,8,0:0:0:0:
256,192,50718,1,8,0:0:0:0:
256,192,50795,1,0,0:0:0:0:
256,192,50950,1,8,0:0:0:0:
256,192,51259,1,0,0:0:0:0:
256,192,52032,1,0,0:0:0:0:
256,192,52109,1,0,0:0:0:0:
256,192,52187,1,0,0:0:0:0:
256,192,52496,1,0,0:0:0:0:
256,192,52651,1,0,0:0:0:0:
256,192,52805,1,8,0:0:0:0:
256,192,52960,1,0,0:0:0:0:
256,192,53037,1,8,0:0:0:0:
256,192,53192,1,8,0:0:0:0:
256,192,53269,1,0,0:0:0:0:
256,192,53424,1,8,0:0:0:0:
256,192,53579,1,0,0:0:0:0:
256,192,53656,1,8,0:0:0:0:
256,192,53733,1,0,0:0:0:0:
256,192,53810,1,8,0:0:0:0:
256,192,53888,1,0,0:0:0:0:
256,192,54042,1,8,0:0:0:0:
256,192,54197,1,0,0:0:0:0:
256,192,54274,1,8,0:0:0:0:
256,192,54429,1,0,0:0:0:0:
256,192,54506,1,0,0:0:0:0:
256,192,54661,1,8,0:0:0:0:
256,192,54816,1,8,0:0:0:0:
256,192,54893,1,8,0:0:0:0:
256,192,54970,1,0,0:0:0:0:
256,192,55125,1,0,0:0:0:0:
256,192,55280,1,8,0:0:0:0:
256,192,55434,1,0,0:0:0:0:
256,192,55512,1,8,0:0:0:0:
256,192,55666,1,8,0:0:0:0:
256,192,55743,1,0,0:0:0:0:
256,192,55898,1,8,0:0:0:0:
256,192,56207,1,0,0:0:0:0:
256,192,56981,1,0,0:0:0:0:
256,192,57058,1,0,0:0:0:0:
256,192,57135,1,0,0:0:0:0:
256,192,57444,1,4,0:0:0:0:
256,192,58063,1,8,0:0:0:0:
256,192,58527,1,8,0:0:0:0:
256,192,59609,1,8,0:0:0:0:
256,192,59764,1,0,0:0:0:0:
256,192,59919,1,8,0:0:0:0:
256,192,60383,1,0,0:0:0:0:
256,192,61001,1,8,0:0:0:0:
256,192,62084,1,0,0:0:0:0:
256,192,62238,1,0,0:0:0:0:
256,192,62393,1,8,0:0:0:0:
256,192,62702,1,0,0:0:0:0:
256,192,62857,1,8,0:0:0:0:
256,192,63475,1,0,0:0:0:0:
256,192,63630,1,8,0:0:0:0:
256,192,63785,1,0,0:0:0:0:
256,192,64094,1,8,0:0:0:0:
256,192,64713,1,0,0:0:0:0:
256,192,64867,1,8,0:0:0:0:
256,192,65331,1,8,0:0:0:0:
256,192,65640,1,0,0:0:0:0:
256,192,65950,1,8,0:0:0:0:
256,192,66259,1,8,0:0:0:0:
256,192,66568,1,0,0:0:0:0:
256,192,67341,12,0,69506,0:0:0:0:
256,192,69816,12,0,71981,0:0:0:0:
256,192,72290,12,0,74300,0:0:0:0:
256,192,74455,5,12,0:0:0:0:
256,192,74764,12,0,76465,0:0:0:0:
256,192,76620,5,8,0:0:0:0:
256,192,76929,1,8,0:0:0:0:
256,192,77006,1,8,0:0:0:0:
256,192,77238,1,0,0:0:0:0:
256,192,77393,1,8,0:0:0:0:
256,192,77548,1,0,0:0:0:0:
256,192,77625,1,8,0:0:0:0:
256,192,77857,1,0,0:0:0:0:
256,192,78012,1,8,0:0:0:0:
256,192,78166,1,8,0:0:0:0:
256,192,78475,1,0,0:0:0:0:
256,192,78630,1,8,0:0:0:0:
256,192,78785,1,0,0:0:0:0:
256,192,78862,1,8,0:0:0:0:
256,192,79094,1,0,0:0:0:0:
256,192,79249,1,8,0:0:0:0:
256,192,79403,1,8,0:0:0:0:
256,192,79713,1,8,0:0:0:0:
256,192,79867,1,0,0:0:0:0:
256,192,80022,1,8,0:0:0:0:
256,192,80099,1,0,0:0:0:0:
256,192,80331,1,8,0:0:0:0:
256,192,80486,1,8,0:0:0:0:
256,192,80640,1,8,0:0:0:0:
256,192,80872,1,8,0:0:0:0:
256,192,81104,1,0,0:0:0:0:
256,192,81182,1,0,0:0:0:0:
256,192,81259,1,0,0:0:0:0:
256,192,81414,1,8,0:0:0:0:
256,192,81568,1,0,0:0:0:0:
256,192,81723,1,0,0:0:0:0:
256,192,81877,1,8,0:0:0:0:
256,192,82187,1,0,0:0:0:0:
256,192,82341,1,8,0:0:0:0:
256,192,82496,1,0,0:0:0:0:
256,192,82573,1,8,0:0:0:0:
256,192,82805,1,0,0:0:0:0:
256,192,82960,1,8,0:0:0:0:
256,192,83115,1,8,0:0:0:0:
256,192,83424,1,0,0:0:0:0:
256,192,83579,1,8,0:0:0:0:
256,192,83733,1,0,0:0:0:0:
256,192,83810,1,8,0:0:0:0:
256,192,84042,1,0,0:0:0:0:
256,192,84197,1,8,0:0:0:0:
256,192,84352,1,8,0:0:0:0:
256,192,84661,1,8,0:0:0:0:
256,192,84816,1,0,0:0:0:0:
256,192,84970,1,8,0:0:0:0:
256,192,85048,1,0,0:0:0:0:
256,192,85280,1,8,0:0:0:0:
256,192,85434,1,8,0:0:0:0:
256,192,85589,1,8,0:0:0:0:
256,192,85821,1,8,0:0:0:0:
256,192,86053,1,0,0:0:0:0:
256,192,86130,1,0,0:0:0:0:
256,192,86207,1,0,0:0:0:0:
256,192,86362,1,8,0:0:0:0:
256,192,86517,1,0,0:0:0:0:
256,192,86671,1,0,0:0:0:0:
256,192,86826,1,8,0:0:0:0:
256,192,87135,1,0,0:0:0:0:
256,192,87290,1,8,0:0:0:0:
256,192,87444,1,0,0:0:0:0:
256,192,87522,1,0,0:0:0:0:
256,192,87599,1,8,0:0:0:0:
256,192,87754,1,0,0:0:0:0:
256,192,87908,1,8,0:0:0:0:
256,192,88063,1,8,0:0:0:0:
256,192,88140,1,0,0:0:0:0:
256,192,88372,1,0,0:0:0:0:
256,192,88527,1,8,0:0:0:0:
256,192,88682,1,0,0:0:0:0:
256,192,88759,1,0,0:0:0:0:
256,192,88836,1,8,0:0:0:0:
256,192,88991,1,0,0:0:0:0:
256,192,89146,1,8,0:0:0:0:
256,192,89300,1,8,0:0:0:0:
256,192,89377,1,0,0:0:0:0:
256,192,89609,1,8,0:0:0:0:
256,192,89764,1,0,0:0:0:0:
256,192,89919,1,8,0:0:0:0:
256,192,89996,1,8,0:0:0:0:
256,192,90073,1,0,0:0:0:0:
256,192,90228,1,8,0:0:0:0:
256,192,90383,1,8,0:0:0:0:
256,192,90537,1,8,0:0:0:0:
256,192,90769,1,8,0:0:0:0:
256,192,91001,1,0,0:0:0:0:
256,192,91079,1,0,0:0:0:0:
256,192,91156,1,0,0:0:0:0:
256,192,91310,1,8,0:0:0:0:
256,192,91465,1,0,0:0:0:0:
256,192,91620,1,0,0:0:0:0:
256,192,91774,1,8,0:0:0:0:
256,192,92084,1,0,0:0:0:0:
256,192,92238,1,8,0:0:0:0:
256,192,92393,1,0,0:0:0:0:
256,192,92470,1,0,0:0:0:0:
256,192,92548,1,8,0:0:0:0:
256,192,92702,1,0,0:0:0:0:
256,192,92857,1,8,0:0:0:0:
256,192,93012,1,8,0:0:0:0:
256,192,93089,1,0,0:0:0:0:
256,192,93321,1,0,0:0:0:0:
256,192,93475,1,8,0:0:0:0:
256,192,93630,1,0,0:0:0:0:
256,192,93707,1,0,0:0:0:0:
256,192,93785,1,8,0:0:0:0:
256,192,93939,1,0,0:0:0:0:
256,192,94094,1,8,0:0:0:0:
256,192,94249,1,8,0:0:0:0:
256,192,94326,1,0,0:0:0:0:
256,192,94558,1,8,0:0:0:0:
256,192,94713,1,0,0:0:0:0:
256,192,94867,1,8,0:0:0:0:
256,192,94944,1,8,0:0:0:0:
256,192,95022,1,0,0:0:0:0:
256,192,95176,1,8,0:0:0:0:
256,192,95331,1,8,0:0:0:0:
256,192,95486,1,8,0:0:0:0:
256,192,95718,1,8,0:0:0:0:
256,192,95950,1,0,0:0:0:0:
256,192,96027,1,0,0:0:0:0:
256,192,96104,1,0,0:0:0:0:
256,192,97032,1,0,0:0:0:0:
256,192,97187,1,8,0:0:0:0:
256,192,97341,1,0,0:0:0:0:
256,192,97419,1,0,0:0:0:0:
256,192,97496,1,8,0:0:0:0:
256,192,97651,1,0,0:0:0:0:
256,192,97805,1,8,0:0:0:0:
256,192,97960,1,8,0:0:0:0:
256,192,98037,1,8,0:0:0:0:
256,192,98115,1,8,0:0:0:0:
256,192,98192,1,8,0:0:0:0:
256,192,98269,1,0,0:0:0:0:
256,192,98424,1,8,0:0:0:0:
256,192,98579,1,0,0:0:0:0:
256,192,98656,1,0,0:0:0:0:
256,192,98733,1,8,0:0:0:0:
256,192,98888,1,0,0:0:0:0:
256,192,99042,1,8,0:0:0:0:
256,192,99197,1,8,0:0:0:0:
256,192,99274,1,0,0:0:0:0:
256,192,99506,1,8,0:0:0:0:
256,192,99661,1,0,0:0:0:0:
256,192,99816,1,8,0:0:0:0:
256,192,99893,1,8,0:0:0:0:
256,192,99970,1,0,0:0:0:0:
256,192,100125,1,8,0:0:0:0:
256,192,100280,1,8,0:0:0:0:
256,192,100434,1,8,0:0:0:0:
256,192,100666,1,8,0:0:0:0:
256,192,100898,1,0,0:0:0:0:
256,192,100975,1,0,0:0:0:0:
256,192,101053,1,0,0:0:0:0:
256,192,101207,1,8,0:0:0:0:
256,192,101362,1,0,0:0:0:0:
256,192,101517,1,0,0:0:0:0:
256,192,101671,1,8,0:0:0:0:
256,192,101981,1,0,0:0:0:0:
256,192,102135,1,8,0:0:0:0:
256,192,102290,1,0,0:0:0:0:
256,192,102367,1,0,0:0:0:0:
256,192,102444,1,8,0:0:0:0:
256,192,102599,1,0,0:0:0:0:
256,192,102754,1,8,0:0:0:0:
256,192,102908,1,8,0:0:0:0:
256,192,102986,1,8,0:0:0:0:
256,192,103063,1,8,0:0:0:0:
256,192,103140,1,8,0:0:0:0:
256,192,103218,1,0,0:0:0:0:
256,192,103372,1,8,0:0:0:0:
256,192,103527,1,0,0:0:0:0:
256,192,103604,1,0,0:0:0:0:
256,192,103682,1,8,0:0:0:0:
256,192,103836,1,0,0:0:0:0:
256,192,103991,1,8,0:0:0:0:
256,192,104146,1,8,0:0:0:0:
256,192,104223,1,0,0:0:0:0:
256,192,104455,1,8,0:0:0:0:
256,192,104609,1,0,0:0:0:0:
256,192,104764,1,8,0:0:0:0:
256,192,104841,1,8,0:0:0:0:
256,192,104919,1,0,0:0:0:0:
256,192,105073,1,8,0:0:0:0:
256,192,105228,1,8,0:0:0:0:
256,192,105383,1,8,0:0:0:0:
256,192,105615,1,8,0:0:0:0:
256,192,105847,1,0,0:0:0:0:
256,192,105924,1,0,0:0:0:0:
256,192,106001,1,0,0:0:0:0:
256,192,106156,1,8,0:0:0:0:
256,192,106310,1,0,0:0:0:0:
256,192,106465,1,0,0:0:0:0:
256,192,106929,1,0,0:0:0:0:
256,192,107084,1,8,0:0:0:0:
256,192,107238,1,0,0:0:0:0:
256,192,107316,1,0,0:0:0:0:
256,192,107393,1,8,0:0:0:0:
256,192,107548,1,0,0:0:0:0:
256,192,107702,1,8,0:0:0:0:
256,192,107857,1,8,0:0:0:0:
256,192,107934,1,0,0:0:0:0:
256,192,108012,1,8,0:0:0:0:
256,192,108089,1,8,0:0:0:0:
256,192,108166,1,0,0:0:0:0:
256,192,108321,1,8,0:0:0:0:
256,192,108475,1,0,0:0:0:0:
256,192,108553,1,0,0:0:0:0:
256,192,108630,1,8,0:0:0:0:
256,192,108707,1,8,0:0:0:0:
256,192,108785,1,0,0:0:0:0:
256,192,108939,1,8,0:0:0:0:
256,192,109094,1,0,0:0:0:0:
256,192,109171,1,8,0:0:0:0:
256,192,109403,1,8,0:0:0:0:
256,192,109558,1,0,0:0:0:0:
256,192,109713,1,8,0:0:0:0:
256,192,109790,1,8,0:0:0:0:
256,192,109867,1,0,0:0:0:0:
256,192,110022,1,8,0:0:0:0:
256,192,110176,1,8,0:0:0:0:
256,192,110331,1,8,0:0:0:0:
256,192,110563,1,8,0:0:0:0:
256,192,110795,1,0,0:0:0:0:
256,192,110872,1,0,0:0:0:0:
256,192,110950,1,0,0:0:0:0:
256,192,111104,1,8,0:0:0:0:
256,192,111259,1,0,0:0:0:0:
256,192,111414,1,0,0:0:0:0:
256,192,111568,1,8,0:0:0:0:
256,192,111877,1,0,0:0:0:0:
256,192,112032,1,8,0:0:0:0:
256,192,112187,1,0,0:0:0:0:
256,192,112264,1,0,0:0:0:0:
256,192,112341,1,8,0:0:0:0:
256,192,112496,1,0,0:0:0:0:
256,192,112651,1,8,0:0:0:0:
256,192,112805,1,8,0:0:0:0:
256,192,112883,1,0,0:0:0:0:
256,192,112960,1,8,0:0:0:0:
256,192,113037,1,8,0:0:0:0:
256,192,113115,1,0,0:0:0:0:
256,192,113269,1,8,0:0:0:0:
256,192,113424,1,0,0:0:0:0:
256,192,113501,1,0,0:0:0:0:
256,192,113579,1,8,0:0:0:0:
256,192,113656,1,8,0:0:0:0:
256,192,113733,1,0,0:0:0:0:
256,192,113888,1,8,0:0:0:0:
256,192,114042,1,0,0:0:0:0:
256,192,114120,1,8,0:0:0:0:
256,192,114352,1,8,0:0:0:0:
256,192,114506,1,0,0:0:0:0:
256,192,114661,1,8,0:0:0:0:
256,192,114738,1,8,0:0:0:0:
256,192,114816,1,0,0:0:0:0:
256,192,114970,1,8,0:0:0:0:
256,192,115125,1,8,0:0:0:0:
256,192,115280,1,8,0:0:0:0:
256,192,115512,1,8,0:0:0:0:
256,192,115743,1,0,0:0:0:0:
256,192,115821,1,0,0:0:0:0:
256,192,115898,1,0,0:0:0:0:
256,192,117343,1,4,0:0:0:0:
256,192,117797,1,8,0:0:0:0:
256,192,118479,1,0,0:0:0:0:
256,192,118706,1,8,0:0:0:0:
256,192,119161,1,0,0:0:0:0:
256,192,119615,1,8,0:0:0:0:
256,192,120297,1,0,0:0:0:0:
256,192,120524,1,8,0:0:0:0:
256,192,120752,1,8,0:0:0:0:
256,192,120865,1,8,0:0:0:0:
256,192,120979,1,0,0:0:0:0:
256,192,121433,1,8,0:0:0:0:
256,192,122115,1,0,0:0:0:0:
256,192,122343,1,8,0:0:0:0:
