osu file format v14

[General]
AudioFilename: audio.mp3
AudioLeadIn: 0
PreviewTime: 27754
Countdown: 0
SampleSet: Normal
StackLeniency: 0
Mode: 1
LetterboxInBreaks: 0
WidescreenStoryboard: 0

[Editor]
Bookmarks: 17857,37651,57444,77238
DistanceSpacing: 1
BeatDivisor: 2
GridSize: 32
TimelineZoom: 2.799999

[Metadata]
Title:dyed my hair black
TitleUnicode:dyed my hair black
Artist:leroy
ArtistUnicode:leroy
Creator:Genjuro
Version:Kantan
Source:
Tags:electronic instrumental dariacore 2: enter here, hell to the left
BeatmapID:3551058
BeatmapSetID:1507426

[Difficulty]
HPDrainRate:7
CircleSize:2
OverallDifficulty:3
ApproachRate:10
SliderMultiplier:1.4
SliderTickRate:1

[Events]
//Background and Video events
0,0,"blak.jpg",0,50
//Break Periods
//Storyboard Layer 0 (Background)
//Storyboard Layer 1 (Fail)
//Storyboard Layer 2 (Pass)
//Storyboard Layer 3 (Foreground)
//Storyboard Layer 4 (Overlay)
//Storyboard Sound Samples

[TimingPoints]
3012,309.278350515464,4,1,0,75,1,0
17780,-100,4,1,0,100,0,0
17857,-100,4,1,0,100,0,1
21568,-100,4,1,0,100,0,0
22805,-100,4,1,0,100,0,1
26517,-100,4,1,0,100,0,0
27754,-100,4,1,0,100,0,1
31465,-100,4,1,0,100,0,0
32702,-100,4,1,0,100,0,1
36414,-100,4,1,0,100,0,0
57599,-100,4,1,0,75,0,0
67264,-100,4,1,0,88,0,0
96955,-100,4,1,0,100,0,0
116826,309.278350515464,4,1,0,88,1,8
117343,454.545454545455,4,1,0,88,1,1
117343,-68.041237113402,4,1,0,88,0,1
122286,-68.041237113402,4,1,0,88,0,0

[HitObjects]
256,192,537,12,0,1774,0:0:0:0:
256,192,3012,5,4,0:0:0:0:
256,192,3939,1,8,0:0:0:0:
256,192,5486,1,8,0:0:0:0:
256,192,6414,1,0,0:0:0:0:
256,192,7960,1,4,0:0:0:0:
256,192,8579,1,0,0:0:0:0:
256,192,8888,1,8,0:0:0:0:
256,192,10434,1,8,0:0:0:0:
256,192,11053,1,0,0:0:0:0:
256,192,11362,1,8,0:0:0:0:
256,192,12908,1,0,0:0:0:0:
256,192,13527,1,0,0:0:0:0:
256,192,13836,1,8,0:0:0:0:
256,192,15383,1,8,0:0:0:0:
256,192,16001,1,0,0:0:0:0:
256,192,16310,1,8,0:0:0:0:
256,192,17857,1,0,0:0:0:0:
256,192,18475,1,8,0:0:0:0:
256,192,18785,1,0,0:0:0:0:
256,192,19094,1,0,0:0:0:0:
256,192,19713,1,8,0:0:0:0:
256,192,20331,1,0,0:0:0:0:
256,192,20950,1,8,0:0:0:0:
256,192,21259,1,8,0:0:0:0:
256,192,21568,1,8,0:0:0:0:
256,192,22805,1,0,0:0:0:0:
256,192,23424,1,8,0:0:0:0:
256,192,23733,1,8,0:0:0:0:
256,192,24042,1,0,0:0:0:0:
256,192,24661,1,8,0:0:0:0:
256,192,25280,1,0,0:0:0:0:
256,192,25898,1,8,0:0:0:0:
256,192,26207,1,0,0:0:0:0:
256,192,26517,1,8,0:0:0:0:
256,192,27754,1,0,0:0:0:0:
256,192,28372,1,8,0:0:0:0:
256,192,28682,1,0,0:0:0:0:
256,192,28991,1,0,0:0:0:0:
256,192,29300,1,0,0:0:0:0:
256,192,29609,1,8,0:0:0:0:
256,192,30228,1,0,0:0:0:0:
256,192,30847,1,8,0:0:0:0:
256,192,31156,1,8,0:0:0:0:
256,192,31465,1,8,0:0:0:0:
256,192,32702,1,0,0:0:0:0:
256,192,33321,1,8,0:0:0:0:
256,192,33630,1,8,0:0:0:0:
256,192,33939,1,0,0:0:0:0:
256,192,34249,1,0,0:0:0:0:
256,192,34558,1,8,0:0:0:0:
256,192,35176,1,0,0:0:0:0:
256,192,35795,1,8,0:0:0:0:
256,192,36104,1,0,0:0:0:0:
256,192,36414,1,8,0:0:0:0:
256,192,37651,1,0,0:0:0:0:
256,192,38269,1,0,0:0:0:0:
256,192,38579,1,8,0:0:0:0:
256,192,38888,1,0,0:0:0:0:
256,192,39506,1,0,0:0:0:0:
256,192,40125,1,0,0:0:0:0:
256,192,40743,1,0,0:0:0:0:
256,192,41053,1,8,0:0:0:0:
256,192,41362,1,0,0:0:0:0:
256,192,42599,1,0,0:0:0:0:
256,192,43218,1,0,0:0:0:0:
256,192,43527,1,8,0:0:0:0:
256,192,43836,1,0,0:0:0:0:
256,192,44455,1,0,0:0:0:0:
256,192,45073,1,0,0:0:0:0:
256,192,45692,1,0,0:0:0:0:
256,192,46001,1,8,0:0:0:0:
256,192,46310,1,0,0:0:0:0:
256,192,47548,1,0,0:0:0:0:
256,192,47857,1,8,0:0:0:0:
256,192,48475,1,8,0:0:0:0:
256,192,48785,1,0,0:0:0:0:
256,192,49094,1,8,0:0:0:0:
256,192,49713,1,8,0:0:0:0:
256,192,50022,1,0,0:0:0:0:
256,192,50640,1,8,0:0:0:0:
256,192,51259,1,0,0:0:0:0:
256,192,52496,1,0,0:0:0:0:
256,192,52805,1,8,0:0:0:0:
256,192,53424,1,8,0:0:0:0:
256,192,53733,1,0,0:0:0:0:
256,192,54042,1,8,0:0:0:0:
256,192,54661,1,8,0:0:0:0:
256,192,54970,1,0,0:0:0:0:
256,192,55589,1,8,0:0:0:0:
256,192,56207,1,0,0:0:0:0:
256,192,57444,1,4,0:0:0:0:
256,192,58682,1,0,0:0:0:0:
256,192,59919,1,8,0:0:0:0:
256,192,61156,1,8,0:0:0:0:
256,192,62393,1,0,0:0:0:0:
256,192,63012,1,0,0:0:0:0:
256,192,63630,1,8,0:0:0:0:
256,192,64867,1,8,0:0:0:0:
256,192,65486,1,8,0:0:0:0:
256,192,65795,1,0,0:0:0:0:
256,192,67341,12,0,68579,0:0:0:0:
256,192,69816,12,0,71053,0:0:0:0:
256,192,72290,12,0,73527,0:0:0:0:
256,192,74764,12,0,76001,0:0:0:0:
256,192,77238,5,0,0:0:0:0:
256,192,77857,1,0,0:0:0:0:
256,192,78475,1,0,0:0:0:0:
256,192,79094,1,0,0:0:0:0:
256,192,79713,1,8,0:0:0:0:
256,192,80331,1,8,0:0:0:0:
256,192,80640,1,8,0:0:0:0:
256,192,80950,1,8,0:0:0:0:
256,192,82187,1,0,0:0:0:0:
256,192,82805,1,0,0:0:0:0:
256,192,83424,1,0,0:0:0:0:
256,192,84042,1,0,0:0:0:0:
256,192,84661,1,8,0:0:0:0:
256,192,85280,1,8,0:0:0:0:
256,192,85589,1,8,0:0:0:0:
256,192,85898,1,8,0:0:0:0:
256,192,87135,1,0,0:0:0:0:
256,192,87754,1,8,0:0:0:0:
256,192,88063,1,8,0:0:0:0:
256,192,88372,1,0,0:0:0:0:
256,192,88991,1,0,0:0:0:0:
256,192,89609,1,8,0:0:0:0:
256,192,90228,1,8,0:0:0:0:
256,192,90537,1,8,0:0:0:0:
256,192,90847,1,8,0:0:0:0:
256,192,92084,1,0,0:0:0:0:
256,192,92702,1,8,0:0:0:0:
256,192,93012,1,8,0:0:0:0:
256,192,93321,1,0,0:0:0:0:
256,192,93939,1,0,0:0:0:0:
256,192,94558,1,8,0:0:0:0:
256,192,95176,1,8,0:0:0:0:
256,192,95486,1,8,0:0:0:0:
256,192,95795,1,8,0:0:0:0:
256,192,97032,1,0,0:0:0:0:
256,192,97341,1,0,0:0:0:0:
256,192,97651,1,8,0:0:0:0:
256,192,98269,1,0,0:0:0:0:
256,192,98888,1,8,0:0:0:0:
256,192,99506,1,0,0:0:0:0:
256,192,99816,1,0,0:0:0:0:
256,192,100125,1,8,0:0:0:0:
256,192,100434,1,0,0:0:0:0:
256,192,100743,1,0,0:0:0:0:
256,192,101981,1,0,0:0:0:0:
256,192,102290,1,0,0:0:0:0:
256,192,102599,1,8,0:0:0:0:
256,192,103218,1,0,0:0:0:0:
256,192,103836,1,8,0:0:0:0:
256,192,104455,1,0,0:0:0:0:
256,192,104764,1,0,0:0:0:0:
256,192,105073,1,8,0:0:0:0:
256,192,105383,1,0,0:0:0:0:
256,192,105692,1,0,0:0:0:0:
256,192,106929,1,0,0:0:0:0:
256,192,107238,1,0,0:0:0:0:
256,192,107548,1,8,0:0:0:0:
256,192,108166,1,8,0:0:0:0:
256,192,108475,1,0,0:0:0:0:
256,192,108785,1,8,0:0:0:0:
256,192,109403,1,0,0:0:0:0:
256,192,109713,1,0,0:0:0:0:
256,192,110022,1,8,0:0:0:0:
256,192,110331,1,8,0:0:0:0:
256,192,110640,1,0,0:0:0:0:
256,192,111877,1,0,0:0:0:0:
256,192,112187,1,0,0:0:0:0:
256,192,112496,1,8,0:0:0:0:
256,192,113115,1,8,0:0:0:0:
256,192,113424,1,0,0:0:0:0:
256,192,113733,1,8,0:0:0:0:
256,192,114352,1,0,0:0:0:0:
256,192,114661,1,0,0:0:0:0:
256,192,114970,1,8,0:0:0:0:
256,192,115280,1,8,0:0:0:0:
256,192,115589,1,0,0:0:0:0:
256,192,117343,1,4,0:0:0:0:
256,192,118479,1,8,0:0:0:0:
256,192,119161,1,0,0:0:0:0:
256,192,120297,1,8,0:0:0:0:
256,192,120979,1,0,0:0:0:0:
256,192,122115,1,8,0:0:0:0:
