osu file format v14

[General]
AudioFilename: audio.mp3
AudioLeadIn: 0
PreviewTime: 27754
Countdown: 0
SampleSet: Normal
StackLeniency: 0
Mode: 1
LetterboxInBreaks: 0
WidescreenStoryboard: 0

[Editor]
Bookmarks: 17857,37651,57444,77238
DistanceSpacing: 1
BeatDivisor: 8
GridSize: 32
TimelineZoom: 2.799999

[Metadata]
Title:dyed my hair black
TitleUnicode:dyed my hair black
Artist:leroy
ArtistUnicode:leroy
Creator:Genjuro
Version:'-'
Source:
Tags:electronic instrumental dariacore 2: enter here, hell to the left
BeatmapID:3087420
BeatmapSetID:1507426

[Difficulty]
HPDrainRate:6
CircleSize:2
OverallDifficulty:6
ApproachRate:10
SliderMultiplier:1.4
SliderTickRate:1

[Events]
//Background and Video events
0,0,"blak.jpg",0,50
//Break Periods
//Storyboard Layer 0 (Background)
//Storyboard Layer 1 (Fail)
//Storyboard Layer 2 (Pass)
//Storyboard Layer 3 (Foreground)
//Storyboard Layer 4 (Overlay)
//Storyboard Sound Samples

[TimingPoints]
3012,309.278350515464,4,1,0,75,1,0
3012,-114.285714285714,4,1,0,75,0,0
3166,-133.333333333333,4,1,0,75,0,0
6568,-100,4,1,0,75,0,0
6723,-102.843626266262,4,1,0,75,0,0
6826,-104.830923445122,4,1,0,75,0,0
6929,-106.896536979788,4,1,0,75,0,0
7032,-109.045189416946,4,1,0,75,0,0
7187,-112.435223257001,4,1,0,75,0,0
7341,-116.042801226804,4,1,0,75,0,0
7548,-121.22901980276,4,1,0,75,0,0
7960,-114.285714285714,4,1,0,75,0,0
8115,-133.231011916182,4,1,0,75,0,0
9352,-114.285714285714,4,1,0,75,0,0
9816,-133.231011916182,4,1,0,75,0,0
10048,-114.285714285714,4,1,0,75,0,0
10280,-125,4,1,0,75,0,0
10434,-133.333333333333,4,1,0,75,0,0
10666,-114.285714285714,4,1,0,75,0,0
10898,-125,4,1,0,75,0,0
11053,-133.333333333333,4,1,0,75,0,0
11285,-114.285714285714,4,1,0,75,0,0
11517,-125,4,1,0,75,0,0
11671,-133.333333333333,4,1,0,75,0,0
11903,-114.285714285714,4,1,0,75,0,0
12135,-125,4,1,0,75,0,0
12290,-133.333333333333,4,1,0,75,0,0
12522,-114.285714285714,4,1,0,75,0,0
12599,-117.647058823529,4,1,0,75,0,0
12754,-125,4,1,0,75,0,0
12908,-160,4,1,0,75,0,0
13140,-114.285714285714,4,1,0,75,0,0
13372,-125,4,1,0,75,0,0
13526,-160,4,1,0,75,0,0
13759,-114.285714285714,4,1,0,75,0,0
13836,-117.647058823529,4,1,0,75,0,0
13991,-125,4,1,0,75,0,0
14145,-160,4,1,0,75,0,0
14377,-114.285714285714,4,1,0,75,0,0
14609,-125,4,1,0,75,0,0
14764,-160,4,1,0,75,0,0
14996,-114.285714285714,4,1,0,75,0,0
15073,-117.647058823529,4,1,0,75,0,0
15228,-125,4,1,0,75,0,0
15383,-160,4,1,0,75,0,0
15615,-114.285714285714,4,1,0,75,0,0
15847,-125,4,1,0,75,0,0
16001,-160,4,1,0,75,0,0
16233,-114.285714285714,4,1,0,75,0,0
16310,-117.647058823529,4,1,0,75,0,0
16465,-125,4,1,0,75,0,0
16620,-160,4,1,0,75,0,0
17238,-66.6666666666667,4,1,0,75,0,0
17780,-66.6666666666667,4,1,0,100,0,0
17857,-100,4,1,0,100,0,1
18012,-80,4,1,0,100,0,1
18089,-83.3333333333333,4,1,0,100,0,1
18166,-86.9565217391304,4,1,0,100,0,1
18321,-80,4,1,0,100,0,1
18398,-83.3333333333333,4,1,0,100,0,1
18475,-86.9565217391304,4,1,0,100,0,1
18553,-90.9090909090909,4,1,0,100,0,1
18630,-95.2380952380952,4,1,0,100,0,1
18785,-80,4,1,0,100,0,1
18862,-82.0512820512821,4,1,0,100,0,1
19017,-86.4864864864865,4,1,0,100,0,1
19094,-88.8888888888889,4,1,0,100,0,1
19249,-94.1176470588235,4,1,0,100,0,1
19403,-80,4,1,0,100,0,1
19481,-82.0083517305402,4,1,0,100,0,1
19558,-84.1201370148792,4,1,0,100,0,1
19635,-86.3436321139598,4,1,0,100,0,1
19713,-88.6877844106386,4,1,0,100,0,1
19867,-100,4,1,0,100,0,1
19919,-98.0392156862745,4,1,0,100,0,1
19970,-96.1538461538461,4,1,0,100,0,1
20022,-94.3396226415094,4,1,0,100,0,1
20176,-88.8888888888889,4,1,0,100,0,1
20228,-85.8369098712446,4,1,0,100,0,1
20280,-82.9875518672199,4,1,0,100,0,1
20331,-80.3212851405622,4,1,0,100,0,1
20486,-80,4,1,0,100,0,1
20563,-83.3333333333333,4,1,0,100,0,1
20640,-86.9565217391304,4,1,0,100,0,1
20795,-80,4,1,0,100,0,1
20872,-83.3333333333333,4,1,0,100,0,1
20950,-86.9565217391304,4,1,0,100,0,1
21027,-90.9090909090909,4,1,0,100,0,1
21104,-95.2380952380952,4,1,0,100,0,1
21259,-80,4,1,0,100,0,1
21336,-83.3333333333333,4,1,0,100,0,1
21414,-86.9565217391304,4,1,0,100,0,1
21568,-133.333333333333,4,1,0,100,0,0
22187,-66.6666666666667,4,1,0,100,0,0
22805,-100,4,1,0,100,0,1
22955,-80,4,1,0,100,0,1
23032,-83.3333333333333,4,1,0,100,0,1
23109,-86.9565217391304,4,1,0,100,0,1
23264,-80,4,1,0,100,0,1
23341,-83.3333333333333,4,1,0,100,0,1
23418,-86.9565217391304,4,1,0,100,0,1
23496,-90.9090909090909,4,1,0,100,0,1
23573,-95.2380952380952,4,1,0,100,0,1
23728,-80,4,1,0,100,0,1
23805,-82.0512820512821,4,1,0,100,0,1
23960,-86.4864864864865,4,1,0,100,0,1
24037,-88.8888888888889,4,1,0,100,0,1
24192,-94.1176470588235,4,1,0,100,0,1
24346,-80,4,1,0,100,0,1
24424,-82.0083517305402,4,1,0,100,0,1
24501,-84.1201370148792,4,1,0,100,0,1
24578,-86.3436321139598,4,1,0,100,0,1
24656,-88.6877844106386,4,1,0,100,0,1
24810,-100,4,1,0,100,0,1
24862,-98.0392156862745,4,1,0,100,0,1
24913,-96.1538461538461,4,1,0,100,0,1
24965,-94.3396226415094,4,1,0,100,0,1
25119,-88.8888888888889,4,1,0,100,0,1
25171,-85.8369098712446,4,1,0,100,0,1
25223,-82.9875518672199,4,1,0,100,0,1
25274,-80.3212851405622,4,1,0,100,0,1
25429,-80,4,1,0,100,0,1
25506,-83.3333333333333,4,1,0,100,0,1
25583,-86.9565217391304,4,1,0,100,0,1
25738,-80,4,1,0,100,0,1
25815,-83.3333333333333,4,1,0,100,0,1
25893,-86.9565217391304,4,1,0,100,0,1
25970,-90.9090909090909,4,1,0,100,0,1
26047,-95.2380952380952,4,1,0,100,0,1
26202,-80,4,1,0,100,0,1
26279,-83.3333333333333,4,1,0,100,0,1
26357,-86.9565217391304,4,1,0,100,0,1
26517,-133.333333333333,4,1,0,100,0,0
27135,-66.6666666666667,4,1,0,100,0,0
27754,-80,4,1,0,100,0,1
27903,-66.6666666666667,4,1,0,100,0,1
27981,-70.1754385964912,4,1,0,100,0,1
28058,-74.0740740740741,4,1,0,100,0,1
28135,-78.4313725490196,4,1,0,100,0,1
28213,-83.3333333333333,4,1,0,100,0,1
28367,-66.6666666666667,4,1,0,100,0,1
28445,-70.1754385964912,4,1,0,100,0,1
28522,-74.0740740740741,4,1,0,100,0,1
28677,-66.6666666666667,4,1,0,100,0,1
28754,-69.5652173913043,4,1,0,100,0,1
28909,-76.1904761904762,4,1,0,100,0,1
28986,-80,4,1,0,100,0,1
29063,-84.2105263157895,4,1,0,100,0,1
29141,-88.8888888888889,4,1,0,100,0,1
29295,-66.6666666666667,4,1,0,100,0,1
29372,-69.5652173913043,4,1,0,100,0,1
29450,-72.7272727272727,4,1,0,100,0,1
29527,-76.1904761904762,4,1,0,100,0,1
29604,-80,4,1,0,100,0,1
29759,-100,4,1,0,100,0,1
29811,-96.1538461538461,4,1,0,100,0,1
29862,-92.5925925925926,4,1,0,100,0,1
29914,-89.2857142857143,4,1,0,100,0,1
30068,-80,4,1,0,100,0,1
30120,-75.187969924812,4,1,0,100,0,1
30171,-70.9219858156028,4,1,0,100,0,1
30223,-67.1140939597315,4,1,0,100,0,1
30378,-66.6666666666667,4,1,0,100,0,1
30456,-70.1754385964912,4,1,0,100,0,1
30533,-74.0740740740741,4,1,0,100,0,1
30610,-78.4313725490196,4,1,0,100,0,1
30688,-83.3333333333333,4,1,0,100,0,1
30842,-66.6666666666667,4,1,0,100,0,1
30920,-70.1754385964912,4,1,0,100,0,1
30997,-74.0740740740741,4,1,0,100,0,1
31074,-78.4313725490196,4,1,0,100,0,1
31152,-83.3333333333333,4,1,0,100,0,1
31305,-66.6666666666667,4,1,0,100,0,1
31465,-133.333333333333,4,1,0,100,0,0
32079,-66.6666666666667,4,1,0,100,0,0
32702,-80,4,1,0,100,0,1
32851,-66.6666666666667,4,1,0,100,0,1
32929,-70.1754385964912,4,1,0,100,0,1
33006,-74.0740740740741,4,1,0,100,0,1
33083,-78.4313725490196,4,1,0,100,0,1
33161,-83.3333333333333,4,1,0,100,0,1
33315,-66.6666666666667,4,1,0,100,0,1
33393,-70.1754385964912,4,1,0,100,0,1
33470,-74.0740740740741,4,1,0,100,0,1
33625,-66.6666666666667,4,1,0,100,0,1
33702,-69.5652173913043,4,1,0,100,0,1
33857,-76.1904761904762,4,1,0,100,0,1
33934,-80,4,1,0,100,0,1
34011,-84.2105263157895,4,1,0,100,0,1
34089,-88.8888888888889,4,1,0,100,0,1
34243,-66.6666666666667,4,1,0,100,0,1
34320,-69.5652173913043,4,1,0,100,0,1
34398,-72.7272727272727,4,1,0,100,0,1
34475,-76.1904761904762,4,1,0,100,0,1
34552,-80,4,1,0,100,0,1
34707,-100,4,1,0,100,0,1
34759,-96.1538461538461,4,1,0,100,0,1
34810,-92.5925925925926,4,1,0,100,0,1
34862,-89.2857142857143,4,1,0,100,0,1
35016,-80,4,1,0,100,0,1
35068,-75.187969924812,4,1,0,100,0,1
35119,-70.9219858156028,4,1,0,100,0,1
35171,-67.1140939597315,4,1,0,100,0,1
35326,-66.6666666666667,4,1,0,100,0,1
35404,-70.1754385964912,4,1,0,100,0,1
35481,-74.0740740740741,4,1,0,100,0,1
35558,-78.4313725490196,4,1,0,100,0,1
35636,-83.3333333333333,4,1,0,100,0,1
35790,-66.6666666666667,4,1,0,100,0,1
35868,-70.1754385964912,4,1,0,100,0,1
35945,-74.0740740740741,4,1,0,100,0,1
36022,-78.4313725490196,4,1,0,100,0,1
36100,-83.3333333333333,4,1,0,100,0,1
36253,-66.6666666666667,4,1,0,100,0,1
36414,-133.333333333333,4,1,0,100,0,0
37027,-66.6666666666667,4,1,0,100,0,0
37651,-100,4,1,0,100,0,0
41362,-133.333333333333,4,1,0,100,0,0
42187,-128.634404300505,4,1,0,100,0,0
42238,-124.255245124535,4,1,0,100,0,0
42290,-120.164577405214,4,1,0,100,0,0
42444,-109.363243451329,4,1,0,100,0,0
42496,-106.181798103805,4,1,0,100,0,0
42548,-103.1802207644,4,1,0,100,0,0
42599,-100.343677094047,4,1,0,100,0,0
46310,-133.333333333333,4,1,0,100,0,0
47548,-66.6666666666667,4,1,0,100,0,0
51259,-100,4,1,0,100,0,0
52496,-66.6666666666667,4,1,0,100,0,0
56207,-100,4,1,0,100,0,0
57444,-66.6666666666667,4,1,0,100,0,0
57599,-133.333333333333,4,1,0,75,0,0
67264,-114.285714285714,4,1,0,88,0,0
69816,-100,4,1,0,88,0,0
72290,-88.8888888888889,4,1,0,88,0,0
74455,-66.6666666666667,4,1,0,88,0,0
74764,-80,4,1,0,88,0,0
76620,-66.6666666666667,4,1,0,88,0,0
77161,-200,4,1,0,88,0,0
87130,-160,4,1,0,88,0,0
87285,-168.421052631579,4,1,0,88,0,0
87440,-177.777777777778,4,1,0,88,0,0
87517,-182.857142857143,4,1,0,88,0,0
87594,-188.235294117647,4,1,0,88,0,0
87749,-133.333333333333,4,1,0,88,0,0
87903,-139.130434782609,4,1,0,88,0,0
88058,-145.454545454545,4,1,0,88,0,0
88135,-148.837209302326,4,1,0,88,0,0
88213,-152.380952380952,4,1,0,88,0,0
88367,-160,4,1,0,88,0,0
88522,-168.421052631579,4,1,0,88,0,0
88677,-177.777777777778,4,1,0,88,0,0
88754,-182.857142857143,4,1,0,88,0,0
88831,-188.235294117647,4,1,0,88,0,0
88986,-133.333333333333,4,1,0,88,0,0
89141,-139.130434782609,4,1,0,88,0,0
89295,-145.454545454545,4,1,0,88,0,0
89372,-148.837209302326,4,1,0,88,0,0
89450,-152.380952380952,4,1,0,88,0,0
89527,-156.09756097561,4,1,0,88,0,0
89604,-160,4,1,0,88,0,0
89759,-168.421052631579,4,1,0,88,0,0
89914,-177.777777777778,4,1,0,88,0,0
89991,-182.857142857143,4,1,0,88,0,0
90068,-188.235294117647,4,1,0,88,0,0
90223,-133.333333333333,4,1,0,88,0,0
90378,-139.130434782609,4,1,0,88,0,0
90532,-145.454545454545,4,1,0,88,0,0
90610,-148.837209302326,4,1,0,88,0,0
90764,-156.09756097561,4,1,0,88,0,0
90842,-160,4,1,0,88,0,0
90996,-168.421052631579,4,1,0,88,0,0
91048,-171.428669387811,4,1,0,88,0,0
91099,-174.545352991795,4,1,0,88,0,0
91151,-177.777777777778,4,1,0,88,0,0
91305,-188.235294117647,4,1,0,88,0,0
91465,-200,4,1,0,88,0,0
91620,-188.349456046771,4,1,0,88,0,0
91774,-177.98154687322,4,1,0,88,0,0
91852,-173.214161989884,4,1,0,88,0,0
92084,-160.330665965487,4,1,0,88,0,0
92234,-168.421052631579,4,1,0,88,0,0
92389,-177.777777777778,4,1,0,88,0,0
92466,-182.857142857143,4,1,0,88,0,0
92543,-188.235294117647,4,1,0,88,0,0
92698,-133.333333333333,4,1,0,88,0,0
92852,-139.130434782609,4,1,0,88,0,0
93007,-145.454545454545,4,1,0,88,0,0
93084,-148.837209302326,4,1,0,88,0,0
93162,-152.380952380952,4,1,0,88,0,0
93316,-160,4,1,0,88,0,0
93471,-168.421052631579,4,1,0,88,0,0
93626,-177.777777777778,4,1,0,88,0,0
93703,-182.857142857143,4,1,0,88,0,0
93780,-188.235294117647,4,1,0,88,0,0
93935,-133.333333333333,4,1,0,88,0,0
94090,-139.130434782609,4,1,0,88,0,0
94244,-145.454545454545,4,1,0,88,0,0
94321,-148.837209302326,4,1,0,88,0,0
94399,-152.380952380952,4,1,0,88,0,0
94476,-156.09756097561,4,1,0,88,0,0
94553,-160,4,1,0,88,0,0
94708,-168.421052631579,4,1,0,88,0,0
94863,-177.777777777778,4,1,0,88,0,0
94940,-182.857142857143,4,1,0,88,0,0
95017,-188.235294117647,4,1,0,88,0,0
95172,-133.333333333333,4,1,0,88,0,0
95327,-139.130434782609,4,1,0,88,0,0
95481,-145.454545454545,4,1,0,88,0,0
95559,-148.837209302326,4,1,0,88,0,0
95713,-156.09756097561,4,1,0,88,0,0
95791,-160,4,1,0,88,0,0
95945,-168.421052631579,4,1,0,88,0,0
95997,-171.428669387811,4,1,0,88,0,0
96048,-174.545352991795,4,1,0,88,0,0
96100,-177.777777777778,4,1,0,88,0,0
96955,-200,4,1,0,100,0,0
97182,-188.349456046771,4,1,0,100,0,0
97259,-183.018785048097,4,1,0,100,0,0
97336,-177.98154687322,4,1,0,100,0,0
97414,-173.214161989884,4,1,0,100,0,0
97491,-168.695511349834,4,1,0,100,0,0
97646,-160,4,1,0,100,0,0
97723,-164.102564102564,4,1,0,100,0,0
97800,-168.421052631579,4,1,0,100,0,0
97955,-177.777777777778,4,1,0,100,0,0
98032,-182.857142857143,4,1,0,100,0,0
98110,-188.235294117647,4,1,0,100,0,0
98264,-200,4,1,0,100,0,0
98419,-177.98154687322,4,1,0,100,0,0
98496,-168.695511349834,4,1,0,100,0,0
98574,-160.330665965487,4,1,0,100,0,0
98651,-152.755946407104,4,1,0,100,0,0
98728,-145.864663847589,4,1,0,100,0,0
98883,-133.333333333333,4,1,0,100,0,0
98960,-139.130434782609,4,1,0,100,0,0
99037,-145.454545454545,4,1,0,100,0,0
99115,-152.380952380952,4,1,0,100,0,0
99192,-160,4,1,0,100,0,0
99269,-168.421052631579,4,1,0,100,0,0
99347,-177.777777777778,4,1,0,100,0,0
99496,-200,4,1,0,100,0,0
99651,-188.349456046771,4,1,0,100,0,0
99728,-183.018785048097,4,1,0,100,0,0
99805,-177.98154687322,4,1,0,100,0,0
99883,-173.214161989884,4,1,0,100,0,0
99960,-168.695511349834,4,1,0,100,0,0
100115,-160,4,1,0,100,0,0
100192,-164.102564102564,4,1,0,100,0,0
100269,-168.421052631579,4,1,0,100,0,0
100429,-133.333333333333,4,1,0,100,0,0
100507,-137.115904073713,4,1,0,100,0,0
100661,-145.36341580769,4,1,0,100,0,0
100738,-149.870886231512,4,1,0,100,0,0
100893,-159.77963193164,4,1,0,100,0,0
100945,-163.380272485618,4,1,0,100,0,0
100996,-167.146935528084,4,1,0,100,0,0
101048,-171.091374770524,4,1,0,100,0,0
101202,-184.127136104938,4,1,0,100,0,0
101357,-200,4,1,0,100,0,0
101512,-188.349456046771,4,1,0,100,0,0
101666,-177.98154687322,4,1,0,100,0,0
101744,-173.214161989884,4,1,0,100,0,0
101976,-200,4,1,0,100,0,0
102131,-188.349456046771,4,1,0,100,0,0
102208,-183.018785048097,4,1,0,100,0,0
102285,-177.98154687322,4,1,0,100,0,0
102363,-173.214161989884,4,1,0,100,0,0
102440,-168.695511349834,4,1,0,100,0,0
102595,-160,4,1,0,100,0,0
102672,-164.102564102564,4,1,0,100,0,0
102749,-168.421052631579,4,1,0,100,0,0
102904,-177.777777777778,4,1,0,100,0,0
102981,-182.857142857143,4,1,0,100,0,0
103059,-188.235294117647,4,1,0,100,0,0
103213,-200,4,1,0,100,0,0
103368,-177.98154687322,4,1,0,100,0,0
103445,-168.695511349834,4,1,0,100,0,0
103523,-160.330665965487,4,1,0,100,0,0
103600,-152.755946407104,4,1,0,100,0,0
103677,-145.864663847589,4,1,0,100,0,0
103832,-133.333333333333,4,1,0,100,0,0
103909,-139.130434782609,4,1,0,100,0,0
103986,-145.454545454545,4,1,0,100,0,0
104064,-152.380952380952,4,1,0,100,0,0
104141,-160,4,1,0,100,0,0
104218,-168.421052631579,4,1,0,100,0,0
104296,-177.777777777778,4,1,0,100,0,0
104445,-200,4,1,0,100,0,0
104600,-188.349456046771,4,1,0,100,0,0
104677,-183.018785048097,4,1,0,100,0,0
104754,-177.98154687322,4,1,0,100,0,0
104832,-173.214161989884,4,1,0,100,0,0
104909,-168.695511349834,4,1,0,100,0,0
105064,-160,4,1,0,100,0,0
105141,-164.102564102564,4,1,0,100,0,0
105218,-168.421052631579,4,1,0,100,0,0
105378,-133.333333333333,4,1,0,100,0,0
105456,-137.115904073713,4,1,0,100,0,0
105610,-145.36341580769,4,1,0,100,0,0
105687,-149.870886231512,4,1,0,100,0,0
105842,-159.77963193164,4,1,0,100,0,0
105894,-163.380272485618,4,1,0,100,0,0
105945,-167.146935528084,4,1,0,100,0,0
105997,-171.091374770524,4,1,0,100,0,0
106151,-184.127136104938,4,1,0,100,0,0
106306,-200,4,1,0,100,0,0
106461,-188.349456046771,4,1,0,100,0,0
106926,-200,4,1,0,100,0,0
107081,-133.333333333333,4,1,0,100,0,0
107158,-142.857142857143,4,1,0,100,0,0
107235,-153.846153846154,4,1,0,100,0,0
107313,-166.666666666667,4,1,0,100,0,0
107390,-181.818181818182,4,1,0,100,0,0
107545,-133.333333333333,4,1,0,100,0,0
107622,-142.857142857143,4,1,0,100,0,0
107699,-153.846153846154,4,1,0,100,0,0
107854,-133.333333333333,4,1,0,100,0,0
107931,-142.857142857143,4,1,0,100,0,0
108008,-153.846153846154,4,1,0,100,0,0
108163,-133.333333333333,4,1,0,100,0,0
108318,-145.318421725685,4,1,0,100,0,0
108395,-152.156977310352,4,1,0,100,0,0
108472,-159.670695158306,4,1,0,100,0,0
108550,-167.965318521032,4,1,0,100,0,0
108627,-177.168946535727,4,1,0,100,0,0
108782,-200,4,1,0,100,0,0
108859,-188.235294117647,4,1,0,100,0,0
108936,-177.777777777778,4,1,0,100,0,0
109014,-168.421052631579,4,1,0,100,0,0
109091,-160,4,1,0,100,0,0
109168,-152.380952380952,4,1,0,100,0,0
109246,-145.454545454545,4,1,0,100,0,0
109400,-133.333333333333,4,1,0,100,0,0
109555,-181.818181818181,4,1,0,100,0,0
109632,-166.666666666667,4,1,0,100,0,0
109710,-153.846153846153,4,1,0,100,0,0
109787,-142.857142857143,4,1,0,100,0,0
109864,-133.333333333333,4,1,0,100,0,0
110019,-181.818181818181,4,1,0,100,0,0
110096,-166.666666666667,4,1,0,100,0,0
110173,-153.846153846153,4,1,0,100,0,0
110328,-181.818181818181,4,1,0,100,0,0
110405,-166.666666666667,4,1,0,100,0,0
110560,-181.818181818181,4,1,0,100,0,0
110637,-166.666666666667,4,1,0,100,0,0
110792,-160,4,1,0,100,0,0
110844,-163.58553314979,4,1,0,100,0,0
110895,-167.335170673507,4,1,0,100,0,0
110947,-171.261029210281,4,1,0,100,0,0
111101,-184.227203725811,4,1,0,100,0,0
111256,-200,4,1,0,100,0,0
111411,-177.777777777778,4,1,0,100,0,0
111565,-160,4,1,0,100,0,0
111643,-152.380952380952,4,1,0,100,0,0
111870,-200,4,1,0,100,0,0
112025,-133.333333333333,4,1,0,100,0,0
112102,-142.857142857143,4,1,0,100,0,0
112179,-153.846153846154,4,1,0,100,0,0
112257,-166.666666666667,4,1,0,100,0,0
112334,-181.818181818182,4,1,0,100,0,0
112489,-133.333333333333,4,1,0,100,0,0
112566,-142.857142857143,4,1,0,100,0,0
112643,-153.846153846154,4,1,0,100,0,0
112798,-133.333333333333,4,1,0,100,0,0
112875,-142.857142857143,4,1,0,100,0,0
112952,-153.846153846154,4,1,0,100,0,0
113107,-133.333333333333,4,1,0,100,0,0
113262,-145.318421725685,4,1,0,100,0,0
113339,-152.156977310352,4,1,0,100,0,0
113416,-159.670695158306,4,1,0,100,0,0
113494,-167.965318521032,4,1,0,100,0,0
113571,-177.168946535727,4,1,0,100,0,0
113726,-200,4,1,0,100,0,0
113803,-188.235294117647,4,1,0,100,0,0
113880,-177.777777777778,4,1,0,100,0,0
113958,-168.421052631579,4,1,0,100,0,0
114035,-160,4,1,0,100,0,0
114112,-152.380952380952,4,1,0,100,0,0
114190,-145.454545454545,4,1,0,100,0,0
114344,-133.333333333333,4,1,0,100,0,0
114499,-181.818181818181,4,1,0,100,0,0
114576,-166.666666666667,4,1,0,100,0,0
114654,-153.846153846153,4,1,0,100,0,0
114731,-142.857142857143,4,1,0,100,0,0
114808,-133.333333333333,4,1,0,100,0,0
114963,-181.818181818181,4,1,0,100,0,0
115040,-166.666666666667,4,1,0,100,0,0
115117,-153.846153846153,4,1,0,100,0,0
115272,-181.818181818181,4,1,0,100,0,0
115349,-166.666666666667,4,1,0,100,0,0
115504,-181.818181818181,4,1,0,100,0,0
115581,-166.666666666667,4,1,0,100,0,0
115736,-160,4,1,0,100,0,0
115788,-163.58553314979,4,1,0,100,0,0
115839,-167.335170673507,4,1,0,100,0,0
115891,-171.261029210281,4,1,0,100,0,0
116826,309.278350515464,4,1,0,88,1,8
117343,454.545454545455,4,1,0,88,1,1
117343,-66.6666666666667,4,1,0,88,0,1
122286,-36.3636363636364,4,1,0,88,0,0

[HitObjects]
256,192,537,12,0,1774,0:0:0:0:
256,192,3012,5,4,0:0:0:0:
256,192,3321,1,8,0:0:0:0:
256,192,3475,1,0,0:0:0:0:
256,192,3785,1,0,0:0:0:0:
256,192,4094,1,8,0:0:0:0:
256,192,4403,1,0,0:0:0:0:
256,192,4713,1,8,0:0:0:0:
256,192,4867,1,8,0:0:0:0:
256,192,5176,1,8,0:0:0:0:
256,192,5486,1,0,0:0:0:0:
256,192,5795,1,8,0:0:0:0:
256,192,5950,1,0,0:0:0:0:
256,192,6259,1,0,0:0:0:0:
256,192,6568,1,8,0:0:0:0:
256,192,6826,1,8,0:0:0:0:
256,192,6929,1,8,0:0:0:0:
256,192,7032,1,8,0:0:0:0:
256,192,7187,1,8,0:0:0:0:
256,192,7341,1,8,0:0:0:0:
256,192,7548,1,8,0:0:0:0:
256,192,7960,1,4,0:0:0:0:
256,192,8424,1,0,0:0:0:0:
256,192,8579,1,8,0:0:0:0:
256,192,8888,1,0,0:0:0:0:
256,192,9352,1,8,0:0:0:0:
256,192,9816,1,0,0:0:0:0:
256,192,10048,1,8,0:0:0:0:
256,192,10280,1,8,0:0:0:0:
256,192,10434,1,0,0:0:0:0:
256,192,10666,1,8,0:0:0:0:
256,192,10898,1,8,0:0:0:0:
256,192,11053,1,0,0:0:0:0:
256,192,11285,1,8,0:0:0:0:
256,192,11517,1,8,0:0:0:0:
256,192,11671,1,0,0:0:0:0:
256,192,11903,1,8,0:0:0:0:
256,192,12135,1,8,0:0:0:0:
256,192,12290,1,0,0:0:0:0:
256,192,12522,1,8,0:0:0:0:
256,192,12599,1,8,0:0:0:0:
256,192,12754,1,8,0:0:0:0:
256,192,12908,1,0,0:0:0:0:
256,192,13140,1,8,0:0:0:0:
256,192,13372,1,8,0:0:0:0:
256,192,13527,1,0,0:0:0:0:
256,192,13759,1,8,0:0:0:0:
256,192,13836,1,0,0:0:0:0:
256,192,13991,1,8,0:0:0:0:
256,192,14146,1,0,0:0:0:0:
256,192,14377,1,8,0:0:0:0:
256,192,14609,1,8,0:0:0:0:
256,192,14764,1,0,0:0:0:0:
256,192,14996,1,8,0:0:0:0:
256,192,15073,1,8,0:0:0:0:
256,192,15228,1,8,0:0:0:0:
256,192,15383,1,0,0:0:0:0:
256,192,15615,1,8,0:0:0:0:
256,192,15847,1,8,0:0:0:0:
256,192,16001,1,0,0:0:0:0:
256,192,16233,1,8,0:0:0:0:
256,192,16310,1,0,0:0:0:0:
256,192,16465,1,8,0:0:0:0:
256,192,16620,1,0,0:0:0:0:
256,192,16929,1,0,0:0:0:0:
256,192,17238,1,8,0:0:0:0:
256,192,17341,1,8,0:0:0:0:
256,192,17444,1,8,0:0:0:0:
256,192,17857,1,0,0:0:0:0:
256,192,18012,1,8,0:0:0:0:
256,192,18089,1,8,0:0:0:0:
256,192,18166,1,0,0:0:0:0:
256,192,18321,1,0,0:0:0:0:
256,192,18398,1,0,0:0:0:0:
256,192,18475,1,8,0:0:0:0:
256,192,18553,1,0,0:0:0:0:
256,192,18630,1,0,0:0:0:0:
256,192,18785,1,8,0:0:0:0:
256,192,18862,1,0,0:0:0:0:
256,192,19017,1,0,0:0:0:0:
256,192,19094,1,8,0:0:0:0:
256,192,19249,1,0,0:0:0:0:
256,192,19403,1,8,0:0:0:0:
256,192,19481,1,0,0:0:0:0:
256,192,19558,1,0,0:0:0:0:
256,192,19635,1,0,0:0:0:0:
256,192,19713,1,8,0:0:0:0:
256,192,19867,1,0,0:0:0:0:
256,192,19919,1,0,0:0:0:0:
256,192,19970,1,0,0:0:0:0:
256,192,20022,1,0,0:0:0:0:
256,192,20176,1,8,0:0:0:0:
256,192,20228,1,8,0:0:0:0:
256,192,20280,1,8,0:0:0:0:
256,192,20331,1,0,0:0:0:0:
256,192,20486,1,0,0:0:0:0:
256,192,20563,1,0,0:0:0:0:
256,192,20640,1,8,0:0:0:0:
256,192,20795,1,0,0:0:0:0:
256,192,20872,1,8,0:0:0:0:
256,192,20950,1,8,0:0:0:0:
256,192,21027,1,8,0:0:0:0:
256,192,21104,1,0,0:0:0:0:
256,192,21259,1,8,0:0:0:0:
256,192,21336,1,8,0:0:0:0:
256,192,21414,1,8,0:0:0:0:
256,192,21568,1,0,0:0:0:0:
256,192,22032,1,0,0:0:0:0:
256,192,22187,1,8,0:0:0:0:
256,192,22341,1,8,0:0:0:0:
256,192,22805,1,0,0:0:0:0:
256,192,22960,1,8,0:0:0:0:
256,192,23037,1,8,0:0:0:0:
256,192,23115,1,0,0:0:0:0:
256,192,23269,1,0,0:0:0:0:
256,192,23347,1,0,0:0:0:0:
256,192,23424,1,8,0:0:0:0:
256,192,23501,1,8,0:0:0:0:
256,192,23579,1,0,0:0:0:0:
256,192,23733,1,8,0:0:0:0:
256,192,23810,1,0,0:0:0:0:
256,192,23965,1,0,0:0:0:0:
256,192,24042,1,8,0:0:0:0:
256,192,24197,1,0,0:0:0:0:
256,192,24352,1,8,0:0:0:0:
256,192,24429,1,8,0:0:0:0:
256,192,24506,1,0,0:0:0:0:
256,192,24584,1,8,0:0:0:0:
256,192,24661,1,8,0:0:0:0:
256,192,24816,1,0,0:0:0:0:
256,192,24867,1,8,0:0:0:0:
256,192,24919,1,8,0:0:0:0:
256,192,24970,1,0,0:0:0:0:
256,192,25125,1,8,0:0:0:0:
256,192,25176,1,8,0:0:0:0:
256,192,25228,1,8,0:0:0:0:
256,192,25280,1,0,0:0:0:0:
256,192,25434,1,0,0:0:0:0:
256,192,25512,1,0,0:0:0:0:
256,192,25589,1,8,0:0:0:0:
256,192,25743,1,0,0:0:0:0:
256,192,25821,1,8,0:0:0:0:
256,192,25898,1,8,0:0:0:0:
256,192,25975,1,8,0:0:0:0:
256,192,26053,1,0,0:0:0:0:
256,192,26207,1,8,0:0:0:0:
256,192,26285,1,8,0:0:0:0:
256,192,26362,1,8,0:0:0:0:
256,192,26517,1,0,0:0:0:0:
256,192,26826,1,0,0:0:0:0:
256,192,27135,1,8,0:0:0:0:
256,192,27444,1,8,0:0:0:0:
256,192,27522,1,8,0:0:0:0:
256,192,27754,1,0,0:0:0:0:
256,192,27908,1,8,0:0:0:0:
256,192,27986,1,0,0:0:0:0:
256,192,28063,1,8,0:0:0:0:
256,192,28140,1,0,0:0:0:0:
256,192,28218,1,8,0:0:0:0:
256,192,28372,1,8,0:0:0:0:
256,192,28450,1,8,0:0:0:0:
256,192,28527,1,0,0:0:0:0:
256,192,28682,1,0,0:0:0:0:
256,192,28759,1,8,0:0:0:0:
256,192,28914,1,8,0:0:0:0:
256,192,28991,1,0,0:0:0:0:
256,192,29068,1,0,0:0:0:0:
256,192,29146,1,8,0:0:0:0:
256,192,29300,1,0,0:0:0:0:
256,192,29377,1,0,0:0:0:0:
256,192,29455,1,0,0:0:0:0:
256,192,29532,1,0,0:0:0:0:
256,192,29609,1,8,0:0:0:0:
256,192,29764,1,0,0:0:0:0:
256,192,29816,1,0,0:0:0:0:
256,192,29867,1,0,0:0:0:0:
256,192,29919,1,0,0:0:0:0:
256,192,30073,1,8,0:0:0:0:
256,192,30125,1,8,0:0:0:0:
256,192,30176,1,8,0:0:0:0:
256,192,30228,1,0,0:0:0:0:
256,192,30383,1,0,0:0:0:0:
256,192,30460,1,0,0:0:0:0:
256,192,30537,1,8,0:0:0:0:
256,192,30615,1,8,0:0:0:0:
256,192,30692,1,0,0:0:0:0:
256,192,30847,1,8,0:0:0:0:
256,192,30924,1,0,0:0:0:0:
256,192,31001,1,8,0:0:0:0:
256,192,31079,1,8,0:0:0:0:
256,192,31156,1,0,0:0:0:0:
256,192,31310,1,8,0:0:0:0:
256,192,31465,1,0,0:0:0:0:
256,192,31929,1,0,0:0:0:0:
256,192,32084,1,8,0:0:0:0:
256,192,32238,1,8,0:0:0:0:
256,192,32702,1,0,0:0:0:0:
256,192,32857,1,8,0:0:0:0:
256,192,32934,1,0,0:0:0:0:
256,192,33012,1,8,0:0:0:0:
256,192,33089,1,0,0:0:0:0:
256,192,33166,1,8,0:0:0:0:
256,192,33321,1,8,0:0:0:0:
256,192,33398,1,8,0:0:0:0:
256,192,33475,1,0,0:0:0:0:
256,192,33630,1,0,0:0:0:0:
256,192,33707,1,8,0:0:0:0:
256,192,33862,1,8,0:0:0:0:
256,192,33939,1,0,0:0:0:0:
256,192,34017,1,0,0:0:0:0:
256,192,34094,1,8,0:0:0:0:
256,192,34249,1,0,0:0:0:0:
256,192,34326,1,8,0:0:0:0:
256,192,34403,1,0,0:0:0:0:
256,192,34481,1,0,0:0:0:0:
256,192,34558,1,8,0:0:0:0:
256,192,34713,1,0,0:0:0:0:
256,192,34764,1,8,0:0:0:0:
256,192,34816,1,8,0:0:0:0:
256,192,34867,1,0,0:0:0:0:
256,192,35022,1,8,0:0:0:0:
256,192,35073,1,8,0:0:0:0:
256,192,35125,1,8,0:0:0:0:
256,192,35176,1,0,0:0:0:0:
256,192,35331,1,0,0:0:0:0:
256,192,35408,1,0,0:0:0:0:
256,192,35486,1,8,0:0:0:0:
256,192,35563,1,8,0:0:0:0:
256,192,35640,1,0,0:0:0:0:
256,192,35795,1,8,0:0:0:0:
256,192,35872,1,8,0:0:0:0:
256,192,35950,1,8,0:0:0:0:
256,192,36027,1,8,0:0:0:0:
256,192,36104,1,0,0:0:0:0:
256,192,36259,1,8,0:0:0:0:
256,192,36414,1,0,0:0:0:0:
256,192,36723,1,0,0:0:0:0:
256,192,37032,1,8,0:0:0:0:
256,192,37187,1,8,0:0:0:0:
256,192,37651,1,0,0:0:0:0:
256,192,37805,1,8,0:0:0:0:
256,192,37960,1,0,0:0:0:0:
256,192,38063,1,8,0:0:0:0:
256,192,38269,1,0,0:0:0:0:
256,192,38424,1,0,0:0:0:0:
256,192,38579,1,8,0:0:0:0:
256,192,38888,1,0,0:0:0:0:
256,192,39042,1,8,0:0:0:0:
256,192,39197,1,0,0:0:0:0:
256,192,39300,1,8,0:0:0:0:
256,192,39403,1,8,0:0:0:0:
256,192,39506,1,0,0:0:0:0:
256,192,39661,1,0,0:0:0:0:
256,192,39816,1,8,0:0:0:0:
256,192,39970,1,8,0:0:0:0:
256,192,40022,1,8,0:0:0:0:
256,192,40073,1,8,0:0:0:0:
256,192,40125,1,0,0:0:0:0:
256,192,40280,1,8,0:0:0:0:
256,192,40434,1,0,0:0:0:0:
256,192,40537,1,8,0:0:0:0:
256,192,40743,1,0,0:0:0:0:
256,192,40898,1,0,0:0:0:0:
256,192,40975,1,0,0:0:0:0:
256,192,41053,1,8,0:0:0:0:
256,192,41362,1,0,0:0:0:0:
256,192,41671,1,0,0:0:0:0:
256,192,42135,1,0,0:0:0:0:
256,192,42187,1,0,0:0:0:0:
256,192,42238,1,0,0:0:0:0:
256,192,42290,1,0,0:0:0:0:
256,192,42444,1,8,0:0:0:0:
256,192,42496,1,8,0:0:0:0:
256,192,42548,1,8,0:0:0:0:
256,192,42599,1,0,0:0:0:0:
256,192,42754,1,8,0:0:0:0:
256,192,42908,1,0,0:0:0:0:
256,192,43012,1,8,0:0:0:0:
256,192,43218,1,0,0:0:0:0:
256,192,43372,1,0,0:0:0:0:
256,192,43527,1,8,0:0:0:0:
256,192,43682,1,8,0:0:0:0:
256,192,43836,1,0,0:0:0:0:
256,192,43991,1,8,0:0:0:0:
256,192,44146,1,0,0:0:0:0:
256,192,44249,1,8,0:0:0:0:
256,192,44352,1,8,0:0:0:0:
256,192,44455,1,0,0:0:0:0:
256,192,44609,1,0,0:0:0:0:
256,192,44764,1,8,0:0:0:0:
256,192,44919,1,8,0:0:0:0:
256,192,44970,1,8,0:0:0:0:
256,192,45022,1,8,0:0:0:0:
256,192,45073,1,0,0:0:0:0:
256,192,45228,1,8,0:0:0:0:
256,192,45383,1,0,0:0:0:0:
256,192,45486,1,8,0:0:0:0:
256,192,45692,1,0,0:0:0:0:
256,192,45847,1,0,0:0:0:0:
256,192,45924,1,0,0:0:0:0:
256,192,46001,1,8,0:0:0:0:
256,192,46156,1,8,0:0:0:0:
256,192,46310,1,0,0:0:0:0:
256,192,46620,1,0,0:0:0:0:
256,192,47084,1,0,0:0:0:0:
256,192,47135,1,0,0:0:0:0:
256,192,47187,1,0,0:0:0:0:
256,192,47238,1,0,0:0:0:0:
256,192,47548,1,0,0:0:0:0:
256,192,47702,1,0,0:0:0:0:
256,192,47780,1,0,0:0:0:0:
256,192,47857,1,8,0:0:0:0:
256,192,48012,1,0,0:0:0:0:
256,192,48089,1,8,0:0:0:0:
256,192,48243,1,8,0:0:0:0:
256,192,48321,1,0,0:0:0:0:
256,192,48475,1,8,0:0:0:0:
256,192,48630,1,0,0:0:0:0:
256,192,48707,1,8,0:0:0:0:
256,192,48862,1,8,0:0:0:0:
256,192,48939,1,0,0:0:0:0:
256,192,49017,1,0,0:0:0:0:
256,192,49094,1,8,0:0:0:0:
256,192,49249,1,0,0:0:0:0:
256,192,49326,1,8,0:0:0:0:
256,192,49403,1,0,0:0:0:0:
256,192,49481,1,8,0:0:0:0:
256,192,49558,1,0,0:0:0:0:
256,192,49713,1,8,0:0:0:0:
256,192,49867,1,8,0:0:0:0:
256,192,49919,1,8,0:0:0:0:
256,192,49970,1,8,0:0:0:0:
256,192,50022,1,0,0:0:0:0:
256,192,50176,1,0,0:0:0:0:
256,192,50254,1,0,0:0:0:0:
256,192,50331,1,8,0:0:0:0:
256,192,50486,1,0,0:0:0:0:
256,192,50563,1,8,0:0:0:0:
256,192,50718,1,8,0:0:0:0:
256,192,50795,1,0,0:0:0:0:
256,192,50950,1,8,0:0:0:0:
256,192,51027,1,8,0:0:0:0:
256,192,51104,1,8,0:0:0:0:
256,192,51259,1,0,0:0:0:0:
256,192,52032,1,0,0:0:0:0:
256,192,52084,1,0,0:0:0:0:
256,192,52135,1,0,0:0:0:0:
256,192,52187,1,0,0:0:0:0:
256,192,52496,1,0,0:0:0:0:
256,192,52651,1,0,0:0:0:0:
256,192,52728,1,0,0:0:0:0:
256,192,52805,1,8,0:0:0:0:
256,192,52960,1,0,0:0:0:0:
256,192,53037,1,8,0:0:0:0:
256,192,53192,1,8,0:0:0:0:
256,192,53269,1,0,0:0:0:0:
256,192,53424,1,8,0:0:0:0:
256,192,53579,1,0,0:0:0:0:
256,192,53656,1,8,0:0:0:0:
256,192,53810,1,8,0:0:0:0:
256,192,53888,1,0,0:0:0:0:
256,192,53965,1,0,0:0:0:0:
256,192,54042,1,8,0:0:0:0:
256,192,54197,1,0,0:0:0:0:
256,192,54274,1,8,0:0:0:0:
256,192,54352,1,8,0:0:0:0:
256,192,54429,1,8,0:0:0:0:
256,192,54506,1,0,0:0:0:0:
256,192,54661,1,8,0:0:0:0:
256,192,54816,1,8,0:0:0:0:
256,192,54867,1,8,0:0:0:0:
256,192,54919,1,8,0:0:0:0:
256,192,54970,1,0,0:0:0:0:
256,192,55125,1,0,0:0:0:0:
256,192,55202,1,0,0:0:0:0:
256,192,55280,1,8,0:0:0:0:
256,192,55434,1,0,0:0:0:0:
256,192,55512,1,8,0:0:0:0:
256,192,55666,1,8,0:0:0:0:
256,192,55743,1,0,0:0:0:0:
256,192,55898,1,8,0:0:0:0:
256,192,55975,1,8,0:0:0:0:
256,192,56053,1,8,0:0:0:0:
256,192,56207,1,0,0:0:0:0:
256,192,56981,1,0,0:0:0:0:
256,192,57032,1,0,0:0:0:0:
256,192,57084,1,0,0:0:0:0:
256,192,57135,1,0,0:0:0:0:
256,192,57444,1,4,0:0:0:0:
256,192,58063,1,8,0:0:0:0:
256,192,58527,1,8,0:0:0:0:
256,192,59609,1,8,0:0:0:0:
256,192,59764,1,0,0:0:0:0:
256,192,59919,1,8,0:0:0:0:
256,192,60383,1,0,0:0:0:0:
256,192,61001,1,8,0:0:0:0:
256,192,62084,1,0,0:0:0:0:
256,192,62238,1,0,0:0:0:0:
256,192,62393,1,8,0:0:0:0:
256,192,62702,1,0,0:0:0:0:
256,192,62857,1,8,0:0:0:0:
256,192,63475,1,0,0:0:0:0:
256,192,63630,1,8,0:0:0:0:
256,192,63785,1,0,0:0:0:0:
256,192,64094,1,8,0:0:0:0:
256,192,64713,1,0,0:0:0:0:
256,192,64867,1,8,0:0:0:0:
256,192,65331,1,8,0:0:0:0:
256,192,65640,1,0,0:0:0:0:
256,192,65950,1,8,0:0:0:0:
256,192,66259,1,8,0:0:0:0:
256,192,66568,1,0,0:0:0:0:
256,192,67341,2,0,L|256:160,28,30.6250002920628
256,192,69816,2,0,L|320:192,28,35
256,192,72290,2,0,L|256:256,26,39.3750015020371
256,192,74455,1,12,0:0:0:0:
256,192,74764,2,0,L|192:192,22,43.75
256,192,76620,1,8,0:0:0:0:
256,192,76929,1,8,0:0:0:0:
256,192,77006,1,8,0:0:0:0:
256,192,77238,1,0,0:0:0:0:
256,192,77393,1,8,0:0:0:0:
256,192,77548,1,0,0:0:0:0:
256,192,77625,1,8,0:0:0:0:
256,192,77857,1,0,0:0:0:0:
256,192,78012,1,8,0:0:0:0:
256,192,78166,1,8,0:0:0:0:
256,192,78243,1,0,0:0:0:0:
256,192,78475,1,0,0:0:0:0:
256,192,78630,1,8,0:0:0:0:
256,192,78785,1,0,0:0:0:0:
256,192,78862,1,8,0:0:0:0:
256,192,79094,1,0,0:0:0:0:
256,192,79249,1,8,0:0:0:0:
256,192,79403,1,8,0:0:0:0:
256,192,79481,1,0,0:0:0:0:
256,192,79558,1,8,0:0:0:0:
256,192,79713,1,0,0:0:0:0:
256,192,79867,1,8,0:0:0:0:
256,192,80022,1,0,0:0:0:0:
256,192,80099,1,8,0:0:0:0:
256,192,80331,1,0,0:0:0:0:
256,192,80486,1,8,0:0:0:0:
256,192,80640,1,8,0:0:0:0:
256,192,80872,1,8,0:0:0:0:
256,192,81104,1,0,0:0:0:0:
256,192,81156,1,0,0:0:0:0:
256,192,81207,1,0,0:0:0:0:
256,192,81259,1,0,0:0:0:0:
256,192,81414,1,8,0:0:0:0:
256,192,81568,1,0,0:0:0:0:
256,192,81723,1,0,0:0:0:0:
256,192,81877,1,8,0:0:0:0:
256,192,81955,1,8,0:0:0:0:
256,192,82187,1,0,0:0:0:0:
256,192,82341,1,8,0:0:0:0:
256,192,82496,1,0,0:0:0:0:
256,192,82573,1,8,0:0:0:0:
256,192,82805,1,0,0:0:0:0:
256,192,82960,1,8,0:0:0:0:
256,192,83115,1,8,0:0:0:0:
256,192,83192,1,0,0:0:0:0:
256,192,83424,1,0,0:0:0:0:
256,192,83579,1,8,0:0:0:0:
256,192,83733,1,0,0:0:0:0:
256,192,83810,1,8,0:0:0:0:
256,192,84042,1,0,0:0:0:0:
256,192,84197,1,8,0:0:0:0:
256,192,84352,1,8,0:0:0:0:
256,192,84429,1,8,0:0:0:0:
256,192,84506,1,8,0:0:0:0:
256,192,84661,1,0,0:0:0:0:
256,192,84816,1,8,0:0:0:0:
256,192,84970,1,0,0:0:0:0:
256,192,85048,1,8,0:0:0:0:
256,192,85280,1,0,0:0:0:0:
256,192,85434,1,8,0:0:0:0:
256,192,85589,1,8,0:0:0:0:
256,192,85821,1,8,0:0:0:0:
256,192,86053,1,0,0:0:0:0:
256,192,86104,1,8,0:0:0:0:
256,192,86156,1,8,0:0:0:0:
256,192,86207,1,0,0:0:0:0:
256,192,86362,1,8,0:0:0:0:
256,192,86517,1,0,0:0:0:0:
256,192,86671,1,0,0:0:0:0:
256,192,86826,1,8,0:0:0:0:
256,192,86903,1,0,0:0:0:0:
256,192,87135,1,0,0:0:0:0:
256,192,87290,1,8,0:0:0:0:
256,192,87444,1,0,0:0:0:0:
256,192,87522,1,0,0:0:0:0:
256,192,87599,1,8,0:0:0:0:
256,192,87754,1,0,0:0:0:0:
256,192,87908,1,8,0:0:0:0:
256,192,88063,1,8,0:0:0:0:
256,192,88140,1,8,0:0:0:0:
256,192,88218,1,0,0:0:0:0:
256,192,88372,1,0,0:0:0:0:
256,192,88527,1,8,0:0:0:0:
256,192,88682,1,0,0:0:0:0:
256,192,88759,1,0,0:0:0:0:
256,192,88836,1,8,0:0:0:0:
256,192,88991,1,0,0:0:0:0:
256,192,89146,1,8,0:0:0:0:
256,192,89300,1,8,0:0:0:0:
256,192,89377,1,0,0:0:0:0:
256,192,89455,1,8,0:0:0:0:
256,192,89532,1,8,0:0:0:0:
256,192,89609,1,0,0:0:0:0:
256,192,89764,1,8,0:0:0:0:
256,192,89919,1,0,0:0:0:0:
256,192,89996,1,0,0:0:0:0:
256,192,90073,1,8,0:0:0:0:
256,192,90228,1,0,0:0:0:0:
256,192,90383,1,8,0:0:0:0:
256,192,90537,1,8,0:0:0:0:
256,192,90615,1,0,0:0:0:0:
256,192,90769,1,8,0:0:0:0:
256,192,90847,1,0,0:0:0:0:
256,192,91001,1,0,0:0:0:0:
256,192,91053,1,0,0:0:0:0:
256,192,91104,1,0,0:0:0:0:
256,192,91156,1,0,0:0:0:0:
256,192,91310,1,8,0:0:0:0:
256,192,91465,1,0,0:0:0:0:
256,192,91620,1,0,0:0:0:0:
256,192,91774,1,8,0:0:0:0:
256,192,91852,1,8,0:0:0:0:
256,192,92084,1,0,0:0:0:0:
256,192,92238,1,8,0:0:0:0:
256,192,92393,1,0,0:0:0:0:
256,192,92470,1,0,0:0:0:0:
256,192,92548,1,8,0:0:0:0:
256,192,92702,1,0,0:0:0:0:
256,192,92857,1,8,0:0:0:0:
256,192,93012,1,8,0:0:0:0:
256,192,93089,1,8,0:0:0:0:
256,192,93166,1,0,0:0:0:0:
256,192,93321,1,0,0:0:0:0:
256,192,93475,1,8,0:0:0:0:
256,192,93630,1,0,0:0:0:0:
256,192,93707,1,0,0:0:0:0:
256,192,93785,1,8,0:0:0:0:
256,192,93939,1,0,0:0:0:0:
256,192,94094,1,8,0:0:0:0:
256,192,94249,1,8,0:0:0:0:
256,192,94326,1,8,0:0:0:0:
256,192,94403,1,8,0:0:0:0:
256,192,94481,1,8,0:0:0:0:
256,192,94558,1,0,0:0:0:0:
256,192,94713,1,8,0:0:0:0:
256,192,94867,1,0,0:0:0:0:
256,192,94944,1,0,0:0:0:0:
256,192,95022,1,8,0:0:0:0:
256,192,95176,1,0,0:0:0:0:
256,192,95331,1,8,0:0:0:0:
256,192,95486,1,8,0:0:0:0:
256,192,95563,1,0,0:0:0:0:
256,192,95718,1,8,0:0:0:0:
256,192,95795,1,0,0:0:0:0:
256,192,95950,1,0,0:0:0:0:
256,192,96001,1,8,0:0:0:0:
256,192,96053,1,8,0:0:0:0:
256,192,96104,1,0,0:0:0:0:
256,192,97032,1,0,0:0:0:0:
256,192,97187,1,8,0:0:0:0:
256,192,97264,1,0,0:0:0:0:
256,192,97341,1,0,0:0:0:0:
256,192,97419,1,0,0:0:0:0:
256,192,97496,1,8,0:0:0:0:
256,192,97651,1,8,0:0:0:0:
256,192,97728,1,8,0:0:0:0:
256,192,97805,1,0,0:0:0:0:
256,192,97960,1,0,0:0:0:0:
256,192,98037,1,0,0:0:0:0:
256,192,98115,1,8,0:0:0:0:
256,192,98269,1,0,0:0:0:0:
256,192,98424,1,8,0:0:0:0:
256,192,98501,1,8,0:0:0:0:
256,192,98579,1,0,0:0:0:0:
256,192,98656,1,8,0:0:0:0:
256,192,98733,1,8,0:0:0:0:
256,192,98888,1,8,0:0:0:0:
256,192,98965,1,8,0:0:0:0:
256,192,99042,1,0,0:0:0:0:
256,192,99120,1,8,0:0:0:0:
256,192,99197,1,0,0:0:0:0:
256,192,99274,1,0,0:0:0:0:
256,192,99352,1,8,0:0:0:0:
256,192,99506,1,0,0:0:0:0:
256,192,99661,1,8,0:0:0:0:
256,192,99738,1,0,0:0:0:0:
256,192,99816,1,8,0:0:0:0:
256,192,99893,1,0,0:0:0:0:
256,192,99970,1,8,0:0:0:0:
256,192,100125,1,8,0:0:0:0:
256,192,100202,1,8,0:0:0:0:
256,192,100280,1,0,0:0:0:0:
256,192,100434,1,8,0:0:0:0:
256,192,100512,1,0,0:0:0:0:
256,192,100666,1,8,0:0:0:0:
256,192,100743,1,0,0:0:0:0:
256,192,100898,1,0,0:0:0:0:
256,192,100950,1,0,0:0:0:0:
256,192,101001,1,0,0:0:0:0:
256,192,101053,1,0,0:0:0:0:
256,192,101207,1,8,0:0:0:0:
256,192,101362,1,0,0:0:0:0:
256,192,101517,1,0,0:0:0:0:
256,192,101671,1,8,0:0:0:0:
256,192,101749,1,8,0:0:0:0:
256,192,101981,1,0,0:0:0:0:
256,192,102135,1,8,0:0:0:0:
256,192,102213,1,0,0:0:0:0:
256,192,102290,1,0,0:0:0:0:
256,192,102367,1,0,0:0:0:0:
256,192,102444,1,8,0:0:0:0:
256,192,102599,1,8,0:0:0:0:
256,192,102676,1,8,0:0:0:0:
256,192,102754,1,0,0:0:0:0:
256,192,102908,1,0,0:0:0:0:
256,192,102986,1,0,0:0:0:0:
256,192,103063,1,8,0:0:0:0:
256,192,103218,1,0,0:0:0:0:
256,192,103372,1,8,0:0:0:0:
256,192,103450,1,8,0:0:0:0:
256,192,103527,1,0,0:0:0:0:
256,192,103604,1,8,0:0:0:0:
256,192,103682,1,8,0:0:0:0:
256,192,103836,1,8,0:0:0:0:
256,192,103914,1,0,0:0:0:0:
256,192,103991,1,0,0:0:0:0:
256,192,104068,1,8,0:0:0:0:
256,192,104146,1,0,0:0:0:0:
256,192,104223,1,0,0:0:0:0:
256,192,104300,1,8,0:0:0:0:
256,192,104455,1,0,0:0:0:0:
256,192,104609,1,8,0:0:0:0:
256,192,104687,1,0,0:0:0:0:
256,192,104764,1,8,0:0:0:0:
256,192,104841,1,0,0:0:0:0:
256,192,104919,1,8,0:0:0:0:
256,192,105073,1,8,0:0:0:0:
256,192,105151,1,8,0:0:0:0:
256,192,105228,1,0,0:0:0:0:
256,192,105383,1,8,0:0:0:0:
256,192,105460,1,0,0:0:0:0:
256,192,105615,1,8,0:0:0:0:
256,192,105692,1,0,0:0:0:0:
256,192,105847,1,0,0:0:0:0:
256,192,105898,1,8,0:0:0:0:
256,192,105950,1,8,0:0:0:0:
256,192,106001,1,0,0:0:0:0:
256,192,106156,1,8,0:0:0:0:
256,192,106310,1,0,0:0:0:0:
256,192,106465,1,0,0:0:0:0:
256,192,106929,1,0,0:0:0:0:
256,192,107084,1,8,0:0:0:0:
256,192,107161,1,0,0:0:0:0:
256,192,107238,1,8,0:0:0:0:
256,192,107316,1,8,0:0:0:0:
256,192,107393,1,0,0:0:0:0:
256,192,107548,1,8,0:0:0:0:
256,192,107625,1,0,0:0:0:0:
256,192,107702,1,8,0:0:0:0:
256,192,107857,1,0,0:0:0:0:
256,192,107934,1,0,0:0:0:0:
256,192,108012,1,8,0:0:0:0:
256,192,108166,1,0,0:0:0:0:
256,192,108321,1,8,0:0:0:0:
256,192,108398,1,8,0:0:0:0:
256,192,108475,1,0,0:0:0:0:
256,192,108553,1,8,0:0:0:0:
256,192,108630,1,8,0:0:0:0:
256,192,108785,1,0,0:0:0:0:
256,192,108862,1,8,0:0:0:0:
256,192,108939,1,8,0:0:0:0:
256,192,109017,1,0,0:0:0:0:
256,192,109094,1,8,0:0:0:0:
256,192,109171,1,8,0:0:0:0:
256,192,109249,1,0,0:0:0:0:
256,192,109403,1,0,0:0:0:0:
256,192,109558,1,8,0:0:0:0:
256,192,109635,1,8,0:0:0:0:
256,192,109713,1,8,0:0:0:0:
256,192,109790,1,8,0:0:0:0:
256,192,109867,1,0,0:0:0:0:
256,192,110022,1,8,0:0:0:0:
256,192,110099,1,8,0:0:0:0:
256,192,110176,1,0,0:0:0:0:
256,192,110331,1,8,0:0:0:0:
256,192,110408,1,0,0:0:0:0:
256,192,110563,1,8,0:0:0:0:
256,192,110640,1,0,0:0:0:0:
256,192,110795,1,0,0:0:0:0:
256,192,110847,1,0,0:0:0:0:
256,192,110898,1,0,0:0:0:0:
256,192,110950,1,0,0:0:0:0:
256,192,111104,1,8,0:0:0:0:
256,192,111259,1,0,0:0:0:0:
256,192,111414,1,0,0:0:0:0:
256,192,111568,1,8,0:0:0:0:
256,192,111646,1,8,0:0:0:0:
256,192,111877,1,0,0:0:0:0:
256,192,112032,1,8,0:0:0:0:
256,192,112109,1,0,0:0:0:0:
256,192,112187,1,8,0:0:0:0:
256,192,112264,1,8,0:0:0:0:
256,192,112341,1,0,0:0:0:0:
256,192,112496,1,8,0:0:0:0:
256,192,112573,1,8,0:0:0:0:
256,192,112651,1,8,0:0:0:0:
256,192,112805,1,0,0:0:0:0:
256,192,112883,1,0,0:0:0:0:
256,192,112960,1,8,0:0:0:0:
256,192,113115,1,0,0:0:0:0:
256,192,113269,1,8,0:0:0:0:
256,192,113347,1,8,0:0:0:0:
256,192,113424,1,0,0:0:0:0:
256,192,113501,1,8,0:0:0:0:
256,192,113579,1,8,0:0:0:0:
256,192,113733,1,0,0:0:0:0:
256,192,113810,1,8,0:0:0:0:
256,192,113888,1,8,0:0:0:0:
256,192,113965,1,0,0:0:0:0:
256,192,114042,1,8,0:0:0:0:
256,192,114120,1,8,0:0:0:0:
256,192,114197,1,0,0:0:0:0:
256,192,114352,1,0,0:0:0:0:
256,192,114506,1,8,0:0:0:0:
256,192,114584,1,8,0:0:0:0:
256,192,114661,1,8,0:0:0:0:
256,192,114738,1,8,0:0:0:0:
256,192,114816,1,0,0:0:0:0:
256,192,114970,1,8,0:0:0:0:
256,192,115048,1,8,0:0:0:0:
256,192,115125,1,0,0:0:0:0:
256,192,115280,1,8,0:0:0:0:
256,192,115357,1,0,0:0:0:0:
256,192,115512,1,8,0:0:0:0:
256,192,115589,1,0,0:0:0:0:
256,192,115743,1,0,0:0:0:0:
256,192,115795,1,8,0:0:0:0:
256,192,115847,1,8,0:0:0:0:
256,192,115898,1,0,0:0:0:0:
256,192,117343,1,4,0:0:0:0:
256,192,117797,1,8,0:0:0:0:
256,192,118479,1,0,0:0:0:0:
256,192,118706,1,8,0:0:0:0:
256,192,119161,1,0,0:0:0:0:
256,192,119615,1,8,0:0:0:0:
256,192,120297,1,0,0:0:0:0:
256,192,120524,1,8,0:0:0:0:
256,192,120808,1,8,0:0:0:0:
256,192,120865,1,8,0:0:0:0:
256,192,120979,1,0,0:0:0:0:
256,192,121433,1,8,0:0:0:0:
256,192,122115,1,0,0:0:0:0:
256,192,122286,1,8,0:0:0:0:
256,192,122371,1,0,0:0:0:0:
