osu file format v14

[General]
AudioFilename: audio.mp3
AudioLeadIn: 0
PreviewTime: 73336
Countdown: 0
SampleSet: Soft
StackLeniency: 0.3
Mode: 0
LetterboxInBreaks: 0
WidescreenStoryboard: 0

[Editor]
Bookmarks: 33621,38284
DistanceSpacing: 6
BeatDivisor: 4
GridSize: 8
TimelineZoom: 3.899998

[Metadata]
Title:...during pride month?
TitleUnicode:...during pride month?
Artist:leroy
ArtistUnicode:leroy
Creator:Yue Cat
Version:FP.1
Source:
Tags:electronic english instrumental dariacore 2: enter here hell to the left stop being gay jane remover jersey club footwork latto bitch from da souf midwxst watching d0llywood1 twikipedia missy elliott work it azealia banks the big big beat underscores your favorite sidekick 8485 roxas358 sanctuary beast friend kyle edwards dj smallz 732 we are young jersey young remix
BeatmapID:5294999
BeatmapSetID:2430735

[Difficulty]
HPDrainRate:5
CircleSize:4
OverallDifficulty:9.2
ApproachRate:9.6
SliderMultiplier:2
SliderTickRate:1

[Events]
//Background and Video events
0,0,"f108ce7e6204665c4c4342e7729ec5338c0de5f3.jpg",0,0
//Break Periods
2,63466,66687
//Storyboard Layer 0 (Background)
//Storyboard Layer 1 (Fail)
//Storyboard Layer 2 (Pass)
//Storyboard Layer 3 (Foreground)
//Storyboard Layer 4 (Overlay)
//Storyboard Sound Samples

[TimingPoints]
1290,310.880829015544,4,2,1,100,1,0
3777,-128.205128205128,4,2,1,100,0,1
8712,-66.6666666666667,4,2,1,100,0,0
9062,-50,4,2,1,100,0,0
9683,-100,4,2,1,100,0,0
9994,-50,4,2,1,100,0,0
10616,-100,4,2,1,100,0,0
10927,-66.6666666666667,4,2,1,100,0,0
11103,-33.3333333333333,4,2,1,100,0,0
11134,-66.6666666666667,4,2,1,100,0,0
11238,-50,4,2,1,100,0,0
11549,-50,4,2,1,100,0,0
11859,-40,4,2,1,100,0,0
12481,-100,4,2,1,100,0,0
13103,-133.333333333333,4,2,1,100,0,0
13141,-66.6666666666667,4,2,1,100,0,0
13414,-1000,4,2,1,100,0,0
13647,-1000,4,2,1,100,0,0
13725,-133.333333333333,4,2,1,100,0,0
14036,-33.3333333333333,4,2,1,100,0,0
14346,-16.6666666666667,4,2,1,100,0,0
14502,-66.6666666666667,4,2,1,100,0,0
14813,-16.6666666666667,4,2,1,100,0,0
14968,-16.6666666666667,4,2,1,100,0,0
15124,-33.3333333333333,4,2,1,100,0,0
15279,-16.6666666666667,4,2,1,100,0,0
15590,-66.6666666666667,4,2,1,100,0,0
15745,-33.3333333333333,4,2,1,100,0,0
15901,-57.1428571428571,4,2,1,100,0,0
15939,-57.1428571428571,4,2,1,100,0,0
16056,-133.333333333333,4,2,1,100,0,0
16212,-133.333333333333,4,2,1,100,0,0
16523,-33.3333333333333,4,2,1,100,0,0
16833,-16.6666666666667,4,2,1,100,0,0
16989,-66.6666666666667,4,2,1,100,0,0
17300,-16.6666666666667,4,2,1,100,0,0
17455,-16.6666666666667,4,2,1,100,0,0
17611,-33.3333333333333,4,2,1,100,0,0
17766,-16.6666666666667,4,2,1,100,0,0
18077,-66.6666666666667,4,2,1,100,0,0
18232,-33.3333333333333,4,2,1,100,0,0
18388,-57.1428571428571,4,2,1,100,0,0
18426,-57.1428571428571,4,2,1,100,0,0
18543,-133.333333333333,4,2,1,100,0,0
18699,-100,4,2,1,100,0,0
18932,-44.4444444444445,4,2,1,100,0,0
19010,-44.4444444444445,4,2,1,100,0,0
19631,-66.6666666666667,4,2,1,100,0,0
19787,-25,4,2,1,100,0,0
20098,-66.6666666666667,4,2,1,100,0,0
20253,-16.6666666666667,4,2,1,100,0,0
20564,-133.333333333333,4,2,1,100,0,0
20875,-33.3333333333333,4,2,1,100,0,0
21030,-16.6666666666667,4,2,1,100,0,0
21186,-133.333333333333,4,2,1,100,0,0
21497,-33.3333333333333,4,2,1,100,0,0
21807,-16.6666666666667,4,2,1,100,0,0
21963,-66.6666666666667,4,2,1,100,0,0
22274,-16.6666666666667,4,2,1,100,0,0
22429,-16.6666666666667,4,2,1,100,0,0
22585,-33.3333333333333,4,2,1,100,0,0
22740,-16.6666666666667,4,2,1,100,0,0
23051,-66.6666666666667,4,2,1,100,0,0
23206,-33.3333333333333,4,2,1,100,0,0
23517,-133.333333333333,4,2,1,100,0,0
23828,-400,4,2,1,100,0,0
23984,-133.333333333333,4,2,1,100,0,0
24295,-16.6666666666667,4,2,1,100,0,0
25072,-66.6666666666667,4,2,1,100,0,0
25227,-16.6666666666667,4,2,1,100,0,0
25538,-133.333333333333,4,2,1,100,0,0
25849,-50,4,2,1,100,0,0
26005,-25,4,2,1,100,0,0
26160,-133.333333333333,4,2,1,100,0,0
26471,-33.3333333333333,4,2,1,100,0,0
26781,-16.6666666666667,4,2,1,100,0,0
26937,-66.6666666666667,4,2,1,100,0,0
27248,-16.6666666666667,4,2,1,100,0,0
27403,-16.6666666666667,4,2,1,100,0,0
27559,-33.3333333333333,4,2,1,100,0,0
27714,-16.6666666666667,4,2,1,100,0,0
28025,-66.6666666666667,4,2,1,100,0,0
28180,-33.3333333333333,4,2,1,100,0,0
28336,-57.1428571428571,4,2,1,100,0,0
28374,-57.1428571428571,4,2,1,100,0,0
28491,-133.333333333333,4,2,1,100,0,0
28647,-44.4444444444445,4,2,1,100,0,0
29580,-66.6666666666667,4,2,1,100,0,0
29736,-25,4,2,1,100,0,0
30047,-66.6666666666667,4,2,1,100,0,0
30201,-16.6666666666667,4,2,1,100,0,0
30512,-16.6666666666667,4,2,1,100,0,0
30823,-66.6666666666667,4,2,1,100,0,0
30979,-16.6666666666667,4,2,1,100,0,0
31134,-16.6666666666667,4,2,1,100,0,0
31600,-33.3333333333333,4,2,1,100,0,0
31756,-16.6666666666667,4,2,1,100,0,0
32378,-33.3333333333333,4,2,1,100,0,0
32688,-66.6666666666667,4,2,1,100,0,0
33621,-66.6666666666667,4,2,1,100,0,0
33932,-33.3333333333333,4,2,1,100,0,0
34243,-66.6666666666667,4,2,1,100,0,0
34865,-66.6666666666667,4,2,1,100,0,0
35176,-33.3333333333333,4,2,1,100,0,0
35486,-66.6666666666667,4,2,1,100,0,0
36108,-66.6666666666667,4,2,1,100,0,0
36419,-25,4,2,1,100,0,0
36730,-50,4,2,1,100,0,0
37352,-66.6666666666667,4,2,1,100,0,0
37663,-33.3333333333333,4,2,1,100,0,0
37973,-66.6666666666667,4,2,1,100,0,0
38595,-50,4,2,1,100,0,0
39217,-25,4,2,1,100,0,0
39372,-20,4,2,1,100,0,0
39528,-16.6666666666667,4,2,1,100,0,0
39839,-50,4,2,1,100,0,0
40460,-33.3333333333333,4,2,1,100,0,0
40694,-25,4,2,1,100,0,0
40927,-12.5,4,2,1,100,0,0
41082,-50,4,2,1,100,0,0
41704,-25,4,2,1,100,0,0
41859,-20,4,2,1,100,0,0
42015,-16.6666666666667,4,2,1,100,0,0
42326,-50,4,2,1,100,0,0
42947,-33.3333333333333,4,2,1,100,0,0
43181,-25,4,2,1,100,0,0
43414,-12.5,4,2,1,100,0,0
43569,-12.5,4,2,1,100,0,0
46056,-100,4,2,1,100,0,0
52896,-33.3333333333333,4,2,1,100,0,0
53517,-200,4,2,1,100,0,0
54139,-400,4,2,1,100,0,0
54606,-100,4,2,1,100,0,0
54839,-200,4,2,1,100,0,0
55383,-200,4,2,1,100,0,0
58492,-200,4,2,1,100,0,0
59114,-400,4,2,1,100,0,0
59581,-100,4,2,1,100,0,0
59814,-200,4,2,1,100,0,0
60358,-200,4,2,1,100,0,0
67507,-400,4,2,1,100,0,0
67973,-133.333333333333,4,2,1,100,0,0
72481,-16.6666666666667,4,2,1,100,0,0
72559,-20,4,2,1,100,0,0
72637,-25,4,2,1,100,0,0
72714,-33.3333333333333,4,2,1,100,0,0
72792,-50,4,2,1,100,0,0
72948,-100,4,2,1,100,0,0
73103,-200,4,2,1,100,0,0
73414,-133.333333333333,4,2,1,100,0,0
73725,-33.3333333333333,4,2,1,100,0,0
74035,-16.6666666666667,4,2,1,100,0,0
74191,-66.6666666666667,4,2,1,100,0,0
74502,-16.6666666666667,4,2,1,100,0,0
74657,-16.6666666666667,4,2,1,100,0,0
74813,-33.3333333333333,4,2,1,100,0,0
74968,-100,4,2,1,100,0,0
75279,-66.6666666666667,4,2,1,100,0,0
75434,-33.3333333333333,4,2,1,100,0,0
75590,-57.1428571428571,4,2,1,100,0,0
75628,-57.1428571428571,4,2,1,100,0,0
75745,-133.333333333333,4,2,1,100,0,0
75901,-133.333333333333,4,2,1,100,0,0
76212,-33.3333333333333,4,2,1,100,0,0
76522,-16.6666666666667,4,2,1,100,0,0
76678,-66.6666666666667,4,2,1,100,0,0
76989,-16.6666666666667,4,2,1,100,0,0
77144,-16.6666666666667,4,2,1,100,0,0
77300,-33.3333333333333,4,2,1,100,0,0
77455,-16.6666666666667,4,2,1,100,0,0
77766,-66.6666666666667,4,2,1,100,0,0
77921,-33.3333333333333,4,2,1,100,0,0
78077,-57.1428571428571,4,2,1,100,0,0
78115,-57.1428571428571,4,2,1,100,0,0
78232,-133.333333333333,4,2,1,100,0,0
78388,-100,4,2,1,100,0,0
78621,-44.4444444444445,4,2,1,100,0,0
78699,-44.4444444444445,4,2,1,100,0,0
79320,-66.6666666666667,4,2,1,100,0,0
79476,-25,4,2,1,100,0,0
79787,-66.6666666666667,4,2,1,100,0,0
79942,-100,4,2,1,100,0,0
80253,-133.333333333333,4,2,1,100,0,0
80564,-33.3333333333333,4,2,1,100,0,0
80875,-133.333333333333,4,2,1,100,0,0
81186,-33.3333333333333,4,2,1,100,0,0
81496,-16.6666666666667,4,2,1,100,0,0
81652,-66.6666666666667,4,2,1,100,0,0
81963,-16.6666666666667,4,2,1,100,0,0
82118,-16.6666666666667,4,2,1,100,0,0
82274,-33.3333333333333,4,2,1,100,0,0
82429,-16.6666666666667,4,2,1,100,0,0
82740,-66.6666666666667,4,2,1,100,0,0
82895,-33.3333333333333,4,2,1,100,0,0
83206,-133.333333333333,4,2,1,100,0,0
83517,-400,4,2,1,100,0,0
83673,-133.333333333333,4,2,1,100,0,0
83984,-16.6666666666667,4,2,1,100,0,0
84761,-66.6666666666667,4,2,1,100,0,0
84916,-100,4,2,1,100,0,0
85227,-133.333333333333,4,2,1,100,0,0
85538,-50,4,2,1,100,0,0
85694,-25,4,2,1,100,0,0
85849,-133.333333333333,4,2,1,100,0,0
86160,-33.3333333333333,4,2,1,100,0,0
86470,-16.6666666666667,4,2,1,100,0,0
86626,-66.6666666666667,4,2,1,100,0,0
86937,-16.6666666666667,4,2,1,100,0,0
87092,-16.6666666666667,4,2,1,100,0,0
87248,-33.3333333333333,4,2,1,100,0,0
87403,-16.6666666666667,4,2,1,100,0,0
87714,-66.6666666666667,4,2,1,100,0,0
87869,-33.3333333333333,4,2,1,100,0,0
88025,-57.1428571428571,4,2,1,100,0,0
88063,-57.1428571428571,4,2,1,100,0,0
88180,-133.333333333333,4,2,1,100,0,0
88336,-44.4444444444445,4,2,1,100,0,0
89269,-66.6666666666667,4,2,1,100,0,0
89425,-25,4,2,1,100,0,0
89736,-66.6666666666667,4,2,1,100,0,0
89891,-100,4,2,1,100,0,0
90201,-16.6666666666667,4,2,1,100,0,0
90512,-25,4,2,1,100,0,0
90668,-66.6666666666667,4,2,1,100,0,0
90823,-16.6666666666667,4,2,1,100,0,0
91290,-100,4,2,1,100,0,0
93310,-12.5,4,2,1,100,0,0
95797,-100,4,2,1,100,0,0
102637,-200,4,2,1,100,0,0
106989,-200,4,2,1,100,0,0
108233,-66.6666666666667,4,2,1,100,0,0
108543,-33.3333333333333,4,2,1,100,0,0
108855,-133.333333333333,4,2,1,100,0,0
109476,-66.6666666666667,4,2,1,100,0,0
109786,-33.3333333333333,4,2,1,100,0,0
110098,-133.333333333333,4,2,1,100,0,0
110720,-66.6666666666667,4,2,1,100,0,0
111030,-25,4,2,1,100,0,0
111341,-50,4,2,1,100,0,0
111964,-66.6666666666667,4,2,1,100,0,0
112275,-33.3333333333333,4,2,1,100,0,0
112585,-66.6666666666667,4,2,1,100,0,0
113207,-33.3333333333333,4,2,1,100,0,0
113828,-66.6666666666667,4,2,1,100,0,0
114450,-33.3333333333333,4,2,1,100,0,0
115072,-66.6666666666667,4,2,1,100,0,0
115694,-44.4444444444445,4,2,1,100,0,0
116005,-20,4,2,1,100,0,0
116160,-25,4,2,1,100,0,0
116315,-50,4,2,1,100,0,0
116937,-66.6666666666667,4,2,1,100,0,0
117248,-33.3333333333333,4,2,1,100,0,0
117558,-66.6666666666667,4,2,1,100,0,0
117870,-200,4,2,1,100,0,0
118181,-400,4,2,1,100,0,0
118802,-285.714285714286,4,2,1,100,0,0
119735,-400,4,2,1,100,0,0
120046,-285.714285714286,4,2,1,100,0,0
120357,-142.857142857143,4,2,1,100,0,0
120668,-400,4,2,1,100,0,0
120979,-142.857142857143,4,2,1,100,0,0
121289,-285.714285714286,4,2,1,100,0,0
122222,-400,4,2,1,100,0,0
122533,-285.714285714286,4,2,1,100,0,0
122844,-142.857142857143,4,2,1,100,0,0
123155,-100,4,2,1,100,0,0
123776,-71.4285714285714,4,2,1,100,0,0
124709,-50,4,2,1,100,0,0
125020,-71.4285714285714,4,2,1,100,0,0
125331,-35.7142857142857,4,2,1,100,0,0
125642,-100,4,2,1,100,0,0
125953,-71.4285714285714,4,2,1,100,0,0
126263,-71.4285714285714,4,2,1,100,0,0
126497,-71.4285714285714,4,2,1,100,0,0
127196,-100,4,2,1,100,0,0
128129,-100,4,2,1,100,0,1

[Colours]
Combo1 : 179,141,220
Combo2 : 223,159,162
Combo3 : 228,109,69
Combo4 : 118,220,125
Combo5 : 255,202,43
Combo6 : 116,174,203

[HitObjects]
56,80,8751,6,0,B|120:8|200:24|200:24|168:32|152:64,1,225.000008583069,0|0,0:0|0:0,0:0:0:0:
0,320,9062,2,0,B|7:255|-7:197|-36:140|-36:140|105:222|40:184,1,300,0|0,0:0|0:0,0:0:0:0:
240,320,9372,2,0,B|233:255|247:197|276:140|276:140|135:222|200:184,1,300,0|0,0:0|0:0,0:0:0:0:
120,312,9683,6,0,P|120:280|128:240,1,50,0|0,0:0|0:0,0:0:0:0:
216,376,9839,2,0,P|218:351|218:326,1,50,0|0,0:0|0:0,0:0:0:0:
251,126,9994,6,0,B|233:155|200:154|200:154|266:205|378:83|431:177|418:194,1,300,0|0,0:0|0:0,0:0:0:0:
248,104,10305,2,0,B|238:70|206:64|206:64|283:32|359:177|435:101|427:81,1,300,0|0,0:0|0:0,0:0:0:0:
464,272,10616,2,0,P|416:215|420:123,1,150.000005722046,0|0,0:0|0:0,0:0:0:0:
480,384,10927,2,0,P|436:290|474:169,1,225.000008583069,0|0,0:0|0:0,0:0:0:0:
296,304,11238,6,0,B|291:321|299:352|299:352|264:329|268:281|209:171|121:207|104:268|199:252,1,300,0|0,0:0|0:0,0:0:0:0:
168,224,11549,2,0,B|171:252|200:248|224:200|188:150|16:184|88:-112|16:128|152:112|152:112,1,300,0|0,0:0|0:0,0:0:0:0:
224,16,11859,6,0,B|225:-2|211:-31|211:-31|250:-14|254:32|407:24|412:79|372:157|369:161|272:100|272:100,1,375,0|0,0:0|0:0,0:0:0:0:
279,104,12170,2,0,B|257:122|240:98|257:47|316:37|359:-40|573:-78|454:143|383:152|383:152,1,375,0|0,0:0|0:0,0:0:0:0:
512,384,12481,6,0,L|464:336,1,50,0|0,0:0|0:0,0:0:0:0:
400,368,12637,2,0,L|364:332,1,50,0|0,0:0|0:0,0:0:0:0:
512,352,12792,6,0,L|464:304,1,50,0|0,0:0|0:0,0:0:0:0:
392,336,12948,2,0,L|356:300,1,50,0|0,0:0|0:0,0:0:0:0:
304,96,13103,6,0,B|300:86|304:66|304:66|291:102|304:134,1,75.0000028610231,0|0,0:0|0:0,0:0:0:0:
416,72,13414,5,0,0:0:0:0:
424,86,13466,5,0,0:0:0:0:
408,77,13517,5,0,0:0:0:0:
421,78,13569,5,0,0:0:0:0:
409,86,13621,5,0,0:0:0:0:
415,88,13673,5,0,0:0:0:0:
480,16,13725,6,0,L|496:0,6,18.7500007152558,0|0|0|0|0|0|0,0:0|0:0|0:0|0:0|0:0|0:0|0:0,0:0:0:0:
16,352,14036,2,0,B|32:320|32:320|-16:352,6,75.0000028610231,0|0|0|0|0|0|0,0:0|0:0|0:0|0:0|0:0|0:0|0:0,0:0:0:0:
0,0,14346,6,0,L|288:208,1,300.000011444092,0|0,0:0|0:0,0:0:0:0:
432,320,14502,2,0,L|392:284,6,37.5000014305115,0|0|0|0|0|0|0,0:0|0:0|0:0|0:0|0:0|0:0|0:0,0:0:0:0:
424,384,14813,6,0,B|268:128|268:128|488:304|488:304|524:308,1,600.000022888185,0|0,0:0|0:0,0:0:0:0:
280,384,15124,2,0,B|280:356|280:356|224:232,1,150.000005722046,0|0,0:0|0:0,0:0:0:0:
512,96,15279,2,0,B|480:88|480:88|396:152|256:252|256:252|364:128|436:-4,1,600.000022888185,0|0,0:0|0:0,0:0:0:0:
0,376,15590,5,0,0:0:0:0:
32,276,15668,1,0,0:0:0:0:
16,248,15745,6,0,B|9:220|9:220|30:86,1,150.000005722046,0|0,0:0|0:0,0:0:0:0:
152,336,15901,5,0,0:0:0:0:
18,370,15979,1,0,0:0:0:0:
18,370,16056,6,0,B|58:379|58:379|69:370,1,56.2500021457673,0|0,0:0|0:0,0:0:0:0:
96,352,16212,6,0,L|80:368,6,18.7500007152558,0|0|0|0|0|0|0,0:0|0:0|0:0|0:0|0:0|0:0|0:0,0:0:0:0:
496,32,16523,2,0,B|480:64|480:64|528:32,6,75.0000028610231,0|0|0|0|0|0|0,0:0|0:0|0:0|0:0|0:0|0:0|0:0,0:0:0:0:
512,384,16833,6,0,B|464:339|396:276|224:176,1,300.000011444092,0|0,0:0|0:0,0:0:0:0:
80,72,16989,2,0,P|96:92|120:108,6,37.5000014305115,0|0|0|0|0|0|0,0:0|0:0|0:0|0:0|0:0|0:0|0:0,0:0:0:0:
88,0,17300,6,0,B|152:128|244:256|244:256|124:152|-12:76,1,600.000022888185,0|0,0:0|0:0,0:0:0:0:
232,0,17611,2,0,B|232:28|232:28|288:152,1,150.000005722046,0|0,0:0|0:0,0:0:0:0:
0,272,17766,2,0,B|136:228|264:136|264:136|148:240|76:388,1,600.000022888185,0|0,0:0|0:0,0:0:0:0:
512,8,18077,5,0,0:0:0:0:
480,108,18155,1,0,0:0:0:0:
504,136,18232,6,0,B|512:264|512:264|480:328,1,150.000005722046,0|0,0:0|0:0,0:0:0:0:
368,24,18388,5,0,0:0:0:0:
494,14,18466,1,0,0:0:0:0:
494,14,18543,6,0,B|472:4|472:4|436:12,1,50.0000019073487,0|0,0:0|0:0,0:0:0:0:
188,168,18699,6,0,P|220:124|180:156,1,150,0|0,0:0|0:0,0:0:0:0:
192,184,19010,5,0,0:0:0:0:
304,240,19165,5,0,0:0:0:0:
212,316,19321,5,0,0:0:0:0:
256,384,19476,5,0,0:0:0:0:
256,0,19631,6,0,P|240:-8|238:11,2,37.5000014305115,0|0|0,0:0|0:0|0:0,0:0:0:0:
234,26,19787,2,0,B|300:52|371:126|322:210|367:271|410:299|410:299|347:216|318:163|247:185|213:252,1,600,0|0,0:0|0:0,0:0:0:0:
0,364,20098,6,0,P|-5:380|14:378,2,37.5000014305115,0|0|0,0:0|0:0|0:0,0:0:0:0:
112,352,20254,2,0,B|234:345|304:120|432:168|432:168|248:224|370:289|192:336,1,600.000022888185,0|0,0:0|0:0,0:0:0:0:
472,8,20564,6,0,P|496:40|524:56,1,56.2500021457673,0|0,0:0|0:0,0:0:0:0:
509,49,20875,6,0,B|480:224,1,150.000005722046,0|0,0:0|0:0,0:0:0:0:
456,368,21030,2,0,B|424:344|456:280|456:280|432:344|376:352|376:296|336:272,1,150.000005722046,0|0,0:0|0:0,0:0:0:0:
32,16,21186,6,0,L|16:0,6,18.7500007152558,0|0|0|0|0|0|0,0:0|0:0|0:0|0:0|0:0|0:0|0:0,0:0:0:0:
496,352,21497,2,0,B|480:320|480:320|528:352,6,75.0000028610231,0|0|0|0|0|0|0,0:0|0:0|0:0|0:0|0:0|0:0|0:0,0:0:0:0:
512,0,21807,6,0,B|408:88|408:88|388:72|388:72|224:208,1,300.000011444092,0|0,0:0|0:0,0:0:0:0:
72,316,21963,2,0,L|120:284,6,37.5000014305115,0|0|0|0|0|0|0,0:0|0:0|0:0|0:0|0:0|0:0|0:0,0:0:0:0:
240,384,22274,6,0,B|-248:136|528:-128|-28:220|124:316|-84:192,1,600.000022888185,0|0,0:0|0:0,0:0:0:0:
232,384,22585,2,0,B|232:356|232:356|288:232,1,150.000005722046,0|0,0:0|0:0,0:0:0:0:
0,56,22740,2,0,B|128:64|212:188|212:188|148:88|111:26|204:-48|272:40|216:144,1,600.000022888185,0|0,0:0|0:0,0:0:0:0:
408,184,23051,5,0,0:0:0:0:
424,184,23129,1,0,0:0:0:0:
500,148,23206,6,0,B|507:120|507:120|486:-14,1,150.000005722046,0|0,0:0|0:0,0:0:0:0:
492,232,23362,2,0,B|485:260|485:260|506:394,1,150.000005722046,0|0,0:0|0:0,0:0:0:0:
400,184,23517,6,0,B|368:184,1,18.7500007152558,0|0,0:0|0:0,0:0:0:0:
4,376,23828,6,0,L|2:383,2,6.25,0|0|0,0:0|0:0|0:0,0:0:0:0:
16,276,23984,2,0,L|12:312,6,18.7500007152558,0|0|0|0|0|0|0,0:0|0:0|0:0|0:0|0:0|0:0|0:0,0:0:0:0:
32,144,24295,6,0,B|70:185|147:185|241:182|219:50|411:25|411:25|290:94|268:193,1,600.000022888185,0|0,0:0|0:0,0:0:0:0:
272,364,24554,5,0,0:0:0:0:
269,351,24606,1,0,0:0:0:0:
266,339,24657,1,0,0:0:0:0:
263,327,24709,1,0,0:0:0:0:
242,256,24761,5,0,0:0:0:0:
242,256,25072,2,0,P|208:232|176:232,1,75.0000028610231,0|0,0:0|0:0,0:0:0:0:
376,336,25227,2,0,B|398:355|390:387|326:363|302:355|262:267|260:211|260:211|362:313|458:307|520:256|510:147,1,600.000022888185,0|0,0:0|0:0,0:0:0:0:
280,0,25538,6,0,P|264:40|256:88,1,75.0000028610231,0|0,0:0|0:0,0:0:0:0:
128,352,25849,6,0,B|138:342|138:342|154:339|154:339|159:339|159:339|196:333|196:333|156:351,1,100,0|0,0:0|0:0,0:0:0:0:
128,352,26005,2,0,B|79:372|79:372|153:361|153:361|163:362|163:362|194:356|194:356|216:336,1,200,0|0,0:0|0:0,0:0:0:0:
480,368,26160,6,0,L|496:384,6,18.7500007152558,0|0|0|0|0|0|0,0:0|0:0|0:0|0:0|0:0|0:0|0:0,0:0:0:0:
16,32,26471,2,0,B|32:64|32:64|-16:32,6,75.0000028610231,0|0|0|0|0|0|0,0:0|0:0|0:0|0:0|0:0|0:0|0:0,0:0:0:0:
0,384,26781,6,0,L|288:176,1,300.000011444092,0|0,0:0|0:0,0:0:0:0:
432,64,26937,2,0,L|392:100,6,37.5000014305115,0|0|0|0|0|0|0,0:0|0:0|0:0|0:0|0:0|0:0|0:0,0:0:0:0:
424,0,27248,6,0,B|268:256|268:256|413:149|413:149|424:8,1,600.000022888185,0|0,0:0|0:0,0:0:0:0:
280,0,27559,2,0,B|280:28|280:28|224:152,1,150.000005722046,0|0,0:0|0:0,0:0:0:0:
488,288,27714,2,0,B|432:184|432:184|256:132|256:132|344:272|344:272|512:288,1,600.000022888185,0|0,0:0|0:0,0:0:0:0:
0,8,28025,5,0,0:0:0:0:
32,108,28103,1,0,0:0:0:0:
12,132,28180,6,0,B|5:160|5:160|26:294,1,150.000005722046,0|0,0:0|0:0,0:0:0:0:
132,76,28336,5,0,0:0:0:0:
18,14,28414,1,0,0:0:0:0:
18,14,28491,6,0,B|58:5|58:5|69:14,1,56.2500021457673,0|0,0:0|0:0,0:0:0:0:
512,236,28647,6,0,B|400:216|400:216|243:193|400:216|400:216|516:229,1,337.500012874604,0|0,0:0|0:0,0:0:0:0:
320,208,28958,5,0,0:0:0:0:
256,144,29113,5,0,0:0:0:0:
296,80,29269,5,0,0:0:0:0:
256,0,29424,5,0,0:0:0:0:
160,24,29580,6,0,P|145:14|142:34,2,37.5000014305115,0|0|0,0:0|0:0|0:0,0:0:0:0:
144,56,29736,2,0,B|261:214|281:417|144:224|96:96,1,400,0|0,0:0|0:0,0:0:0:0:
0,364,30047,6,0,P|-5:380|14:378,2,37.5000014305115,0|0|0,0:0|0:0|0:0,0:0:0:0:
76,312,30201,2,0,B|259:80|547:-27|344:248|88:344,1,600.000022888185,0|0,0:0|0:0,0:0:0:0:
16,16,30512,5,0,0:0:0:0:
480,328,30823,6,0,L|384:296,1,75.0000028610231,0|0,0:0|0:0,0:0:0:0:
512,384,30979,2,0,L|264:144,1,300.000011444092,0|0,0:0|0:0,0:0:0:0:
256,0,31134,1,0,0:0:0:0:
80,48,31600,6,0,L|5:50,1,75.0000028610231,0|0,0:0|0:0,0:0:0:0:
80,48,31678,6,0,L|5:50,1,75.0000028610231,0|0,0:0|0:0,0:0:0:0:
24,16,31756,2,0,L|339:156,1,300.000011444092,0|0,0:0|0:0,0:0:0:0:
323,146,31911,5,0,0:0:0:0:
384,180,32378,6,0,L|40:215,1,300.000011444092,0|0,0:0|0:0,0:0:0:0:
184,224,32688,6,0,L|345:285,1,150.000005722046,0|0,0:0|0:0,0:0:0:0:
504,336,32999,5,0,0:0:0:0:
512,350,33077,5,0,0:0:0:0:
496,341,33155,5,0,0:0:0:0:
509,342,33233,5,0,0:0:0:0:
497,350,33310,5,0,0:0:0:0:
503,352,33388,5,0,0:0:0:0:
504,336,33466,5,0,0:0:0:0:
512,0,33621,6,0,L|368:92,1,150.000005722046,0|0,0:0|0:0,0:0:0:0:
512,0,33932,2,0,L|368:92,1,150.000005722046,0|0,0:0|0:0,0:0:0:0:
356,80,34087,2,0,L|212:172,1,150.000005722046,0|0,0:0|0:0,0:0:0:0:
104,272,34243,2,0,L|248:180,1,150.000005722046,0|0,0:0|0:0,0:0:0:0:
360,48,34554,5,0,0:0:0:0:
360,48,34709,1,0,0:0:0:0:
512,0,34865,6,0,L|368:92,1,150.000005722046,0|0,0:0|0:0,0:0:0:0:
512,0,35176,2,0,L|368:92,1,150.000005722046,0|0,0:0|0:0,0:0:0:0:
356,80,35331,2,0,L|212:172,1,150.000005722046,0|0,0:0|0:0,0:0:0:0:
230,191,35486,2,0,L|104:272,1,150.000005722046,0|0,0:0|0:0,0:0:0:0:
204,172,35798,5,0,0:0:0:0:
8,340,35953,1,0,0:0:0:0:
8,340,36108,6,0,L|153:250,1,150.000005722046,0|0,0:0|0:0,0:0:0:0:
159,155,36419,6,0,P|63:163|13:245,1,200,0|0,0:0|0:0,0:0:0:0:
84,384,36574,2,0,P|180:376|230:294,1,200,0|0,0:0|0:0,0:0:0:0:
156,140,36769,2,0,P|59:147|9:229,1,200,0|0,0:0|0:0,0:0:0:0:
136,260,37041,5,0,0:0:0:0:
136,260,37196,1,0,0:0:0:0:
0,384,37352,6,0,L|144:292,1,150.000005722046,0|0,0:0|0:0,0:0:0:0:
126,303,37663,2,0,L|0:384,1,150.000005722046,0|0,0:0|0:0,0:0:0:0:
156,304,37818,2,0,L|300:212,1,150.000005722046,0|0,0:0|0:0,0:0:0:0:
282,193,37973,2,0,L|408:112,1,150.000005722046,0|0,0:0|0:0,0:0:0:0:
512,0,38285,5,0,0:0:0:0:
8,0,38595,6,0,B|44:0|44:0|20:32|20:32|72:24|72:24|52:60|52:60|76:88|76:88,1,200,0|0,0:0|0:0,0:0:0:0:
8,0,38906,6,0,B|44:0|44:0|20:32|20:32|72:24|72:24|52:60|52:60|76:88|76:88,1,200,0|0,0:0|0:0,0:0:0:0:
8,0,39217,6,0,B|44:0|44:0|20:32|20:32|73:24|73:24|52:61|52:61|77:89|77:89,1,200,0|0,0:0|0:0,0:0:0:0:
8,0,39450,6,0,B|53:0|53:0|23:40|23:40|88:30|88:30|63:75|63:75|93:110|93:110,1,250,0|0,0:0|0:0,0:0:0:0:
8,0,39683,6,0,B|63:0|63:0|26:49|26:49|106:36|106:36|75:92|75:92|112:135|112:135,1,300.000011444092,0|0,0:0|0:0,0:0:0:0:
312,224,39839,6,0,B|317:220|330:225|330:225|305:213|262:163|262:163|289:207|259:208|291:253,1,200,0|0,0:0|0:0,0:0:0:0:
287,246,40150,6,0,B|259:208|289:207|262:163|262:163|305:213|330:225|330:225|317:220|312:224,1,200,0|0,0:0|0:0,0:0:0:0:
320,217,40460,6,0,B|328:211|349:219|349:219|310:200|244:122|244:122|285:191|238:193|289:263,1,300.000011444092,0|0,0:0|0:0,0:0:0:0:
258,253,40694,6,0,B|203:177|263:175|209:86|209:86|295:186|345:210|345:210|319:201|308:208,1,400,0|0,0:0|0:0,0:0:0:0:
296,192,40927,6,0,B|307:184|334:194|334:194|282:169|194:66|194:66|249:158|187:160|254:253,1,400,0|0,0:0|0:0,0:0:0:0:
492,0,41082,6,0,B|501:34|501:34|464:19|464:19|485:68|485:68|445:58|445:58|424:88|424:88,1,200,0|0,0:0|0:0,0:0:0:0:
428,82,41393,6,0,B|424:88|445:58|445:58|485:68|485:68|464:19|464:19|501:34|501:34|492:0,1,200,0|0,0:0|0:0,0:0:0:0:
492,0,41704,6,0,B|501:35|501:35|463:20|463:20|485:69|485:69|444:59|444:59|423:90|423:90,1,200,0|0,0:0|0:0,0:0:0:0:
412,103,41937,6,0,B|407:110|433:72|433:72|483:85|483:85|457:24|457:24|503:43|503:43|492:0,1,250,0|0,0:0|0:0,0:0:0:0:
494,7,42131,6,0,B|506:53|506:53|449:30|449:30|481:104|481:104|420:89|420:89|388:135|398:121,1,300.000011444092,0|0,0:0|0:0,0:0:0:0:
188,320,42326,6,0,B|192:324|191:338|191:338|196:310|233:256|233:256|197:293|189:265|154:308,1,200,0|0,0:0|0:0,0:0:0:0:
188,320,42637,6,0,B|192:324|191:338|191:338|196:310|233:256|233:256|197:293|189:265|159:301,1,200,0|0,0:0|0:0,0:0:0:0:
197,326,42947,6,0,B|204:332|202:354|202:354|210:311|268:227|268:227|212:285|198:240|144:307,1,300.000011444092,0|0,0:0|0:0,0:0:0:0:
398,120,43258,5,0,0:0:0:0:
0,0,43569,5,0,0:0:0:0:
0,0,43647,1,0,0:0:0:0:
0,0,43725,1,0,0:0:0:0:
16,16,43802,5,0,0:0:0:0:
16,96,43880,5,0,0:0:0:0:
16,96,43958,1,0,0:0:0:0:
32,112,44036,5,0,0:0:0:0:
16,96,44113,5,0,0:0:0:0:
144,160,44191,5,0,0:0:0:0:
144,160,44269,1,0,0:0:0:0:
144,160,44347,1,0,0:0:0:0:
128,144,44424,5,0,0:0:0:0:
128,64,44502,5,0,0:0:0:0:
128,64,44580,1,0,0:0:0:0:
112,48,44658,5,0,0:0:0:0:
128,64,44735,5,0,0:0:0:0:
64,80,44813,5,0,0:0:0:0:
64,80,44891,1,0,0:0:0:0:
64,80,44969,1,0,0:0:0:0:
80,96,45046,5,0,0:0:0:0:
80,176,45124,5,0,0:0:0:0:
80,176,45202,1,0,0:0:0:0:
96,192,45280,5,0,0:0:0:0:
80,176,45357,5,0,0:0:0:0:
208,240,45435,5,0,0:0:0:0:
208,240,45513,1,0,0:0:0:0:
208,240,45591,1,0,0:0:0:0:
192,224,45668,5,0,0:0:0:0:
192,144,45746,5,0,0:0:0:0:
192,144,45824,1,0,0:0:0:0:
176,128,45902,5,0,0:0:0:0:
192,144,45979,5,0,0:0:0:0:
128,280,46056,6,0,L|175:323,2,50,0|0|0,0:0|0:0|0:0,0:0:0:0:
164,314,46289,6,0,L|128:280,2,50,0|0|0,0:0|0:0|0:0,0:0:0:0:
128,280,46523,6,0,L|164:314,1,50,0|0,0:0|0:0,0:0:0:0:
164,314,46678,6,0,L|128:280,7,50,0|0|0|0|0|0|0|0,0:0|0:0|0:0|0:0|0:0|0:0|0:0|0:0,0:0:0:0:
184,216,47300,6,0,L|231:259,2,50,0|0|0,0:0|0:0|0:0,0:0:0:0:
104,384,47533,6,0,L|67:349,2,50,0|0|0,0:0|0:0|0:0,0:0:0:0:
240,344,47767,6,0,L|205:380,1,50,0|0,0:0|0:0,0:0:0:0:
81,211,47922,5,0,0:0:0:0:
48,248,47999,6,0,L|82:211,6,50,0|0|0|0|0|0|0,0:0|0:0|0:0|0:0|0:0|0:0|0:0,0:0:0:0:
512,384,48543,5,0,0:0:0:0:
512,384,48621,1,0,0:0:0:0:
512,384,48699,1,0,0:0:0:0:
496,368,48776,5,0,0:0:0:0:
496,288,48854,5,0,0:0:0:0:
496,288,48932,1,0,0:0:0:0:
480,272,49010,5,0,0:0:0:0:
496,288,49087,5,0,0:0:0:0:
368,224,49165,5,0,0:0:0:0:
368,224,49243,1,0,0:0:0:0:
368,224,49321,1,0,0:0:0:0:
384,240,49398,5,0,0:0:0:0:
384,320,49476,5,0,0:0:0:0:
384,320,49554,1,0,0:0:0:0:
400,336,49632,5,0,0:0:0:0:
384,320,49709,5,0,0:0:0:0:
448,304,49787,5,0,0:0:0:0:
448,304,49865,1,0,0:0:0:0:
448,304,49943,1,0,0:0:0:0:
432,288,50020,5,0,0:0:0:0:
432,208,50098,5,0,0:0:0:0:
432,208,50176,1,0,0:0:0:0:
416,192,50254,5,0,0:0:0:0:
432,208,50331,5,0,0:0:0:0:
304,144,50409,5,0,0:0:0:0:
304,144,50487,1,0,0:0:0:0:
304,144,50565,1,0,0:0:0:0:
320,160,50642,5,0,0:0:0:0:
320,240,50720,5,0,0:0:0:0:
320,240,50798,1,0,0:0:0:0:
336,256,50876,5,0,0:0:0:0:
320,240,50953,5,0,0:0:0:0:
384,104,51030,6,0,L|336:60,2,50,0|0|0,0:0|0:0|0:0,0:0:0:0:
347,69,51263,6,0,L|384:104,2,50,0|0|0,0:0|0:0|0:0,0:0:0:0:
384,104,51497,6,0,L|347:69,1,50,0|0,0:0|0:0,0:0:0:0:
347,69,51652,6,0,L|384:104,7,50,0|0|0|0|0|0|0|0,0:0|0:0|0:0|0:0|0:0|0:0|0:0|0:0,0:0:0:0:
320,176,52274,6,0,L|272:132,2,50,0|0|0,0:0|0:0|0:0,0:0:0:0:
408,0,52507,1,0,0:0:0:0:
408,0,52585,6,0,L|444:34,1,50,0|0,0:0|0:0,0:0:0:0:
484,186,52740,6,0,L|448:152,1,50,0|0,0:0|0:0,0:0:0:0:
80,120,52896,6,0,B|77:126|40:64|-29:19|-29:19|232:85|300:222|221:332|178:349|60:321|56:216|80:136|362:68|216:200,1,900.000034332277,0|0,0:0|0:0,0:0:0:0:
384,272,53517,6,0,B|360:272|360:272|320:232,1,75,0|0,0:0|0:0,0:0:0:0:
264,144,53828,5,0,0:0:0:0:
240,136,53906,1,0,0:0:0:0:
132,96,53984,1,0,0:0:0:0:
80,192,54062,1,0,0:0:0:0:
176,224,54139,2,0,B|195:220|195:220|201:202,1,37.5,0|0,0:0|0:0,0:0:0:0:
312,76,54450,1,0,0:0:0:0:
384,32,54528,1,0,0:0:0:0:
512,36,54606,6,0,P|516:38|509:35,2,50,0|0|0,0:0|0:0|0:0,0:0:0:0:
512,280,54839,6,0,B|500:291|500:291|466:291,1,50,0|0,0:0|0:0,0:0:0:0:
280,292,55072,5,0,0:0:0:0:
256,284,55150,1,0,0:0:0:0:
144,252,55228,1,0,0:0:0:0:
144,252,55306,1,0,0:0:0:0:
68,300,55383,2,0,B|52:323|52:323|21:320,1,50,0|0,0:0|0:0,0:0:0:0:
12,32,55694,5,0,0:0:0:0:
16,40,55771,1,0,0:0:0:0:
108,56,55849,5,0,0:0:0:0:
108,56,55927,1,0,0:0:0:0:
204,44,56005,6,0,L|227:52,1,25,0|0,0:0|0:0,0:0:0:0:
384,164,56160,5,0,0:0:0:0:
384,164,56238,2,0,L|352:152,1,25,0|0,0:0|0:0,0:0:0:0:
324,60,56393,6,0,L|347:68,1,25,0|0,0:0|0:0,0:0:0:0:
504,180,56548,5,0,0:0:0:0:
476,252,56626,2,0,L|444:240,2,25,0|0|0,0:0|0:0|0:0,0:0:0:0:
298,50,56859,5,0,0:0:0:0:
298,50,56937,2,0,P|312:34|319:55,1,50,0|0,0:0|0:0,0:0:0:0:
300,376,57248,6,0,L|276:367,1,25,0|0,0:0|0:0,0:0:0:0:
120,256,57403,5,0,0:0:0:0:
120,256,57481,2,0,L|152:268,1,25,0|0,0:0|0:0,0:0:0:0:
180,360,57636,6,0,L|156:351,1,25,0|0,0:0|0:0,0:0:0:0:
28,168,57791,5,0,0:0:0:0:
28,168,57869,2,0,L|60:180,2,25,0|0|0,0:0|0:0|0:0,0:0:0:0:
206,370,58102,5,0,0:0:0:0:
206,370,58180,2,0,P|191:385|184:364,1,50,0|0,0:0|0:0,0:0:0:0:
128,112,58492,6,0,B|152:112|152:112|192:152,1,75,0|0,0:0|0:0,0:0:0:0:
248,240,58803,5,0,0:0:0:0:
272,248,58881,1,0,0:0:0:0:
376,224,58959,1,0,0:0:0:0:
452,160,59037,1,0,0:0:0:0:
316,136,59114,2,0,B|297:140|297:140|291:158,1,37.5,0|0,0:0|0:0,0:0:0:0:
200,308,59425,1,0,0:0:0:0:
128,352,59503,1,0,0:0:0:0:
0,348,59581,6,0,P|-4:346|3:349,2,50,0|0|0,0:0|0:0|0:0,0:0:0:0:
0,104,59814,6,0,B|12:93|12:93|46:93,1,50,0|0,0:0|0:0,0:0:0:0:
232,92,60047,5,0,0:0:0:0:
256,100,60125,1,0,0:0:0:0:
368,132,60201,1,0,0:0:0:0:
368,132,60279,1,0,0:0:0:0:
444,84,60358,6,0,B|460:61|460:61|491:64,1,50,0|0,0:0|0:0,0:0:0:0:
500,352,60669,5,0,0:0:0:0:
496,344,60746,1,0,0:0:0:0:
404,328,60824,5,0,0:0:0:0:
388,312,60901,1,0,0:0:0:0:
308,340,60980,6,0,L|284:331,1,25,0|0,0:0|0:0,0:0:0:0:
128,220,61135,5,0,0:0:0:0:
128,220,61213,2,0,L|160:232,1,25,0|0,0:0|0:0,0:0:0:0:
188,324,61368,6,0,L|164:315,1,25,0|0,0:0|0:0,0:0:0:0:
8,204,61523,5,0,0:0:0:0:
36,132,61601,2,0,L|68:144,2,25,0|0|0,0:0|0:0|0:0,0:0:0:0:
214,334,61834,5,0,0:0:0:0:
214,334,61912,2,0,P|199:349|192:328,1,50,0|0,0:0|0:0,0:0:0:0:
212,8,62223,6,0,L|235:16,1,25,0|0,0:0|0:0,0:0:0:0:
392,128,62378,5,0,0:0:0:0:
392,128,62456,2,0,L|360:116,1,25,0|0,0:0|0:0,0:0:0:0:
332,24,62611,6,0,L|355:32,1,25,0|0,0:0|0:0,0:0:0:0:
484,216,62766,5,0,0:0:0:0:
460,207,62844,6,0,L|484:216,1,25,0|0,0:0|0:0,0:0:0:0:
184,160,67196,5,0,0:0:0:0:
200,160,67507,2,0,L|228:136,1,37.5,0|0,0:0|0:0,0:0:0:0:
512,24,67818,1,0,0:0:0:0:
186,146,67973,2,0,P|195:164|199:150,1,37.5000014305115,0|0,0:0|0:0,0:0:0:0:
496,176,68129,5,0,0:0:0:0:
360,140,68284,1,0,0:0:0:0:
364,336,68440,6,0,B|376:380|376:380|420:372|420:372|432:352,1,112.500004291535,0|0,0:0|0:0,0:0:0:0:
404,128,68751,1,0,0:0:0:0:
412,264,68906,1,0,0:0:0:0:
472,24,69061,1,0,0:0:0:0:
476,8,69217,1,0,0:0:0:0:
444,352,69372,6,0,B|432:371|432:371|388:379|388:379|376:335,1,112.500004291535,0|0,0:0|0:0,0:0:0:0:
312,48,69683,6,0,B|300:4|300:4|256:12|256:12|244:32,1,112.500004291535,0|0,0:0|0:0,0:0:0:0:
272,256,69994,1,0,0:0:0:0:
264,120,70149,1,0,0:0:0:0:
204,360,70304,1,0,0:0:0:0:
200,376,70460,1,0,0:0:0:0:
232,32,70615,6,0,B|243:12|243:12|287:4|287:4|299:48,1,112.500004291535,0|0,0:0|0:0,0:0:0:0:
0,348,70927,6,0,B|12:392|12:392|56:384|56:384|68:364,1,112.500004291535,0|0,0:0|0:0,0:0:0:0:
40,140,71238,1,0,0:0:0:0:
48,276,71393,1,0,0:0:0:0:
108,36,71548,1,0,0:0:0:0:
112,20,71704,1,0,0:0:0:0:
80,364,71859,6,0,B|68:383|68:383|24:391|24:391|12:347,1,112.500004291535,0|0,0:0|0:0,0:0:0:0:
224,184,72170,6,0,L|231:140,3,37.5000014305115,0|0|0|0,0:0|0:0|0:0|0:0,0:0:0:0:
0,128,72481,6,0,L|150:151,1,150.000005722046,0|0,0:0|0:0,0:0:0:0:
13,106,72559,6,0,L|160:142,1,125,0|0,0:0|0:0,0:0:0:0:
21,85,72637,6,0,L|128:122,1,100,0|0,0:0|0:0,0:0:0:0:
31,65,72714,6,0,L|116:103,1,75.0000028610231,0|0,0:0|0:0,0:0:0:0:
43,46,72792,2,0,L|104:79,1,50,0|0,0:0|0:0,0:0:0:0:
176,96,72870,2,0,L|234:135,1,50,0|0,0:0|0:0,0:0:0:0:
301,196,72948,2,0,L|354:239,1,50,0|0,0:0|0:0,0:0:0:0:
440,336,73103,6,0,L|422:318,3,25
32,368,73414,6,0,L|16:384,6,18.7500007152558,0|0|0|0|0|0|0,0:0|0:0|0:0|0:0|0:0|0:0|0:0,0:0:0:0:
496,32,73725,2,0,B|480:64|480:64|528:32,4,75.0000028610231,0|0|0|0|0,0:0|0:0|0:0|0:0|0:0,0:0:0:0:
512,384,74035,6,0,L|224:176,1,300.000011444092,0|0,0:0|0:0,0:0:0:0:
80,64,74191,2,0,L|120:100,6,37.5000014305115,0|0|0|0|0|0|0,0:0|0:0|0:0|0:0|0:0|0:0|0:0,0:0:0:0:
88,0,74502,6,0,B|244:256|244:256|24:80|24:80|-12:76,1,600.000022888185,0|0,0:0|0:0,0:0:0:0:
232,0,74813,2,0,B|232:28|232:28|288:152,1,150.000005722046,0|0,0:0|0:0,0:0:0:0:
0,288,74968,2,0,L|32:320,1,25,0|0,0:0|0:0,0:0:0:0:
87,366,75046,2,0,L|88:324,1,25,0|0,0:0|0:0,0:0:0:0:
104,368,75124,2,0,L|105:326,1,25,0|0,0:0|0:0,0:0:0:0:
512,8,75279,5,0,0:0:0:0:
480,108,75357,1,0,0:0:0:0:
496,136,75434,6,0,B|503:164|503:164|482:298,1,150.000005722046,0|0,0:0|0:0,0:0:0:0:
360,48,75590,5,0,0:0:0:0:
494,14,75668,1,0,0:0:0:0:
494,14,75745,6,0,B|454:5|454:5|443:14,1,56.2500021457673,0|0,0:0|0:0,0:0:0:0:
416,32,75901,6,0,L|432:16,6,18.7500007152558,0|0|0|0|0|0|0,0:0|0:0|0:0|0:0|0:0|0:0|0:0,0:0:0:0:
16,352,76212,2,0,B|32:320|32:320|-16:352,4,75.0000028610231,0|0|0|0|0,0:0|0:0|0:0|0:0|0:0,0:0:0:0:
0,0,76522,6,0,B|48:45|116:108|288:208,1,300.000011444092,0|0,0:0|0:0,0:0:0:0:
432,312,76678,2,0,P|416:292|392:276,6,37.5000014305115,0|0|0|0|0|0|0,0:0|0:0|0:0|0:0|0:0|0:0|0:0,0:0:0:0:
424,384,76989,6,0,B|360:256|268:128|268:128|388:232|524:308,1,600.000022888185,0|0,0:0|0:0,0:0:0:0:
280,384,77300,2,0,B|280:356|280:356|224:232,1,150.000005722046,0|0,0:0|0:0,0:0:0:0:
512,112,77455,2,0,B|376:156|248:248|248:248|364:144|436:-4,1,600.000022888185,0|0,0:0|0:0,0:0:0:0:
0,376,77766,5,0,0:0:0:0:
32,276,77844,1,0,0:0:0:0:
8,248,77921,6,0,B|0:120|0:120|32:56,1,150.000005722046,0|0,0:0|0:0,0:0:0:0:
144,360,78077,5,0,0:0:0:0:
18,370,78155,1,0,0:0:0:0:
18,370,78232,6,0,B|40:380|40:380|76:372,1,50.0000019073487,0|0,0:0|0:0,0:0:0:0:
324,216,78388,6,0,P|292:260|332:228,1,150,0|0,0:0|0:0,0:0:0:0:
320,200,78699,5,0,0:0:0:0:
320,200,78854,5,0,0:0:0:0:
232,68,79010,5,0,0:0:0:0:
232,68,79165,5,0,0:0:0:0:
256,384,79320,6,0,P|272:392|274:373,2,37.5000014305115,0|0|0,0:0|0:0|0:0,0:0:0:0:
277,356,79476,2,0,B|211:330|140:256|140:256|189:172|101:83|101:83|189:172|247:220|367:266,1,600,0|0,0:0|0:0,0:0:0:0:
512,20,79787,6,0,P|517:4|498:6,2,37.5000014305115,0|0|0,0:0|0:0|0:0,0:0:0:0:
352,56,79942,6,0,L|320:64,1,25
352,176,80020,2,0,L|353:128,1,25,0|0,0:0|0:0,0:0:0:0:
352,176,80098,2,0,L|353:128,1,25,0|0,0:0|0:0,0:0:0:0:
40,376,80253,6,0,P|16:344|-12:328,1,56.2500021457673,0|0,0:0|0:0,0:0:0:0:
3,335,80564,6,0,B|32:160,1,150.000005722046,0|0,0:0|0:0,0:0:0:0:
111,133,80720,6,0,B|49:269,1,150.000005722046,0|0,0:0|0:0,0:0:0:0:
480,368,80875,6,0,L|496:384,6,18.7500007152558,0|0|0|0|0|0|0,0:0|0:0|0:0|0:0|0:0|0:0|0:0,0:0:0:0:
16,32,81186,2,0,B|32:64|32:64|-16:32,4,75.0000028610231,0|0|0|0|0,0:0|0:0|0:0|0:0|0:0,0:0:0:0:
0,384,81496,6,0,B|104:296|104:296|124:312|124:312|288:176,1,300.000011444092,0|0,0:0|0:0,0:0:0:0:
440,68,81652,2,0,L|392:100,6,37.5000014305115,0|0|0|0|0|0|0,0:0|0:0|0:0|0:0|0:0|0:0|0:0,0:0:0:0:
272,0,81963,6,0,B|760:248|-16:512|540:164|388:68|596:192,1,600.000022888185,0|0,0:0|0:0,0:0:0:0:
280,0,82274,2,0,B|280:28|280:28|224:152,1,150.000005722046,0|0,0:0|0:0,0:0:0:0:
512,328,82429,2,0,B|384:320|300:196|300:196|364:296|401:358|308:432|240:344|296:240,1,600.000022888185,0|0,0:0|0:0,0:0:0:0:
104,200,82740,5,0,0:0:0:0:
88,200,82818,1,0,0:0:0:0:
12,236,82895,6,0,B|5:264|5:264|26:398,1,150.000005722046,0|0,0:0|0:0,0:0:0:0:
20,152,83051,2,0,B|27:124|27:124|6:-10,1,150.000005722046,0|0,0:0|0:0,0:0:0:0:
112,200,83206,6,0,B|144:200,1,18.7500007152558,0|0,0:0|0:0,0:0:0:0:
508,8,83362,5,0,0:0:0:0:
496,108,83673,5,0,0:0:0:0:
496,103,83711,5,0,0:0:0:0:
496,99,83750,5,0,0:0:0:0:
497,95,83789,5,0,0:0:0:0:
497,90,83828,5,0,0:0:0:0:
480,240,83984,6,0,B|442:199|365:199|271:202|293:334|101:359|101:359|222:290|244:191,1,600.000022888185,0|0,0:0|0:0,0:0:0:0:
240,20,84243,5,0,0:0:0:0:
243,33,84295,1,0,0:0:0:0:
246,45,84346,1,0,0:0:0:0:
249,57,84398,1,0,0:0:0:0:
270,128,84450,5,0,0:0:0:0:
270,128,84761,2,0,P|304:152|336:152,1,75.0000028610231,0|0,0:0|0:0,0:0:0:0:
136,48,84916,6,0,L|172:52,1,25,0|0,0:0|0:0,0:0:0:0:
84,144,84994,2,0,L|117:157,1,25,0|0,0:0|0:0,0:0:0:0:
8,216,85072,2,0,L|37:237,1,25,0|0,0:0|0:0,0:0:0:0:
232,384,85227,6,0,P|248:344|256:296,1,75.0000028610231,0|0,0:0|0:0,0:0:0:0:
476,44,85538,6,0,B|466:54|466:54|450:57|450:57|445:57|445:57|408:63|408:63|448:45,1,100,0|0,0:0|0:0,0:0:0:0:
476,44,85694,2,0,B|525:24|525:24|451:35|451:35|441:34|441:34|410:40|410:40|388:60,1,200,0|0,0:0|0:0,0:0:0:0:
32,16,85849,6,0,L|16:0,6,18.7500007152558,0|0|0|0|0|0|0,0:0|0:0|0:0|0:0|0:0|0:0|0:0,0:0:0:0:
496,352,86160,2,0,B|480:320|480:320|528:352,4,75.0000028610231,0|0|0|0|0,0:0|0:0|0:0|0:0|0:0,0:0:0:0:
512,0,86470,6,0,L|224:208,1,300.000011444092,0|0,0:0|0:0,0:0:0:0:
80,320,86626,2,0,L|120:284,6,37.5000014305115,0|0|0|0|0|0|0,0:0|0:0|0:0|0:0|0:0|0:0|0:0,0:0:0:0:
88,384,86937,6,0,B|244:128|244:128|99:235|99:235|88:376,1,600.000022888185,0|0,0:0|0:0,0:0:0:0:
232,384,87248,2,0,B|232:356|232:356|288:232,1,150.000005722046,0|0,0:0|0:0,0:0:0:0:
24,96,87403,2,0,B|80:200|80:200|256:252|256:252|168:112|168:112|0:96,1,600.000022888185,0|0,0:0|0:0,0:0:0:0:
512,376,87714,5,0,0:0:0:0:
480,276,87792,1,0,0:0:0:0:
500,252,87869,6,0,B|507:224|507:224|486:90,1,150.000005722046,0|0,0:0|0:0,0:0:0:0:
380,308,88025,5,0,0:0:0:0:
494,370,88103,1,0,0:0:0:0:
494,370,88180,6,0,B|454:379|454:379|443:370,1,56.2500021457673,0|0,0:0|0:0,0:0:0:0:
0,148,88336,6,0,B|112:168|112:168|269:191|112:168|112:168|-4:155,1,337.500012874604,0|0,0:0|0:0,0:0:0:0:
192,176,88647,5,0,0:0:0:0:
192,176,88802,5,0,0:0:0:0:
208,328,88958,5,0,0:0:0:0:
208,328,89113,5,0,0:0:0:0:
352,360,89269,6,0,P|367:370|370:350,2,37.5000014305115,0|0|0,0:0|0:0|0:0,0:0:0:0:
368,328,89425,2,0,B|251:170|231:-33|368:160|416:288,1,400,0|0,0:0|0:0,0:0:0:0:
512,20,89736,6,0,P|517:4|498:6,2,37.5000014305115,0|0|0,0:0|0:0|0:0,0:0:0:0:
416,224,89891,6,0,L|396:180,1,25,0|0,0:0|0:0,0:0:0:0:
296,216,89968,2,0,L|276:172,1,25,0|0,0:0|0:0,0:0:0:0:
272,209,90046,2,0,L|252:165,1,25,0|0,0:0|0:0,0:0:0:0:
496,368,90201,5,0,0:0:0:0:
0,32,90512,6,0,B|123:48|123:48|140:58|140:58|202:221,1,300.000011444092,0|0,0:0|0:0,0:0:0:0:
176,208,90668,2,0,L|200:260,1,37.5000014305115,0|0,0:0|0:0,0:0:0:0:
252,384,90823,5,0,0:0:0:0:
488,16,91290,2,0,L|468:60,3,25,0|0|0|0,0:0|0:0|0:0|0:0,0:0:0:0:
496,0,91445,5,0,0:0:0:0:
512,384,92067,5,0,0:0:0:0:
184,268,92378,5,0,0:0:0:0:
512,384,93310,5,0,0:0:0:0:
512,384,93388,1,0,0:0:0:0:
512,384,93466,1,0,0:0:0:0:
496,368,93543,5,0,0:0:0:0:
496,288,93621,5,0,0:0:0:0:
496,288,93699,1,0,0:0:0:0:
480,272,93777,5,0,0:0:0:0:
496,288,93854,5,0,0:0:0:0:
368,224,93932,5,0,0:0:0:0:
368,224,94010,1,0,0:0:0:0:
368,224,94088,1,0,0:0:0:0:
384,240,94165,5,0,0:0:0:0:
384,320,94243,5,0,0:0:0:0:
384,320,94321,1,0,0:0:0:0:
400,336,94399,5,0,0:0:0:0:
384,320,94476,5,0,0:0:0:0:
448,304,94554,5,0,0:0:0:0:
448,304,94632,1,0,0:0:0:0:
448,304,94710,1,0,0:0:0:0:
432,288,94787,5,0,0:0:0:0:
432,208,94865,5,0,0:0:0:0:
432,208,94943,1,0,0:0:0:0:
416,192,95021,5,0,0:0:0:0:
432,208,95098,5,0,0:0:0:0:
304,144,95176,5,0,0:0:0:0:
304,144,95254,1,0,0:0:0:0:
304,144,95332,1,0,0:0:0:0:
320,160,95409,5,0,0:0:0:0:
208,56,95486,5,0,0:0:0:0:
208,56,95564,1,0,0:0:0:0:
208,56,95642,1,0,0:0:0:0:
224,72,95719,5,0,0:0:0:0:
384,104,95797,6,0,L|337:61,2,50,0|0|0,0:0|0:0|0:0,0:0:0:0:
240,104,96030,6,0,L|189:65,2,50,0|0|0,0:0|0:0|0:0,0:0:0:0:
144,160,96264,6,0,L|87:130,1,50,0|0,0:0|0:0,0:0:0:0:
232,200,96419,6,0,L|229:263,2,50,0|0|0,0:0|0:0|0:0,0:0:0:0:
130,301,96652,6,0,L|121:364,2,50,0|0|0,0:0|0:0|0:0,0:0:0:0:
22,330,96886,6,0,L|2:390,1,50,0|0,0:0|0:0,0:0:0:0:
400,88,97041,6,0,L|353:45,2,50,0|0|0,0:0|0:0|0:0,0:0:0:0:
256,88,97274,6,0,L|205:49,2,50,0|0|0,0:0|0:0|0:0,0:0:0:0:
160,144,97508,6,0,L|103:114,1,50,0|0,0:0|0:0,0:0:0:0:
248,232,97663,1,0,0:0:0:0:
248,184,97740,6,0,L|245:247,1,50,0|0,0:0|0:0,0:0:0:0:
146,285,97896,6,0,L|137:348,2,50,0|0|0,0:0|0:0|0:0,0:0:0:0:
38,314,98130,6,0,L|18:374,1,50,0|0,0:0|0:0,0:0:0:0:
0,0,98284,5,0,0:0:0:0:
0,0,98362,1,0,0:0:0:0:
0,0,98440,1,0,0:0:0:0:
16,16,98517,5,0,0:0:0:0:
16,96,98595,5,0,0:0:0:0:
16,96,98673,1,0,0:0:0:0:
32,112,98751,5,0,0:0:0:0:
16,96,98828,5,0,0:0:0:0:
144,160,98906,5,0,0:0:0:0:
144,160,98984,1,0,0:0:0:0:
144,160,99062,1,0,0:0:0:0:
128,144,99139,5,0,0:0:0:0:
128,64,99217,5,0,0:0:0:0:
128,64,99295,1,0,0:0:0:0:
112,48,99373,5,0,0:0:0:0:
128,64,99450,5,0,0:0:0:0:
64,80,99528,5,0,0:0:0:0:
64,80,99606,1,0,0:0:0:0:
64,80,99684,1,0,0:0:0:0:
80,96,99761,5,0,0:0:0:0:
80,176,99839,5,0,0:0:0:0:
80,176,99917,1,0,0:0:0:0:
96,192,99995,5,0,0:0:0:0:
80,176,100072,5,0,0:0:0:0:
208,240,100150,5,0,0:0:0:0:
208,240,100228,1,0,0:0:0:0:
208,240,100306,1,0,0:0:0:0:
192,224,100383,5,0,0:0:0:0:
96,368,100460,5,0,0:0:0:0:
96,368,100538,1,0,0:0:0:0:
96,368,100616,1,0,0:0:0:0:
80,352,100693,5,0,0:0:0:0:
128,280,100771,6,0,L|175:323,2,50,0|0|0,0:0|0:0|0:0,0:0:0:0:
272,280,101005,1,0,0:0:0:0:
272,280,101082,6,0,L|322:318,1,50,0|0,0:0|0:0,0:0:0:0:
368,224,101238,6,0,L|424:253,1,50,0|0,0:0|0:0,0:0:0:0:
281,134,101393,1,0,0:0:0:0:
280,184,101471,6,0,L|282:120,1,50,0|0,0:0|0:0,0:0:0:0:
382,83,101626,1,0,0:0:0:0:
382,83,101704,6,0,L|390:19,1,50,0|0,0:0|0:0,0:0:0:0:
490,54,101860,6,0,L|509:-6,1,50,0|0,0:0|0:0,0:0:0:0:
112,296,102015,5,0,0:0:0:0:
112,296,102093,2,0,L|159:339,1,50,0|0,0:0|0:0,0:0:0:0:
295,326,102248,1,0,0:0:0:0:
256,296,102326,6,0,L|306:334,1,50,0|0,0:0|0:0,0:0:0:0:
352,240,102482,6,0,L|408:269,1,50,0|0,0:0|0:0,0:0:0:0:
256,80,102637,6,0,L|248:112,3,25,0|0|0|0,0:0|0:0|0:0|0:0,0:0:0:0:
200,176,102948,2,0,L|232:104,1,75,0|0,0:0|0:0,0:0:0:0:
80,272,103258,5,0,0:0:0:0:
512,384,104502,1,0,0:0:0:0:
312,56,105745,1,0,0:0:0:0:
376,256,106367,1,0,0:0:0:0:
496,24,106678,2,0,L|504:8,6,12.5,0|0|0|0|0|0|0,0:0|0:0|0:0|0:0|0:0|0:0|0:0,0:0:0:0:
368,288,106989,1,0,0:0:0:0:
8,24,108233,6,0,L|131:109,1,150.000005722046,0|0,0:0|0:0,0:0:0:0:
132,110,108543,2,0,B|130:59|130:59|34:-4,1,150.000005722046,0|0,0:0|0:0,0:0:0:0:
132,110,108699,2,0,B|84:128|84:128|2:73,1,150.000005722046,0|0,0:0|0:0,0:0:0:0:
132,110,108855,2,0,L|195:150,1,75.0000028610231,0|0,0:0|0:0,0:0:0:0:
195,150,109166,5,0,0:0:0:0:
8,24,109321,1,0,0:0:0:0:
40,24,109476,6,0,L|163:109,1,150.000005722046,0|0,0:0|0:0,0:0:0:0:
164,110,109786,2,0,B|162:59|162:59|66:-4,1,150.000005722046,0|0,0:0|0:0,0:0:0:0:
164,110,109942,2,0,B|165:160|165:160|261:224,1,150.000005722046,0|0,0:0|0:0,0:0:0:0:
248,215,110098,2,0,L|311:255,1,75.0000028610231,0|0,0:0|0:0,0:0:0:0:
311,255,110410,5,0,0:0:0:0:
504,340,110565,1,0,0:0:0:0:
504,340,110720,6,0,B|448:272|448:272|416:296|416:296|328:200,1,225.000008583069,0|0,0:0|0:0,0:0:0:0:
304,144,111030,6,0,B|343:220|343:220|376:206|376:206|408:277,1,200,0|0,0:0|0:0,0:0:0:0:
392,128,111186,6,0,B|388:213|388:213|423:218|423:218|415:296,1,200,0|0,0:0|0:0,0:0:0:0:
352,344,111341,6,0,B|416:290|416:290|393:260|393:260|484:177,1,200,0|0,0:0|0:0,0:0:0:0:
416,296,111653,5,0,0:0:0:0:
451,207,111808,1,0,0:0:0:0:
512,384,111964,6,0,L|385:303,1,150.000005722046,0|0,0:0|0:0,0:0:0:0:
386,303,112275,2,0,L|512:384,1,150.000005722046,0|0,0:0|0:0,0:0:0:0:
356,304,112430,2,0,L|229:223,1,150.000005722046,0|0,0:0|0:0,0:0:0:0:
230,193,112585,2,0,L|104:112,1,150.000005722046,0|0,0:0|0:0,0:0:0:0:
0,0,112897,5,0,0:0:0:0:
0,384,113207,6,0,P|-24:312|40:320,1,150.000005722046,0|0,0:0|0:0,0:0:0:0:
26,307,113362,2,0,P|91:302|71:239,1,150.000005722046,0|0,0:0|0:0,0:0:0:0:
71,239,113517,2,0,P|66:163|126:187,1,150.000005722046,0|0,0:0|0:0,0:0:0:0:
116,171,113673,2,0,P|174:199|189:135,1,150.000005722046,0|0,0:0|0:0,0:0:0:0:
189,135,113828,2,0,P|204:60|255:99,1,150.000005722046,0|0,0:0|0:0,0:0:0:0:
250,81,114139,5,0,0:0:0:0:
512,0,114295,5,0,0:0:0:0:
512,0,114450,2,0,P|536:72|472:64,1,150.000005722046,0|0,0:0|0:0,0:0:0:0:
486,77,114605,2,0,P|420:81|440:144,1,150.000005722046,0|0,0:0|0:0,0:0:0:0:
441,145,114760,2,0,P|445:220|385:196,1,150.000005722046,0|0,0:0|0:0,0:0:0:0:
396,213,114916,2,0,P|337:184|322:248,1,150.000005722046,0|0,0:0|0:0,0:0:0:0:
323,249,115072,2,0,P|307:323|256:284,1,150.000005722046,0|0,0:0|0:0,0:0:0:0:
261,302,115382,5,0,0:0:0:0:
512,384,115538,1,0,0:0:0:0:
512,384,115694,6,0,B|424:240|424:240|296:368,1,337.500012874604,0|0,0:0|0:0,0:0:0:0:
216,264,116005,6,0,B|301:360|301:360|380:247,1,250,0|0,0:0|0:0,0:0:0:0:
216,264,116160,6,0,B|138:199|138:199|94:289,1,200,0|0,0:0|0:0,0:0:0:0:
152,256,116315,6,0,B|51:264|51:264|83:360,1,200,0|0,0:0|0:0,0:0:0:0:
82,357,116549,1,0,0:0:0:0:
512,72,116782,1,0,0:0:0:0:
512,72,116937,6,0,L|365:104,1,150.000005722046,0|0,0:0|0:0,0:0:0:0:
218,136,117248,2,0,L|364:104,1,150.000005722046,0|0,0:0|0:0,0:0:0:0:
490,184,117403,2,0,L|363:103,1,150.000005722046,0|0,0:0|0:0,0:0:0:0:
238,23,117558,2,0,L|364:104,1,150.000005722046,0|0,0:0|0:0,0:0:0:0:
364,104,117870,6,0,L|352:128,2,25,0|0|0,0:0|0:0|0:0,0:0:0:0:
0,8,118181,6,0,P|16:32|16:40,1,37.5,0|0,0:0|0:0,0:0:0:0:
49,50,118492,2,0,P|20:44|15:38,1,37.5,0|0,0:0|0:0,0:0:0:0:
49,50,118802,2,0,P|58:77|56:85,1,34.9999989318848,0|0,0:0|0:0,0:0:0:0:
96,128,119036,2,0,P|70:115|66:108,1,34.9999989318848,0|0,0:0|0:0,0:0:0:0:
111,65,119269,2,0,P|84:74|76:72,1,34.9999989318848,0|0,0:0|0:0,0:0:0:0:
0,72,119503,6,0,P|28:70|35:74,1,34.9999989318848,0|0,0:0|0:0,0:0:0:0:
152,0,119735,2,0,P|173:19|175:26,1,37.5,0|0,0:0|0:0,0:0:0:0:
8,216,120046,6,0,P|36:210|41:204,1,34.9999989318848,0|0,0:0|0:0,0:0:0:0:
96,272,120279,1,0,0:0:0:0:
96,272,120357,2,0,P|117:252|119:245,1,34.9999989318848,0|0,0:0|0:0,0:0:0:0:
208,248,120512,2,0,P|217:220|215:212,1,34.9999989318848,0|0,0:0|0:0,0:0:0:0:
512,376,120668,6,0,P|496:352|496:344,1,37.5,0|0,0:0|0:0,0:0:0:0:
504,304,120979,6,0,P|505:332|501:339,1,34.9999989318848
501,339,121134,2,0,P|497:320|505:303,1,34.9999989318848
408,376,121289,6,0,P|398:348|400:340,1,34.9999989318848,0|0,0:0|0:0,0:0:0:0:
432,224,121523,2,0,P|457:236|461:243,1,34.9999989318848,0|0,0:0|0:0,0:0:0:0:
408,136,121756,2,0,P|382:148|378:155,1,34.9999989318848,0|0,0:0|0:0,0:0:0:0:
512,312,121990,6,0,P|483:313|476:309,1,34.9999989318848,0|0,0:0|0:0,0:0:0:0:
360,384,122222,2,0,P|338:364|336:357,1,37.5,0|0,0:0|0:0,0:0:0:0:
504,168,122533,2,0,P|475:173|470:179,1,34.9999989318848,0|0,0:0|0:0,0:0:0:0:
48,320,122844,5,0,0:0:0:0:
15,345,123155,6,0,P|96:222|96:181,1,150,0|0,0:0|0:0,0:0:0:0:
238,198,123466,2,0,P|92:227|63:256,1,150,0|0,0:0|0:0,0:0:0:0:
205,327,123777,6,0,P|241:217|233:187,1,139.999995727539,0|0,0:0|0:0,0:0:0:0:
391,14,124010,6,0,P|287:65|271:92,1,139.999995727539,0|0,0:0|0:0,0:0:0:0:
504,110,124243,6,0,P|409:78|382:85,1,69.9999978637696,0|0,0:0|0:0,0:0:0:0:
208,90,124398,6,0,P|335:98|366:80,1,139.999995727539,0|0,0:0|0:0,0:0:0:0:
142,299,124709,2,0,P|331:132|349:65,1,300,0|0,0:0|0:0,0:0:0:0:
148,45,125020,6,0,P|325:80|361:116,1,209.999993591309,0|0,0:0|0:0,0:0:0:0:
342,95,125331,6,0,P|381:256|365:299,1,139.999995727539,0|0,0:0|0:0,0:0:0:0:
385,224,125486,6,0,P|297:400|250:427,1,139.999995727539,0|0,0:0|0:0,0:0:0:0:
407,228,125642,6,0,P|342:325|342:357,1,150,0|0,0:0|0:0,0:0:0:0:
496,264,125953,6,0,P|500:197|491:181,1,69.9999978637696,0|0,0:0|0:0,0:0:0:0:
472,40,126108,6,0,P|464:83|482:124,1,69.9999978637696,0|0,0:0|0:0,0:0:0:0:
312,32,126263,6,0,P|366:142|396:159,1,139.999995727539,0|0,0:0|0:0,0:0:0:0:
296,168,126497,1,0,0:0:0:0:
314,177,126574,6,0,P|380:144|390:126,1,69.9999978637696,0|0,0:0|0:0,0:0:0:0:
432,216,126730,2,0,P|365:183|355:165,1,69.9999978637696,0|0,0:0|0:0,0:0:0:0:
464,216,126885,5,0,0:0:0:0:
0,0,128129,1,0,0:0:0:0:
