osu file format v14

[General]
AudioFilename: audio.mp3
AudioLeadIn: 0
PreviewTime: 62861
Countdown: 0
SampleSet: Normal
StackLeniency: 0.7
Mode: 3
LetterboxInBreaks: 0
SpecialStyle: 0
WidescreenStoryboard: 1

[Editor]
Bookmarks: 52227
DistanceSpacing: 0.8
BeatDivisor: 8
GridSize: 32
TimelineZoom: 2.3

[Metadata]
Title:...during pride month?
TitleUnicode:...during pride month?
Artist:leroy
ArtistUnicode:leroy
Creator:Vortex-
Version:hana's ...insane?
Source:
Tags:ceilingpanda hna hana tech electronic english instrumental dltzk c0ncernn s2 e3 enter here hell to the left dariacore hyperpop mashcore your favorite sidekick feat. 8485 the big big beat sanctuary noki dgen roxas azealia banks underscores
BeatmapID:3639212
BeatmapSetID:1720775

[Difficulty]
HPDrainRate:8.2
CircleSize:4
OverallDifficulty:7.4
ApproachRate:5
SliderMultiplier:1.4
SliderTickRate:1

[Events]
//Background and Video events
0,0,"Dz5hlyGU8AUtnb8.png",0,0
//Break Periods
//Storyboard Layer 0 (Background)
//Storyboard Layer 1 (Fail)
//Storyboard Layer 2 (Pass)
//Storyboard Layer 3 (Foreground)
//Storyboard Layer 4 (Overlay)
//Storyboard Sound Samples

[TimingPoints]
1307,310.880829015544,4,1,1,60,1,0
3794,-100,4,1,1,90,0,0
33017,-100,4,1,1,70,0,0
33639,-100,4,1,1,75,0,0
38613,-100,4,1,1,85,0,0
73431,-100,4,1,1,90,0,0
93328,-100,4,1,1,75,0,0
103276,-100,4,1,1,60,0,0
108250,-100,4,1,1,75,0,0
123172,-100,4,1,1,85,0,0
126903,-100,4,1,1,75,0,0
128146,-100,4,1,1,40,0,0

[HitObjects]
192,192,1307,5,0,0:0:0:0:
64,192,1307,1,0,0:0:0:0:
448,192,1307,1,0,0:0:0:0:
320,192,1307,1,0,0:0:0:0:
448,192,1566,1,0,0:0:0:0:
192,192,1721,1,0,0:0:0:0:
448,192,1928,1,0,0:0:0:0:
192,192,2084,1,0,0:0:0:0:
320,192,2110,1,0,0:0:0:0:
64,192,2136,1,0,0:0:0:0:
448,192,2161,1,0,0:0:0:0:
320,192,2291,1,0,0:0:0:0:
192,192,2395,1,0,0:0:0:0:
64,192,2498,1,0,0:0:0:0:
448,192,2654,1,0,0:0:0:0:
192,192,2913,1,0,0:0:0:0:
192,192,3094,1,0,0:0:0:0:
448,192,3275,1,0,0:0:0:0:
320,192,3431,1,0,0:0:0:0:
64,192,3483,1,0,0:0:0:0:
192,192,3586,1,0,0:0:0:0:
320,192,3690,1,0,0:0:0:0:
448,192,3794,1,0,0:0:0:0:
64,192,3794,1,0,0:0:0:0:
192,192,3794,1,0,0:0:0:0:
320,192,4104,1,0,0:0:0:0:
320,192,4260,1,0,0:0:0:0:
192,192,4415,1,0,0:0:0:0:
64,192,4726,1,0,0:0:0:0:
320,192,4882,1,0,0:0:0:0:
192,192,5037,1,0,0:0:0:0:
64,192,5348,1,0,0:0:0:0:
192,192,5503,1,0,0:0:0:0:
64,192,5659,1,0,0:0:0:0:
320,192,5970,1,0,0:0:0:0:
448,192,5970,1,0,0:0:0:0:
192,192,6281,1,0,0:0:0:0:
448,192,6436,1,0,0:0:0:0:
64,192,6591,1,0,0:0:0:0:
320,192,6825,1,0,0:0:0:0:
192,192,6902,1,0,0:0:0:0:
320,192,7213,1,0,0:0:0:0:
320,192,7369,1,0,0:0:0:0:
448,192,7524,1,0,0:0:0:0:
64,192,7680,1,0,0:0:0:0:
192,192,7835,1,0,0:0:0:0:
192,192,7990,1,0,0:0:0:0:
448,192,8146,1,0,0:0:0:0:
64,192,8457,1,0,0:0:0:0:
192,192,8457,1,0,0:0:0:0:
64,192,8768,1,0,0:0:0:0:
320,192,8768,1,0,0:0:0:0:
448,192,8768,1,0,0:0:0:0:
192,192,8845,1,0,0:0:0:0:
64,192,8923,1,0,0:0:0:0:
320,192,9079,1,0,0:0:0:0:
448,192,9079,1,0,0:0:0:0:
320,192,9234,1,0,0:0:0:0:
448,192,9389,1,0,0:0:0:0:
64,192,9389,1,0,0:0:0:0:
192,192,9700,1,0,0:0:0:0:
320,192,9700,1,0,0:0:0:0:
64,192,9856,1,0,0:0:0:0:
448,192,10011,1,0,0:0:0:0:
192,192,10011,1,0,0:0:0:0:
64,192,10167,1,0,0:0:0:0:
320,192,10322,1,0,0:0:0:0:
448,192,10322,1,0,0:0:0:0:
320,192,10477,1,0,0:0:0:0:
448,192,10633,1,0,0:0:0:0:
192,192,10633,1,0,0:0:0:0:
64,192,10944,1,0,0:0:0:0:
192,192,10944,1,0,0:0:0:0:
448,192,11255,1,0,0:0:0:0:
64,192,11255,1,0,0:0:0:0:
320,192,11410,1,0,0:0:0:0:
192,192,11566,1,0,0:0:0:0:
448,192,11566,1,0,0:0:0:0:
320,192,11721,1,0,0:0:0:0:
64,192,11876,1,0,0:0:0:0:
192,192,11876,1,0,0:0:0:0:
448,192,12187,1,0,0:0:0:0:
320,192,12187,1,0,0:0:0:0:
320,192,12343,1,0,0:0:0:0:
448,192,12498,1,0,0:0:0:0:
64,192,12498,1,0,0:0:0:0:
192,192,12654,1,0,0:0:0:0:
320,192,12809,1,0,0:0:0:0:
64,192,12809,1,0,0:0:0:0:
64,192,12965,1,0,0:0:0:0:
192,192,13120,1,0,0:0:0:0:
448,192,13120,1,0,0:0:0:0:
320,192,13159,1,0,0:0:0:0:
64,192,13275,1,0,0:0:0:0:
320,192,13742,1,0,0:0:0:0:
64,192,13742,1,0,0:0:0:0:
448,192,13819,1,0,0:0:0:0:
64,192,13897,1,0,0:0:0:0:
64,192,14053,1,0,0:0:0:0:
192,192,14053,1,0,0:0:0:0:
320,192,14130,1,0,0:0:0:0:
192,192,14208,1,0,0:0:0:0:
320,192,14286,1,0,0:0:0:0:
448,192,14363,1,0,0:0:0:0:
64,192,14363,1,0,0:0:0:0:
320,192,14519,1,0,0:0:0:0:
192,192,14519,1,0,0:0:0:0:
448,192,14674,1,0,0:0:0:0:
192,192,14726,1,0,0:0:0:0:
64,192,14778,1,0,0:0:0:0:
320,192,14830,1,0,0:0:0:0:
448,192,14830,1,0,0:0:0:0:
192,192,14908,1,0,0:0:0:0:
320,192,14985,1,0,0:0:0:0:
64,192,15141,1,0,0:0:0:0:
320,192,15244,1,0,0:0:0:0:
448,192,15244,1,0,0:0:0:0:
64,192,15296,1,0,0:0:0:0:
192,192,15296,1,0,0:0:0:0:
320,192,15374,1,0,0:0:0:0:
192,192,15452,1,0,0:0:0:0:
64,192,15607,1,0,0:0:0:0:
448,192,15607,1,0,0:0:0:0:
448,192,15762,1,0,0:0:0:0:
64,192,15918,1,0,0:0:0:0:
192,192,15918,1,0,0:0:0:0:
320,192,16073,1,0,0:0:0:0:
448,192,16229,1,0,0:0:0:0:
192,192,16229,1,0,0:0:0:0:
320,192,16306,1,0,0:0:0:0:
192,192,16384,1,0,0:0:0:0:
64,192,16540,1,0,0:0:0:0:
192,192,16540,1,0,0:0:0:0:
448,192,16617,1,0,0:0:0:0:
64,192,16695,1,0,0:0:0:0:
448,192,16773,1,0,0:0:0:0:
320,192,16851,1,0,0:0:0:0:
192,192,16851,1,0,0:0:0:0:
448,192,17006,1,0,0:0:0:0:
64,192,17006,1,0,0:0:0:0:
320,192,17161,1,0,0:0:0:0:
64,192,17213,1,0,0:0:0:0:
192,192,17265,1,0,0:0:0:0:
320,192,17317,1,0,0:0:0:0:
448,192,17317,1,0,0:0:0:0:
64,192,17395,1,0,0:0:0:0:
448,192,17472,1,0,0:0:0:0:
192,192,17628,1,0,0:0:0:0:
448,192,17731,1,0,0:0:0:0:
320,192,17731,1,0,0:0:0:0:
64,192,17783,1,0,0:0:0:0:
192,192,17783,1,0,0:0:0:0:
448,192,17861,1,0,0:0:0:0:
64,192,17939,1,0,0:0:0:0:
320,192,18094,1,0,0:0:0:0:
192,192,18094,1,0,0:0:0:0:
448,192,18250,1,0,0:0:0:0:
320,192,18250,1,0,0:0:0:0:
64,192,18405,1,0,0:0:0:0:
192,192,18405,1,0,0:0:0:0:
448,192,18560,1,0,0:0:0:0:
64,192,18664,1,0,0:0:0:0:
448,192,18716,1,0,0:0:0:0:
320,192,18716,1,0,0:0:0:0:
192,192,18794,1,0,0:0:0:0:
320,192,18871,1,0,0:0:0:0:
192,192,18949,1,0,0:0:0:0:
448,192,19027,1,0,0:0:0:0:
64,192,19182,1,0,0:0:0:0:
192,192,19338,1,0,0:0:0:0:
448,192,19648,1,0,0:0:0:0:
192,192,19700,1,0,0:0:0:0:
64,192,19752,1,0,0:0:0:0:
320,192,19804,1,0,0:0:0:0:
448,192,19804,1,0,0:0:0:0:
192,192,19882,1,0,0:0:0:0:
320,192,19959,1,0,0:0:0:0:
64,192,20115,1,0,0:0:0:0:
320,192,20218,1,0,0:0:0:0:
448,192,20218,1,0,0:0:0:0:
64,192,20270,1,0,0:0:0:0:
192,192,20270,1,0,0:0:0:0:
320,192,20348,1,0,0:0:0:0:
192,192,20426,1,0,0:0:0:0:
448,192,20581,1,0,0:0:0:0:
64,192,20581,1,0,0:0:0:0:
448,192,20737,1,0,0:0:0:0:
64,192,20892,1,0,0:0:0:0:
192,192,20892,1,0,0:0:0:0:
64,192,21047,1,0,0:0:0:0:
320,192,21047,1,0,0:0:0:0:
448,192,21203,1,0,0:0:0:0:
192,192,21203,1,0,0:0:0:0:
320,192,21281,1,0,0:0:0:0:
192,192,21358,1,0,0:0:0:0:
64,192,21514,1,0,0:0:0:0:
192,192,21514,1,0,0:0:0:0:
448,192,21591,1,0,0:0:0:0:
64,192,21669,1,0,0:0:0:0:
448,192,21747,1,0,0:0:0:0:
320,192,21825,1,0,0:0:0:0:
192,192,21825,1,0,0:0:0:0:
448,192,21980,1,0,0:0:0:0:
64,192,21980,1,0,0:0:0:0:
320,192,22136,1,0,0:0:0:0:
64,192,22187,1,0,0:0:0:0:
192,192,22239,1,0,0:0:0:0:
320,192,22291,1,0,0:0:0:0:
448,192,22291,1,0,0:0:0:0:
64,192,22369,1,0,0:0:0:0:
448,192,22446,1,0,0:0:0:0:
192,192,22602,1,0,0:0:0:0:
448,192,22705,1,0,0:0:0:0:
320,192,22705,1,0,0:0:0:0:
64,192,22757,1,0,0:0:0:0:
192,192,22757,1,0,0:0:0:0:
448,192,22835,1,0,0:0:0:0:
64,192,22913,1,0,0:0:0:0:
320,192,23068,1,0,0:0:0:0:
192,192,23068,1,0,0:0:0:0:
448,192,23224,1,0,0:0:0:0:
320,192,23224,1,0,0:0:0:0:
64,192,23379,1,0,0:0:0:0:
192,192,23379,1,0,0:0:0:0:
448,192,23457,1,0,0:0:0:0:
192,192,23534,1,0,0:0:0:0:
320,192,23586,1,0,0:0:0:0:
64,192,23638,1,0,0:0:0:0:
192,192,23690,1,0,0:0:0:0:
448,192,23845,1,0,0:0:0:0:
320,192,23845,1,0,0:0:0:0:
64,192,24001,1,0,0:0:0:0:
448,192,24001,1,0,0:0:0:0:
192,192,24312,1,0,0:0:0:0:
320,192,24312,1,0,0:0:0:0:
64,192,24467,1,0,0:0:0:0:
448,192,24467,1,0,0:0:0:0:
192,192,24623,1,0,0:0:0:0:
448,192,24674,1,0,0:0:0:0:
320,192,24726,1,0,0:0:0:0:
192,192,24778,1,0,0:0:0:0:
64,192,24778,1,0,0:0:0:0:
448,192,24856,1,0,0:0:0:0:
64,192,24933,1,0,0:0:0:0:
320,192,25089,1,0,0:0:0:0:
64,192,25193,1,0,0:0:0:0:
192,192,25193,1,0,0:0:0:0:
448,192,25244,1,0,0:0:0:0:
320,192,25244,1,0,0:0:0:0:
64,192,25322,1,0,0:0:0:0:
448,192,25400,1,0,0:0:0:0:
192,192,25555,1,0,0:0:0:0:
320,192,25555,1,0,0:0:0:0:
64,192,25711,1,0,0:0:0:0:
192,192,25711,1,0,0:0:0:0:
448,192,25866,1,0,0:0:0:0:
320,192,25866,1,0,0:0:0:0:
448,192,26022,1,0,0:0:0:0:
192,192,26022,1,0,0:0:0:0:
320,192,26177,1,0,0:0:0:0:
64,192,26177,1,0,0:0:0:0:
192,192,26255,1,0,0:0:0:0:
320,192,26332,1,0,0:0:0:0:
320,192,26488,1,0,0:0:0:0:
448,192,26488,1,0,0:0:0:0:
64,192,26566,1,0,0:0:0:0:
448,192,26643,1,0,0:0:0:0:
64,192,26721,1,0,0:0:0:0:
320,192,26799,1,0,0:0:0:0:
192,192,26799,1,0,0:0:0:0:
448,192,26954,1,0,0:0:0:0:
64,192,26954,1,0,0:0:0:0:
192,192,27110,1,0,0:0:0:0:
448,192,27161,1,0,0:0:0:0:
320,192,27213,1,0,0:0:0:0:
64,192,27265,1,0,0:0:0:0:
192,192,27265,1,0,0:0:0:0:
448,192,27343,1,0,0:0:0:0:
64,192,27420,1,0,0:0:0:0:
320,192,27576,1,0,0:0:0:0:
192,192,27680,1,0,0:0:0:0:
64,192,27680,1,0,0:0:0:0:
320,192,27731,1,0,0:0:0:0:
448,192,27731,1,0,0:0:0:0:
64,192,27809,1,0,0:0:0:0:
448,192,27887,1,0,0:0:0:0:
320,192,28042,1,0,0:0:0:0:
192,192,28042,1,0,0:0:0:0:
192,192,28198,1,0,0:0:0:0:
64,192,28198,1,0,0:0:0:0:
320,192,28353,1,0,0:0:0:0:
448,192,28353,1,0,0:0:0:0:
64,192,28509,1,0,0:0:0:0:
448,192,28612,1,0,0:0:0:0:
192,192,28664,1,0,0:0:0:0:
64,192,28664,1,0,0:0:0:0:
320,192,28742,1,0,0:0:0:0:
192,192,28819,1,0,0:0:0:0:
320,192,28897,1,0,0:0:0:0:
64,192,28975,1,0,0:0:0:0:
448,192,29130,1,0,0:0:0:0:
320,192,29286,1,0,0:0:0:0:
64,192,29597,1,0,0:0:0:0:
320,192,29648,1,0,0:0:0:0:
448,192,29700,1,0,0:0:0:0:
192,192,29752,1,0,0:0:0:0:
64,192,29752,1,0,0:0:0:0:
320,192,29830,1,0,0:0:0:0:
192,192,29908,1,0,0:0:0:0:
448,192,30063,1,0,0:0:0:0:
192,192,30167,1,0,0:0:0:0:
64,192,30167,1,0,0:0:0:0:
448,192,30218,1,0,0:0:0:0:
320,192,30218,1,0,0:0:0:0:
192,192,30296,1,0,0:0:0:0:
320,192,30374,1,0,0:0:0:0:
64,192,30529,1,0,0:0:0:0:
448,192,30529,1,0,0:0:0:0:
64,192,30685,1,0,0:0:0:0:
448,192,30840,1,0,0:0:0:0:
320,192,30840,1,0,0:0:0:0:
448,192,30996,1,0,0:0:0:0:
192,192,30996,1,0,0:0:0:0:
64,192,31151,1,0,0:0:0:0:
320,192,31151,1,0,0:0:0:0:
192,192,31229,1,0,0:0:0:0:
320,192,31307,1,0,0:0:0:0:
64,192,31384,1,0,0:0:0:0:
448,192,31462,1,0,0:0:0:0:
192,192,31617,1,0,0:0:0:0:
320,192,31669,1,0,0:0:0:0:
448,192,31721,1,0,0:0:0:0:
64,192,31773,1,0,0:0:0:0:
192,192,31773,1,0,0:0:0:0:
64,192,31928,1,0,0:0:0:0:
320,192,32395,1,0,0:0:0:0:
448,192,32395,1,0,0:0:0:0:
448,192,32550,1,0,0:0:0:0:
64,192,32550,1,0,0:0:0:0:
192,192,32628,1,0,0:0:0:0:
320,192,32705,1,0,0:0:0:0:
448,192,32705,1,0,0:0:0:0:
320,192,32861,1,0,0:0:0:0:
192,192,33016,1,0,0:0:0:0:
448,192,33094,1,0,0:0:0:0:
64,192,33172,1,0,0:0:0:0:
320,192,33250,1,0,0:0:0:0:
192,192,33327,1,0,0:0:0:0:
64,192,33405,1,0,0:0:0:0:
192,192,33483,1,0,0:0:0:0:
448,192,33638,1,0,0:0:0:0:
320,192,33638,1,0,0:0:0:0:
64,192,33716,1,0,0:0:0:0:
448,192,33794,1,0,0:0:0:0:
64,192,33871,1,0,0:0:0:0:
320,192,33949,1,0,0:0:0:0:
192,192,33949,1,0,0:0:0:0:
448,192,34027,1,0,0:0:0:0:
192,192,34104,1,0,0:0:0:0:
320,192,34182,1,0,0:0:0:0:
448,192,34260,1,0,0:0:0:0:
64,192,34260,1,0,0:0:0:0:
192,192,34338,1,0,0:0:0:0:
64,192,34415,1,0,0:0:0:0:
192,192,34493,1,0,0:0:0:0:
320,192,34493,1,0,0:0:0:0:
448,192,34571,1,0,0:0:0:0:
64,192,34648,1,0,0:0:0:0:
192,192,34726,1,0,0:0:0:0:
320,192,34726,1,0,0:0:0:0:
448,192,34804,1,0,0:0:0:0:
192,192,34882,1,0,0:0:0:0:
64,192,34882,1,0,0:0:0:0:
320,192,34959,1,0,0:0:0:0:
192,192,35037,1,0,0:0:0:0:
320,192,35115,1,0,0:0:0:0:
64,192,35193,1,0,0:0:0:0:
448,192,35193,1,0,0:0:0:0:
192,192,35270,1,0,0:0:0:0:
448,192,35348,1,0,0:0:0:0:
64,192,35426,1,0,0:0:0:0:
320,192,35503,1,0,0:0:0:0:
192,192,35503,1,0,0:0:0:0:
448,192,35581,1,0,0:0:0:0:
320,192,35659,1,0,0:0:0:0:
448,192,35737,1,0,0:0:0:0:
64,192,35737,1,0,0:0:0:0:
192,192,35814,1,0,0:0:0:0:
64,192,35892,1,0,0:0:0:0:
448,192,35970,1,0,0:0:0:0:
320,192,35970,1,0,0:0:0:0:
192,192,36047,1,0,0:0:0:0:
320,192,36125,1,0,0:0:0:0:
448,192,36125,1,0,0:0:0:0:
64,192,36203,1,0,0:0:0:0:
320,192,36281,1,0,0:0:0:0:
192,192,36358,1,0,0:0:0:0:
64,192,36436,1,0,0:0:0:0:
448,192,36436,1,0,0:0:0:0:
320,192,36514,1,0,0:0:0:0:
448,192,36591,1,0,0:0:0:0:
320,192,36669,1,0,0:0:0:0:
192,192,36747,1,0,0:0:0:0:
64,192,36747,1,0,0:0:0:0:
448,192,36825,1,0,0:0:0:0:
64,192,36902,1,0,0:0:0:0:
320,192,36980,1,0,0:0:0:0:
448,192,36980,1,0,0:0:0:0:
192,192,37058,1,0,0:0:0:0:
320,192,37136,1,0,0:0:0:0:
64,192,37213,1,0,0:0:0:0:
448,192,37213,1,0,0:0:0:0:
192,192,37291,1,0,0:0:0:0:
320,192,37369,1,0,0:0:0:0:
448,192,37369,1,0,0:0:0:0:
64,192,37446,1,0,0:0:0:0:
320,192,37524,1,0,0:0:0:0:
64,192,37602,1,0,0:0:0:0:
448,192,37680,1,0,0:0:0:0:
192,192,37680,1,0,0:0:0:0:
320,192,37757,1,0,0:0:0:0:
448,192,37835,1,0,0:0:0:0:
192,192,37913,1,0,0:0:0:0:
64,192,37990,1,0,0:0:0:0:
320,192,37990,1,0,0:0:0:0:
64,192,38146,1,0,0:0:0:0:
448,192,38301,1,0,0:0:0:0:
64,192,38612,1,0,0:0:0:0:
320,192,38612,1,0,0:0:0:0:
192,192,38690,1,0,0:0:0:0:
64,192,38768,1,0,0:0:0:0:
448,192,38923,1,0,0:0:0:0:
320,192,38923,1,0,0:0:0:0:
64,192,39001,1,0,0:0:0:0:
448,192,39079,1,0,0:0:0:0:
320,192,39234,1,0,0:0:0:0:
192,192,39234,1,0,0:0:0:0:
448,192,39312,1,0,0:0:0:0:
320,192,39389,1,0,0:0:0:0:
448,192,39467,1,0,0:0:0:0:
64,192,39467,1,0,0:0:0:0:
192,192,39545,1,0,0:0:0:0:
64,192,39700,1,0,0:0:0:0:
192,192,39700,1,0,0:0:0:0:
64,192,39856,1,0,0:0:0:0:
448,192,39856,1,0,0:0:0:0:
320,192,39933,1,0,0:0:0:0:
448,192,40011,1,0,0:0:0:0:
64,192,40167,1,0,0:0:0:0:
192,192,40167,1,0,0:0:0:0:
448,192,40244,1,0,0:0:0:0:
192,192,40322,1,0,0:0:0:0:
64,192,40477,1,0,0:0:0:0:
320,192,40477,1,0,0:0:0:0:
192,192,40555,1,0,0:0:0:0:
64,192,40633,1,0,0:0:0:0:
448,192,40711,1,0,0:0:0:0:
192,192,40711,1,0,0:0:0:0:
320,192,40788,1,0,0:0:0:0:
320,192,40944,1,0,0:0:0:0:
448,192,40944,1,0,0:0:0:0:
448,192,41099,1,0,0:0:0:0:
192,192,41099,1,0,0:0:0:0:
64,192,41177,1,0,0:0:0:0:
192,192,41255,1,0,0:0:0:0:
448,192,41410,1,0,0:0:0:0:
320,192,41410,1,0,0:0:0:0:
192,192,41488,1,0,0:0:0:0:
320,192,41566,1,0,0:0:0:0:
448,192,41721,1,0,0:0:0:0:
64,192,41721,1,0,0:0:0:0:
320,192,41799,1,0,0:0:0:0:
448,192,41876,1,0,0:0:0:0:
320,192,41954,1,0,0:0:0:0:
192,192,41954,1,0,0:0:0:0:
64,192,42032,1,0,0:0:0:0:
64,192,42187,1,0,0:0:0:0:
192,192,42187,1,0,0:0:0:0:
192,192,42343,1,0,0:0:0:0:
320,192,42343,1,0,0:0:0:0:
448,192,42420,1,0,0:0:0:0:
320,192,42498,1,0,0:0:0:0:
64,192,42654,1,0,0:0:0:0:
192,192,42654,1,0,0:0:0:0:
320,192,42731,1,0,0:0:0:0:
64,192,42809,1,0,0:0:0:0:
192,192,42965,1,0,0:0:0:0:
448,192,42965,1,0,0:0:0:0:
64,192,43042,1,0,0:0:0:0:
192,192,43120,1,0,0:0:0:0:
320,192,43198,1,0,0:0:0:0:
448,192,43198,1,0,0:0:0:0:
64,192,43275,1,0,0:0:0:0:
192,192,43586,1,0,0:0:0:0:
64,192,43586,1,0,0:0:0:0:
320,192,43664,1,0,0:0:0:0:
448,192,43742,1,0,0:0:0:0:
64,192,43819,1,0,0:0:0:0:
192,192,43819,1,0,0:0:0:0:
320,192,43897,1,0,0:0:0:0:
448,192,43975,1,0,0:0:0:0:
192,192,44053,1,0,0:0:0:0:
64,192,44053,1,0,0:0:0:0:
320,192,44130,1,0,0:0:0:0:
448,192,44208,1,0,0:0:0:0:
64,192,44208,1,0,0:0:0:0:
192,192,44286,1,0,0:0:0:0:
64,192,44363,1,0,0:0:0:0:
448,192,44441,1,0,0:0:0:0:
320,192,44441,1,0,0:0:0:0:
192,192,44519,1,0,0:0:0:0:
64,192,44597,1,0,0:0:0:0:
448,192,44674,1,0,0:0:0:0:
320,192,44674,1,0,0:0:0:0:
192,192,44752,1,0,0:0:0:0:
320,192,44830,1,0,0:0:0:0:
448,192,44830,1,0,0:0:0:0:
192,192,44908,1,0,0:0:0:0:
64,192,44985,1,0,0:0:0:0:
448,192,45063,1,0,0:0:0:0:
320,192,45063,1,0,0:0:0:0:
192,192,45141,1,0,0:0:0:0:
64,192,45218,1,0,0:0:0:0:
320,192,45296,1,0,0:0:0:0:
448,192,45296,1,0,0:0:0:0:
192,192,45374,1,0,0:0:0:0:
64,192,45452,1,0,0:0:0:0:
448,192,45452,1,0,0:0:0:0:
320,192,45529,1,0,0:0:0:0:
448,192,45607,1,0,0:0:0:0:
64,192,45685,1,0,0:0:0:0:
192,192,45685,1,0,0:0:0:0:
320,192,45762,1,0,0:0:0:0:
448,192,45840,1,0,0:0:0:0:
64,192,45918,1,0,0:0:0:0:
192,192,45918,1,0,0:0:0:0:
320,192,45996,1,0,0:0:0:0:
64,192,46073,1,0,0:0:0:0:
192,192,46073,1,0,0:0:0:0:
320,192,46151,1,0,0:0:0:0:
64,192,46229,1,0,0:0:0:0:
448,192,46306,1,0,0:0:0:0:
320,192,46306,1,0,0:0:0:0:
192,192,46384,1,0,0:0:0:0:
448,192,46462,1,0,0:0:0:0:
64,192,46540,1,0,0:0:0:0:
192,192,46540,1,0,0:0:0:0:
320,192,46617,1,0,0:0:0:0:
64,192,46695,1,0,0:0:0:0:
448,192,46695,1,0,0:0:0:0:
192,192,46773,1,0,0:0:0:0:
64,192,46851,1,0,0:0:0:0:
448,192,46928,1,0,0:0:0:0:
320,192,46928,1,0,0:0:0:0:
192,192,47006,1,0,0:0:0:0:
320,192,47084,1,0,0:0:0:0:
192,192,47161,1,0,0:0:0:0:
64,192,47161,1,0,0:0:0:0:
448,192,47239,1,0,0:0:0:0:
64,192,47317,1,0,0:0:0:0:
192,192,47317,1,0,0:0:0:0:
320,192,47395,1,0,0:0:0:0:
64,192,47472,1,0,0:0:0:0:
448,192,47550,1,0,0:0:0:0:
320,192,47550,1,0,0:0:0:0:
192,192,47628,1,0,0:0:0:0:
448,192,47705,1,0,0:0:0:0:
64,192,47783,1,0,0:0:0:0:
192,192,47783,1,0,0:0:0:0:
320,192,47861,1,0,0:0:0:0:
64,192,47939,1,0,0:0:0:0:
448,192,47939,1,0,0:0:0:0:
192,192,48016,1,0,0:0:0:0:
64,192,48094,1,0,0:0:0:0:
448,192,48172,1,0,0:0:0:0:
320,192,48172,1,0,0:0:0:0:
192,192,48250,1,0,0:0:0:0:
320,192,48327,1,0,0:0:0:0:
192,192,48405,1,0,0:0:0:0:
64,192,48405,1,0,0:0:0:0:
448,192,48483,1,0,0:0:0:0:
192,192,48560,1,0,0:0:0:0:
64,192,48560,1,0,0:0:0:0:
320,192,48638,1,0,0:0:0:0:
448,192,48716,1,0,0:0:0:0:
64,192,48794,1,0,0:0:0:0:
192,192,48794,1,0,0:0:0:0:
320,192,48871,1,0,0:0:0:0:
448,192,48949,1,0,0:0:0:0:
192,192,49027,1,0,0:0:0:0:
64,192,49027,1,0,0:0:0:0:
320,192,49104,1,0,0:0:0:0:
448,192,49182,1,0,0:0:0:0:
64,192,49182,1,0,0:0:0:0:
192,192,49260,1,0,0:0:0:0:
64,192,49338,1,0,0:0:0:0:
448,192,49415,1,0,0:0:0:0:
320,192,49415,1,0,0:0:0:0:
192,192,49493,1,0,0:0:0:0:
64,192,49571,1,0,0:0:0:0:
448,192,49648,1,0,0:0:0:0:
320,192,49648,1,0,0:0:0:0:
192,192,49726,1,0,0:0:0:0:
320,192,49804,1,0,0:0:0:0:
448,192,49804,1,0,0:0:0:0:
192,192,49882,1,0,0:0:0:0:
64,192,49959,1,0,0:0:0:0:
448,192,50037,1,0,0:0:0:0:
320,192,50037,1,0,0:0:0:0:
192,192,50115,1,0,0:0:0:0:
64,192,50193,1,0,0:0:0:0:
320,192,50270,1,0,0:0:0:0:
448,192,50270,1,0,0:0:0:0:
192,192,50348,1,0,0:0:0:0:
64,192,50426,1,0,0:0:0:0:
448,192,50426,1,0,0:0:0:0:
320,192,50503,1,0,0:0:0:0:
448,192,50581,1,0,0:0:0:0:
64,192,50659,1,0,0:0:0:0:
192,192,50659,1,0,0:0:0:0:
320,192,50737,1,0,0:0:0:0:
448,192,50814,1,0,0:0:0:0:
64,192,50892,1,0,0:0:0:0:
192,192,50892,1,0,0:0:0:0:
320,192,50970,1,0,0:0:0:0:
64,192,51047,1,0,0:0:0:0:
192,192,51047,1,0,0:0:0:0:
320,192,51125,1,0,0:0:0:0:
64,192,51203,1,0,0:0:0:0:
448,192,51281,1,0,0:0:0:0:
320,192,51281,1,0,0:0:0:0:
192,192,51358,1,0,0:0:0:0:
448,192,51436,1,0,0:0:0:0:
64,192,51514,1,0,0:0:0:0:
192,192,51514,1,0,0:0:0:0:
320,192,51591,1,0,0:0:0:0:
64,192,51669,1,0,0:0:0:0:
448,192,51669,1,0,0:0:0:0:
192,192,51747,1,0,0:0:0:0:
64,192,51825,1,0,0:0:0:0:
448,192,51902,1,0,0:0:0:0:
320,192,51902,1,0,0:0:0:0:
192,192,51980,1,0,0:0:0:0:
320,192,52058,1,0,0:0:0:0:
192,192,52136,1,0,0:0:0:0:
64,192,52136,1,0,0:0:0:0:
448,192,52213,1,0,0:0:0:0:
64,192,52291,1,0,0:0:0:0:
192,192,52291,1,0,0:0:0:0:
320,192,52369,1,0,0:0:0:0:
64,192,52446,1,0,0:0:0:0:
448,192,52524,1,0,0:0:0:0:
320,192,52524,1,0,0:0:0:0:
192,192,52602,1,0,0:0:0:0:
448,192,52680,1,0,0:0:0:0:
64,192,52757,1,0,0:0:0:0:
192,192,52757,1,0,0:0:0:0:
320,192,52835,1,0,0:0:0:0:
64,192,52913,1,0,0:0:0:0:
448,192,52913,1,0,0:0:0:0:
448,192,53534,1,0,0:0:0:0:
64,192,53534,1,0,0:0:0:0:
320,192,53534,1,0,0:0:0:0:
192,192,53612,1,0,0:0:0:0:
64,192,53690,1,0,0:0:0:0:
320,192,53768,1,0,0:0:0:0:
448,192,53845,1,0,0:0:0:0:
192,192,53845,1,0,0:0:0:0:
64,192,53923,1,0,0:0:0:0:
320,192,54001,1,0,0:0:0:0:
448,192,54001,1,0,0:0:0:0:
64,192,54079,1,0,0:0:0:0:
320,192,54156,1,0,0:0:0:0:
192,192,54156,1,0,0:0:0:0:
448,192,54234,1,0,0:0:0:0:
192,192,54312,1,0,0:0:0:0:
320,192,54389,1,0,0:0:0:0:
448,192,54389,1,0,0:0:0:0:
64,192,54467,1,0,0:0:0:0:
192,192,54545,1,0,0:0:0:0:
448,192,54623,1,0,0:0:0:0:
64,192,54623,1,0,0:0:0:0:
192,192,54700,1,0,0:0:0:0:
448,192,54778,1,0,0:0:0:0:
320,192,54778,1,0,0:0:0:0:
64,192,54856,1,0,0:0:0:0:
320,192,54933,1,0,0:0:0:0:
192,192,55011,1,0,0:0:0:0:
64,192,55089,1,0,0:0:0:0:
448,192,55089,1,0,0:0:0:0:
320,192,55167,1,0,0:0:0:0:
64,192,55244,1,0,0:0:0:0:
192,192,55244,1,0,0:0:0:0:
320,192,55322,1,0,0:0:0:0:
192,192,55400,1,0,0:0:0:0:
448,192,55400,1,0,0:0:0:0:
64,192,55477,1,0,0:0:0:0:
448,192,55555,1,0,0:0:0:0:
64,192,55633,1,0,0:0:0:0:
192,192,55711,1,0,0:0:0:0:
320,192,55711,1,0,0:0:0:0:
448,192,55788,1,0,0:0:0:0:
320,192,55866,1,0,0:0:0:0:
64,192,55918,1,0,0:0:0:0:
192,192,56022,1,0,0:0:0:0:
448,192,56022,1,0,0:0:0:0:
320,192,56099,1,0,0:0:0:0:
192,192,56177,1,0,0:0:0:0:
448,192,56255,1,0,0:0:0:0:
320,192,56255,1,0,0:0:0:0:
64,192,56332,1,0,0:0:0:0:
192,192,56410,1,0,0:0:0:0:
448,192,56488,1,0,0:0:0:0:
64,192,56488,1,0,0:0:0:0:
192,192,56566,1,0,0:0:0:0:
448,192,56643,1,0,0:0:0:0:
320,192,56643,1,0,0:0:0:0:
64,192,56721,1,0,0:0:0:0:
320,192,56799,1,0,0:0:0:0:
192,192,56876,1,0,0:0:0:0:
64,192,56954,1,0,0:0:0:0:
448,192,56954,1,0,0:0:0:0:
320,192,57032,1,0,0:0:0:0:
64,192,57110,1,0,0:0:0:0:
192,192,57110,1,0,0:0:0:0:
320,192,57187,1,0,0:0:0:0:
192,192,57265,1,0,0:0:0:0:
448,192,57265,1,0,0:0:0:0:
64,192,57343,1,0,0:0:0:0:
448,192,57420,1,0,0:0:0:0:
64,192,57498,1,0,0:0:0:0:
320,192,57576,1,0,0:0:0:0:
192,192,57576,1,0,0:0:0:0:
448,192,57654,1,0,0:0:0:0:
320,192,57731,1,0,0:0:0:0:
448,192,57809,1,0,0:0:0:0:
64,192,57887,1,0,0:0:0:0:
192,192,57887,1,0,0:0:0:0:
320,192,57965,1,0,0:0:0:0:
192,192,58042,1,0,0:0:0:0:
64,192,58120,1,0,0:0:0:0:
448,192,58120,1,0,0:0:0:0:
320,192,58198,1,0,0:0:0:0:
448,192,58275,1,0,0:0:0:0:
192,192,58353,1,0,0:0:0:0:
320,192,58405,1,0,0:0:0:0:
64,192,58509,1,0,0:0:0:0:
448,192,58509,1,0,0:0:0:0:
192,192,58586,1,0,0:0:0:0:
64,192,58664,1,0,0:0:0:0:
320,192,58742,1,0,0:0:0:0:
448,192,58819,1,0,0:0:0:0:
192,192,58819,1,0,0:0:0:0:
64,192,58897,1,0,0:0:0:0:
320,192,58975,1,0,0:0:0:0:
448,192,58975,1,0,0:0:0:0:
64,192,59053,1,0,0:0:0:0:
320,192,59130,1,0,0:0:0:0:
192,192,59130,1,0,0:0:0:0:
448,192,59208,1,0,0:0:0:0:
192,192,59286,1,0,0:0:0:0:
320,192,59363,1,0,0:0:0:0:
448,192,59363,1,0,0:0:0:0:
64,192,59441,1,0,0:0:0:0:
192,192,59519,1,0,0:0:0:0:
448,192,59597,1,0,0:0:0:0:
64,192,59597,1,0,0:0:0:0:
192,192,59674,1,0,0:0:0:0:
448,192,59752,1,0,0:0:0:0:
320,192,59752,1,0,0:0:0:0:
64,192,59830,1,0,0:0:0:0:
320,192,59908,1,0,0:0:0:0:
192,192,59985,1,0,0:0:0:0:
64,192,60063,1,0,0:0:0:0:
448,192,60063,1,0,0:0:0:0:
320,192,60141,1,0,0:0:0:0:
64,192,60218,1,0,0:0:0:0:
192,192,60218,1,0,0:0:0:0:
320,192,60296,1,0,0:0:0:0:
192,192,60374,1,0,0:0:0:0:
448,192,60374,1,0,0:0:0:0:
64,192,60452,1,0,0:0:0:0:
448,192,60529,1,0,0:0:0:0:
64,192,60607,1,0,0:0:0:0:
192,192,60685,1,0,0:0:0:0:
320,192,60685,1,0,0:0:0:0:
448,192,60762,1,0,0:0:0:0:
320,192,60840,1,0,0:0:0:0:
64,192,60892,1,0,0:0:0:0:
192,192,60996,1,0,0:0:0:0:
448,192,60996,1,0,0:0:0:0:
320,192,61073,1,0,0:0:0:0:
192,192,61151,1,0,0:0:0:0:
448,192,61229,1,0,0:0:0:0:
320,192,61229,1,0,0:0:0:0:
64,192,61306,1,0,0:0:0:0:
192,192,61384,1,0,0:0:0:0:
448,192,61462,1,0,0:0:0:0:
64,192,61462,1,0,0:0:0:0:
192,192,61540,1,0,0:0:0:0:
448,192,61617,1,0,0:0:0:0:
320,192,61617,1,0,0:0:0:0:
64,192,61695,1,0,0:0:0:0:
320,192,61773,1,0,0:0:0:0:
192,192,61851,1,0,0:0:0:0:
448,192,61928,5,0,0:0:0:0:
64,192,61928,1,0,0:0:0:0:
320,192,62006,1,0,0:0:0:0:
64,192,62084,1,0,0:0:0:0:
192,192,62084,1,0,0:0:0:0:
320,192,62161,1,0,0:0:0:0:
192,192,62239,1,0,0:0:0:0:
448,192,62239,1,0,0:0:0:0:
64,192,62317,1,0,0:0:0:0:
448,192,62395,1,0,0:0:0:0:
64,192,62472,1,0,0:0:0:0:
320,192,62550,1,0,0:0:0:0:
192,192,62550,1,0,0:0:0:0:
448,192,62628,1,0,0:0:0:0:
320,192,62705,1,0,0:0:0:0:
448,192,62783,1,0,0:0:0:0:
64,192,62861,1,0,0:0:0:0:
192,192,62861,1,0,0:0:0:0:
448,192,63120,1,0,0:0:0:0:
192,192,63275,1,0,0:0:0:0:
64,192,63483,1,0,0:0:0:0:
448,192,63794,1,0,0:0:0:0:
64,192,63949,1,0,0:0:0:0:
320,192,64104,1,0,0:0:0:0:
64,192,64338,1,0,0:0:0:0:
192,192,64415,1,0,0:0:0:0:
192,192,64726,1,0,0:0:0:0:
192,192,65037,1,0,0:0:0:0:
64,192,65348,1,0,0:0:0:0:
64,192,65503,1,0,0:0:0:0:
448,192,65659,1,0,0:0:0:0:
448,192,65814,1,0,0:0:0:0:
192,192,65970,1,0,0:0:0:0:
448,192,66125,1,0,0:0:0:0:
64,192,66281,1,0,0:0:0:0:
192,192,66436,1,0,0:0:0:0:
448,192,66591,1,0,0:0:0:0:
448,192,66747,1,0,0:0:0:0:
192,192,66902,1,0,0:0:0:0:
192,192,67058,1,0,0:0:0:0:
320,192,67213,1,0,0:0:0:0:
64,192,67369,1,0,0:0:0:0:
448,192,67524,1,0,0:0:0:0:
320,192,67680,1,0,0:0:0:0:
64,192,67835,1,0,0:0:0:0:
448,192,67835,1,0,0:0:0:0:
64,192,67990,1,0,0:0:0:0:
192,192,67990,1,0,0:0:0:0:
320,192,68146,1,0,0:0:0:0:
448,192,68301,1,0,0:0:0:0:
192,192,68301,1,0,0:0:0:0:
64,192,68457,1,0,0:0:0:0:
192,192,68457,1,0,0:0:0:0:
448,192,68612,1,0,0:0:0:0:
64,192,68768,1,0,0:0:0:0:
320,192,68768,1,0,0:0:0:0:
192,192,68923,1,0,0:0:0:0:
448,192,69079,1,0,0:0:0:0:
192,192,69234,1,0,0:0:0:0:
64,192,69234,1,0,0:0:0:0:
64,192,69389,1,0,0:0:0:0:
448,192,69389,1,0,0:0:0:0:
192,192,69545,1,0,0:0:0:0:
448,192,69700,1,0,0:0:0:0:
320,192,69700,1,0,0:0:0:0:
64,192,69856,1,0,0:0:0:0:
192,192,70011,1,0,0:0:0:0:
448,192,70011,1,0,0:0:0:0:
320,192,70167,1,0,0:0:0:0:
64,192,70322,1,0,0:0:0:0:
320,192,70477,1,0,0:0:0:0:
448,192,70477,1,0,0:0:0:0:
448,192,70633,1,0,0:0:0:0:
64,192,70633,1,0,0:0:0:0:
320,192,70788,1,0,0:0:0:0:
192,192,70944,1,0,0:0:0:0:
64,192,70944,1,0,0:0:0:0:
448,192,71099,1,0,0:0:0:0:
192,192,71255,1,0,0:0:0:0:
320,192,71255,1,0,0:0:0:0:
64,192,71410,1,0,0:0:0:0:
448,192,71566,1,0,0:0:0:0:
64,192,71721,1,0,0:0:0:0:
192,192,71721,1,0,0:0:0:0:
320,192,71876,1,0,0:0:0:0:
192,192,71876,1,0,0:0:0:0:
64,192,72032,1,0,0:0:0:0:
448,192,72187,1,0,0:0:0:0:
320,192,72187,1,0,0:0:0:0:
192,192,72343,1,0,0:0:0:0:
320,192,72420,1,0,0:0:0:0:
448,192,72498,1,0,0:0:0:0:
64,192,72498,1,0,0:0:0:0:
192,192,72576,1,0,0:0:0:0:
320,192,72654,1,0,0:0:0:0:
64,192,72731,1,0,0:0:0:0:
320,192,72809,1,0,0:0:0:0:
64,192,72887,1,0,0:0:0:0:
448,192,72965,1,0,0:0:0:0:
320,192,73042,1,0,0:0:0:0:
192,192,73120,1,0,0:0:0:0:
64,192,73120,1,0,0:0:0:0:
448,192,73198,1,0,0:0:0:0:
192,192,73275,1,0,0:0:0:0:
192,192,73353,1,0,0:0:0:0:
320,192,73431,1,0,0:0:0:0:
64,192,73431,1,0,0:0:0:0:
448,192,73509,1,0,0:0:0:0:
64,192,73586,1,0,0:0:0:0:
448,192,73664,1,0,0:0:0:0:
64,192,73742,1,0,0:0:0:0:
192,192,73742,1,0,0:0:0:0:
320,192,73781,1,0,0:0:0:0:
192,192,73819,1,0,0:0:0:0:
448,192,73858,1,0,0:0:0:0:
448,192,74053,1,0,0:0:0:0:
64,192,74053,1,0,0:0:0:0:
320,192,74208,1,0,0:0:0:0:
192,192,74208,1,0,0:0:0:0:
448,192,74363,1,0,0:0:0:0:
64,192,74415,1,0,0:0:0:0:
192,192,74467,1,0,0:0:0:0:
320,192,74519,1,0,0:0:0:0:
448,192,74519,1,0,0:0:0:0:
320,192,74674,1,0,0:0:0:0:
64,192,74830,1,0,0:0:0:0:
320,192,74933,1,0,0:0:0:0:
448,192,74933,1,0,0:0:0:0:
64,192,74985,1,0,0:0:0:0:
192,192,74985,1,0,0:0:0:0:
448,192,75037,1,0,0:0:0:0:
192,192,75089,1,0,0:0:0:0:
64,192,75141,1,0,0:0:0:0:
320,192,75296,1,0,0:0:0:0:
192,192,75296,1,0,0:0:0:0:
320,192,75452,1,0,0:0:0:0:
64,192,75607,1,0,0:0:0:0:
192,192,75607,1,0,0:0:0:0:
320,192,75762,1,0,0:0:0:0:
448,192,75918,1,0,0:0:0:0:
192,192,75918,1,0,0:0:0:0:
320,192,75996,1,0,0:0:0:0:
192,192,76073,1,0,0:0:0:0:
320,192,76151,1,0,0:0:0:0:
64,192,76229,1,0,0:0:0:0:
192,192,76229,1,0,0:0:0:0:
448,192,76281,1,0,0:0:0:0:
64,192,76332,1,0,0:0:0:0:
320,192,76384,1,0,0:0:0:0:
64,192,76540,1,0,0:0:0:0:
448,192,76540,1,0,0:0:0:0:
320,192,76695,1,0,0:0:0:0:
192,192,76695,1,0,0:0:0:0:
448,192,76851,1,0,0:0:0:0:
192,192,76902,1,0,0:0:0:0:
64,192,76954,1,0,0:0:0:0:
320,192,77006,1,0,0:0:0:0:
448,192,77006,1,0,0:0:0:0:
448,192,77161,1,0,0:0:0:0:
192,192,77317,1,0,0:0:0:0:
448,192,77420,1,0,0:0:0:0:
320,192,77420,1,0,0:0:0:0:
64,192,77472,1,0,0:0:0:0:
192,192,77472,1,0,0:0:0:0:
448,192,77550,1,0,0:0:0:0:
64,192,77628,1,0,0:0:0:0:
320,192,77783,1,0,0:0:0:0:
192,192,77783,1,0,0:0:0:0:
448,192,77939,1,0,0:0:0:0:
320,192,77939,1,0,0:0:0:0:
64,192,78094,1,0,0:0:0:0:
192,192,78094,1,0,0:0:0:0:
448,192,78250,1,0,0:0:0:0:
64,192,78353,1,0,0:0:0:0:
448,192,78405,1,0,0:0:0:0:
320,192,78405,1,0,0:0:0:0:
192,192,78483,1,0,0:0:0:0:
320,192,78560,1,0,0:0:0:0:
448,192,78716,1,0,0:0:0:0:
64,192,78871,1,0,0:0:0:0:
192,192,79027,1,0,0:0:0:0:
448,192,79338,1,0,0:0:0:0:
64,192,79389,1,0,0:0:0:0:
192,192,79441,1,0,0:0:0:0:
320,192,79493,1,0,0:0:0:0:
448,192,79493,1,0,0:0:0:0:
320,192,79648,1,0,0:0:0:0:
64,192,79804,1,0,0:0:0:0:
320,192,79908,1,0,0:0:0:0:
448,192,79908,1,0,0:0:0:0:
64,192,79959,1,0,0:0:0:0:
192,192,79959,1,0,0:0:0:0:
448,192,80011,1,0,0:0:0:0:
192,192,80063,1,0,0:0:0:0:
64,192,80115,1,0,0:0:0:0:
320,192,80270,1,0,0:0:0:0:
192,192,80270,1,0,0:0:0:0:
320,192,80426,1,0,0:0:0:0:
64,192,80581,1,0,0:0:0:0:
192,192,80581,1,0,0:0:0:0:
64,192,80737,1,0,0:0:0:0:
320,192,80737,1,0,0:0:0:0:
448,192,80892,1,0,0:0:0:0:
192,192,80892,1,0,0:0:0:0:
320,192,80970,1,0,0:0:0:0:
192,192,81047,1,0,0:0:0:0:
320,192,81125,1,0,0:0:0:0:
64,192,81203,1,0,0:0:0:0:
192,192,81203,1,0,0:0:0:0:
448,192,81255,1,0,0:0:0:0:
64,192,81307,1,0,0:0:0:0:
320,192,81358,1,0,0:0:0:0:
448,192,81514,1,0,0:0:0:0:
192,192,81514,1,0,0:0:0:0:
320,192,81669,1,0,0:0:0:0:
64,192,81669,1,0,0:0:0:0:
448,192,81825,1,0,0:0:0:0:
192,192,81876,1,0,0:0:0:0:
64,192,81928,1,0,0:0:0:0:
320,192,81980,1,0,0:0:0:0:
448,192,81980,1,0,0:0:0:0:
448,192,82136,1,0,0:0:0:0:
192,192,82291,1,0,0:0:0:0:
448,192,82395,1,0,0:0:0:0:
320,192,82395,1,0,0:0:0:0:
64,192,82446,1,0,0:0:0:0:
192,192,82446,1,0,0:0:0:0:
448,192,82524,1,0,0:0:0:0:
64,192,82602,1,0,0:0:0:0:
320,192,82757,1,0,0:0:0:0:
192,192,82757,1,0,0:0:0:0:
448,192,82913,1,0,0:0:0:0:
320,192,82913,1,0,0:0:0:0:
64,192,83068,1,0,0:0:0:0:
192,192,83068,1,0,0:0:0:0:
448,192,83146,1,0,0:0:0:0:
192,192,83224,1,0,0:0:0:0:
320,192,83275,1,0,0:0:0:0:
64,192,83327,1,0,0:0:0:0:
192,192,83379,1,0,0:0:0:0:
448,192,83534,1,0,0:0:0:0:
320,192,83534,1,0,0:0:0:0:
64,192,83690,1,0,0:0:0:0:
448,192,83690,1,0,0:0:0:0:
192,192,83729,1,0,0:0:0:0:
320,192,83768,1,0,0:0:0:0:
64,192,83807,1,0,0:0:0:0:
192,192,84001,1,0,0:0:0:0:
320,192,84001,1,0,0:0:0:0:
64,192,84156,1,0,0:0:0:0:
448,192,84156,1,0,0:0:0:0:
192,192,84312,1,0,0:0:0:0:
320,192,84363,1,0,0:0:0:0:
448,192,84415,1,0,0:0:0:0:
192,192,84467,1,0,0:0:0:0:
64,192,84467,1,0,0:0:0:0:
64,192,84623,1,0,0:0:0:0:
320,192,84778,1,0,0:0:0:0:
64,192,84882,1,0,0:0:0:0:
192,192,84882,1,0,0:0:0:0:
448,192,84933,1,0,0:0:0:0:
320,192,84933,1,0,0:0:0:0:
64,192,84985,1,0,0:0:0:0:
448,192,85037,1,0,0:0:0:0:
320,192,85089,1,0,0:0:0:0:
64,192,85244,1,0,0:0:0:0:
448,192,85244,1,0,0:0:0:0:
64,192,85400,1,0,0:0:0:0:
448,192,85555,1,0,0:0:0:0:
320,192,85555,1,0,0:0:0:0:
448,192,85711,1,0,0:0:0:0:
192,192,85711,1,0,0:0:0:0:
320,192,85866,1,0,0:0:0:0:
64,192,85866,1,0,0:0:0:0:
192,192,85944,1,0,0:0:0:0:
320,192,86022,1,0,0:0:0:0:
192,192,86099,1,0,0:0:0:0:
320,192,86177,1,0,0:0:0:0:
448,192,86177,1,0,0:0:0:0:
64,192,86229,1,0,0:0:0:0:
448,192,86281,1,0,0:0:0:0:
320,192,86332,1,0,0:0:0:0:
64,192,86488,1,0,0:0:0:0:
448,192,86488,1,0,0:0:0:0:
320,192,86643,1,0,0:0:0:0:
192,192,86643,1,0,0:0:0:0:
64,192,86799,1,0,0:0:0:0:
320,192,86851,1,0,0:0:0:0:
448,192,86902,1,0,0:0:0:0:
64,192,86954,1,0,0:0:0:0:
192,192,86954,1,0,0:0:0:0:
192,192,87110,1,0,0:0:0:0:
320,192,87265,1,0,0:0:0:0:
192,192,87369,1,0,0:0:0:0:
64,192,87369,1,0,0:0:0:0:
320,192,87420,1,0,0:0:0:0:
448,192,87420,1,0,0:0:0:0:
64,192,87498,1,0,0:0:0:0:
448,192,87576,1,0,0:0:0:0:
320,192,87731,1,0,0:0:0:0:
192,192,87731,1,0,0:0:0:0:
192,192,87887,1,0,0:0:0:0:
64,192,87887,1,0,0:0:0:0:
320,192,88042,1,0,0:0:0:0:
448,192,88042,1,0,0:0:0:0:
64,192,88198,1,0,0:0:0:0:
448,192,88301,1,0,0:0:0:0:
192,192,88353,1,0,0:0:0:0:
64,192,88353,1,0,0:0:0:0:
320,192,88431,1,0,0:0:0:0:
192,192,88509,1,0,0:0:0:0:
320,192,88586,1,0,0:0:0:0:
64,192,88664,1,0,0:0:0:0:
448,192,88819,1,0,0:0:0:0:
320,192,88975,1,0,0:0:0:0:
64,192,89286,1,0,0:0:0:0:
448,192,89338,1,0,0:0:0:0:
320,192,89389,1,0,0:0:0:0:
192,192,89441,1,0,0:0:0:0:
64,192,89441,1,0,0:0:0:0:
192,192,89597,1,0,0:0:0:0:
448,192,89752,1,0,0:0:0:0:
192,192,89856,1,0,0:0:0:0:
64,192,89856,1,0,0:0:0:0:
448,192,89908,1,0,0:0:0:0:
320,192,89908,1,0,0:0:0:0:
64,192,89959,1,0,0:0:0:0:
320,192,90011,1,0,0:0:0:0:
448,192,90063,1,0,0:0:0:0:
192,192,90218,1,0,0:0:0:0:
320,192,90218,1,0,0:0:0:0:
64,192,90374,1,0,0:0:0:0:
448,192,90529,1,0,0:0:0:0:
320,192,90529,1,0,0:0:0:0:
448,192,90685,1,0,0:0:0:0:
192,192,90685,1,0,0:0:0:0:
64,192,90840,1,0,0:0:0:0:
320,192,90840,1,0,0:0:0:0:
192,192,90918,1,0,0:0:0:0:
320,192,90996,1,0,0:0:0:0:
64,192,91073,1,0,0:0:0:0:
448,192,91151,1,0,0:0:0:0:
192,192,91307,1,0,0:0:0:0:
320,192,91358,1,0,0:0:0:0:
448,192,91410,1,0,0:0:0:0:
64,192,91462,1,0,0:0:0:0:
192,192,91462,1,0,0:0:0:0:
64,192,91617,1,0,0:0:0:0:
320,192,92084,1,0,0:0:0:0:
448,192,92084,1,0,0:0:0:0:
448,192,92239,1,0,0:0:0:0:
64,192,92239,1,0,0:0:0:0:
192,192,92317,1,0,0:0:0:0:
320,192,92395,1,0,0:0:0:0:
448,192,92395,1,0,0:0:0:0:
320,192,92550,1,0,0:0:0:0:
192,192,92705,1,0,0:0:0:0:
64,192,92861,1,0,0:0:0:0:
192,192,93016,1,0,0:0:0:0:
64,192,93094,1,0,0:0:0:0:
192,192,93172,1,0,0:0:0:0:
192,192,93327,1,0,0:0:0:0:
64,192,93327,1,0,0:0:0:0:
320,192,93405,1,0,0:0:0:0:
448,192,93483,1,0,0:0:0:0:
64,192,93560,1,0,0:0:0:0:
192,192,93560,1,0,0:0:0:0:
320,192,93638,1,0,0:0:0:0:
448,192,93716,1,0,0:0:0:0:
192,192,93794,1,0,0:0:0:0:
64,192,93794,1,0,0:0:0:0:
320,192,93871,1,0,0:0:0:0:
448,192,93949,1,0,0:0:0:0:
64,192,93949,1,0,0:0:0:0:
192,192,94027,1,0,0:0:0:0:
64,192,94104,1,0,0:0:0:0:
448,192,94182,1,0,0:0:0:0:
320,192,94182,1,0,0:0:0:0:
192,192,94260,1,0,0:0:0:0:
64,192,94338,1,0,0:0:0:0:
448,192,94415,1,0,0:0:0:0:
320,192,94415,1,0,0:0:0:0:
192,192,94493,1,0,0:0:0:0:
320,192,94571,1,0,0:0:0:0:
448,192,94571,1,0,0:0:0:0:
192,192,94648,1,0,0:0:0:0:
64,192,94726,1,0,0:0:0:0:
448,192,94804,1,0,0:0:0:0:
320,192,94804,1,0,0:0:0:0:
192,192,94882,1,0,0:0:0:0:
64,192,94959,1,0,0:0:0:0:
320,192,95037,1,0,0:0:0:0:
448,192,95037,1,0,0:0:0:0:
192,192,95115,1,0,0:0:0:0:
64,192,95193,1,0,0:0:0:0:
448,192,95193,1,0,0:0:0:0:
320,192,95270,1,0,0:0:0:0:
448,192,95348,1,0,0:0:0:0:
64,192,95426,1,0,0:0:0:0:
192,192,95426,1,0,0:0:0:0:
320,192,95503,1,0,0:0:0:0:
448,192,95581,1,0,0:0:0:0:
64,192,95659,1,0,0:0:0:0:
192,192,95659,1,0,0:0:0:0:
320,192,95737,1,0,0:0:0:0:
64,192,95814,1,0,0:0:0:0:
192,192,95814,1,0,0:0:0:0:
320,192,95892,1,0,0:0:0:0:
64,192,95970,1,0,0:0:0:0:
448,192,96047,1,0,0:0:0:0:
320,192,96047,1,0,0:0:0:0:
192,192,96125,1,0,0:0:0:0:
448,192,96203,1,0,0:0:0:0:
64,192,96281,1,0,0:0:0:0:
192,192,96281,1,0,0:0:0:0:
320,192,96358,1,0,0:0:0:0:
64,192,96436,1,0,0:0:0:0:
448,192,96436,1,0,0:0:0:0:
192,192,96514,1,0,0:0:0:0:
64,192,96591,1,0,0:0:0:0:
448,192,96669,1,0,0:0:0:0:
320,192,96669,1,0,0:0:0:0:
192,192,96747,1,0,0:0:0:0:
320,192,96825,1,0,0:0:0:0:
192,192,96902,1,0,0:0:0:0:
64,192,96902,1,0,0:0:0:0:
448,192,96980,1,0,0:0:0:0:
64,192,97058,1,0,0:0:0:0:
192,192,97058,1,0,0:0:0:0:
320,192,97136,1,0,0:0:0:0:
64,192,97213,1,0,0:0:0:0:
448,192,97291,1,0,0:0:0:0:
320,192,97291,1,0,0:0:0:0:
192,192,97369,1,0,0:0:0:0:
448,192,97446,1,0,0:0:0:0:
64,192,97524,1,0,0:0:0:0:
192,192,97524,1,0,0:0:0:0:
320,192,97602,1,0,0:0:0:0:
64,192,97680,1,0,0:0:0:0:
448,192,97680,1,0,0:0:0:0:
192,192,97757,1,0,0:0:0:0:
64,192,97835,1,0,0:0:0:0:
448,192,97913,1,0,0:0:0:0:
320,192,97913,1,0,0:0:0:0:
192,192,97990,1,0,0:0:0:0:
320,192,98068,1,0,0:0:0:0:
192,192,98146,1,0,0:0:0:0:
64,192,98146,1,0,0:0:0:0:
448,192,98224,1,0,0:0:0:0:
192,192,98301,1,0,0:0:0:0:
64,192,98301,1,0,0:0:0:0:
320,192,98379,1,0,0:0:0:0:
448,192,98457,1,0,0:0:0:0:
64,192,98534,1,0,0:0:0:0:
192,192,98534,1,0,0:0:0:0:
320,192,98612,1,0,0:0:0:0:
448,192,98690,1,0,0:0:0:0:
192,192,98768,1,0,0:0:0:0:
64,192,98768,1,0,0:0:0:0:
320,192,98845,1,0,0:0:0:0:
448,192,98923,1,0,0:0:0:0:
64,192,98923,1,0,0:0:0:0:
192,192,99001,1,0,0:0:0:0:
64,192,99079,1,0,0:0:0:0:
448,192,99156,1,0,0:0:0:0:
320,192,99156,1,0,0:0:0:0:
192,192,99234,1,0,0:0:0:0:
64,192,99312,1,0,0:0:0:0:
448,192,99389,1,0,0:0:0:0:
320,192,99389,1,0,0:0:0:0:
192,192,99467,1,0,0:0:0:0:
320,192,99545,1,0,0:0:0:0:
448,192,99545,1,0,0:0:0:0:
192,192,99623,1,0,0:0:0:0:
64,192,99700,1,0,0:0:0:0:
448,192,99778,1,0,0:0:0:0:
320,192,99778,1,0,0:0:0:0:
192,192,99856,1,0,0:0:0:0:
64,192,99933,1,0,0:0:0:0:
320,192,100011,1,0,0:0:0:0:
448,192,100011,1,0,0:0:0:0:
192,192,100089,1,0,0:0:0:0:
64,192,100167,1,0,0:0:0:0:
448,192,100167,1,0,0:0:0:0:
320,192,100244,1,0,0:0:0:0:
448,192,100322,1,0,0:0:0:0:
64,192,100400,1,0,0:0:0:0:
192,192,100400,1,0,0:0:0:0:
320,192,100477,1,0,0:0:0:0:
448,192,100555,1,0,0:0:0:0:
64,192,100633,1,0,0:0:0:0:
192,192,100633,1,0,0:0:0:0:
320,192,100711,1,0,0:0:0:0:
64,192,100788,1,0,0:0:0:0:
192,192,100788,1,0,0:0:0:0:
320,192,100866,1,0,0:0:0:0:
64,192,100944,1,0,0:0:0:0:
448,192,101022,1,0,0:0:0:0:
320,192,101022,1,0,0:0:0:0:
192,192,101099,1,0,0:0:0:0:
448,192,101177,1,0,0:0:0:0:
64,192,101255,1,0,0:0:0:0:
192,192,101255,1,0,0:0:0:0:
320,192,101332,1,0,0:0:0:0:
64,192,101410,1,0,0:0:0:0:
448,192,101410,1,0,0:0:0:0:
192,192,101488,1,0,0:0:0:0:
64,192,101566,1,0,0:0:0:0:
448,192,101643,1,0,0:0:0:0:
320,192,101643,1,0,0:0:0:0:
192,192,101721,1,0,0:0:0:0:
320,192,101799,1,0,0:0:0:0:
192,192,101876,1,0,0:0:0:0:
64,192,101876,1,0,0:0:0:0:
448,192,101954,1,0,0:0:0:0:
64,192,102032,1,0,0:0:0:0:
192,192,102032,1,0,0:0:0:0:
320,192,102110,1,0,0:0:0:0:
64,192,102187,1,0,0:0:0:0:
448,192,102265,1,0,0:0:0:0:
320,192,102265,1,0,0:0:0:0:
192,192,102343,1,0,0:0:0:0:
448,192,102420,1,0,0:0:0:0:
64,192,102498,1,0,0:0:0:0:
192,192,102498,1,0,0:0:0:0:
320,192,102576,1,0,0:0:0:0:
64,192,102654,1,0,0:0:0:0:
448,192,102654,1,0,0:0:0:0:
64,192,103275,1,0,0:0:0:0:
192,192,103275,1,0,0:0:0:0:
320,192,104519,1,0,0:0:0:0:
192,192,104519,1,0,0:0:0:0:
320,192,105762,1,0,0:0:0:0:
448,192,105762,1,0,0:0:0:0:
192,192,106384,1,0,0:0:0:0:
448,192,106384,1,0,0:0:0:0:
64,192,107006,1,0,0:0:0:0:
192,192,107006,1,0,0:0:0:0:
448,192,108250,1,0,0:0:0:0:
320,192,108250,1,0,0:0:0:0:
64,192,108327,1,0,0:0:0:0:
448,192,108405,1,0,0:0:0:0:
64,192,108483,1,0,0:0:0:0:
320,192,108560,1,0,0:0:0:0:
192,192,108560,1,0,0:0:0:0:
448,192,108638,1,0,0:0:0:0:
192,192,108716,1,0,0:0:0:0:
320,192,108794,1,0,0:0:0:0:
448,192,108871,1,0,0:0:0:0:
64,192,108871,1,0,0:0:0:0:
192,192,108949,1,0,0:0:0:0:
64,192,109027,1,0,0:0:0:0:
192,192,109104,1,0,0:0:0:0:
320,192,109104,1,0,0:0:0:0:
448,192,109182,1,0,0:0:0:0:
64,192,109260,1,0,0:0:0:0:
192,192,109338,1,0,0:0:0:0:
320,192,109338,1,0,0:0:0:0:
448,192,109415,1,0,0:0:0:0:
192,192,109493,1,0,0:0:0:0:
64,192,109493,1,0,0:0:0:0:
320,192,109571,1,0,0:0:0:0:
192,192,109648,1,0,0:0:0:0:
320,192,109726,1,0,0:0:0:0:
64,192,109804,1,0,0:0:0:0:
448,192,109804,1,0,0:0:0:0:
192,192,109882,1,0,0:0:0:0:
448,192,109959,1,0,0:0:0:0:
64,192,110037,1,0,0:0:0:0:
320,192,110115,1,0,0:0:0:0:
192,192,110115,1,0,0:0:0:0:
448,192,110193,1,0,0:0:0:0:
320,192,110270,1,0,0:0:0:0:
448,192,110348,1,0,0:0:0:0:
64,192,110348,1,0,0:0:0:0:
192,192,110426,1,0,0:0:0:0:
64,192,110503,1,0,0:0:0:0:
448,192,110581,1,0,0:0:0:0:
320,192,110581,1,0,0:0:0:0:
192,192,110659,1,0,0:0:0:0:
320,192,110737,1,0,0:0:0:0:
448,192,110737,1,0,0:0:0:0:
64,192,110814,1,0,0:0:0:0:
320,192,110892,1,0,0:0:0:0:
192,192,110970,1,0,0:0:0:0:
64,192,111047,1,0,0:0:0:0:
448,192,111047,1,0,0:0:0:0:
320,192,111125,1,0,0:0:0:0:
448,192,111203,1,0,0:0:0:0:
320,192,111281,1,0,0:0:0:0:
192,192,111358,1,0,0:0:0:0:
64,192,111358,1,0,0:0:0:0:
448,192,111436,1,0,0:0:0:0:
64,192,111514,1,0,0:0:0:0:
320,192,111591,1,0,0:0:0:0:
448,192,111591,1,0,0:0:0:0:
192,192,111669,1,0,0:0:0:0:
320,192,111747,1,0,0:0:0:0:
64,192,111825,1,0,0:0:0:0:
448,192,111825,1,0,0:0:0:0:
192,192,111902,1,0,0:0:0:0:
320,192,111980,1,0,0:0:0:0:
448,192,111980,1,0,0:0:0:0:
64,192,112058,1,0,0:0:0:0:
320,192,112136,1,0,0:0:0:0:
64,192,112213,1,0,0:0:0:0:
448,192,112291,1,0,0:0:0:0:
192,192,112291,1,0,0:0:0:0:
320,192,112369,1,0,0:0:0:0:
448,192,112446,1,0,0:0:0:0:
192,192,112524,1,0,0:0:0:0:
64,192,112602,1,0,0:0:0:0:
320,192,112602,1,0,0:0:0:0:
64,192,112757,1,0,0:0:0:0:
448,192,112913,1,0,0:0:0:0:
192,192,113224,1,0,0:0:0:0:
64,192,113224,1,0,0:0:0:0:
448,192,113301,1,0,0:0:0:0:
64,192,113379,1,0,0:0:0:0:
448,192,113457,1,0,0:0:0:0:
320,192,113534,1,0,0:0:0:0:
192,192,113534,1,0,0:0:0:0:
64,192,113612,1,0,0:0:0:0:
320,192,113690,1,0,0:0:0:0:
192,192,113768,1,0,0:0:0:0:
448,192,113845,1,0,0:0:0:0:
64,192,113845,1,0,0:0:0:0:
320,192,113923,1,0,0:0:0:0:
448,192,114001,1,0,0:0:0:0:
192,192,114079,1,0,0:0:0:0:
320,192,114079,1,0,0:0:0:0:
64,192,114156,1,0,0:0:0:0:
448,192,114234,1,0,0:0:0:0:
192,192,114312,1,0,0:0:0:0:
320,192,114312,1,0,0:0:0:0:
64,192,114389,1,0,0:0:0:0:
448,192,114467,1,0,0:0:0:0:
320,192,114467,1,0,0:0:0:0:
192,192,114545,1,0,0:0:0:0:
320,192,114623,1,0,0:0:0:0:
192,192,114700,1,0,0:0:0:0:
64,192,114778,1,0,0:0:0:0:
448,192,114778,1,0,0:0:0:0:
320,192,114856,1,0,0:0:0:0:
64,192,114933,1,0,0:0:0:0:
448,192,115011,1,0,0:0:0:0:
320,192,115089,1,0,0:0:0:0:
192,192,115089,1,0,0:0:0:0:
64,192,115167,1,0,0:0:0:0:
192,192,115244,1,0,0:0:0:0:
448,192,115322,1,0,0:0:0:0:
64,192,115322,1,0,0:0:0:0:
320,192,115400,1,0,0:0:0:0:
448,192,115477,1,0,0:0:0:0:
192,192,115555,1,0,0:0:0:0:
64,192,115555,1,0,0:0:0:0:
320,192,115633,1,0,0:0:0:0:
64,192,115711,1,0,0:0:0:0:
192,192,115711,1,0,0:0:0:0:
448,192,115788,1,0,0:0:0:0:
192,192,115866,1,0,0:0:0:0:
320,192,115944,1,0,0:0:0:0:
64,192,116022,1,0,0:0:0:0:
448,192,116022,1,0,0:0:0:0:
192,192,116099,1,0,0:0:0:0:
64,192,116177,1,0,0:0:0:0:
192,192,116255,1,0,0:0:0:0:
448,192,116332,1,0,0:0:0:0:
320,192,116332,1,0,0:0:0:0:
64,192,116410,1,0,0:0:0:0:
448,192,116488,1,0,0:0:0:0:
64,192,116566,1,0,0:0:0:0:
192,192,116566,1,0,0:0:0:0:
320,192,116643,1,0,0:0:0:0:
192,192,116721,1,0,0:0:0:0:
64,192,116799,1,0,0:0:0:0:
448,192,116799,1,0,0:0:0:0:
320,192,116876,1,0,0:0:0:0:
64,192,116954,1,0,0:0:0:0:
192,192,116954,1,0,0:0:0:0:
448,192,117032,1,0,0:0:0:0:
192,192,117110,1,0,0:0:0:0:
448,192,117187,1,0,0:0:0:0:
320,192,117265,1,0,0:0:0:0:
64,192,117265,1,0,0:0:0:0:
192,192,117343,1,0,0:0:0:0:
64,192,117420,1,0,0:0:0:0:
320,192,117498,1,0,0:0:0:0:
192,192,117576,1,0,0:0:0:0:
448,192,117576,1,0,0:0:0:0:
448,192,117731,1,0,0:0:0:0:
192,192,117887,1,0,0:0:0:0:
64,192,117965,1,0,0:0:0:0:
192,192,118042,1,0,0:0:0:0:
64,192,118198,1,0,0:0:0:0:
192,192,118198,1,0,0:0:0:0:
448,192,118275,1,0,0:0:0:0:
64,192,118353,1,0,0:0:0:0:
448,192,118509,1,0,0:0:0:0:
320,192,118509,1,0,0:0:0:0:
320,192,118664,1,0,0:0:0:0:
64,192,118819,1,0,0:0:0:0:
192,192,118819,1,0,0:0:0:0:
192,192,118975,1,0,0:0:0:0:
448,192,119053,1,0,0:0:0:0:
320,192,119053,1,0,0:0:0:0:
64,192,119130,1,0,0:0:0:0:
192,192,119286,1,0,0:0:0:0:
320,192,119286,1,0,0:0:0:0:
448,192,119441,1,0,0:0:0:0:
320,192,119441,1,0,0:0:0:0:
192,192,119519,1,0,0:0:0:0:
448,192,119597,1,0,0:0:0:0:
64,192,119752,1,0,0:0:0:0:
192,192,119752,1,0,0:0:0:0:
64,192,119908,1,0,0:0:0:0:
448,192,120063,1,0,0:0:0:0:
320,192,120063,1,0,0:0:0:0:
448,192,120218,1,0,0:0:0:0:
64,192,120296,1,0,0:0:0:0:
192,192,120296,1,0,0:0:0:0:
320,192,120374,1,0,0:0:0:0:
448,192,120529,1,0,0:0:0:0:
64,192,120529,1,0,0:0:0:0:
192,192,120685,1,0,0:0:0:0:
64,192,120685,1,0,0:0:0:0:
320,192,120762,1,0,0:0:0:0:
192,192,120840,1,0,0:0:0:0:
320,192,120996,1,0,0:0:0:0:
448,192,120996,1,0,0:0:0:0:
320,192,121151,1,0,0:0:0:0:
192,192,121306,1,0,0:0:0:0:
64,192,121306,1,0,0:0:0:0:
192,192,121462,1,0,0:0:0:0:
320,192,121540,1,0,0:0:0:0:
448,192,121540,1,0,0:0:0:0:
64,192,121617,1,0,0:0:0:0:
320,192,121773,1,0,0:0:0:0:
192,192,121773,1,0,0:0:0:0:
448,192,121928,1,0,0:0:0:0:
320,192,121928,1,0,0:0:0:0:
192,192,122006,1,0,0:0:0:0:
448,192,122084,1,0,0:0:0:0:
64,192,122239,1,0,0:0:0:0:
192,192,122239,1,0,0:0:0:0:
64,192,122395,1,0,0:0:0:0:
448,192,122550,1,0,0:0:0:0:
320,192,122550,1,0,0:0:0:0:
448,192,122705,1,0,0:0:0:0:
64,192,122783,1,0,0:0:0:0:
320,192,122861,1,0,0:0:0:0:
320,192,123172,1,0,0:0:0:0:
64,192,123172,1,0,0:0:0:0:
192,192,123250,1,0,0:0:0:0:
64,192,123327,1,0,0:0:0:0:
448,192,123483,1,0,0:0:0:0:
320,192,123483,1,0,0:0:0:0:
64,192,123560,1,0,0:0:0:0:
448,192,123638,1,0,0:0:0:0:
320,192,123794,1,0,0:0:0:0:
192,192,123794,1,0,0:0:0:0:
448,192,123871,1,0,0:0:0:0:
320,192,123949,1,0,0:0:0:0:
448,192,124027,1,0,0:0:0:0:
64,192,124027,1,0,0:0:0:0:
192,192,124104,1,0,0:0:0:0:
64,192,124260,1,0,0:0:0:0:
192,192,124260,1,0,0:0:0:0:
64,192,124415,1,0,0:0:0:0:
448,192,124415,1,0,0:0:0:0:
320,192,124493,1,0,0:0:0:0:
448,192,124571,1,0,0:0:0:0:
64,192,124726,1,0,0:0:0:0:
192,192,124726,1,0,0:0:0:0:
448,192,124804,1,0,0:0:0:0:
192,192,124882,1,0,0:0:0:0:
64,192,125037,1,0,0:0:0:0:
320,192,125037,1,0,0:0:0:0:
192,192,125115,1,0,0:0:0:0:
64,192,125193,1,0,0:0:0:0:
448,192,125270,1,0,0:0:0:0:
192,192,125270,1,0,0:0:0:0:
320,192,125348,1,0,0:0:0:0:
320,192,125503,1,0,0:0:0:0:
448,192,125503,1,0,0:0:0:0:
448,192,125659,1,0,0:0:0:0:
192,192,125659,1,0,0:0:0:0:
64,192,125737,1,0,0:0:0:0:
192,192,125814,1,0,0:0:0:0:
448,192,125970,1,0,0:0:0:0:
320,192,125970,1,0,0:0:0:0:
192,192,126047,1,0,0:0:0:0:
320,192,126125,1,0,0:0:0:0:
448,192,126281,1,0,0:0:0:0:
64,192,126281,1,0,0:0:0:0:
320,192,126358,1,0,0:0:0:0:
448,192,126436,1,0,0:0:0:0:
320,192,126514,1,0,0:0:0:0:
192,192,126514,1,0,0:0:0:0:
64,192,126591,1,0,0:0:0:0:
64,192,126747,1,0,0:0:0:0:
192,192,126747,1,0,0:0:0:0:
320,192,126902,1,0,0:0:0:0:
448,192,127213,1,0,0:0:0:0:
64,192,127369,1,0,0:0:0:0:
192,192,127524,1,0,0:0:0:0:
192,192,127680,1,0,0:0:0:0:
448,192,128146,1,0,0:0:0:0:
64,192,128146,1,0,0:0:0:0:
192,192,128146,1,0,0:0:0:0:
320,192,128224,1,0,0:0:0:0:
448,192,128301,1,0,0:0:0:0:
320,192,128612,1,0,0:0:0:0:
64,192,128923,1,0,0:0:0:0:
448,192,129079,1,0,0:0:0:0:
64,192,129234,1,0,0:0:0:0:
192,192,129389,1,0,0:0:0:0:
64,192,129545,1,0,0:0:0:0:
320,192,129856,1,0,0:0:0:0:
192,192,130167,128,0,131099:0:0:0:0:
192,192,131255,1,0,0:0:0:0:
448,192,131566,1,0,0:0:0:0:
64,192,131721,1,0,0:0:0:0:
448,192,131876,1,0,0:0:0:0:
320,192,132032,1,0,0:0:0:0:
192,192,132343,1,0,0:0:0:0:
192,192,132654,128,0,133586:0:0:0:0:
192,192,133742,1,0,0:0:0:0:
64,192,134053,1,0,0:0:0:0:
448,192,134208,1,0,0:0:0:0:
64,192,134363,1,0,0:0:0:0:
192,192,134519,1,0,0:0:0:0:
448,192,134830,1,0,0:0:0:0:
192,192,135141,128,0,136073:0:0:0:0:
192,192,136229,1,0,0:0:0:0:
320,192,136540,128,0,137628:0:0:0:0:
64,192,136540,128,0,136695:0:0:0:0:
448,192,136695,128,0,137628:0:0:0:0:
