osu file format v14

[General]
AudioFilename: audio.mp3
AudioLeadIn: 0
PreviewTime: 3110
Countdown: 0
SampleSet: Normal
StackLeniency: 0.4
Mode: 0
LetterboxInBreaks: 0
WidescreenStoryboard: 0

[Editor]
DistanceSpacing: 1.5
BeatDivisor: 4
GridSize: 4
TimelineZoom: 2.999999

[Metadata]
Title:Youkoso JAPARI PARK e (Orgel Arrange)
TitleUnicode:ようこそジャパリパークへ (Orgel Arrange)
Artist:lent/ran
ArtistUnicode:lent/らん
Creator:outsideworld
Version:Park of animals
Source:けものフレンズ
Tags:Kemono Friends opening Doubutsu Biscuits x PPP どうぶつビスケッツ Welcome to 大石昌良 Ohishi Ooishi Masayoshi etc.
BeatmapID:1688017
BeatmapSetID:804167

[Difficulty]
HPDrainRate:7.9
CircleSize:5.5
OverallDifficulty:7.3
ApproachRate:8.9
SliderMultiplier:2
SliderTickRate:1

[Events]
//Background and Video events
0,0,"5bzZICX.jpg",0,0
//Break Periods
//Storyboard Layer 0 (Background)
//Storyboard Layer 1 (Fail)
//Storyboard Layer 2 (Pass)
//Storyboard Layer 3 (Foreground)
//Storyboard Sound Samples

[TimingPoints]
0,-100,4,1,0,100,0,0
520,545.454545454546,4,1,0,5,1,0
23701,545.454545454546,4,1,0,20,1,0
38019,-100,4,1,0,20,0,0

[HitObjects]
254,124,3247,5,0,0:0:0:0:
256,223,3520,1,0,0:0:0:0:
253,322,3792,1,0,0:0:0:0:
368,322,4065,2,0,P|464:260|475:223,1,150
345,240,4610,5,0,0:0:0:0:
219,238,4883,1,0,0:0:0:0:
132,302,5292,2,0,P|61:281|37:226,1,100
31,172,5701,1,0,0:0:0:0:
152,126,5974,1,0,0:0:0:0:
348,57,6247,2,0,P|408:91|466:152,1,150
389,248,6792,5,0,0:0:0:0:
233,122,7065,1,0,0:0:0:0:
233,322,7338,1,0,0:0:0:0:
327,146,7610,1,0,0:0:0:0:
136,208,7883,1,0,0:0:0:0:
330,159,8156,1,0,0:0:0:0:
132,128,8429,5,0,0:0:0:0:
194,263,8701,1,0,0:0:0:0:
231,113,8974,1,0,0:0:0:0:
365,45,9247,1,0,0:0:0:0:
314,131,9520,1,0,0:0:0:0:
443,134,9792,5,0,0:0:0:0:
387,191,10065,1,0,0:0:0:0:
331,248,10338,1,0,0:0:0:0:
268,297,10610,1,0,0:0:0:0:
204,345,10883,1,0,0:0:0:0:
204,345,11156,5,0,0:0:0:0:
205,294,11429,1,0,0:0:0:0:
205,244,11701,1,0,0:0:0:0:
117,206,11974,6,0,P|71:143|108:117,1,100
121,279,12520,1,0,0:0:0:0:
70,332,12792,2,2,P|23:217|52:171,1,150
93,107,13338,1,0,0:0:0:0:
174,196,13610,5,0,0:0:0:0:
136,304,13883,2,0,P|75:295|41:186,1,150
128,196,14429,1,0,0:0:0:0:
210,252,14701,1,0,0:0:0:0:
138,317,14974,2,0,P|72:298|34:196,1,150
33,122,15520,1,0,0:0:0:0:
104,22,15792,5,0,0:0:0:0:
197,139,16065,1,0,0:0:0:0:
84,203,16338,2,0,L|85:148,1,50
197,139,16609,1,0,0:0:0:0:
198,22,16883,1,0,0:0:0:0:
275,95,17156,5,0,0:0:0:0:
337,173,17429,1,0,0:0:0:0:
187,170,17701,1,0,0:0:0:0:
187,170,17974,2,0,L|187:91,1,50
193,19,18247,1,0,0:0:0:0:
403,230,18520,6,0,L|404:303,1,50
402,384,18792,1,0,0:0:0:0:
338,337,19065,1,0,0:0:0:0:
277,285,19338,1,0,0:0:0:0:
221,228,19610,1,0,0:0:0:0:
166,170,19882,1,0,0:0:0:0:
110,113,20156,1,0,0:0:0:0:
49,61,20429,1,0,0:0:0:0:
49,61,20701,6,0,L|100:118,1,50
148,172,20974,5,0,0:0:0:0:
253,177,21247,1,0,0:0:0:0:
186,252,21520,2,0,L|136:321,1,50
186,252,22065,6,0,L|187:190,1,50
189,101,22338,1,0,0:0:0:0:
288,104,22610,1,0,0:0:0:0:
382,187,22747,2,0,L|382:138,2,50
331,281,23156,1,0,0:0:0:0:
217,330,23429,1,0,0:0:0:0:
105,303,23701,6,0,P|41:257|54:148,1,150
72,94,24247,1,0,0:0:0:0:
171,98,24520,1,0,0:0:0:0:
270,101,24792,1,0,0:0:0:0:
72,94,25065,6,0,L|115:155,1,50
186,252,25338,1,0,0:0:0:0:
171,98,25474,2,0,L|251:97,1,50
194,288,25883,2,0,L|214:227,1,50
349,200,26156,1,0,0:0:0:0:
256,144,26429,5,0,0:0:0:0:
266,154,26565,1,0,0:0:0:0:
276,164,26701,1,0,0:0:0:0:
124,149,26973,1,0,0:0:0:0:
66,68,27246,1,0,0:0:0:0:
166,69,27519,5,0,0:0:0:0:
161,168,27792,1,0,0:0:0:0:
303,196,28065,1,0,0:0:0:0:
303,196,28201,1,0,0:0:0:0:
410,106,28338,6,0,L|462:141,1,50
446,284,28610,1,0,0:0:0:0:
303,261,28883,2,0,L|247:257,1,50
177,255,29156,1,0,0:0:0:0:
69,260,29360,1,0,0:0:0:0:
69,252,29429,2,0,L|75:188,1,50
80,102,29701,1,0,0:0:0:0:
175,71,29974,5,0,0:0:0:0:
141,217,30247,1,0,0:0:0:0:
275,149,30520,1,0,0:0:0:0:
142,80,30792,1,0,0:0:0:0:
187,221,31065,1,0,0:0:0:0:
266,146,31338,1,0,0:0:0:0:
266,146,31610,6,0,L|244:79,1,50
117,29,31883,1,0,0:0:0:0:
38,156,32155,1,0,0:0:0:0:
130,275,32428,1,0,0:0:0:0:
261,346,32702,1,0,0:0:0:0:
394,277,32974,1,0,0:0:0:0:
426,127,33247,5,0,0:0:0:0:
256,127,33520,2,0,L|302:153,1,50
349,58,33724,1,0,0:0:0:0:
349,58,33792,1,0,0:0:0:0:
210,30,34065,2,0,L|166:104,1,50
126,147,34338,1,0,0:0:0:0:
242,161,34610,2,0,L|168:162,1,50
126,147,34883,5,0,0:0:0:0:
244,72,35156,2,0,L|194:72,1,50
129,230,35429,1,0,0:0:0:0:
258,165,35701,1,0,0:0:0:0:
351,128,35974,1,0,0:0:0:0:
370,227,36247,1,0,0:0:0:0:
472,352,36520,5,0,0:0:0:0:
388,300,36792,1,0,0:0:0:0:
311,252,36929,1,0,0:0:0:0:
304,244,37065,1,0,0:0:0:0:
223,191,37338,2,0,L|181:146,1,50
100,96,37610,1,0,0:0:0:0:
30,30,37883,1,0,0:0:0:0:
30,30,38156,6,0,L|43:86,1,50
141,75,38429,1,0,0:0:0:0:
238,78,38701,1,0,0:0:0:0:
337,78,38974,1,0,0:0:0:0:
455,94,39247,6,0,L|447:150,1,50
362,162,39520,1,0,0:0:0:0:
256,161,39792,1,0,0:0:0:0:
150,159,40065,1,0,0:0:0:0:
60,169,40338,6,0,L|52:241,1,50
227,226,40610,1,0,0:0:0:0:
333,220,41020,6,0,L|355:273,1,50
247,280,41292,1,0,0:0:0:0:
147,294,41565,2,0,L|174:342,1,50
271,345,41838,1,0,0:0:0:0:
369,328,42110,2,0,L|382:383,1,50
480,363,42383,1,0,0:0:0:0:
456,296,42656,6,0,L|430:191,1,100
406,98,43065,1,0,0:0:0:0:
318,101,43337,1,0,0:0:0:0:
235,98,43610,2,0,P|184:103|182:102,1,50
87,104,43883,1,0,0:0:0:0:
228,23,44156,1,0,0:0:0:0:
29,141,44429,5,0,0:0:0:0:
135,143,44701,1,0,0:0:0:0:
234,150,44973,2,0,L|288:155,1,50
384,156,45247,1,0,0:0:0:0:
234,150,45519,1,0,0:0:0:0:
136,207,45791,2,0,L|87:220,1,50
14,235,46065,5,0,0:0:0:0:
223,242,46338,1,0,0:0:0:0:
225,119,46610,1,0,0:0:0:0:
105,118,46883,1,0,0:0:0:0:
195,78,47156,6,0,L|231:128,1,50
273,196,47429,1,0,0:0:0:0:
269,46,47701,1,0,0:0:0:0:
418,37,47974,1,0,0:0:0:0:
428,186,48247,1,0,0:0:0:0:
316,85,48520,5,0,0:0:0:0:
287,162,48792,1,0,0:0:0:0:
188,181,49065,2,0,L|101:193,1,50
64,199,49338,2,0,L|52:124,1,50
178,127,49610,1,0,0:0:0:0:
56,285,49883,5,0,0:0:0:0:
195,230,50156,1,0,0:0:0:0:
327,160,50429,1,0,0:0:0:0:
461,93,50701,1,0,0:0:0:0:
311,86,50974,1,0,0:0:0:0:
232,214,51247,1,0,0:0:0:0:
97,147,51520,6,0,L|17:107,1,50
34,51,51792,1,0,0:0:0:0:
54,199,52065,1,0,0:0:0:0:
203,189,52338,2,0,L|199:257,1,50
193,313,52610,1,0,0:0:0:0:
111,174,52883,1,0,0:0:0:0:
111,174,53156,5,0,0:0:0:0:
129,75,53429,1,0,0:0:0:0:
277,57,53701,2,0,L|359:59,1,50
402,59,53974,1,0,0:0:0:0:
216,134,54247,1,0,0:0:0:0:
366,134,54520,2,0,L|364:189,1,50
353,258,54792,5,0,0:0:0:0:
252,146,55065,1,0,0:0:0:0:
259,295,55338,1,0,0:0:0:0:
109,294,55610,1,0,0:0:0:0:
31,224,55883,2,0,P|32:181|46:155,1,50
75,111,56155,1,0,0:0:0:0:
122,252,56429,5,0,0:0:0:0:
228,164,56701,1,0,0:0:0:0:
270,307,56974,2,0,L|308:269,1,50
358,217,57247,1,0,0:0:0:0:
361,367,57520,1,0,0:0:0:0:
273,245,57792,1,0,0:0:0:0:
172,176,58065,6,0,L|96:204,1,50
53,216,58338,1,0,0:0:0:0:
192,269,58610,1,0,0:0:0:0:
342,264,58883,2,0,L|359:207,1,50
375,143,59156,1,0,0:0:0:0:
250,227,59429,5,0,0:0:0:0:
172,123,59701,5,0,0:0:0:0:
172,123,59838,1,0,0:0:0:0:
172,123,59974,1,0,0:0:0:0:
172,123,60110,1,0,0:0:0:0:
97,182,60247,2,0,L|170:226,1,50
231,248,60520,1,0,0:0:0:0:
146,124,60792,5,0,0:0:0:0:
295,136,61065,2,0,L|298:199,1,50
303,260,61337,1,0,0:0:0:0:
221,133,61610,1,0,0:0:0:0:
132,254,61883,1,0,0:0:0:0:
262,179,62156,1,0,0:0:0:0:
400,121,62429,2,0,L|447:82,1,50
484,29,62701,1,0,0:0:0:0:
334,46,62974,5,0,0:0:0:0:
226,151,63247,2,0,L|163:100,1,50
127,73,63520,2,0,L|173:13,1,50
231,0,63792,1,0,0:0:0:0:
178,140,64065,1,0,0:0:0:0:
308,65,64338,1,0,0:0:0:0:
370,142,64610,6,0,L|328:170,1,50
263,207,64883,1,0,0:0:0:0:
395,277,65156,1,0,0:0:0:0:
246,251,65429,1,0,0:0:0:0:
191,334,65701,2,0,L|276:333,1,50
316,326,65974,1,0,0:0:0:0:
190,244,66246,5,0,0:0:0:0:
327,181,66520,1,0,0:0:0:0:
189,238,66792,2,0,L|119:250,1,50
64,254,67065,1,0,0:0:0:0:
176,155,67338,1,0,0:0:0:0:
253,217,67610,1,0,0:0:0:0:
332,278,67883,5,0,0:0:0:0:
424,316,68155,1,0,0:0:0:0:
473,228,68429,1,0,0:0:0:0:
390,176,68701,1,0,0:0:0:0:
309,235,68973,2,0,L|261:251,1,50
190,276,69247,1,0,0:0:0:0:
298,171,69520,5,0,0:0:0:0:
215,114,69792,2,0,L|262:98,1,50
328,62,70065,1,0,0:0:0:0:
222,169,70338,1,0,0:0:0:0:
139,240,70610,1,0,0:0:0:0:
168,335,70883,1,0,0:0:0:0:
246,272,71156,6,0,L|314:285,1,50
369,293,71429,1,0,0:0:0:0:
256,194,71701,1,0,0:0:0:0:
330,127,71974,2,0,L|354:105|408:99,1,50
446,103,72247,1,0,0:0:0:0:
344,213,72520,5,0,0:0:0:0:
199,251,72792,1,0,0:0:0:0:
190,101,73065,1,0,0:0:0:0:
113,165,73338,2,0,L|73:197,1,50
17,245,73610,1,0,0:0:0:0:
71,105,73883,1,0,0:0:0:0:
152,231,74156,5,0,0:0:0:0:
272,182,74429,2,0,L|208:130,1,50
175,103,74701,1,0,0:0:0:0:
245,235,74974,1,0,0:0:0:0:
265,86,75247,1,0,0:0:0:0:
259,185,75519,2,0,B|276:185|314:188|324:187,1,50
384,189,75792,5,0,0:0:0:0:
267,94,76065,1,0,0:0:0:0:
187,221,76338,1,0,0:0:0:0:
81,326,76610,1,0,0:0:0:0:
193,226,76883,1,0,0:0:0:0:
131,88,77156,1,0,0:0:0:0:
281,83,77429,5,0,0:0:0:0:
380,78,77701,2,0,L|376:144,1,50
368,202,77974,1,0,0:0:0:0:
222,240,78247,6,0,P|178:207|168:100,1,150
235,115,78792,2,0,L|311:111,1,50
358,97,79065,5,0,0:0:0:0:
233,180,79338,1,0,0:0:0:0:
332,182,79610,2,0,L|317:241,1,50
280,294,79883,1,0,0:0:0:0:
234,151,80156,1,0,0:0:0:0:
85,126,80429,2,0,P|123:82|215:63,1,150
256,192,80973,12,0,82882,0:0:0:0:
