osu file format v14

[General]
AudioFilename: audio.mp3
AudioLeadIn: 0
PreviewTime: 3110
Countdown: 0
SampleSet: Normal
StackLeniency: 0.7
Mode: 0
LetterboxInBreaks: 0
WidescreenStoryboard: 1

[Editor]
DistanceSpacing: 1
BeatDivisor: 4
GridSize: 16
TimelineZoom: 2.3

[Metadata]
Title:Youkoso JAPARI PARK e (Orgel Arrange)
TitleUnicode:ようこそジャパリパークへ (Orgel Arrange)
Artist:lent/ran
ArtistUnicode:lent/らん
Creator:outsideworld
Version:Normal Joontech
Source:けものフレンズ
Tags:Kemono Friends opening Doubutsu Biscuits x PPP どうぶつビスケッツ Welcome to 大石昌良 Ohishi Ooishi Masayoshi etc.
BeatmapID:1688018
BeatmapSetID:804167

[Difficulty]
HPDrainRate:8
CircleSize:4
OverallDifficulty:6
ApproachRate:8
SliderMultiplier:2
SliderTickRate:1

[Events]
//Background and Video events
0,0,"5bzZICX.jpg",0,0
//Break Periods
2,31537,32769
//Storyboard Layer 0 (Background)
//Storyboard Layer 1 (Fail)
//Storyboard Layer 2 (Pass)
//Storyboard Layer 3 (Foreground)
//Storyboard Sound Samples

[TimingPoints]
520,545.454545454546,4,1,0,5,1,0
40636,-111.111111111111,4,1,0,5,0,0
41181,-125,4,1,0,5,0,0
41727,-142.857142857143,4,1,0,5,0,0
42545,-100,4,1,0,5,0,0

[HitObjects]
121,137,3246,5,0,0:0:0:0:
134,150,3519,2,4,P|178:187|220:204,1,100
136,266,4065,2,0,P|181:285|232:287,1,100
380,266,4610,1,0,0:0:0:0:
356,117,4883,1,0,0:0:0:0:
213,69,5156,2,0,P|165:118|150:147,1,100
78,214,5701,1,0,0:0:0:0:
211,284,5974,1,0,0:0:0:0:
163,141,6247,2,0,P|218:120|288:84,1,100
390,162,6792,5,0,0:0:0:0:
255,102,7065,1,0,0:0:0:0:
331,230,7337,2,0,P|319:291|283:320,2,100
238,111,8156,2,0,P|166:98|119:117,1,100
128,204,8701,2,0,P|169:251|216:266,1,100
350,296,9246,1,0,0:0:0:0:
317,150,9519,1,0,0:0:0:0:
314,140,9656,1,0,0:0:0:0:
309,134,9792,2,0,P|272:89|206:65,2,100
158,134,10610,1,0,0:0:0:0:
108,244,10883,1,0,0:0:0:0:
247,189,11156,2,0,P|310:165|367:175,2,100
112,256,11974,5,0,0:0:0:0:
119,262,12110,1,0,0:0:0:0:
126,268,12247,2,0,P|188:301|248:305,1,100
356,251,12792,1,0,0:0:0:0:
361,242,12928,1,0,0:0:0:0:
364,232,13065,2,0,P|374:155|365:117,1,100
231,75,13610,1,0,0:0:0:0:
124,180,13883,1,0,0:0:0:0:
121,189,14019,1,0,0:0:0:0:
119,198,14156,2,0,P|144:256|196:286,2,100
217,83,14974,1,0,0:0:0:0:
174,291,15519,5,0,0:0:0:0:
128,202,15792,2,0,P|119:147|148:103,2,100
180,287,16610,1,0,0:0:0:0:
280,287,16883,2,0,P|344:261|378:216,1,100
335,92,17428,2,0,P|292:53|219:53,1,100
125,126,17974,1,0,0:0:0:0:
418,64,18519,1,0,0:0:0:0:
387,210,18792,1,0,0:0:0:0:
302,85,19065,1,0,0:0:0:0:
450,99,19337,1,0,0:0:0:0:
341,203,19610,1,0,0:0:0:0:
331,53,19883,2,0,P|255:49|195:61,2,100
250,179,20701,5,0,0:0:0:0:
165,232,20974,2,0,P|216:291|244:294,2,100
342,138,22065,1,0,0:0:0:0:
272,66,22337,1,0,0:0:0:0:
269,166,22610,2,0,P|236:241|223:249,1,100
359,101,23428,1,0,0:0:0:0:
262,127,23701,2,0,P|321:185|330:215,1,100
255,270,24246,1,0,0:0:0:0:
211,74,24792,5,0,0:0:0:0:
139,143,25065,1,0,0:0:0:0:
154,223,25337,2,0,P|169:297|193:349,2,100
245,182,26156,2,0,P|311:222|348:223,1,100
360,127,26701,2,0,P|306:69|264:59,1,100
263,159,27246,1,0,0:0:0:0:
188,99,28065,5,0,0:0:0:0:
159,139,28201,1,0,0:0:0:0:
150,188,28337,2,0,P|156:273|172:296,1,100
401,177,29156,1,0,0:0:0:0:
381,193,29428,2,0,P|310:223|272:227,2,100
225,110,30246,1,0,0:0:0:0:
158,35,30519,2,0,P|150:106|125:144,1,100
177,221,31065,2,0,P|248:197|273:191,1,100
233,116,33519,5,0,0:0:0:0:
262,211,33792,2,0,P|290:145|330:115,1,100
375,202,34337,2,0,P|352:258|311:279,1,100
223,246,34883,1,0,0:0:0:0:
123,259,35156,2,0,P|161:209|177:168,2,100
117,108,35974,5,0,0:0:0:0:
229,207,36246,1,0,0:0:0:0:
203,59,36519,1,0,0:0:0:0:
124,187,36792,1,0,0:0:0:0:
264,133,37065,1,0,0:0:0:0:
122,85,37337,1,0,0:0:0:0:
179,223,37610,2,0,P|242:219|291:227,2,100
277,109,38428,5,0,0:0:0:0:
156,243,38701,1,0,0:0:0:0:
196,67,38974,2,0,P|141:110|119:137,1,100
298,168,39519,1,0,0:0:0:0:
125,219,39792,1,0,0:0:0:0:
231,73,40065,1,0,0:0:0:0:
297,239,40337,2,0,P|324:171|320:128,1,100
145,112,40883,6,0,P|138:176|140:202,1,89.9999972534181
323,182,41428,6,0,B|330:236|320:271,1,80
160,196,41974,6,0,P|178:269|218:320,1,139.999995727539
200,153,42792,5,0,0:0:0:0:
205,161,42928,1,0,0:0:0:0:
211,168,43065,2,0,P|258:212|294:217,2,100
287,103,43883,1,0,0:0:0:0:
285,203,44156,1,0,0:0:0:0:
219,127,44428,2,0,P|150:153|136:181,1,100
160,271,44974,5,0,0:0:0:0:
165,279,45110,1,0,0:0:0:0:
171,286,45246,2,0,P|247:326|266:323,2,100
165,186,46065,1,0,0:0:0:0:
218,101,46337,1,0,0:0:0:0:
228,200,46610,2,0,P|263:156|314:137,1,100
327,236,47156,5,0,0:0:0:0:
322,245,47292,1,0,0:0:0:0:
317,254,47428,2,0,P|254:267|189:266,2,100
228,132,48246,1,0,0:0:0:0:
237,129,48383,1,0,0:0:0:0:
246,126,48519,2,0,P|336:109|363:121,2,100
141,233,49337,5,0,0:0:0:0:
149,238,49474,1,0,0:0:0:0:
156,244,49610,2,0,P|245:300|270:296,2,100
142,212,50701,1,0,0:0:0:0:
248,105,50974,1,0,0:0:0:0:
231,254,51246,1,0,0:0:0:0:
152,126,51519,5,0,0:0:0:0:
158,118,51656,1,0,0:0:0:0:
166,113,51792,2,0,P|232:79|264:88,2,100
239,244,52610,1,0,0:0:0:0:
204,97,52883,1,0,0:0:0:0:
149,236,53156,1,0,0:0:0:0:
272,151,53428,1,0,0:0:0:0:
125,118,53701,5,0,0:0:0:0:
130,109,53837,1,0,0:0:0:0:
138,103,53974,2,0,P|211:62|250:69,2,100
307,209,55065,1,0,0:0:0:0:
207,217,55337,2,0,P|152:232|113:263,1,100
112,157,55883,2,0,P|164:115|212:107,1,100
293,123,56428,1,0,0:0:0:0:
339,211,56701,2,0,P|289:253|226:273,2,100
269,139,57519,1,0,0:0:0:0:
211,57,57792,1,0,0:0:0:0:
211,157,58065,2,0,P|184:222|154:247,1,100
237,308,58610,1,0,0:0:0:0:
305,234,58883,2,0,P|339:167|336:135,2,100
183,146,59701,5,0,0:0:0:0:
167,165,59837,1,0,0:0:0:0:
156,187,59974,1,0,0:0:0:0:
146,209,60110,1,0,0:0:0:0:
139,233,60246,2,0,P|151:285|180:325,2,100
213,166,61065,2,0,P|238:117|300:72,1,100
289,235,61610,1,0,0:0:0:0:
192,120,61883,1,0,0:0:0:0:
219,267,62156,1,0,0:0:0:0:
291,136,62428,6,0,P|325:178|344:234,2,100
139,120,63247,2,0,P|108:196|94:243,1,100
245,231,63792,1,0,0:0:0:0:
165,103,64065,1,0,0:0:0:0:
166,252,64337,1,0,0:0:0:0:
245,124,64610,2,0,P|265:178|297:213,1,100
153,152,65156,2,0,P|161:226|171:258,1,100
318,251,65701,5,0,0:0:0:0:
327,247,65837,1,0,0:0:0:0:
334,240,65974,2,0,P|386:173|384:149,2,100
169,198,66792,1,0,0:0:0:0:
169,188,66928,1,0,0:0:0:0:
170,178,67065,2,0,P|208:112|233:101,2,100
307,117,67883,1,0,0:0:0:0:
221,240,68156,1,0,0:0:0:0:
234,90,68428,1,0,0:0:0:0:
332,203,68701,1,0,0:0:0:0:
185,171,68974,5,0,0:0:0:0:
178,163,69110,1,0,0:0:0:0:
169,157,69246,2,0,B|117:99|125:79|121:71,2,100
181,172,70065,1,0,0:0:0:0:
295,76,70337,1,0,0:0:0:0:
268,223,70610,1,0,0:0:0:0:
218,81,70883,1,0,0:0:0:0:
361,125,71156,1,0,0:0:0:0:
364,134,71292,1,0,0:0:0:0:
366,143,71428,2,0,P|377:197|353:255,2,100
226,85,72246,5,0,0:0:0:0:
152,152,72519,2,0,P|162:204|187:248,2,100
251,161,73337,1,0,0:0:0:0:
259,166,73474,1,0,0:0:0:0:
267,171,73610,2,0,P|322:199|368:193,1,100
225,267,74156,1,0,0:0:0:0:
215,263,74292,1,0,0:0:0:0:
207,256,74428,2,0,P|169:217|144:177,2,100
357,244,75246,1,0,0:0:0:0:
324,139,75519,1,0,0:0:0:0:
314,135,75656,1,0,0:0:0:0:
304,131,75792,2,0,P|238:115|184:123,2,100
221,187,76610,5,0,0:0:0:0:
221,187,76883,2,0,P|264:232|311:249,2,100
156,110,77701,1,0,0:0:0:0:
165,107,77837,1,0,0:0:0:0:
174,104,77974,2,0,P|261:91|305:103,1,100
333,171,78519,6,0,P|289:227|240:242,2,100
232,167,79337,1,0,0:0:0:0:
189,76,79610,1,0,0:0:0:0:
137,161,79883,1,0,0:0:0:0:
231,127,80156,2,0,P|312:103|369:118,2,100
256,192,80974,12,0,82883,0:0:0:0:
