osu file format v14

[General]
AudioFilename: audio.mp3
AudioLeadIn: 0
PreviewTime: 12799
Countdown: 0
SampleSet: Normal
StackLeniency: 0.7
Mode: 3
LetterboxInBreaks: 0
SpecialStyle: 0
WidescreenStoryboard: 1

[Editor]
DistanceSpacing: 2
BeatDivisor: 4
GridSize: 4
TimelineZoom: 1.2

[Metadata]
Title:Haunted (dive to the heart remix)
TitleUnicode:Haunted (ང།སཇ ཎ༳ ཎལཇ ལཇཅཁ༒ remix)
Artist:laura les
ArtistUnicode:laura les
Creator:Monheim
Version:Fangs
Source:
Tags:chordjack witch house hardstyle hyperpop euphoria civilization electronic english 100 gecs divetotheheart
BeatmapID:3440816
BeatmapSetID:1683972

[Difficulty]
HPDrainRate:8
CircleSize:4
OverallDifficulty:9
ApproachRate:5
SliderMultiplier:1.4
SliderTickRate:1

[Events]
//Background and Video events
0,0,"haunted.png",0,0
//Break Periods
//Storyboard Layer 0 (Background)
//Storyboard Layer 1 (Fail)
//Storyboard Layer 2 (Pass)
//Storyboard Layer 3 (Foreground)
//Storyboard Layer 4 (Overlay)
//Storyboard Sound Samples

[TimingPoints]
752,388.60103626943,4,1,1,80,1,0
13187,-100,4,1,1,70,0,1
24845,-100,4,1,1,60,0,0
25622,-100,4,1,1,70,0,1
37280,-100,4,1,1,50,0,0
50492,-100,4,1,1,55,0,0
62928,-100,4,1,1,80,0,0
75363,-100,4,1,1,70,0,1
87021,-100,4,1,1,60,0,0
87798,-100,4,1,1,70,0,1
99456,-100,4,1,1,60,0,0

[HitObjects]
320,192,752,5,0,0:0:0:0:
192,192,752,1,0,0:0:0:0:
64,192,752,1,0,0:0:0:0:
64,192,946,1,0,0:0:0:0:
448,192,1140,1,0,0:0:0:0:
64,192,1334,1,0,0:0:0:0:
320,192,1529,1,0,0:0:0:0:
64,192,1723,1,0,0:0:0:0:
320,192,1917,1,0,0:0:0:0:
448,192,2112,1,0,0:0:0:0:
64,192,2306,1,0,0:0:0:0:
192,192,2500,1,0,0:0:0:0:
320,192,2695,1,0,0:0:0:0:
448,192,2889,1,0,0:0:0:0:
64,192,3083,1,0,0:0:0:0:
320,192,3277,1,0,0:0:0:0:
64,192,3472,1,0,0:0:0:0:
192,192,3666,1,0,0:0:0:0:
320,192,3860,1,0,0:0:0:0:
64,192,4055,1,0,0:0:0:0:
448,192,4249,1,0,0:0:0:0:
64,192,4443,1,0,0:0:0:0:
320,192,4638,1,0,0:0:0:0:
64,192,4832,1,0,0:0:0:0:
320,192,5026,1,0,0:0:0:0:
448,192,5220,1,0,0:0:0:0:
64,192,5415,1,0,0:0:0:0:
192,192,5609,1,0,0:0:0:0:
320,192,5803,1,0,0:0:0:0:
192,192,5998,1,0,0:0:0:0:
64,192,6192,1,0,0:0:0:0:
320,192,6386,1,0,0:0:0:0:
192,192,6581,1,0,0:0:0:0:
64,192,6775,1,0,0:0:0:0:
192,192,6969,1,0,0:0:0:0:
320,192,6969,1,0,0:0:0:0:
64,192,7163,1,0,0:0:0:0:
192,192,7358,1,0,0:0:0:0:
448,192,7358,1,0,0:0:0:0:
64,192,7552,1,0,0:0:0:0:
192,192,7746,1,0,0:0:0:0:
320,192,7746,1,0,0:0:0:0:
64,192,7941,1,0,0:0:0:0:
320,192,8135,1,0,0:0:0:0:
192,192,8135,1,0,0:0:0:0:
448,192,8329,1,0,0:0:0:0:
320,192,8524,1,0,0:0:0:0:
64,192,8524,1,0,0:0:0:0:
192,192,8718,1,0,0:0:0:0:
64,192,8912,1,0,0:0:0:0:
320,192,8912,1,0,0:0:0:0:
448,192,9106,1,0,0:0:0:0:
320,192,9301,1,0,0:0:0:0:
64,192,9301,1,0,0:0:0:0:
192,192,9495,1,0,0:0:0:0:
448,192,9689,1,0,0:0:0:0:
64,192,9689,1,0,0:0:0:0:
192,192,9884,1,0,0:0:0:0:
64,192,10078,1,0,0:0:0:0:
320,192,10078,1,0,0:0:0:0:
64,192,10272,1,0,0:0:0:0:
192,192,10272,1,0,0:0:0:0:
448,192,10467,1,0,0:0:0:0:
192,192,10467,1,0,0:0:0:0:
64,192,10661,1,0,0:0:0:0:
192,192,10661,1,0,0:0:0:0:
320,192,10855,1,0,0:0:0:0:
192,192,10855,1,0,0:0:0:0:
64,192,11049,1,0,0:0:0:0:
192,192,11049,1,0,0:0:0:0:
320,192,11244,1,0,0:0:0:0:
192,192,11244,1,0,0:0:0:0:
448,192,11438,1,0,0:0:0:0:
320,192,11438,1,0,0:0:0:0:
192,192,11632,1,0,0:0:0:0:
64,192,11632,1,0,0:0:0:0:
64,192,11729,1,0,0:0:0:0:
192,192,11729,1,0,0:0:0:0:
448,192,11827,1,0,0:0:0:0:
192,192,11827,1,0,0:0:0:0:
448,192,11924,1,0,0:0:0:0:
192,192,11924,1,0,0:0:0:0:
448,192,12021,1,0,0:0:0:0:
320,192,12021,1,0,0:0:0:0:
448,192,12118,1,0,0:0:0:0:
320,192,12118,1,0,0:0:0:0:
64,192,12215,1,0,0:0:0:0:
320,192,12215,1,0,0:0:0:0:
320,192,12312,1,0,0:0:0:0:
64,192,12312,1,0,0:0:0:0:
192,192,12410,1,0,0:0:0:0:
64,192,12798,5,0,0:0:0:0:
192,192,12798,1,0,0:0:0:0:
64,192,12895,1,0,0:0:0:0:
320,192,12992,1,0,0:0:0:0:
192,192,12992,1,0,0:0:0:0:
320,192,13090,1,0,0:0:0:0:
64,192,13187,5,0,0:0:0:0:
320,192,13187,1,0,0:0:0:0:
448,192,13187,1,0,0:0:0:0:
192,192,13187,1,0,0:0:0:0:
448,192,13284,1,0,0:0:0:0:
192,192,13284,1,0,0:0:0:0:
192,192,13381,1,0,0:0:0:0:
320,192,13381,1,0,0:0:0:0:
448,192,13478,1,0,0:0:0:0:
64,192,13478,1,0,0:0:0:0:
320,192,13575,1,0,0:0:0:0:
448,192,13575,1,0,0:0:0:0:
64,192,13575,1,0,0:0:0:0:
192,192,13575,1,0,0:0:0:0:
64,192,13672,1,0,0:0:0:0:
320,192,13672,1,0,0:0:0:0:
320,192,13770,1,0,0:0:0:0:
192,192,13770,1,0,0:0:0:0:
64,192,13867,1,0,0:0:0:0:
448,192,13867,1,0,0:0:0:0:
192,192,13964,1,0,0:0:0:0:
64,192,13964,1,0,0:0:0:0:
448,192,13964,1,0,0:0:0:0:
320,192,13964,1,0,0:0:0:0:
192,192,14061,1,0,0:0:0:0:
320,192,14061,1,0,0:0:0:0:
448,192,14158,1,0,0:0:0:0:
64,192,14158,1,0,0:0:0:0:
320,192,14255,1,0,0:0:0:0:
64,192,14255,1,0,0:0:0:0:
192,192,14353,1,0,0:0:0:0:
64,192,14353,1,0,0:0:0:0:
448,192,14353,1,0,0:0:0:0:
320,192,14353,1,0,0:0:0:0:
320,192,14450,1,0,0:0:0:0:
192,192,14450,1,0,0:0:0:0:
448,192,14547,1,0,0:0:0:0:
64,192,14547,1,0,0:0:0:0:
192,192,14644,1,0,0:0:0:0:
448,192,14644,1,0,0:0:0:0:
64,192,14741,1,0,0:0:0:0:
192,192,14741,1,0,0:0:0:0:
320,192,14741,1,0,0:0:0:0:
448,192,14741,1,0,0:0:0:0:
192,192,14838,1,0,0:0:0:0:
64,192,14838,1,0,0:0:0:0:
320,192,14838,1,0,0:0:0:0:
320,192,14935,1,0,0:0:0:0:
192,192,14935,1,0,0:0:0:0:
64,192,14935,1,0,0:0:0:0:
64,192,15033,1,0,0:0:0:0:
448,192,15033,1,0,0:0:0:0:
64,192,15130,1,0,0:0:0:0:
192,192,15130,1,0,0:0:0:0:
320,192,15130,1,0,0:0:0:0:
448,192,15130,1,0,0:0:0:0:
448,192,15227,1,0,0:0:0:0:
320,192,15227,1,0,0:0:0:0:
192,192,15227,1,0,0:0:0:0:
448,192,15324,1,0,0:0:0:0:
192,192,15324,1,0,0:0:0:0:
320,192,15324,1,0,0:0:0:0:
320,192,15421,1,0,0:0:0:0:
64,192,15421,1,0,0:0:0:0:
448,192,15518,1,0,0:0:0:0:
320,192,15518,1,0,0:0:0:0:
192,192,15518,1,0,0:0:0:0:
64,192,15518,1,0,0:0:0:0:
448,192,15615,1,0,0:0:0:0:
64,192,15615,1,0,0:0:0:0:
192,192,15615,1,0,0:0:0:0:
192,192,15713,1,0,0:0:0:0:
64,192,15713,1,0,0:0:0:0:
448,192,15713,1,0,0:0:0:0:
192,192,15810,1,0,0:0:0:0:
320,192,15810,1,0,0:0:0:0:
448,192,15907,1,0,0:0:0:0:
320,192,15907,1,0,0:0:0:0:
192,192,15907,1,0,0:0:0:0:
64,192,15907,1,0,0:0:0:0:
64,192,16004,1,0,0:0:0:0:
448,192,16004,1,0,0:0:0:0:
320,192,16004,1,0,0:0:0:0:
64,192,16101,1,0,0:0:0:0:
320,192,16101,1,0,0:0:0:0:
448,192,16101,1,0,0:0:0:0:
448,192,16198,1,0,0:0:0:0:
192,192,16198,1,0,0:0:0:0:
448,192,16296,5,0,0:0:0:0:
64,192,16296,1,0,0:0:0:0:
320,192,16296,1,0,0:0:0:0:
192,192,16296,1,0,0:0:0:0:
320,192,16393,1,0,0:0:0:0:
64,192,16393,1,0,0:0:0:0:
192,192,16490,1,0,0:0:0:0:
320,192,16490,1,0,0:0:0:0:
448,192,16587,1,0,0:0:0:0:
64,192,16587,1,0,0:0:0:0:
448,192,16684,1,0,0:0:0:0:
320,192,16684,1,0,0:0:0:0:
192,192,16684,1,0,0:0:0:0:
64,192,16684,1,0,0:0:0:0:
192,192,16781,1,0,0:0:0:0:
448,192,16781,1,0,0:0:0:0:
320,192,16878,1,0,0:0:0:0:
192,192,16878,1,0,0:0:0:0:
64,192,16976,1,0,0:0:0:0:
448,192,16976,1,0,0:0:0:0:
64,192,17073,1,0,0:0:0:0:
192,192,17073,1,0,0:0:0:0:
320,192,17073,1,0,0:0:0:0:
448,192,17073,1,0,0:0:0:0:
192,192,17170,1,0,0:0:0:0:
320,192,17170,1,0,0:0:0:0:
448,192,17267,1,0,0:0:0:0:
64,192,17267,1,0,0:0:0:0:
448,192,17364,1,0,0:0:0:0:
192,192,17364,1,0,0:0:0:0:
64,192,17461,1,0,0:0:0:0:
192,192,17461,1,0,0:0:0:0:
320,192,17461,1,0,0:0:0:0:
448,192,17461,1,0,0:0:0:0:
320,192,17558,1,0,0:0:0:0:
192,192,17558,1,0,0:0:0:0:
448,192,17656,1,0,0:0:0:0:
64,192,17656,1,0,0:0:0:0:
64,192,17753,1,0,0:0:0:0:
320,192,17753,1,0,0:0:0:0:
192,192,17850,1,0,0:0:0:0:
64,192,17850,1,0,0:0:0:0:
448,192,17850,1,0,0:0:0:0:
320,192,17850,1,0,0:0:0:0:
192,192,17947,1,0,0:0:0:0:
448,192,17947,1,0,0:0:0:0:
320,192,17947,1,0,0:0:0:0:
448,192,18044,1,0,0:0:0:0:
320,192,18044,1,0,0:0:0:0:
192,192,18044,1,0,0:0:0:0:
448,192,18141,1,0,0:0:0:0:
64,192,18141,1,0,0:0:0:0:
192,192,18239,1,0,0:0:0:0:
64,192,18239,1,0,0:0:0:0:
448,192,18239,1,0,0:0:0:0:
320,192,18239,1,0,0:0:0:0:
320,192,18336,1,0,0:0:0:0:
192,192,18336,1,0,0:0:0:0:
64,192,18336,1,0,0:0:0:0:
192,192,18433,1,0,0:0:0:0:
320,192,18433,1,0,0:0:0:0:
64,192,18433,1,0,0:0:0:0:
192,192,18530,1,0,0:0:0:0:
448,192,18530,1,0,0:0:0:0:
320,192,18627,1,0,0:0:0:0:
448,192,18627,1,0,0:0:0:0:
64,192,18627,1,0,0:0:0:0:
192,192,18627,1,0,0:0:0:0:
320,192,18724,1,0,0:0:0:0:
448,192,18724,1,0,0:0:0:0:
64,192,18724,1,0,0:0:0:0:
64,192,18821,1,0,0:0:0:0:
448,192,18821,1,0,0:0:0:0:
320,192,18821,1,0,0:0:0:0:
320,192,18919,1,0,0:0:0:0:
192,192,18919,1,0,0:0:0:0:
320,192,19016,1,0,0:0:0:0:
448,192,19016,1,0,0:0:0:0:
64,192,19016,1,0,0:0:0:0:
192,192,19016,1,0,0:0:0:0:
192,192,19113,1,0,0:0:0:0:
64,192,19113,1,0,0:0:0:0:
448,192,19113,1,0,0:0:0:0:
64,192,19210,1,0,0:0:0:0:
192,192,19210,1,0,0:0:0:0:
448,192,19210,1,0,0:0:0:0:
448,192,19307,1,0,0:0:0:0:
320,192,19307,1,0,0:0:0:0:
448,192,19404,5,0,0:0:0:0:
64,192,19404,1,0,0:0:0:0:
320,192,19404,1,0,0:0:0:0:
192,192,19404,1,0,0:0:0:0:
64,192,19501,1,0,0:0:0:0:
192,192,19501,1,0,0:0:0:0:
64,192,19599,1,0,0:0:0:0:
320,192,19599,1,0,0:0:0:0:
448,192,19696,1,0,0:0:0:0:
192,192,19696,1,0,0:0:0:0:
64,192,19793,1,0,0:0:0:0:
320,192,19793,1,0,0:0:0:0:
448,192,19793,1,0,0:0:0:0:
192,192,19793,1,0,0:0:0:0:
448,192,19890,1,0,0:0:0:0:
320,192,19890,1,0,0:0:0:0:
448,192,19987,1,0,0:0:0:0:
192,192,19987,1,0,0:0:0:0:
192,192,20084,1,0,0:0:0:0:
320,192,20084,1,0,0:0:0:0:
64,192,20182,1,0,0:0:0:0:
320,192,20182,1,0,0:0:0:0:
448,192,20182,1,0,0:0:0:0:
192,192,20182,1,0,0:0:0:0:
64,192,20279,1,0,0:0:0:0:
192,192,20279,1,0,0:0:0:0:
64,192,20376,1,0,0:0:0:0:
320,192,20376,1,0,0:0:0:0:
448,192,20473,1,0,0:0:0:0:
192,192,20473,1,0,0:0:0:0:
192,192,20570,1,0,0:0:0:0:
64,192,20570,1,0,0:0:0:0:
448,192,20570,1,0,0:0:0:0:
320,192,20570,1,0,0:0:0:0:
448,192,20667,1,0,0:0:0:0:
320,192,20667,1,0,0:0:0:0:
448,192,20764,1,0,0:0:0:0:
192,192,20764,1,0,0:0:0:0:
192,192,20862,1,0,0:0:0:0:
320,192,20862,1,0,0:0:0:0:
64,192,20959,1,0,0:0:0:0:
192,192,20959,1,0,0:0:0:0:
320,192,20959,1,0,0:0:0:0:
448,192,20959,1,0,0:0:0:0:
192,192,21056,1,0,0:0:0:0:
64,192,21056,1,0,0:0:0:0:
320,192,21056,1,0,0:0:0:0:
320,192,21153,1,0,0:0:0:0:
192,192,21153,1,0,0:0:0:0:
64,192,21153,1,0,0:0:0:0:
448,192,21250,1,0,0:0:0:0:
64,192,21250,1,0,0:0:0:0:
64,192,21347,1,0,0:0:0:0:
192,192,21347,1,0,0:0:0:0:
320,192,21347,1,0,0:0:0:0:
448,192,21347,1,0,0:0:0:0:
448,192,21445,1,0,0:0:0:0:
320,192,21445,1,0,0:0:0:0:
192,192,21445,1,0,0:0:0:0:
448,192,21542,1,0,0:0:0:0:
192,192,21542,1,0,0:0:0:0:
320,192,21542,1,0,0:0:0:0:
320,192,21639,1,0,0:0:0:0:
64,192,21639,1,0,0:0:0:0:
448,192,21736,1,0,0:0:0:0:
320,192,21736,1,0,0:0:0:0:
192,192,21736,1,0,0:0:0:0:
64,192,21736,1,0,0:0:0:0:
448,192,21833,1,0,0:0:0:0:
64,192,21833,1,0,0:0:0:0:
192,192,21833,1,0,0:0:0:0:
192,192,21930,1,0,0:0:0:0:
64,192,21930,1,0,0:0:0:0:
448,192,21930,1,0,0:0:0:0:
320,192,22027,1,0,0:0:0:0:
192,192,22027,1,0,0:0:0:0:
448,192,22125,1,0,0:0:0:0:
320,192,22125,1,0,0:0:0:0:
192,192,22125,1,0,0:0:0:0:
64,192,22125,1,0,0:0:0:0:
64,192,22222,1,0,0:0:0:0:
448,192,22222,1,0,0:0:0:0:
320,192,22222,1,0,0:0:0:0:
64,192,22319,1,0,0:0:0:0:
320,192,22319,1,0,0:0:0:0:
448,192,22319,1,0,0:0:0:0:
64,192,22416,1,0,0:0:0:0:
192,192,22416,1,0,0:0:0:0:
64,192,22513,5,0,0:0:0:0:
320,192,22513,1,0,0:0:0:0:
192,192,22513,1,0,0:0:0:0:
448,192,22513,1,0,0:0:0:0:
448,192,22610,1,0,0:0:0:0:
320,192,22610,1,0,0:0:0:0:
448,192,22707,1,0,0:0:0:0:
192,192,22707,1,0,0:0:0:0:
64,192,22805,1,0,0:0:0:0:
320,192,22805,1,0,0:0:0:0:
448,192,22902,1,0,0:0:0:0:
192,192,22902,1,0,0:0:0:0:
64,192,22902,1,0,0:0:0:0:
320,192,22902,1,0,0:0:0:0:
64,192,22999,1,0,0:0:0:0:
192,192,22999,1,0,0:0:0:0:
64,192,23096,1,0,0:0:0:0:
320,192,23096,1,0,0:0:0:0:
320,192,23193,1,0,0:0:0:0:
192,192,23193,1,0,0:0:0:0:
448,192,23290,1,0,0:0:0:0:
192,192,23290,1,0,0:0:0:0:
64,192,23290,1,0,0:0:0:0:
320,192,23290,1,0,0:0:0:0:
448,192,23388,1,0,0:0:0:0:
320,192,23388,1,0,0:0:0:0:
448,192,23485,1,0,0:0:0:0:
192,192,23485,1,0,0:0:0:0:
64,192,23582,1,0,0:0:0:0:
320,192,23582,1,0,0:0:0:0:
320,192,23679,1,0,0:0:0:0:
448,192,23679,1,0,0:0:0:0:
64,192,23679,1,0,0:0:0:0:
192,192,23679,1,0,0:0:0:0:
64,192,23776,1,0,0:0:0:0:
192,192,23776,1,0,0:0:0:0:
64,192,23873,1,0,0:0:0:0:
320,192,23873,1,0,0:0:0:0:
320,192,23970,1,0,0:0:0:0:
192,192,23970,1,0,0:0:0:0:
448,192,24068,1,0,0:0:0:0:
320,192,24068,1,0,0:0:0:0:
192,192,24068,1,0,0:0:0:0:
64,192,24068,1,0,0:0:0:0:
320,192,24165,1,0,0:0:0:0:
448,192,24165,1,0,0:0:0:0:
192,192,24165,1,0,0:0:0:0:
192,192,24262,1,0,0:0:0:0:
320,192,24262,1,0,0:0:0:0:
448,192,24262,1,0,0:0:0:0:
64,192,24359,1,0,0:0:0:0:
448,192,24359,1,0,0:0:0:0:
448,192,24456,1,0,0:0:0:0:
320,192,24456,1,0,0:0:0:0:
192,192,24456,1,0,0:0:0:0:
64,192,24456,1,0,0:0:0:0:
64,192,24553,1,0,0:0:0:0:
192,192,24553,1,0,0:0:0:0:
320,192,24553,1,0,0:0:0:0:
64,192,24650,1,0,0:0:0:0:
320,192,24650,1,0,0:0:0:0:
192,192,24650,1,0,0:0:0:0:
448,192,24748,1,0,0:0:0:0:
64,192,24748,1,0,0:0:0:0:
320,192,24845,1,0,0:0:0:0:
64,192,25039,1,0,0:0:0:0:
64,192,25233,1,0,0:0:0:0:
192,192,25233,1,0,0:0:0:0:
64,192,25331,1,0,0:0:0:0:
320,192,25428,1,0,0:0:0:0:
192,192,25428,1,0,0:0:0:0:
320,192,25525,1,0,0:0:0:0:
64,192,25622,5,0,0:0:0:0:
448,192,25622,1,0,0:0:0:0:
192,192,25622,1,0,0:0:0:0:
320,192,25622,1,0,0:0:0:0:
192,192,25719,1,0,0:0:0:0:
448,192,25719,1,0,0:0:0:0:
320,192,25816,1,0,0:0:0:0:
192,192,25816,1,0,0:0:0:0:
64,192,25816,1,0,0:0:0:0:
64,192,25913,1,0,0:0:0:0:
448,192,25913,1,0,0:0:0:0:
64,192,26011,1,0,0:0:0:0:
192,192,26011,1,0,0:0:0:0:
320,192,26011,1,0,0:0:0:0:
448,192,26011,1,0,0:0:0:0:
320,192,26108,1,0,0:0:0:0:
64,192,26108,1,0,0:0:0:0:
192,192,26205,1,0,0:0:0:0:
320,192,26205,1,0,0:0:0:0:
448,192,26205,1,0,0:0:0:0:
448,192,26302,1,0,0:0:0:0:
64,192,26302,1,0,0:0:0:0:
448,192,26399,1,0,0:0:0:0:
320,192,26399,1,0,0:0:0:0:
192,192,26399,1,0,0:0:0:0:
64,192,26399,1,0,0:0:0:0:
320,192,26496,1,0,0:0:0:0:
192,192,26496,1,0,0:0:0:0:
192,192,26593,1,0,0:0:0:0:
64,192,26593,1,0,0:0:0:0:
448,192,26593,1,0,0:0:0:0:
64,192,26691,1,0,0:0:0:0:
320,192,26691,1,0,0:0:0:0:
448,192,26788,1,0,0:0:0:0:
320,192,26788,1,0,0:0:0:0:
192,192,26788,1,0,0:0:0:0:
64,192,26788,1,0,0:0:0:0:
192,192,26885,1,0,0:0:0:0:
320,192,26885,1,0,0:0:0:0:
64,192,26982,1,0,0:0:0:0:
320,192,26982,1,0,0:0:0:0:
448,192,26982,1,0,0:0:0:0:
448,192,27079,1,0,0:0:0:0:
192,192,27079,1,0,0:0:0:0:
320,192,27176,1,0,0:0:0:0:
448,192,27176,1,0,0:0:0:0:
64,192,27176,1,0,0:0:0:0:
192,192,27176,1,0,0:0:0:0:
320,192,27274,1,0,0:0:0:0:
64,192,27274,1,0,0:0:0:0:
192,192,27274,1,0,0:0:0:0:
64,192,27371,1,0,0:0:0:0:
192,192,27371,1,0,0:0:0:0:
320,192,27371,1,0,0:0:0:0:
64,192,27468,1,0,0:0:0:0:
448,192,27468,1,0,0:0:0:0:
320,192,27565,1,0,0:0:0:0:
448,192,27565,1,0,0:0:0:0:
64,192,27565,1,0,0:0:0:0:
192,192,27565,1,0,0:0:0:0:
192,192,27662,1,0,0:0:0:0:
320,192,27662,1,0,0:0:0:0:
448,192,27662,1,0,0:0:0:0:
320,192,27759,1,0,0:0:0:0:
192,192,27759,1,0,0:0:0:0:
448,192,27759,1,0,0:0:0:0:
320,192,27856,1,0,0:0:0:0:
64,192,27856,1,0,0:0:0:0:
192,192,27954,1,0,0:0:0:0:
64,192,27954,1,0,0:0:0:0:
448,192,27954,1,0,0:0:0:0:
320,192,27954,1,0,0:0:0:0:
192,192,28051,1,0,0:0:0:0:
64,192,28051,1,0,0:0:0:0:
448,192,28051,1,0,0:0:0:0:
448,192,28148,1,0,0:0:0:0:
64,192,28148,1,0,0:0:0:0:
192,192,28148,1,0,0:0:0:0:
192,192,28245,1,0,0:0:0:0:
320,192,28245,1,0,0:0:0:0:
192,192,28342,1,0,0:0:0:0:
64,192,28342,1,0,0:0:0:0:
448,192,28342,1,0,0:0:0:0:
320,192,28342,1,0,0:0:0:0:
320,192,28439,1,0,0:0:0:0:
448,192,28439,1,0,0:0:0:0:
64,192,28439,1,0,0:0:0:0:
448,192,28536,1,0,0:0:0:0:
320,192,28536,1,0,0:0:0:0:
64,192,28536,1,0,0:0:0:0:
448,192,28634,1,0,0:0:0:0:
192,192,28634,1,0,0:0:0:0:
448,192,28731,5,0,0:0:0:0:
320,192,28731,1,0,0:0:0:0:
192,192,28731,1,0,0:0:0:0:
64,192,28731,1,0,0:0:0:0:
64,192,28828,1,0,0:0:0:0:
320,192,28828,1,0,0:0:0:0:
448,192,28925,1,0,0:0:0:0:
320,192,28925,1,0,0:0:0:0:
192,192,28925,1,0,0:0:0:0:
64,192,29022,1,0,0:0:0:0:
448,192,29022,1,0,0:0:0:0:
192,192,29119,1,0,0:0:0:0:
64,192,29119,1,0,0:0:0:0:
448,192,29119,1,0,0:0:0:0:
320,192,29119,1,0,0:0:0:0:
448,192,29217,1,0,0:0:0:0:
192,192,29217,1,0,0:0:0:0:
64,192,29314,1,0,0:0:0:0:
192,192,29314,1,0,0:0:0:0:
320,192,29314,1,0,0:0:0:0:
448,192,29411,1,0,0:0:0:0:
64,192,29411,1,0,0:0:0:0:
320,192,29508,1,0,0:0:0:0:
448,192,29508,1,0,0:0:0:0:
64,192,29508,1,0,0:0:0:0:
192,192,29508,1,0,0:0:0:0:
320,192,29605,1,0,0:0:0:0:
192,192,29605,1,0,0:0:0:0:
64,192,29702,1,0,0:0:0:0:
448,192,29702,1,0,0:0:0:0:
320,192,29702,1,0,0:0:0:0:
192,192,29799,1,0,0:0:0:0:
448,192,29799,1,0,0:0:0:0:
320,192,29897,1,0,0:0:0:0:
448,192,29897,1,0,0:0:0:0:
64,192,29897,1,0,0:0:0:0:
192,192,29897,1,0,0:0:0:0:
192,192,29994,1,0,0:0:0:0:
320,192,29994,1,0,0:0:0:0:
64,192,30091,1,0,0:0:0:0:
192,192,30091,1,0,0:0:0:0:
448,192,30091,1,0,0:0:0:0:
320,192,30188,1,0,0:0:0:0:
64,192,30188,1,0,0:0:0:0:
448,192,30285,1,0,0:0:0:0:
320,192,30285,1,0,0:0:0:0:
192,192,30285,1,0,0:0:0:0:
64,192,30285,1,0,0:0:0:0:
320,192,30382,1,0,0:0:0:0:
448,192,30382,1,0,0:0:0:0:
192,192,30382,1,0,0:0:0:0:
192,192,30479,1,0,0:0:0:0:
320,192,30479,1,0,0:0:0:0:
448,192,30479,1,0,0:0:0:0:
64,192,30577,1,0,0:0:0:0:
448,192,30577,1,0,0:0:0:0:
448,192,30674,1,0,0:0:0:0:
320,192,30674,1,0,0:0:0:0:
192,192,30674,1,0,0:0:0:0:
64,192,30674,1,0,0:0:0:0:
64,192,30771,1,0,0:0:0:0:
192,192,30771,1,0,0:0:0:0:
320,192,30771,1,0,0:0:0:0:
64,192,30868,1,0,0:0:0:0:
320,192,30868,1,0,0:0:0:0:
192,192,30868,1,0,0:0:0:0:
192,192,30965,1,0,0:0:0:0:
448,192,30965,1,0,0:0:0:0:
64,192,31062,1,0,0:0:0:0:
192,192,31062,1,0,0:0:0:0:
320,192,31062,1,0,0:0:0:0:
448,192,31062,1,0,0:0:0:0:
64,192,31160,1,0,0:0:0:0:
448,192,31160,1,0,0:0:0:0:
320,192,31160,1,0,0:0:0:0:
320,192,31257,1,0,0:0:0:0:
448,192,31257,1,0,0:0:0:0:
64,192,31257,1,0,0:0:0:0:
192,192,31354,1,0,0:0:0:0:
320,192,31354,1,0,0:0:0:0:
64,192,31451,1,0,0:0:0:0:
192,192,31451,1,0,0:0:0:0:
320,192,31451,1,0,0:0:0:0:
448,192,31451,1,0,0:0:0:0:
448,192,31548,1,0,0:0:0:0:
64,192,31548,1,0,0:0:0:0:
192,192,31548,1,0,0:0:0:0:
448,192,31645,1,0,0:0:0:0:
192,192,31645,1,0,0:0:0:0:
64,192,31645,1,0,0:0:0:0:
448,192,31742,1,0,0:0:0:0:
320,192,31742,1,0,0:0:0:0:
448,192,31840,5,0,0:0:0:0:
320,192,31840,1,0,0:0:0:0:
192,192,31840,1,0,0:0:0:0:
64,192,31840,1,0,0:0:0:0:
192,192,31937,1,0,0:0:0:0:
64,192,31937,1,0,0:0:0:0:
320,192,32034,1,0,0:0:0:0:
448,192,32034,1,0,0:0:0:0:
64,192,32034,1,0,0:0:0:0:
192,192,32131,1,0,0:0:0:0:
448,192,32131,1,0,0:0:0:0:
448,192,32228,1,0,0:0:0:0:
192,192,32228,1,0,0:0:0:0:
64,192,32228,1,0,0:0:0:0:
320,192,32228,1,0,0:0:0:0:
320,192,32325,1,0,0:0:0:0:
448,192,32325,1,0,0:0:0:0:
192,192,32422,1,0,0:0:0:0:
64,192,32422,1,0,0:0:0:0:
448,192,32422,1,0,0:0:0:0:
320,192,32520,1,0,0:0:0:0:
192,192,32520,1,0,0:0:0:0:
448,192,32617,1,0,0:0:0:0:
192,192,32617,1,0,0:0:0:0:
64,192,32617,1,0,0:0:0:0:
320,192,32617,1,0,0:0:0:0:
192,192,32714,1,0,0:0:0:0:
64,192,32714,1,0,0:0:0:0:
320,192,32811,1,0,0:0:0:0:
448,192,32811,1,0,0:0:0:0:
64,192,32811,1,0,0:0:0:0:
192,192,32908,1,0,0:0:0:0:
448,192,32908,1,0,0:0:0:0:
448,192,33005,1,0,0:0:0:0:
320,192,33005,1,0,0:0:0:0:
192,192,33005,1,0,0:0:0:0:
64,192,33005,1,0,0:0:0:0:
320,192,33103,1,0,0:0:0:0:
448,192,33103,1,0,0:0:0:0:
192,192,33200,1,0,0:0:0:0:
64,192,33200,1,0,0:0:0:0:
448,192,33200,1,0,0:0:0:0:
320,192,33297,1,0,0:0:0:0:
192,192,33297,1,0,0:0:0:0:
320,192,33394,1,0,0:0:0:0:
448,192,33394,1,0,0:0:0:0:
64,192,33394,1,0,0:0:0:0:
192,192,33394,1,0,0:0:0:0:
320,192,33491,1,0,0:0:0:0:
64,192,33491,1,0,0:0:0:0:
192,192,33491,1,0,0:0:0:0:
64,192,33588,1,0,0:0:0:0:
192,192,33588,1,0,0:0:0:0:
320,192,33588,1,0,0:0:0:0:
64,192,33685,1,0,0:0:0:0:
448,192,33685,1,0,0:0:0:0:
320,192,33783,1,0,0:0:0:0:
448,192,33783,1,0,0:0:0:0:
64,192,33783,1,0,0:0:0:0:
192,192,33783,1,0,0:0:0:0:
192,192,33880,1,0,0:0:0:0:
320,192,33880,1,0,0:0:0:0:
448,192,33880,1,0,0:0:0:0:
320,192,33977,1,0,0:0:0:0:
192,192,33977,1,0,0:0:0:0:
448,192,33977,1,0,0:0:0:0:
320,192,34074,1,0,0:0:0:0:
64,192,34074,1,0,0:0:0:0:
192,192,34171,1,0,0:0:0:0:
64,192,34171,1,0,0:0:0:0:
448,192,34171,1,0,0:0:0:0:
320,192,34171,1,0,0:0:0:0:
192,192,34268,1,0,0:0:0:0:
64,192,34268,1,0,0:0:0:0:
448,192,34268,1,0,0:0:0:0:
448,192,34365,1,0,0:0:0:0:
64,192,34365,1,0,0:0:0:0:
192,192,34365,1,0,0:0:0:0:
192,192,34463,1,0,0:0:0:0:
320,192,34463,1,0,0:0:0:0:
192,192,34560,1,0,0:0:0:0:
64,192,34560,1,0,0:0:0:0:
448,192,34560,1,0,0:0:0:0:
320,192,34560,1,0,0:0:0:0:
320,192,34657,1,0,0:0:0:0:
448,192,34657,1,0,0:0:0:0:
64,192,34657,1,0,0:0:0:0:
448,192,34754,1,0,0:0:0:0:
320,192,34754,1,0,0:0:0:0:
64,192,34754,1,0,0:0:0:0:
64,192,34851,1,0,0:0:0:0:
192,192,34851,1,0,0:0:0:0:
64,192,34948,5,0,0:0:0:0:
192,192,34948,1,0,0:0:0:0:
448,192,34948,1,0,0:0:0:0:
320,192,34948,1,0,0:0:0:0:
320,192,35046,1,0,0:0:0:0:
448,192,35046,1,0,0:0:0:0:
192,192,35143,1,0,0:0:0:0:
64,192,35143,1,0,0:0:0:0:
448,192,35143,1,0,0:0:0:0:
320,192,35240,1,0,0:0:0:0:
64,192,35240,1,0,0:0:0:0:
64,192,35337,1,0,0:0:0:0:
320,192,35337,1,0,0:0:0:0:
448,192,35337,1,0,0:0:0:0:
192,192,35337,1,0,0:0:0:0:
192,192,35434,1,0,0:0:0:0:
64,192,35434,1,0,0:0:0:0:
320,192,35531,1,0,0:0:0:0:
448,192,35531,1,0,0:0:0:0:
64,192,35531,1,0,0:0:0:0:
192,192,35628,1,0,0:0:0:0:
320,192,35628,1,0,0:0:0:0:
64,192,35726,1,0,0:0:0:0:
320,192,35726,1,0,0:0:0:0:
448,192,35726,1,0,0:0:0:0:
192,192,35726,1,0,0:0:0:0:
320,192,35823,1,0,0:0:0:0:
448,192,35823,1,0,0:0:0:0:
192,192,35920,1,0,0:0:0:0:
64,192,35920,1,0,0:0:0:0:
448,192,35920,1,0,0:0:0:0:
320,192,36017,1,0,0:0:0:0:
64,192,36017,1,0,0:0:0:0:
64,192,36114,1,0,0:0:0:0:
192,192,36114,1,0,0:0:0:0:
320,192,36114,1,0,0:0:0:0:
448,192,36114,1,0,0:0:0:0:
192,192,36211,1,0,0:0:0:0:
64,192,36211,1,0,0:0:0:0:
320,192,36308,1,0,0:0:0:0:
448,192,36308,1,0,0:0:0:0:
64,192,36308,1,0,0:0:0:0:
192,192,36406,1,0,0:0:0:0:
320,192,36406,1,0,0:0:0:0:
192,192,36503,1,0,0:0:0:0:
64,192,36503,1,0,0:0:0:0:
448,192,36503,1,0,0:0:0:0:
320,192,36503,1,0,0:0:0:0:
192,192,36600,1,0,0:0:0:0:
448,192,36600,1,0,0:0:0:0:
320,192,36600,1,0,0:0:0:0:
448,192,36697,1,0,0:0:0:0:
320,192,36697,1,0,0:0:0:0:
192,192,36697,1,0,0:0:0:0:
448,192,36794,1,0,0:0:0:0:
64,192,36794,1,0,0:0:0:0:
192,192,36891,1,0,0:0:0:0:
64,192,36891,1,0,0:0:0:0:
448,192,36891,1,0,0:0:0:0:
320,192,36891,1,0,0:0:0:0:
320,192,36989,1,0,0:0:0:0:
192,192,36989,1,0,0:0:0:0:
64,192,36989,1,0,0:0:0:0:
192,192,37086,1,0,0:0:0:0:
320,192,37086,1,0,0:0:0:0:
64,192,37086,1,0,0:0:0:0:
64,192,37183,1,0,0:0:0:0:
448,192,37183,1,0,0:0:0:0:
320,192,37280,1,0,0:0:0:0:
192,192,37377,1,0,0:0:0:0:
320,192,37474,1,0,0:0:0:0:
64,192,37571,1,0,0:0:0:0:
448,192,37669,1,0,0:0:0:0:
192,192,37669,1,0,0:0:0:0:
64,192,37766,1,0,0:0:0:0:
448,192,37863,1,0,0:0:0:0:
320,192,37960,1,0,0:0:0:0:
64,192,38057,1,0,0:0:0:0:
192,192,38057,1,0,0:0:0:0:
320,192,38122,1,0,0:0:0:0:
64,192,38187,1,0,0:0:0:0:
192,192,38251,1,0,0:0:0:0:
320,192,38446,1,0,0:0:0:0:
64,192,38446,1,0,0:0:0:0:
448,192,38511,1,0,0:0:0:0:
192,192,38575,1,0,0:0:0:0:
320,192,38640,1,0,0:0:0:0:
448,192,38834,1,0,0:0:0:0:
320,192,38932,1,0,0:0:0:0:
64,192,39029,1,0,0:0:0:0:
192,192,39029,1,0,0:0:0:0:
320,192,39126,1,0,0:0:0:0:
192,192,39223,1,0,0:0:0:0:
448,192,39223,1,0,0:0:0:0:
64,192,39320,1,0,0:0:0:0:
192,192,39417,1,0,0:0:0:0:
320,192,39514,1,0,0:0:0:0:
64,192,39612,1,0,0:0:0:0:
192,192,39612,1,0,0:0:0:0:
320,192,39676,1,0,0:0:0:0:
448,192,39741,1,0,0:0:0:0:
192,192,39806,1,0,0:0:0:0:
448,192,40000,1,0,0:0:0:0:
64,192,40000,1,0,0:0:0:0:
192,192,40065,1,0,0:0:0:0:
320,192,40130,1,0,0:0:0:0:
64,192,40195,1,0,0:0:0:0:
320,192,40389,1,0,0:0:0:0:
64,192,40486,1,0,0:0:0:0:
448,192,40583,1,0,0:0:0:0:
320,192,40583,1,0,0:0:0:0:
192,192,40680,1,0,0:0:0:0:
320,192,40777,1,0,0:0:0:0:
64,192,40777,1,0,0:0:0:0:
448,192,40875,1,0,0:0:0:0:
192,192,40972,1,0,0:0:0:0:
320,192,41069,1,0,0:0:0:0:
64,192,41166,1,0,0:0:0:0:
192,192,41166,1,0,0:0:0:0:
448,192,41231,1,0,0:0:0:0:
320,192,41296,1,0,0:0:0:0:
192,192,41360,1,0,0:0:0:0:
320,192,41555,1,0,0:0:0:0:
64,192,41555,1,0,0:0:0:0:
192,192,41652,1,0,0:0:0:0:
64,192,41749,1,0,0:0:0:0:
320,192,41846,1,0,0:0:0:0:
192,192,41943,1,0,0:0:0:0:
448,192,42040,1,0,0:0:0:0:
64,192,42138,1,0,0:0:0:0:
192,192,42138,1,0,0:0:0:0:
320,192,42235,1,0,0:0:0:0:
192,192,42332,1,0,0:0:0:0:
448,192,42332,1,0,0:0:0:0:
64,192,42429,1,0,0:0:0:0:
192,192,42526,1,0,0:0:0:0:
320,192,42623,1,0,0:0:0:0:
64,192,42720,1,0,0:0:0:0:
192,192,42720,1,0,0:0:0:0:
320,192,42785,1,0,0:0:0:0:
64,192,42850,1,0,0:0:0:0:
192,192,42915,1,0,0:0:0:0:
64,192,43109,1,0,0:0:0:0:
320,192,43109,1,0,0:0:0:0:
448,192,43174,1,0,0:0:0:0:
192,192,43239,1,0,0:0:0:0:
320,192,43303,1,0,0:0:0:0:
64,192,43400,1,0,0:0:0:0:
192,192,43498,1,0,0:0:0:0:
448,192,43595,1,0,0:0:0:0:
64,192,43692,1,0,0:0:0:0:
192,192,43692,1,0,0:0:0:0:
320,192,43789,1,0,0:0:0:0:
192,192,43886,1,0,0:0:0:0:
448,192,43886,1,0,0:0:0:0:
64,192,43983,1,0,0:0:0:0:
192,192,44081,1,0,0:0:0:0:
320,192,44178,1,0,0:0:0:0:
64,192,44275,1,0,0:0:0:0:
192,192,44275,1,0,0:0:0:0:
320,192,44340,1,0,0:0:0:0:
448,192,44404,1,0,0:0:0:0:
192,192,44469,1,0,0:0:0:0:
64,192,44493,1,0,0:0:0:0:
320,192,44534,1,0,0:0:0:0:
448,192,44663,1,0,0:0:0:0:
64,192,44663,1,0,0:0:0:0:
320,192,44728,1,0,0:0:0:0:
192,192,44793,1,0,0:0:0:0:
448,192,44858,1,0,0:0:0:0:
320,192,44922,1,0,0:0:0:0:
64,192,45052,1,0,0:0:0:0:
192,192,45052,1,0,0:0:0:0:
320,192,45149,1,0,0:0:0:0:
192,192,45246,1,0,0:0:0:0:
64,192,45271,1,0,0:0:0:0:
448,192,45343,1,0,0:0:0:0:
64,192,45441,1,0,0:0:0:0:
320,192,45441,1,0,0:0:0:0:
192,192,45538,1,0,0:0:0:0:
448,192,45635,1,0,0:0:0:0:
320,192,45732,1,0,0:0:0:0:
64,192,45829,1,0,0:0:0:0:
192,192,45829,1,0,0:0:0:0:
448,192,45894,1,0,0:0:0:0:
320,192,45959,1,0,0:0:0:0:
192,192,46024,1,0,0:0:0:0:
64,192,46048,1,0,0:0:0:0:
320,192,46088,1,0,0:0:0:0:
64,192,46218,1,0,0:0:0:0:
448,192,46218,1,0,0:0:0:0:
192,192,46283,1,0,0:0:0:0:
320,192,46347,1,0,0:0:0:0:
192,192,46412,1,0,0:0:0:0:
320,192,46606,1,0,0:0:0:0:
64,192,46704,1,0,0:0:0:0:
448,192,46801,1,0,0:0:0:0:
320,192,46801,1,0,0:0:0:0:
192,192,46898,1,0,0:0:0:0:
64,192,46995,1,0,0:0:0:0:
320,192,46995,1,0,0:0:0:0:
448,192,47092,1,0,0:0:0:0:
320,192,47189,1,0,0:0:0:0:
192,192,47286,1,0,0:0:0:0:
448,192,47384,1,0,0:0:0:0:
320,192,47384,1,0,0:0:0:0:
192,192,47448,1,0,0:0:0:0:
320,192,47578,1,0,0:0:0:0:
448,192,47602,1,0,0:0:0:0:
64,192,47643,1,0,0:0:0:0:
448,192,47772,1,0,0:0:0:0:
192,192,47772,1,0,0:0:0:0:
320,192,47869,1,0,0:0:0:0:
192,192,47967,1,0,0:0:0:0:
64,192,48064,1,0,0:0:0:0:
448,192,48161,1,0,0:0:0:0:
320,192,48161,1,0,0:0:0:0:
64,192,48226,1,0,0:0:0:0:
320,192,48355,1,0,0:0:0:0:
448,192,48379,1,0,0:0:0:0:
192,192,48420,1,0,0:0:0:0:
64,192,48549,1,0,0:0:0:0:
448,192,48549,1,0,0:0:0:0:
320,192,48647,1,0,0:0:0:0:
64,192,48744,1,0,0:0:0:0:
192,192,48841,1,0,0:0:0:0:
448,192,48938,1,0,0:0:0:0:
320,192,48938,1,0,0:0:0:0:
192,192,49003,1,0,0:0:0:0:
64,192,49068,1,0,0:0:0:0:
320,192,49132,1,0,0:0:0:0:
448,192,49157,1,0,0:0:0:0:
192,192,49197,1,0,0:0:0:0:
448,192,49327,1,0,0:0:0:0:
64,192,49327,1,0,0:0:0:0:
192,192,49391,1,0,0:0:0:0:
320,192,49456,1,0,0:0:0:0:
64,192,49521,1,0,0:0:0:0:
192,192,49586,1,0,0:0:0:0:
320,192,49715,1,0,0:0:0:0:
64,192,49715,1,0,0:0:0:0:
320,192,49812,1,0,0:0:0:0:
448,192,49910,1,0,0:0:0:0:
192,192,49910,1,0,0:0:0:0:
448,192,50007,1,0,0:0:0:0:
320,192,50104,1,0,0:0:0:0:
64,192,50104,1,0,0:0:0:0:
320,192,50201,1,0,0:0:0:0:
448,192,50298,1,0,0:0:0:0:
192,192,50298,1,0,0:0:0:0:
192,192,50395,1,0,0:0:0:0:
448,192,50492,1,0,0:0:0:0:
320,192,50492,1,0,0:0:0:0:
192,192,50557,1,0,0:0:0:0:
64,192,50622,1,0,0:0:0:0:
320,192,50687,1,0,0:0:0:0:
192,192,50751,1,0,0:0:0:0:
448,192,50881,1,0,0:0:0:0:
64,192,50881,1,0,0:0:0:0:
192,192,50946,1,0,0:0:0:0:
320,192,51011,1,0,0:0:0:0:
64,192,51075,1,0,0:0:0:0:
192,192,51140,1,0,0:0:0:0:
320,192,51270,1,0,0:0:0:0:
64,192,51367,1,0,0:0:0:0:
448,192,51464,1,0,0:0:0:0:
320,192,51464,1,0,0:0:0:0:
192,192,51561,1,0,0:0:0:0:
320,192,51658,1,0,0:0:0:0:
64,192,51658,1,0,0:0:0:0:
448,192,51755,1,0,0:0:0:0:
320,192,51853,1,0,0:0:0:0:
192,192,51950,1,0,0:0:0:0:
320,192,52047,1,0,0:0:0:0:
448,192,52047,1,0,0:0:0:0:
64,192,52112,1,0,0:0:0:0:
192,192,52176,1,0,0:0:0:0:
320,192,52241,1,0,0:0:0:0:
192,192,52306,1,0,0:0:0:0:
448,192,52435,1,0,0:0:0:0:
64,192,52435,1,0,0:0:0:0:
320,192,52500,1,0,0:0:0:0:
192,192,52565,1,0,0:0:0:0:
64,192,52630,1,0,0:0:0:0:
192,192,52695,1,0,0:0:0:0:
320,192,52824,1,0,0:0:0:0:
64,192,52921,1,0,0:0:0:0:
448,192,53018,1,0,0:0:0:0:
320,192,53018,1,0,0:0:0:0:
192,192,53115,1,0,0:0:0:0:
320,192,53213,1,0,0:0:0:0:
64,192,53213,1,0,0:0:0:0:
448,192,53310,1,0,0:0:0:0:
64,192,53407,1,0,0:0:0:0:
192,192,53504,1,0,0:0:0:0:
448,192,53601,1,0,0:0:0:0:
320,192,53601,1,0,0:0:0:0:
192,192,53666,1,0,0:0:0:0:
320,192,53731,1,0,0:0:0:0:
448,192,53796,1,0,0:0:0:0:
192,192,53893,1,0,0:0:0:0:
320,192,53990,1,0,0:0:0:0:
64,192,53990,1,0,0:0:0:0:
192,192,54087,1,0,0:0:0:0:
64,192,54184,1,0,0:0:0:0:
320,192,54281,1,0,0:0:0:0:
192,192,54378,1,0,0:0:0:0:
448,192,54476,1,0,0:0:0:0:
64,192,54573,1,0,0:0:0:0:
192,192,54573,1,0,0:0:0:0:
320,192,54670,1,0,0:0:0:0:
192,192,54767,1,0,0:0:0:0:
448,192,54767,1,0,0:0:0:0:
64,192,54864,1,0,0:0:0:0:
320,192,54961,1,0,0:0:0:0:
64,192,55058,1,0,0:0:0:0:
448,192,55156,1,0,0:0:0:0:
320,192,55156,1,0,0:0:0:0:
192,192,55220,1,0,0:0:0:0:
320,192,55285,1,0,0:0:0:0:
192,192,55350,1,0,0:0:0:0:
64,192,55415,1,0,0:0:0:0:
320,192,55479,1,0,0:0:0:0:
448,192,55544,1,0,0:0:0:0:
192,192,55544,1,0,0:0:0:0:
320,192,55641,1,0,0:0:0:0:
448,192,55739,1,0,0:0:0:0:
192,192,55836,1,0,0:0:0:0:
320,192,55933,1,0,0:0:0:0:
64,192,56030,1,0,0:0:0:0:
448,192,56127,1,0,0:0:0:0:
320,192,56127,1,0,0:0:0:0:
192,192,56224,1,0,0:0:0:0:
320,192,56321,1,0,0:0:0:0:
64,192,56321,1,0,0:0:0:0:
192,192,56419,1,0,0:0:0:0:
448,192,56516,1,0,0:0:0:0:
448,192,56613,1,0,0:0:0:0:
64,192,56710,1,0,0:0:0:0:
192,192,56710,1,0,0:0:0:0:
320,192,56775,1,0,0:0:0:0:
448,192,56840,1,0,0:0:0:0:
192,192,56904,1,0,0:0:0:0:
320,192,56969,1,0,0:0:0:0:
448,192,57099,1,0,0:0:0:0:
64,192,57099,1,0,0:0:0:0:
320,192,57163,1,0,0:0:0:0:
192,192,57228,1,0,0:0:0:0:
448,192,57293,1,0,0:0:0:0:
320,192,57358,1,0,0:0:0:0:
192,192,57487,1,0,0:0:0:0:
448,192,57584,1,0,0:0:0:0:
64,192,57682,1,0,0:0:0:0:
192,192,57682,1,0,0:0:0:0:
320,192,57779,1,0,0:0:0:0:
448,192,57876,1,0,0:0:0:0:
192,192,57876,1,0,0:0:0:0:
64,192,57973,1,0,0:0:0:0:
192,192,58070,1,0,0:0:0:0:
320,192,58167,1,0,0:0:0:0:
64,192,58264,1,0,0:0:0:0:
192,192,58264,1,0,0:0:0:0:
448,192,58329,1,0,0:0:0:0:
320,192,58394,1,0,0:0:0:0:
192,192,58459,1,0,0:0:0:0:
320,192,58524,1,0,0:0:0:0:
64,192,58653,1,0,0:0:0:0:
448,192,58653,1,0,0:0:0:0:
192,192,58718,1,0,0:0:0:0:
320,192,58783,1,0,0:0:0:0:
448,192,58847,1,0,0:0:0:0:
320,192,58912,1,0,0:0:0:0:
192,192,59042,1,0,0:0:0:0:
448,192,59139,1,0,0:0:0:0:
64,192,59236,1,0,0:0:0:0:
192,192,59236,1,0,0:0:0:0:
320,192,59333,1,0,0:0:0:0:
192,192,59430,1,0,0:0:0:0:
448,192,59430,1,0,0:0:0:0:
64,192,59527,1,0,0:0:0:0:
448,192,59625,1,0,0:0:0:0:
320,192,59722,1,0,0:0:0:0:
64,192,59819,1,0,0:0:0:0:
192,192,59819,1,0,0:0:0:0:
320,192,59884,1,0,0:0:0:0:
192,192,59948,1,0,0:0:0:0:
64,192,60013,1,0,0:0:0:0:
320,192,60110,1,0,0:0:0:0:
192,192,60207,1,0,0:0:0:0:
448,192,60207,1,0,0:0:0:0:
320,192,60305,1,0,0:0:0:0:
448,192,60402,1,0,0:0:0:0:
192,192,60499,1,0,0:0:0:0:
320,192,60596,1,0,0:0:0:0:
64,192,60693,1,0,0:0:0:0:
448,192,60790,1,0,0:0:0:0:
320,192,60790,1,0,0:0:0:0:
192,192,60888,1,0,0:0:0:0:
320,192,60985,1,0,0:0:0:0:
64,192,60985,1,0,0:0:0:0:
448,192,61082,1,0,0:0:0:0:
192,192,61179,1,0,0:0:0:0:
448,192,61276,1,0,0:0:0:0:
64,192,61373,1,0,0:0:0:0:
192,192,61373,1,0,0:0:0:0:
320,192,61438,1,0,0:0:0:0:
192,192,61503,1,0,0:0:0:0:
320,192,61568,1,0,0:0:0:0:
448,192,61632,1,0,0:0:0:0:
192,192,61697,1,0,0:0:0:0:
64,192,61762,5,0,0:0:0:0:
320,192,61762,1,0,0:0:0:0:
448,192,61956,1,0,0:0:0:0:
320,192,62150,1,0,0:0:0:0:
192,192,62150,1,0,0:0:0:0:
64,192,62175,1,0,0:0:0:0:
448,192,62345,1,0,0:0:0:0:
320,192,62345,1,0,0:0:0:0:
64,192,62539,1,0,0:0:0:0:
320,192,62539,1,0,0:0:0:0:
192,192,62636,1,0,0:0:0:0:
448,192,62733,1,0,0:0:0:0:
448,192,62831,1,0,0:0:0:0:
320,192,62928,5,0,0:0:0:0:
192,192,62928,1,0,0:0:0:0:
64,192,62928,1,0,0:0:0:0:
64,192,63122,1,0,0:0:0:0:
448,192,63316,1,0,0:0:0:0:
64,192,63511,1,0,0:0:0:0:
320,192,63705,1,0,0:0:0:0:
64,192,63899,1,0,0:0:0:0:
320,192,64093,1,0,0:0:0:0:
448,192,64288,1,0,0:0:0:0:
64,192,64482,1,0,0:0:0:0:
192,192,64676,1,0,0:0:0:0:
320,192,64871,1,0,0:0:0:0:
448,192,65065,1,0,0:0:0:0:
64,192,65259,1,0,0:0:0:0:
320,192,65454,1,0,0:0:0:0:
64,192,65648,1,0,0:0:0:0:
192,192,65842,1,0,0:0:0:0:
320,192,66036,1,0,0:0:0:0:
64,192,66231,1,0,0:0:0:0:
448,192,66425,1,0,0:0:0:0:
64,192,66619,1,0,0:0:0:0:
320,192,66814,1,0,0:0:0:0:
64,192,67008,1,0,0:0:0:0:
320,192,67202,1,0,0:0:0:0:
448,192,67397,1,0,0:0:0:0:
64,192,67591,1,0,0:0:0:0:
192,192,67785,1,0,0:0:0:0:
320,192,67979,1,0,0:0:0:0:
192,192,68174,1,0,0:0:0:0:
64,192,68368,1,0,0:0:0:0:
320,192,68562,1,0,0:0:0:0:
192,192,68757,1,0,0:0:0:0:
64,192,68951,1,0,0:0:0:0:
192,192,69145,1,0,0:0:0:0:
320,192,69145,1,0,0:0:0:0:
64,192,69340,1,0,0:0:0:0:
192,192,69534,1,0,0:0:0:0:
448,192,69534,1,0,0:0:0:0:
64,192,69728,1,0,0:0:0:0:
192,192,69922,1,0,0:0:0:0:
320,192,69922,1,0,0:0:0:0:
64,192,70117,1,0,0:0:0:0:
320,192,70311,1,0,0:0:0:0:
192,192,70311,1,0,0:0:0:0:
448,192,70505,1,0,0:0:0:0:
320,192,70700,1,0,0:0:0:0:
64,192,70700,1,0,0:0:0:0:
192,192,70894,1,0,0:0:0:0:
64,192,71088,1,0,0:0:0:0:
320,192,71088,1,0,0:0:0:0:
448,192,71283,1,0,0:0:0:0:
320,192,71477,1,0,0:0:0:0:
64,192,71477,1,0,0:0:0:0:
192,192,71671,1,0,0:0:0:0:
448,192,71865,1,0,0:0:0:0:
64,192,71865,1,0,0:0:0:0:
192,192,72060,1,0,0:0:0:0:
64,192,72254,1,0,0:0:0:0:
320,192,72254,1,0,0:0:0:0:
64,192,72448,1,0,0:0:0:0:
192,192,72448,1,0,0:0:0:0:
448,192,72643,1,0,0:0:0:0:
192,192,72643,1,0,0:0:0:0:
64,192,72837,1,0,0:0:0:0:
192,192,72837,1,0,0:0:0:0:
320,192,73031,1,0,0:0:0:0:
192,192,73031,1,0,0:0:0:0:
64,192,73226,1,0,0:0:0:0:
192,192,73226,1,0,0:0:0:0:
320,192,73420,1,0,0:0:0:0:
192,192,73420,1,0,0:0:0:0:
448,192,73614,1,0,0:0:0:0:
320,192,73614,1,0,0:0:0:0:
64,192,73808,5,0,0:0:0:0:
192,192,73808,1,0,0:0:0:0:
64,192,73906,1,0,0:0:0:0:
192,192,73906,1,0,0:0:0:0:
448,192,74003,1,0,0:0:0:0:
192,192,74003,1,0,0:0:0:0:
448,192,74100,1,0,0:0:0:0:
192,192,74100,1,0,0:0:0:0:
448,192,74197,1,0,0:0:0:0:
320,192,74197,1,0,0:0:0:0:
448,192,74294,1,0,0:0:0:0:
320,192,74294,1,0,0:0:0:0:
64,192,74391,1,0,0:0:0:0:
320,192,74391,1,0,0:0:0:0:
64,192,74489,1,0,0:0:0:0:
320,192,74489,1,0,0:0:0:0:
192,192,74586,1,0,0:0:0:0:
64,192,74974,5,0,0:0:0:0:
192,192,74974,1,0,0:0:0:0:
64,192,75071,1,0,0:0:0:0:
320,192,75169,1,0,0:0:0:0:
192,192,75169,1,0,0:0:0:0:
320,192,75266,1,0,0:0:0:0:
64,192,75363,5,0,0:0:0:0:
320,192,75363,1,0,0:0:0:0:
448,192,75363,1,0,0:0:0:0:
192,192,75363,1,0,0:0:0:0:
448,192,75460,1,0,0:0:0:0:
192,192,75460,1,0,0:0:0:0:
192,192,75557,1,0,0:0:0:0:
320,192,75557,1,0,0:0:0:0:
448,192,75654,1,0,0:0:0:0:
64,192,75654,1,0,0:0:0:0:
320,192,75751,1,0,0:0:0:0:
448,192,75751,1,0,0:0:0:0:
64,192,75751,1,0,0:0:0:0:
192,192,75751,1,0,0:0:0:0:
64,192,75849,1,0,0:0:0:0:
320,192,75849,1,0,0:0:0:0:
320,192,75946,1,0,0:0:0:0:
192,192,75946,1,0,0:0:0:0:
64,192,76043,1,0,0:0:0:0:
448,192,76043,1,0,0:0:0:0:
192,192,76140,1,0,0:0:0:0:
64,192,76140,1,0,0:0:0:0:
448,192,76140,1,0,0:0:0:0:
320,192,76140,1,0,0:0:0:0:
192,192,76237,1,0,0:0:0:0:
320,192,76237,1,0,0:0:0:0:
448,192,76334,1,0,0:0:0:0:
64,192,76334,1,0,0:0:0:0:
320,192,76432,1,0,0:0:0:0:
64,192,76432,1,0,0:0:0:0:
192,192,76529,1,0,0:0:0:0:
64,192,76529,1,0,0:0:0:0:
448,192,76529,1,0,0:0:0:0:
320,192,76529,1,0,0:0:0:0:
320,192,76626,1,0,0:0:0:0:
192,192,76626,1,0,0:0:0:0:
448,192,76723,1,0,0:0:0:0:
64,192,76723,1,0,0:0:0:0:
192,192,76820,1,0,0:0:0:0:
448,192,76820,1,0,0:0:0:0:
64,192,76917,1,0,0:0:0:0:
192,192,76917,1,0,0:0:0:0:
320,192,76917,1,0,0:0:0:0:
448,192,76917,1,0,0:0:0:0:
192,192,77014,1,0,0:0:0:0:
64,192,77014,1,0,0:0:0:0:
320,192,77014,1,0,0:0:0:0:
320,192,77112,1,0,0:0:0:0:
192,192,77112,1,0,0:0:0:0:
64,192,77112,1,0,0:0:0:0:
448,192,77209,1,0,0:0:0:0:
64,192,77209,1,0,0:0:0:0:
64,192,77306,1,0,0:0:0:0:
192,192,77306,1,0,0:0:0:0:
320,192,77306,1,0,0:0:0:0:
448,192,77306,1,0,0:0:0:0:
448,192,77403,1,0,0:0:0:0:
320,192,77403,1,0,0:0:0:0:
192,192,77403,1,0,0:0:0:0:
448,192,77500,1,0,0:0:0:0:
192,192,77500,1,0,0:0:0:0:
320,192,77500,1,0,0:0:0:0:
320,192,77597,1,0,0:0:0:0:
64,192,77597,1,0,0:0:0:0:
448,192,77695,1,0,0:0:0:0:
320,192,77695,1,0,0:0:0:0:
192,192,77695,1,0,0:0:0:0:
64,192,77695,1,0,0:0:0:0:
448,192,77792,1,0,0:0:0:0:
64,192,77792,1,0,0:0:0:0:
192,192,77792,1,0,0:0:0:0:
192,192,77889,1,0,0:0:0:0:
64,192,77889,1,0,0:0:0:0:
448,192,77889,1,0,0:0:0:0:
320,192,77986,1,0,0:0:0:0:
192,192,77986,1,0,0:0:0:0:
448,192,78083,1,0,0:0:0:0:
320,192,78083,1,0,0:0:0:0:
192,192,78083,1,0,0:0:0:0:
64,192,78083,1,0,0:0:0:0:
64,192,78180,1,0,0:0:0:0:
448,192,78180,1,0,0:0:0:0:
320,192,78180,1,0,0:0:0:0:
64,192,78277,1,0,0:0:0:0:
320,192,78277,1,0,0:0:0:0:
448,192,78277,1,0,0:0:0:0:
448,192,78375,1,0,0:0:0:0:
192,192,78375,1,0,0:0:0:0:
448,192,78472,5,0,0:0:0:0:
64,192,78472,1,0,0:0:0:0:
320,192,78472,1,0,0:0:0:0:
192,192,78472,1,0,0:0:0:0:
320,192,78569,1,0,0:0:0:0:
64,192,78569,1,0,0:0:0:0:
192,192,78666,1,0,0:0:0:0:
320,192,78666,1,0,0:0:0:0:
448,192,78763,1,0,0:0:0:0:
64,192,78763,1,0,0:0:0:0:
448,192,78860,1,0,0:0:0:0:
320,192,78860,1,0,0:0:0:0:
192,192,78860,1,0,0:0:0:0:
64,192,78860,1,0,0:0:0:0:
192,192,78957,1,0,0:0:0:0:
448,192,78957,1,0,0:0:0:0:
320,192,79055,1,0,0:0:0:0:
192,192,79055,1,0,0:0:0:0:
64,192,79152,1,0,0:0:0:0:
448,192,79152,1,0,0:0:0:0:
64,192,79249,1,0,0:0:0:0:
192,192,79249,1,0,0:0:0:0:
320,192,79249,1,0,0:0:0:0:
448,192,79249,1,0,0:0:0:0:
192,192,79346,1,0,0:0:0:0:
320,192,79346,1,0,0:0:0:0:
448,192,79443,1,0,0:0:0:0:
64,192,79443,1,0,0:0:0:0:
448,192,79540,1,0,0:0:0:0:
192,192,79540,1,0,0:0:0:0:
64,192,79638,1,0,0:0:0:0:
192,192,79638,1,0,0:0:0:0:
320,192,79638,1,0,0:0:0:0:
448,192,79638,1,0,0:0:0:0:
320,192,79735,1,0,0:0:0:0:
192,192,79735,1,0,0:0:0:0:
448,192,79832,1,0,0:0:0:0:
64,192,79832,1,0,0:0:0:0:
64,192,79929,1,0,0:0:0:0:
320,192,79929,1,0,0:0:0:0:
192,192,80026,1,0,0:0:0:0:
64,192,80026,1,0,0:0:0:0:
448,192,80026,1,0,0:0:0:0:
320,192,80026,1,0,0:0:0:0:
192,192,80123,1,0,0:0:0:0:
448,192,80123,1,0,0:0:0:0:
320,192,80123,1,0,0:0:0:0:
448,192,80220,1,0,0:0:0:0:
320,192,80220,1,0,0:0:0:0:
192,192,80220,1,0,0:0:0:0:
448,192,80318,1,0,0:0:0:0:
64,192,80318,1,0,0:0:0:0:
192,192,80415,1,0,0:0:0:0:
64,192,80415,1,0,0:0:0:0:
448,192,80415,1,0,0:0:0:0:
320,192,80415,1,0,0:0:0:0:
320,192,80512,1,0,0:0:0:0:
192,192,80512,1,0,0:0:0:0:
64,192,80512,1,0,0:0:0:0:
192,192,80609,1,0,0:0:0:0:
320,192,80609,1,0,0:0:0:0:
64,192,80609,1,0,0:0:0:0:
192,192,80706,1,0,0:0:0:0:
448,192,80706,1,0,0:0:0:0:
320,192,80803,1,0,0:0:0:0:
448,192,80803,1,0,0:0:0:0:
64,192,80803,1,0,0:0:0:0:
192,192,80803,1,0,0:0:0:0:
320,192,80900,1,0,0:0:0:0:
448,192,80900,1,0,0:0:0:0:
64,192,80900,1,0,0:0:0:0:
64,192,80998,1,0,0:0:0:0:
448,192,80998,1,0,0:0:0:0:
320,192,80998,1,0,0:0:0:0:
320,192,81095,1,0,0:0:0:0:
192,192,81095,1,0,0:0:0:0:
320,192,81192,1,0,0:0:0:0:
448,192,81192,1,0,0:0:0:0:
64,192,81192,1,0,0:0:0:0:
192,192,81192,1,0,0:0:0:0:
192,192,81289,1,0,0:0:0:0:
64,192,81289,1,0,0:0:0:0:
448,192,81289,1,0,0:0:0:0:
64,192,81386,1,0,0:0:0:0:
192,192,81386,1,0,0:0:0:0:
448,192,81386,1,0,0:0:0:0:
448,192,81483,1,0,0:0:0:0:
320,192,81483,1,0,0:0:0:0:
448,192,81581,5,0,0:0:0:0:
64,192,81581,1,0,0:0:0:0:
320,192,81581,1,0,0:0:0:0:
192,192,81581,1,0,0:0:0:0:
64,192,81678,1,0,0:0:0:0:
192,192,81678,1,0,0:0:0:0:
64,192,81775,1,0,0:0:0:0:
320,192,81775,1,0,0:0:0:0:
448,192,81872,1,0,0:0:0:0:
192,192,81872,1,0,0:0:0:0:
64,192,81969,1,0,0:0:0:0:
320,192,81969,1,0,0:0:0:0:
448,192,81969,1,0,0:0:0:0:
192,192,81969,1,0,0:0:0:0:
448,192,82066,1,0,0:0:0:0:
320,192,82066,1,0,0:0:0:0:
448,192,82163,1,0,0:0:0:0:
192,192,82163,1,0,0:0:0:0:
192,192,82261,1,0,0:0:0:0:
320,192,82261,1,0,0:0:0:0:
64,192,82358,1,0,0:0:0:0:
320,192,82358,1,0,0:0:0:0:
448,192,82358,1,0,0:0:0:0:
192,192,82358,1,0,0:0:0:0:
64,192,82455,1,0,0:0:0:0:
192,192,82455,1,0,0:0:0:0:
64,192,82552,1,0,0:0:0:0:
320,192,82552,1,0,0:0:0:0:
448,192,82649,1,0,0:0:0:0:
192,192,82649,1,0,0:0:0:0:
192,192,82746,1,0,0:0:0:0:
64,192,82746,1,0,0:0:0:0:
448,192,82746,1,0,0:0:0:0:
320,192,82746,1,0,0:0:0:0:
448,192,82843,1,0,0:0:0:0:
320,192,82843,1,0,0:0:0:0:
448,192,82941,1,0,0:0:0:0:
192,192,82941,1,0,0:0:0:0:
192,192,83038,1,0,0:0:0:0:
320,192,83038,1,0,0:0:0:0:
64,192,83135,1,0,0:0:0:0:
192,192,83135,1,0,0:0:0:0:
320,192,83135,1,0,0:0:0:0:
448,192,83135,1,0,0:0:0:0:
192,192,83232,1,0,0:0:0:0:
64,192,83232,1,0,0:0:0:0:
320,192,83232,1,0,0:0:0:0:
320,192,83329,1,0,0:0:0:0:
192,192,83329,1,0,0:0:0:0:
64,192,83329,1,0,0:0:0:0:
448,192,83426,1,0,0:0:0:0:
64,192,83426,1,0,0:0:0:0:
64,192,83524,1,0,0:0:0:0:
192,192,83524,1,0,0:0:0:0:
320,192,83524,1,0,0:0:0:0:
448,192,83524,1,0,0:0:0:0:
448,192,83621,1,0,0:0:0:0:
320,192,83621,1,0,0:0:0:0:
192,192,83621,1,0,0:0:0:0:
448,192,83718,1,0,0:0:0:0:
192,192,83718,1,0,0:0:0:0:
320,192,83718,1,0,0:0:0:0:
320,192,83815,1,0,0:0:0:0:
64,192,83815,1,0,0:0:0:0:
448,192,83912,1,0,0:0:0:0:
320,192,83912,1,0,0:0:0:0:
192,192,83912,1,0,0:0:0:0:
64,192,83912,1,0,0:0:0:0:
448,192,84009,1,0,0:0:0:0:
64,192,84009,1,0,0:0:0:0:
192,192,84009,1,0,0:0:0:0:
192,192,84106,1,0,0:0:0:0:
64,192,84106,1,0,0:0:0:0:
448,192,84106,1,0,0:0:0:0:
320,192,84204,1,0,0:0:0:0:
192,192,84204,1,0,0:0:0:0:
448,192,84301,1,0,0:0:0:0:
320,192,84301,1,0,0:0:0:0:
192,192,84301,1,0,0:0:0:0:
64,192,84301,1,0,0:0:0:0:
64,192,84398,1,0,0:0:0:0:
448,192,84398,1,0,0:0:0:0:
320,192,84398,1,0,0:0:0:0:
64,192,84495,1,0,0:0:0:0:
320,192,84495,1,0,0:0:0:0:
448,192,84495,1,0,0:0:0:0:
64,192,84592,1,0,0:0:0:0:
192,192,84592,1,0,0:0:0:0:
64,192,84689,5,0,0:0:0:0:
320,192,84689,1,0,0:0:0:0:
192,192,84689,1,0,0:0:0:0:
448,192,84689,1,0,0:0:0:0:
448,192,84786,1,0,0:0:0:0:
320,192,84786,1,0,0:0:0:0:
448,192,84884,1,0,0:0:0:0:
192,192,84884,1,0,0:0:0:0:
64,192,84981,1,0,0:0:0:0:
320,192,84981,1,0,0:0:0:0:
448,192,85078,1,0,0:0:0:0:
192,192,85078,1,0,0:0:0:0:
64,192,85078,1,0,0:0:0:0:
320,192,85078,1,0,0:0:0:0:
64,192,85175,1,0,0:0:0:0:
192,192,85175,1,0,0:0:0:0:
64,192,85272,1,0,0:0:0:0:
320,192,85272,1,0,0:0:0:0:
320,192,85369,1,0,0:0:0:0:
192,192,85369,1,0,0:0:0:0:
448,192,85467,1,0,0:0:0:0:
192,192,85467,1,0,0:0:0:0:
64,192,85467,1,0,0:0:0:0:
320,192,85467,1,0,0:0:0:0:
448,192,85564,1,0,0:0:0:0:
320,192,85564,1,0,0:0:0:0:
448,192,85661,1,0,0:0:0:0:
192,192,85661,1,0,0:0:0:0:
64,192,85758,1,0,0:0:0:0:
320,192,85758,1,0,0:0:0:0:
320,192,85855,1,0,0:0:0:0:
448,192,85855,1,0,0:0:0:0:
64,192,85855,1,0,0:0:0:0:
192,192,85855,1,0,0:0:0:0:
64,192,85952,1,0,0:0:0:0:
192,192,85952,1,0,0:0:0:0:
64,192,86049,1,0,0:0:0:0:
320,192,86049,1,0,0:0:0:0:
320,192,86147,1,0,0:0:0:0:
192,192,86147,1,0,0:0:0:0:
448,192,86244,1,0,0:0:0:0:
320,192,86244,1,0,0:0:0:0:
192,192,86244,1,0,0:0:0:0:
64,192,86244,1,0,0:0:0:0:
320,192,86341,1,0,0:0:0:0:
448,192,86341,1,0,0:0:0:0:
192,192,86341,1,0,0:0:0:0:
192,192,86438,1,0,0:0:0:0:
320,192,86438,1,0,0:0:0:0:
448,192,86438,1,0,0:0:0:0:
64,192,86535,1,0,0:0:0:0:
448,192,86535,1,0,0:0:0:0:
448,192,86632,1,0,0:0:0:0:
320,192,86632,1,0,0:0:0:0:
192,192,86632,1,0,0:0:0:0:
64,192,86632,1,0,0:0:0:0:
64,192,86729,1,0,0:0:0:0:
192,192,86729,1,0,0:0:0:0:
320,192,86729,1,0,0:0:0:0:
64,192,86827,1,0,0:0:0:0:
320,192,86827,1,0,0:0:0:0:
192,192,86827,1,0,0:0:0:0:
448,192,86924,1,0,0:0:0:0:
64,192,86924,1,0,0:0:0:0:
320,192,87021,1,0,0:0:0:0:
64,192,87215,1,0,0:0:0:0:
64,192,87410,1,0,0:0:0:0:
192,192,87410,1,0,0:0:0:0:
64,192,87507,1,0,0:0:0:0:
320,192,87604,1,0,0:0:0:0:
192,192,87604,1,0,0:0:0:0:
320,192,87701,1,0,0:0:0:0:
64,192,87798,5,0,0:0:0:0:
448,192,87798,1,0,0:0:0:0:
192,192,87798,1,0,0:0:0:0:
320,192,87798,1,0,0:0:0:0:
192,192,87895,1,0,0:0:0:0:
448,192,87895,1,0,0:0:0:0:
320,192,87992,1,0,0:0:0:0:
192,192,87992,1,0,0:0:0:0:
64,192,87992,1,0,0:0:0:0:
64,192,88090,1,0,0:0:0:0:
448,192,88090,1,0,0:0:0:0:
64,192,88187,1,0,0:0:0:0:
192,192,88187,1,0,0:0:0:0:
320,192,88187,1,0,0:0:0:0:
448,192,88187,1,0,0:0:0:0:
320,192,88284,1,0,0:0:0:0:
64,192,88284,1,0,0:0:0:0:
192,192,88381,1,0,0:0:0:0:
320,192,88381,1,0,0:0:0:0:
448,192,88381,1,0,0:0:0:0:
448,192,88478,1,0,0:0:0:0:
64,192,88478,1,0,0:0:0:0:
448,192,88575,1,0,0:0:0:0:
320,192,88575,1,0,0:0:0:0:
192,192,88575,1,0,0:0:0:0:
64,192,88575,1,0,0:0:0:0:
320,192,88672,1,0,0:0:0:0:
192,192,88672,1,0,0:0:0:0:
192,192,88770,1,0,0:0:0:0:
64,192,88770,1,0,0:0:0:0:
448,192,88770,1,0,0:0:0:0:
64,192,88867,1,0,0:0:0:0:
320,192,88867,1,0,0:0:0:0:
448,192,88964,1,0,0:0:0:0:
320,192,88964,1,0,0:0:0:0:
192,192,88964,1,0,0:0:0:0:
64,192,88964,1,0,0:0:0:0:
192,192,89061,1,0,0:0:0:0:
320,192,89061,1,0,0:0:0:0:
64,192,89158,1,0,0:0:0:0:
320,192,89158,1,0,0:0:0:0:
448,192,89158,1,0,0:0:0:0:
448,192,89255,1,0,0:0:0:0:
192,192,89255,1,0,0:0:0:0:
320,192,89353,1,0,0:0:0:0:
448,192,89353,1,0,0:0:0:0:
64,192,89353,1,0,0:0:0:0:
192,192,89353,1,0,0:0:0:0:
320,192,89450,1,0,0:0:0:0:
64,192,89450,1,0,0:0:0:0:
192,192,89450,1,0,0:0:0:0:
64,192,89547,1,0,0:0:0:0:
192,192,89547,1,0,0:0:0:0:
320,192,89547,1,0,0:0:0:0:
64,192,89644,1,0,0:0:0:0:
448,192,89644,1,0,0:0:0:0:
320,192,89741,1,0,0:0:0:0:
448,192,89741,1,0,0:0:0:0:
64,192,89741,1,0,0:0:0:0:
192,192,89741,1,0,0:0:0:0:
192,192,89838,1,0,0:0:0:0:
320,192,89838,1,0,0:0:0:0:
448,192,89838,1,0,0:0:0:0:
320,192,89935,1,0,0:0:0:0:
192,192,89935,1,0,0:0:0:0:
448,192,89935,1,0,0:0:0:0:
320,192,90033,1,0,0:0:0:0:
64,192,90033,1,0,0:0:0:0:
192,192,90130,1,0,0:0:0:0:
64,192,90130,1,0,0:0:0:0:
448,192,90130,1,0,0:0:0:0:
320,192,90130,1,0,0:0:0:0:
192,192,90227,1,0,0:0:0:0:
64,192,90227,1,0,0:0:0:0:
448,192,90227,1,0,0:0:0:0:
448,192,90324,1,0,0:0:0:0:
64,192,90324,1,0,0:0:0:0:
192,192,90324,1,0,0:0:0:0:
192,192,90421,1,0,0:0:0:0:
320,192,90421,1,0,0:0:0:0:
192,192,90518,1,0,0:0:0:0:
64,192,90518,1,0,0:0:0:0:
448,192,90518,1,0,0:0:0:0:
320,192,90518,1,0,0:0:0:0:
320,192,90615,1,0,0:0:0:0:
448,192,90615,1,0,0:0:0:0:
64,192,90615,1,0,0:0:0:0:
448,192,90713,1,0,0:0:0:0:
320,192,90713,1,0,0:0:0:0:
64,192,90713,1,0,0:0:0:0:
448,192,90810,1,0,0:0:0:0:
192,192,90810,1,0,0:0:0:0:
448,192,90907,5,0,0:0:0:0:
320,192,90907,1,0,0:0:0:0:
192,192,90907,1,0,0:0:0:0:
64,192,90907,1,0,0:0:0:0:
64,192,91004,1,0,0:0:0:0:
320,192,91004,1,0,0:0:0:0:
448,192,91101,1,0,0:0:0:0:
320,192,91101,1,0,0:0:0:0:
192,192,91101,1,0,0:0:0:0:
64,192,91198,1,0,0:0:0:0:
448,192,91198,1,0,0:0:0:0:
192,192,91296,1,0,0:0:0:0:
64,192,91296,1,0,0:0:0:0:
448,192,91296,1,0,0:0:0:0:
320,192,91296,1,0,0:0:0:0:
448,192,91393,1,0,0:0:0:0:
192,192,91393,1,0,0:0:0:0:
64,192,91490,1,0,0:0:0:0:
192,192,91490,1,0,0:0:0:0:
320,192,91490,1,0,0:0:0:0:
448,192,91587,1,0,0:0:0:0:
64,192,91587,1,0,0:0:0:0:
320,192,91684,1,0,0:0:0:0:
448,192,91684,1,0,0:0:0:0:
64,192,91684,1,0,0:0:0:0:
192,192,91684,1,0,0:0:0:0:
320,192,91781,1,0,0:0:0:0:
192,192,91781,1,0,0:0:0:0:
64,192,91878,1,0,0:0:0:0:
448,192,91878,1,0,0:0:0:0:
320,192,91878,1,0,0:0:0:0:
192,192,91976,1,0,0:0:0:0:
448,192,91976,1,0,0:0:0:0:
320,192,92073,1,0,0:0:0:0:
448,192,92073,1,0,0:0:0:0:
64,192,92073,1,0,0:0:0:0:
192,192,92073,1,0,0:0:0:0:
192,192,92170,1,0,0:0:0:0:
320,192,92170,1,0,0:0:0:0:
64,192,92267,1,0,0:0:0:0:
192,192,92267,1,0,0:0:0:0:
448,192,92267,1,0,0:0:0:0:
320,192,92364,1,0,0:0:0:0:
64,192,92364,1,0,0:0:0:0:
448,192,92461,1,0,0:0:0:0:
320,192,92461,1,0,0:0:0:0:
192,192,92461,1,0,0:0:0:0:
64,192,92461,1,0,0:0:0:0:
320,192,92558,1,0,0:0:0:0:
448,192,92558,1,0,0:0:0:0:
192,192,92558,1,0,0:0:0:0:
192,192,92656,1,0,0:0:0:0:
320,192,92656,1,0,0:0:0:0:
448,192,92656,1,0,0:0:0:0:
64,192,92753,1,0,0:0:0:0:
448,192,92753,1,0,0:0:0:0:
448,192,92850,1,0,0:0:0:0:
320,192,92850,1,0,0:0:0:0:
192,192,92850,1,0,0:0:0:0:
64,192,92850,1,0,0:0:0:0:
64,192,92947,1,0,0:0:0:0:
192,192,92947,1,0,0:0:0:0:
320,192,92947,1,0,0:0:0:0:
64,192,93044,1,0,0:0:0:0:
320,192,93044,1,0,0:0:0:0:
192,192,93044,1,0,0:0:0:0:
192,192,93141,1,0,0:0:0:0:
448,192,93141,1,0,0:0:0:0:
64,192,93239,1,0,0:0:0:0:
192,192,93239,1,0,0:0:0:0:
320,192,93239,1,0,0:0:0:0:
448,192,93239,1,0,0:0:0:0:
64,192,93336,1,0,0:0:0:0:
448,192,93336,1,0,0:0:0:0:
320,192,93336,1,0,0:0:0:0:
320,192,93433,1,0,0:0:0:0:
448,192,93433,1,0,0:0:0:0:
64,192,93433,1,0,0:0:0:0:
192,192,93530,1,0,0:0:0:0:
320,192,93530,1,0,0:0:0:0:
64,192,93627,1,0,0:0:0:0:
192,192,93627,1,0,0:0:0:0:
320,192,93627,1,0,0:0:0:0:
448,192,93627,1,0,0:0:0:0:
448,192,93724,1,0,0:0:0:0:
64,192,93724,1,0,0:0:0:0:
192,192,93724,1,0,0:0:0:0:
448,192,93821,1,0,0:0:0:0:
192,192,93821,1,0,0:0:0:0:
64,192,93821,1,0,0:0:0:0:
448,192,93919,1,0,0:0:0:0:
320,192,93919,1,0,0:0:0:0:
448,192,94016,5,0,0:0:0:0:
320,192,94016,1,0,0:0:0:0:
192,192,94016,1,0,0:0:0:0:
64,192,94016,1,0,0:0:0:0:
192,192,94113,1,0,0:0:0:0:
64,192,94113,1,0,0:0:0:0:
320,192,94210,1,0,0:0:0:0:
448,192,94210,1,0,0:0:0:0:
64,192,94210,1,0,0:0:0:0:
192,192,94307,1,0,0:0:0:0:
448,192,94307,1,0,0:0:0:0:
448,192,94404,1,0,0:0:0:0:
192,192,94404,1,0,0:0:0:0:
64,192,94404,1,0,0:0:0:0:
320,192,94404,1,0,0:0:0:0:
320,192,94501,1,0,0:0:0:0:
448,192,94501,1,0,0:0:0:0:
192,192,94599,1,0,0:0:0:0:
64,192,94599,1,0,0:0:0:0:
448,192,94599,1,0,0:0:0:0:
320,192,94696,1,0,0:0:0:0:
192,192,94696,1,0,0:0:0:0:
448,192,94793,1,0,0:0:0:0:
192,192,94793,1,0,0:0:0:0:
64,192,94793,1,0,0:0:0:0:
320,192,94793,1,0,0:0:0:0:
192,192,94890,1,0,0:0:0:0:
64,192,94890,1,0,0:0:0:0:
320,192,94987,1,0,0:0:0:0:
448,192,94987,1,0,0:0:0:0:
64,192,94987,1,0,0:0:0:0:
192,192,95084,1,0,0:0:0:0:
448,192,95084,1,0,0:0:0:0:
448,192,95182,1,0,0:0:0:0:
320,192,95182,1,0,0:0:0:0:
192,192,95182,1,0,0:0:0:0:
64,192,95182,1,0,0:0:0:0:
320,192,95279,1,0,0:0:0:0:
448,192,95279,1,0,0:0:0:0:
192,192,95376,1,0,0:0:0:0:
64,192,95376,1,0,0:0:0:0:
448,192,95376,1,0,0:0:0:0:
320,192,95473,1,0,0:0:0:0:
192,192,95473,1,0,0:0:0:0:
320,192,95570,1,0,0:0:0:0:
448,192,95570,1,0,0:0:0:0:
64,192,95570,1,0,0:0:0:0:
192,192,95570,1,0,0:0:0:0:
320,192,95667,1,0,0:0:0:0:
64,192,95667,1,0,0:0:0:0:
192,192,95667,1,0,0:0:0:0:
64,192,95764,1,0,0:0:0:0:
192,192,95764,1,0,0:0:0:0:
320,192,95764,1,0,0:0:0:0:
64,192,95862,1,0,0:0:0:0:
448,192,95862,1,0,0:0:0:0:
320,192,95959,1,0,0:0:0:0:
448,192,95959,1,0,0:0:0:0:
64,192,95959,1,0,0:0:0:0:
192,192,95959,1,0,0:0:0:0:
192,192,96056,1,0,0:0:0:0:
320,192,96056,1,0,0:0:0:0:
448,192,96056,1,0,0:0:0:0:
320,192,96153,1,0,0:0:0:0:
192,192,96153,1,0,0:0:0:0:
448,192,96153,1,0,0:0:0:0:
320,192,96250,1,0,0:0:0:0:
64,192,96250,1,0,0:0:0:0:
192,192,96347,1,0,0:0:0:0:
64,192,96347,1,0,0:0:0:0:
448,192,96347,1,0,0:0:0:0:
320,192,96347,1,0,0:0:0:0:
192,192,96445,1,0,0:0:0:0:
64,192,96445,1,0,0:0:0:0:
448,192,96445,1,0,0:0:0:0:
448,192,96542,1,0,0:0:0:0:
64,192,96542,1,0,0:0:0:0:
192,192,96542,1,0,0:0:0:0:
192,192,96639,1,0,0:0:0:0:
320,192,96639,1,0,0:0:0:0:
192,192,96736,1,0,0:0:0:0:
64,192,96736,1,0,0:0:0:0:
448,192,96736,1,0,0:0:0:0:
320,192,96736,1,0,0:0:0:0:
320,192,96833,1,0,0:0:0:0:
448,192,96833,1,0,0:0:0:0:
64,192,96833,1,0,0:0:0:0:
448,192,96930,1,0,0:0:0:0:
320,192,96930,1,0,0:0:0:0:
64,192,96930,1,0,0:0:0:0:
64,192,97027,1,0,0:0:0:0:
192,192,97027,1,0,0:0:0:0:
64,192,97125,5,0,0:0:0:0:
192,192,97125,1,0,0:0:0:0:
448,192,97125,1,0,0:0:0:0:
320,192,97125,1,0,0:0:0:0:
320,192,97222,1,0,0:0:0:0:
448,192,97222,1,0,0:0:0:0:
192,192,97319,1,0,0:0:0:0:
64,192,97319,1,0,0:0:0:0:
448,192,97319,1,0,0:0:0:0:
320,192,97416,1,0,0:0:0:0:
64,192,97416,1,0,0:0:0:0:
64,192,97513,1,0,0:0:0:0:
320,192,97513,1,0,0:0:0:0:
448,192,97513,1,0,0:0:0:0:
192,192,97513,1,0,0:0:0:0:
192,192,97610,1,0,0:0:0:0:
64,192,97610,1,0,0:0:0:0:
320,192,97707,1,0,0:0:0:0:
448,192,97707,1,0,0:0:0:0:
64,192,97707,1,0,0:0:0:0:
192,192,97805,1,0,0:0:0:0:
320,192,97805,1,0,0:0:0:0:
64,192,97902,1,0,0:0:0:0:
320,192,97902,1,0,0:0:0:0:
448,192,97902,1,0,0:0:0:0:
192,192,97902,1,0,0:0:0:0:
320,192,97999,1,0,0:0:0:0:
448,192,97999,1,0,0:0:0:0:
192,192,98096,1,0,0:0:0:0:
64,192,98096,1,0,0:0:0:0:
448,192,98096,1,0,0:0:0:0:
320,192,98193,1,0,0:0:0:0:
64,192,98193,1,0,0:0:0:0:
64,192,98290,1,0,0:0:0:0:
192,192,98290,1,0,0:0:0:0:
320,192,98290,1,0,0:0:0:0:
448,192,98290,1,0,0:0:0:0:
192,192,98388,1,0,0:0:0:0:
64,192,98388,1,0,0:0:0:0:
320,192,98485,1,0,0:0:0:0:
448,192,98485,1,0,0:0:0:0:
64,192,98485,1,0,0:0:0:0:
192,192,98582,1,0,0:0:0:0:
320,192,98582,1,0,0:0:0:0:
192,192,98679,1,0,0:0:0:0:
64,192,98679,1,0,0:0:0:0:
448,192,98679,1,0,0:0:0:0:
320,192,98679,1,0,0:0:0:0:
192,192,98776,1,0,0:0:0:0:
448,192,98776,1,0,0:0:0:0:
320,192,98776,1,0,0:0:0:0:
448,192,98873,1,0,0:0:0:0:
320,192,98873,1,0,0:0:0:0:
192,192,98873,1,0,0:0:0:0:
448,192,98970,1,0,0:0:0:0:
64,192,98970,1,0,0:0:0:0:
192,192,99068,1,0,0:0:0:0:
64,192,99068,1,0,0:0:0:0:
448,192,99068,1,0,0:0:0:0:
320,192,99068,1,0,0:0:0:0:
320,192,99165,1,0,0:0:0:0:
192,192,99165,1,0,0:0:0:0:
64,192,99165,1,0,0:0:0:0:
192,192,99262,1,0,0:0:0:0:
320,192,99262,1,0,0:0:0:0:
64,192,99262,1,0,0:0:0:0:
64,192,99359,1,0,0:0:0:0:
448,192,99359,1,0,0:0:0:0:
320,192,99456,1,0,0:0:0:0:
64,192,99650,1,0,0:0:0:0:
192,192,99845,1,0,0:0:0:0:
320,192,99845,1,0,0:0:0:0:
192,192,100039,1,0,0:0:0:0:
64,192,100039,1,0,0:0:0:0:
