osu file format v14

[General]
AudioFilename: audio.mp3
AudioLeadIn: 0
PreviewTime: 40353
Countdown: 0
SampleSet: Normal
StackLeniency: 0.7
Mode: 1
LetterboxInBreaks: 0
WidescreenStoryboard: 1

[Editor]
DistanceSpacing: 0.8
BeatDivisor: 4
GridSize: 4
TimelineZoom: 1.4

[Metadata]
Title:Haunted
TitleUnicode:Haunted
Artist:laura les
ArtistUnicode:laura les
Creator:Chromoxx
Version:Kantan
Source:
Tags:horiiizon 100 gecs a2b2 night of fire 幽霊 euphoria electronic 殭屍 hyperpop 瘋 hyper pop english alternative dog show records
BeatmapID:3790225
BeatmapSetID:1845105

[Difficulty]
HPDrainRate:8
CircleSize:5
OverallDifficulty:3
ApproachRate:5
SliderMultiplier:1.4
SliderTickRate:1

[Events]
//Background and Video events
0,0,"darkinsanebg.jpg",0,0
//Break Periods
2,56846,61113
//Storyboard Layer 0 (Background)
//Storyboard Layer 1 (Fail)
//Storyboard Layer 2 (Pass)
//Storyboard Layer 3 (Foreground)
//Storyboard Layer 4 (Overlay)
//Storyboard Sound Samples

[TimingPoints]
5643,354.191263282172,4,1,0,40,1,0
5643,-100,4,1,0,40,0,0
11221,-100,4,1,0,80,0,0
11310,-100,4,1,0,80,0,1
33978,-100,4,1,0,80,0,0
34155,-100,4,1,0,60,0,0
56823,-100,4,1,0,20,0,0
62225,-100,4,1,0,40,0,0
67228,-100,4,1,0,60,0,0
67936,-100,4,1,0,80,0,0
67980,-100,4,1,0,80,0,1
90648,-100,4,1,0,80,0,0
90825,-100,4,1,0,60,0,0

[HitObjects]
306,227,5643,5,0,0:0:0:0:
306,227,6351,1,8,0:0:0:0:
306,227,6882,1,0,0:0:0:0:
280,189,7591,1,8,0:0:0:0:
280,189,7945,1,8,0:0:0:0:
259,229,8476,1,0,0:0:0:0:
259,229,9184,1,8,0:0:0:0:
259,229,9716,1,0,0:0:0:0:
259,229,10424,1,8,0:0:0:0:
227,170,11310,1,0,0:0:0:0:
227,170,12018,1,8,0:0:0:0:
227,170,12726,1,0,0:0:0:0:
227,170,13081,1,0,0:0:0:0:
226,175,13435,1,8,0:0:0:0:
225,179,14143,1,0,0:0:0:0:
224,182,14851,1,0,0:0:0:0:
224,182,15560,1,8,0:0:0:0:
224,182,15914,1,0,0:0:0:0:
224,182,16268,1,8,0:0:0:0:
234,246,16622,1,0,0:0:0:0:
234,246,16977,1,8,0:0:0:0:
397,235,17685,1,0,0:0:0:0:
151,164,18393,1,8,0:0:0:0:
151,164,18748,1,8,0:0:0:0:
151,164,19102,1,0,0:0:0:0:
151,164,19810,1,8,0:0:0:0:
204,163,20519,1,8,0:0:0:0:
204,163,21227,1,0,0:0:0:0:
204,163,21581,1,8,0:0:0:0:
204,163,21935,1,0,0:0:0:0:
204,163,22289,1,8,0:0:0:0:
204,163,22644,1,0,0:0:0:0:
316,243,23352,1,8,0:0:0:0:
316,243,24060,1,0,0:0:0:0:
232,212,24415,1,0,0:0:0:0:
232,212,24769,1,8,0:0:0:0:
232,212,25477,1,0,0:0:0:0:
208,203,26186,1,0,0:0:0:0:
208,203,26894,1,8,0:0:0:0:
208,203,27248,1,0,0:0:0:0:
208,203,27602,1,8,0:0:0:0:
208,203,27957,1,0,0:0:0:0:
208,203,28311,1,8,0:0:0:0:
208,203,29019,1,0,0:0:0:0:
208,203,29728,1,8,0:0:0:0:
208,203,30082,1,8,0:0:0:0:
208,203,30436,1,0,0:0:0:0:
208,203,31144,1,8,0:0:0:0:
208,203,31853,1,8,0:0:0:0:
208,203,32561,1,0,0:0:0:0:
208,203,32915,1,8,0:0:0:0:
208,203,33269,1,0,0:0:0:0:
208,203,33624,1,8,0:0:0:0:
208,203,33978,1,0,0:0:0:0:
293,136,35395,1,8,0:0:0:0:
293,136,36103,1,0,0:0:0:0:
293,136,36457,1,0,0:0:0:0:
293,136,36811,1,8,0:0:0:0:
293,136,37520,1,0,0:0:0:0:
250,182,38228,1,8,0:0:0:0:
204,244,39645,1,0,0:0:0:0:
153,188,40353,1,8,0:0:0:0:
153,188,40707,1,8,0:0:0:0:
153,188,41062,1,0,0:0:0:0:
153,188,41770,1,8,0:0:0:0:
153,188,42478,1,0,0:0:0:0:
293,283,43187,1,8,0:0:0:0:
293,283,43541,1,0,0:0:0:0:
293,283,43895,1,8,0:0:0:0:
288,176,45312,1,0,0:0:0:0:
288,176,46020,1,8,0:0:0:0:
221,200,46729,1,0,0:0:0:0:
171,217,47083,1,0,0:0:0:0:
171,217,47437,1,8,0:0:0:0:
171,217,48145,1,0,0:0:0:0:
171,217,48854,1,8,0:0:0:0:
302,226,49208,1,0,0:0:0:0:
302,226,49562,1,8,0:0:0:0:
270,271,50271,1,0,0:0:0:0:
306,219,50625,1,0,0:0:0:0:
306,219,50979,1,8,0:0:0:0:
306,219,51687,1,0,0:0:0:0:
176,244,52396,1,8,0:0:0:0:
176,244,52750,1,8,0:0:0:0:
176,244,53104,1,0,0:0:0:0:
176,244,53813,1,8,0:0:0:0:
294,199,54521,1,0,0:0:0:0:
294,199,54875,1,8,0:0:0:0:
294,199,55229,1,0,0:0:0:0:
290,245,55938,1,8,0:0:0:0:
294,199,56646,1,4,0:0:0:0:
306,227,62313,5,0,0:0:0:0:
306,227,63021,1,8,0:0:0:0:
306,227,63553,1,0,0:0:0:0:
280,189,64261,1,8,0:0:0:0:
280,189,64615,1,8,0:0:0:0:
259,229,65147,1,0,0:0:0:0:
259,229,65855,1,8,0:0:0:0:
259,229,66386,1,0,0:0:0:0:
259,229,67272,1,8,0:0:0:0:
227,170,67980,1,0,0:0:0:0:
227,170,68689,1,8,0:0:0:0:
227,170,69397,1,0,0:0:0:0:
227,170,69751,1,0,0:0:0:0:
226,175,70105,1,8,0:0:0:0:
225,179,70814,1,0,0:0:0:0:
224,182,71522,1,0,0:0:0:0:
224,182,72230,1,8,0:0:0:0:
224,182,72585,1,0,0:0:0:0:
224,182,72939,1,8,0:0:0:0:
234,246,73293,1,0,0:0:0:0:
234,246,73647,1,8,0:0:0:0:
397,235,74356,1,0,0:0:0:0:
151,164,75064,1,8,0:0:0:0:
151,164,75418,1,8,0:0:0:0:
151,164,75772,1,0,0:0:0:0:
151,164,76481,1,8,0:0:0:0:
204,163,77189,1,8,0:0:0:0:
204,163,77898,1,0,0:0:0:0:
204,163,78252,1,8,0:0:0:0:
204,163,78606,1,0,0:0:0:0:
204,163,78960,1,8,0:0:0:0:
204,163,79314,1,0,0:0:0:0:
316,243,80023,1,8,0:0:0:0:
316,243,80731,1,0,0:0:0:0:
232,212,81085,1,0,0:0:0:0:
232,212,81439,1,8,0:0:0:0:
232,212,82148,1,0,0:0:0:0:
208,203,82856,1,0,0:0:0:0:
208,203,83565,1,8,0:0:0:0:
208,203,83919,1,0,0:0:0:0:
208,203,84273,1,8,0:0:0:0:
208,203,84627,1,0,0:0:0:0:
208,203,84981,1,8,0:0:0:0:
208,203,85690,1,0,0:0:0:0:
208,203,86398,1,8,0:0:0:0:
208,203,86752,1,8,0:0:0:0:
208,203,87106,1,0,0:0:0:0:
208,203,87815,1,8,0:0:0:0:
208,203,88523,1,8,0:0:0:0:
208,203,89232,1,0,0:0:0:0:
208,203,89586,1,8,0:0:0:0:
208,203,89940,1,0,0:0:0:0:
208,203,90294,1,8,0:0:0:0:
208,203,90648,1,0,0:0:0:0:
323,189,91357,1,8,0:0:0:0:
323,189,92065,1,0,0:0:0:0:
323,189,92596,1,8,0:0:0:0:
159,190,92951,1,8,0:0:0:0:
323,189,93482,1,0,0:0:0:0:
265,146,94190,1,8,0:0:0:0:
265,146,94545,1,8,0:0:0:0:
265,146,94899,1,0,0:0:0:0:
307,252,96315,1,0,0:0:0:0:
307,252,97024,1,8,0:0:0:0:
307,252,97732,1,0,0:0:0:0:
266,185,98264,1,8,0:0:0:0:
266,185,98618,1,8,0:0:0:0:
266,185,99149,1,0,0:0:0:0:
266,185,99857,1,8,0:0:0:0:
266,185,100212,1,8,0:0:0:0:
266,185,100566,1,0,0:0:0:0:
349,271,101451,1,8,0:0:0:0:
349,271,101805,1,8,0:0:0:0:
