osu file format v14

[General]
AudioFilename: audio.mp3
AudioLeadIn: 0
PreviewTime: 10867
Countdown: 0
SampleSet: Soft
StackLeniency: 0
Mode: 0
LetterboxInBreaks: 0
WidescreenStoryboard: 1

[Editor]
Bookmarks: 5643,11310,22644,33978,45312,56646,67980,79314,90648,101983
DistanceSpacing: 0.8
BeatDivisor: 1
GridSize: 4
TimelineZoom: 2.819999

[Metadata]
Title:Haunted
TitleUnicode:Haunted
Artist:laura les
ArtistUnicode:laura les
Creator:A3THER_XX
Version:XX: Eternal Damnation
Source:
Tags:100 gecs a2b2 night of fire 幽霊 euphoria electronic 殭屍 hyperpop 瘋 hyper pop english electronic pop aether xx a3ther_xx asap_bakery laplus axelixiya ggraterson sytho mix M_I_X
BeatmapID:3436834
BeatmapSetID:1682143

[Difficulty]
HPDrainRate:5.5
CircleSize:4.2
OverallDifficulty:8.5
ApproachRate:9.3
SliderMultiplier:1.4
SliderTickRate:1

[Events]
//Background and Video events
0,0,"darkinsanebg.jpg",0,0
//Break Periods
2,59480,61759
//Storyboard Layer 0 (Background)
//Storyboard Layer 1 (Fail)
//Storyboard Layer 2 (Pass)
//Storyboard Layer 3 (Foreground)
//Storyboard Layer 4 (Overlay)
//Storyboard Sound Samples

[TimingPoints]
5643,354.191263282172,4,2,1,50,1,0
5643,-133.333333333333,4,2,1,50,0,0
8476,-100,4,2,1,50,0,0
10955,-50,4,2,1,50,0,0
11043,-50,4,2,1,5,0,0
11132,-50,4,2,1,50,0,0
11220,-50,4,2,1,5,0,0
11310,-26.6666666666667,4,2,2,90,0,0
11442,-26.6666666666667,4,2,2,5,0,0
11487,-50,4,2,2,90,0,0
11575,-50,4,2,2,5,0,0
11664,-50,4,2,2,90,0,0
11752,-50,4,2,2,5,0,0
11841,-50,4,2,2,90,0,0
12106,-50,4,2,2,5,0,0
12195,-50,4,2,2,90,0,0
12726,-26.6666666666667,4,2,2,90,0,0
12858,-26.6666666666667,4,2,2,5,0,0
12903,-50,4,2,2,90,0,0
12991,-50,4,2,2,5,0,0
13081,-50,4,2,2,90,0,0
13877,-50,4,2,2,5,0,0
13966,-50,4,2,2,90,0,0
14054,-50,4,2,2,5,0,0
14143,-26.6666666666667,4,2,2,90,0,0
14275,-26.6666666666667,4,2,2,5,0,0
14320,-50,4,2,2,90,0,0
14408,-50,4,2,2,5,0,0
14497,-50,4,2,2,90,0,0
14674,-50,4,2,2,5,0,0
14763,-50,4,2,2,90,0,0
15294,-50,4,2,2,5,0,0
15383,-50,4,2,2,90,0,0
15560,-26.6666666666667,4,2,2,90,0,0
15737,-50,4,2,2,90,0,0
16179,-50,4,2,2,5,0,0
16268,-50,4,2,2,90,0,0
16622,-33.3333333333333,4,2,2,90,0,0
16710,-33.3333333333333,4,2,2,5,0,0
16800,-33.3333333333333,4,2,2,90,0,0
16888,-33.3333333333333,4,2,2,5,0,0
16977,-26.6666666666667,4,2,2,90,0,0
17109,-26.6666666666667,4,2,2,5,0,0
17154,-50,4,2,2,90,0,0
17242,-50,4,2,2,5,0,0
17331,-50,4,2,2,90,0,0
17419,-50,4,2,2,5,0,0
17508,-50,4,2,2,90,0,0
17773,-50,4,2,2,5,0,0
17862,-50,4,2,2,90,0,0
18393,-26.6666666666667,4,2,2,90,0,0
18525,-26.6666666666667,4,2,2,5,0,0
18570,-50,4,2,2,90,0,0
18658,-50,4,2,2,5,0,0
18748,-50,4,2,2,90,0,0
18836,-50,4,2,2,5,0,0
18925,-50,4,2,2,90,0,0
19544,-50,4,2,2,5,0,0
19633,-50,4,2,2,90,0,0
19721,-50,4,2,2,5,0,0
19810,-26.6666666666667,4,2,2,90,0,0
19942,-26.6666666666667,4,2,2,5,0,0
19987,-50,4,2,2,90,0,0
20075,-50,4,2,2,5,0,0
20164,-50,4,2,2,90,0,0
20784,-50,4,2,2,5,0,0
20873,-50,4,2,2,90,0,0
21138,-50,4,2,2,5,0,0
21227,-26.6666666666667,4,2,2,90,0,0
21404,-50,4,2,2,90,0,0
22555,-50,4,2,2,5,0,0
22644,-28.5714285714286,4,2,2,90,0,0
22776,-28.5714285714286,4,2,2,5,0,0
22821,-50,4,2,2,90,0,0
22909,-50,4,2,2,5,0,0
22998,-50,4,2,2,90,0,0
23086,-50,4,2,2,5,0,0
23175,-50,4,2,2,90,0,0
23440,-50,4,2,2,5,0,0
23529,-50,4,2,2,90,0,0
24060,-26.6666666666667,4,2,2,90,0,0
24192,-26.6666666666667,4,2,2,5,0,0
24238,-50,4,2,2,90,0,0
24326,-50,4,2,2,5,0,0
24415,-50,4,2,2,90,0,0
25211,-50,4,2,2,5,0,0
25300,-50,4,2,2,90,0,0
25388,-50,4,2,2,5,0,0
25477,-26.6666666666667,4,2,2,90,0,0
25609,-26.6666666666667,4,2,2,5,0,0
25654,-50,4,2,2,90,0,0
25742,-50,4,2,2,5,0,0
25831,-50,4,2,2,90,0,0
26008,-50,4,2,2,5,0,0
26097,-50,4,2,2,90,0,0
26628,-50,4,2,2,5,0,0
26717,-50,4,2,2,90,0,0
26894,-26.6666666666667,4,2,2,90,0,0
27071,-50,4,2,2,90,0,0
27513,-50,4,2,2,5,0,0
27602,-50,4,2,2,90,0,0
27957,-40,4,2,2,90,0,0
28045,-40,4,2,2,5,0,0
28134,-40,4,2,2,90,0,0
28222,-40,4,2,2,5,0,0
28311,-26.6666666666667,4,2,2,90,0,0
28443,-26.6666666666667,4,2,2,5,0,0
28488,-50,4,2,2,90,0,0
28576,-50,4,2,2,5,0,0
28665,-50,4,2,2,90,0,0
28753,-50,4,2,2,5,0,0
28842,-50,4,2,2,90,0,0
29107,-50,4,2,2,5,0,0
29196,-50,4,2,2,90,0,0
29728,-26.6666666666667,4,2,2,90,0,0
29860,-26.6666666666667,4,2,2,5,0,0
29905,-50,4,2,2,90,0,0
29993,-50,4,2,2,5,0,0
30082,-50,4,2,2,90,0,0
30170,-50,4,2,2,5,0,0
30259,-50,4,2,2,90,0,0
30878,-50,4,2,2,5,0,0
30967,-50,4,2,2,90,0,0
31055,-50,4,2,2,5,0,0
31144,-26.6666666666667,4,2,2,90,0,0
31276,-26.6666666666667,4,2,2,5,0,0
31321,-50,4,2,2,90,0,0
32472,-50,4,2,2,5,0,0
32561,-26.6666666666667,4,2,2,90,0,0
32738,-50,4,2,2,90,0,0
32826,-50,4,2,2,5,0,0
32915,-50,4,2,2,90,0,0
33003,-50,4,2,2,5,0,0
33092,-50,4,2,2,90,0,0
33624,-33.3333333333333,4,2,2,90,0,0
33756,-33.3333333333333,4,2,2,5,0,0
33801,-41.6666666666667,4,2,2,90,0,0
33889,-41.6666666666667,4,2,2,5,0,0
33978,-100,4,2,1,50,0,0
34332,-100,4,2,1,50,0,0
34686,-100,4,2,1,50,0,0
35395,-66.6666666666667,4,2,1,50,0,0
36103,-100,4,2,1,50,0,0
36811,-100,4,2,1,50,0,0
38228,-100,4,2,1,50,0,0
39645,-76.9230769230769,4,2,1,50,0,0
39999,-76.9230769230769,4,2,1,50,0,0
42478,-66.6666666666667,4,2,1,50,0,0
42833,-66.6666666666667,4,2,1,50,0,0
44604,-57.1428571428571,4,2,1,50,0,0
44648,-57.1428571428571,4,2,1,5,0,0
44781,-57.1428571428571,4,2,1,50,0,0
44825,-57.1428571428571,4,2,1,5,0,0
44958,-57.1428571428571,4,2,1,50,0,0
45002,-57.1428571428571,4,2,1,5,0,0
45135,-57.1428571428571,4,2,1,50,0,0
45179,-57.1428571428571,4,2,1,5,0,0
45312,-66.6666666666667,4,2,1,65,0,0
45666,-66.6666666666667,4,2,1,65,0,0
46020,-66.6666666666667,4,2,1,65,0,0
47083,-66.6666666666667,4,2,1,65,0,0
47437,-66.6666666666667,4,2,1,65,0,0
49916,-57.1428571428571,4,2,1,65,0,0
50182,-57.1428571428571,4,2,1,5,0,0
50271,-66.6666666666667,4,2,1,65,0,0
50979,-62.5,4,2,1,65,0,0
51333,-62.5,4,2,1,65,0,0
52750,-62.5,4,2,1,65,0,0
56646,-100,4,2,1,65,0,0
56735,-100,4,2,1,5,0,0
58062,-100,4,2,1,5,0,0
62313,-100,4,2,1,65,0,0
67272,-45.4545454545455,4,2,1,65,0,0
67626,-40,4,2,1,65,0,0
67714,-40,4,2,1,5,0,0
67803,-40,4,2,1,65,0,0
67891,-40,4,2,1,5,0,0
67980,-23.5294117647059,4,2,2,90,0,0
68112,-23.5294117647059,4,2,2,5,0,0
68157,-43.4782608695652,4,2,2,90,0,0
68245,-43.4782608695652,4,2,2,5,0,0
68334,-43.4782608695652,4,2,2,90,0,0
68422,-43.4782608695652,4,2,2,5,0,0
68511,-43.4782608695652,4,2,2,90,0,0
68777,-43.4782608695652,4,2,2,5,0,0
68866,-43.4782608695652,4,2,2,90,0,0
69397,-26.3157894736842,4,2,2,90,0,0
69529,-26.3157894736842,4,2,2,5,0,0
69574,-43.4782608695652,4,2,2,90,0,0
69662,-43.4782608695652,4,2,2,5,0,0
69751,-43.4782608695652,4,2,2,90,0,0
70548,-43.4782608695652,4,2,2,5,0,0
70637,-43.4782608695652,4,2,2,90,0,0
70725,-43.4782608695652,4,2,2,5,0,0
70814,-26.3157894736842,4,2,2,90,0,0
70946,-26.3157894736842,4,2,2,5,0,0
70991,-43.4782608695652,4,2,2,90,0,0
71079,-43.4782608695652,4,2,2,5,0,0
71168,-43.4782608695652,4,2,2,90,0,0
71345,-43.4782608695652,4,2,2,5,0,0
71434,-43.4782608695652,4,2,2,90,0,0
71964,-43.4782608695652,4,2,2,5,0,0
72053,-43.4782608695652,4,2,2,90,0,0
72230,-26.3157894736842,4,2,2,90,0,0
72408,-43.4782608695652,4,2,2,90,0,0
72850,-43.4782608695652,4,2,2,5,0,0
72939,-43.4782608695652,4,2,2,90,0,0
73647,-25.3164556962025,4,2,2,90,0,0
73779,-25.3164556962025,4,2,2,5,0,0
73824,-43.4782608695652,4,2,2,90,0,0
73912,-43.4782608695652,4,2,2,5,0,0
74001,-43.4782608695652,4,2,2,90,0,0
74089,-43.4782608695652,4,2,2,5,0,0
74179,-43.4782608695652,4,2,2,90,0,0
74444,-43.4782608695652,4,2,2,5,0,0
74533,-43.4782608695652,4,2,2,90,0,0
75064,-26.3157894736842,4,2,2,90,0,0
75196,-26.3157894736842,4,2,2,5,0,0
75241,-43.4782608695652,4,2,2,90,0,0
75329,-43.4782608695652,4,2,2,5,0,0
75418,-43.4782608695652,4,2,2,90,0,0
75506,-43.4782608695652,4,2,2,5,0,0
75595,-43.4782608695652,4,2,2,90,0,0
76215,-43.4782608695652,4,2,2,5,0,0
76304,-43.4782608695652,4,2,2,90,0,0
76392,-43.4782608695652,4,2,2,5,0,0
76481,-26.3157894736842,4,2,2,90,0,0
76613,-26.3157894736842,4,2,2,5,0,0
76658,-43.4782608695652,4,2,2,90,0,0
76746,-43.4782608695652,4,2,2,5,0,0
76835,-43.4782608695652,4,2,2,90,0,0
77454,-43.4782608695652,4,2,2,5,0,0
77543,-43.4782608695652,4,2,2,90,0,0
77808,-43.4782608695652,4,2,2,5,0,0
77898,-26.3157894736842,4,2,2,90,0,0
78075,-43.4782608695652,4,2,2,90,0,0
79225,-43.4782608695652,4,2,2,5,0,0
79314,-26.3157894736842,4,2,2,90,0,0
79446,-26.3157894736842,4,2,2,5,0,0
79491,-43.4782608695652,4,2,2,90,0,0
79579,-43.4782608695652,4,2,2,5,0,0
79668,-43.4782608695652,4,2,2,90,0,0
79756,-43.4782608695652,4,2,2,5,0,0
79846,-43.4782608695652,4,2,2,90,0,0
80111,-43.4782608695652,4,2,2,5,0,0
80200,-43.4782608695652,4,2,2,90,0,0
80731,-26.3157894736842,4,2,2,90,0,0
80863,-26.3157894736842,4,2,2,5,0,0
80908,-43.4782608695652,4,2,2,90,0,0
80996,-43.4782608695652,4,2,2,5,0,0
81085,-43.4782608695652,4,2,2,90,0,0
81882,-43.4782608695652,4,2,2,5,0,0
81971,-43.4782608695652,4,2,2,90,0,0
82059,-43.4782608695652,4,2,2,5,0,0
82148,-25.6410256410256,4,2,2,90,0,0
82280,-25.6410256410256,4,2,2,5,0,0
82325,-43.4782608695652,4,2,2,90,0,0
82413,-43.4782608695652,4,2,2,5,0,0
82502,-43.4782608695652,4,2,2,90,0,0
82679,-43.4782608695652,4,2,2,5,0,0
82768,-43.4782608695652,4,2,2,90,0,0
83298,-43.4782608695652,4,2,2,5,0,0
83387,-43.4782608695652,4,2,2,90,0,0
83565,-26.3157894736842,4,2,2,90,0,0
83742,-43.4782608695652,4,2,2,90,0,0
84184,-43.4782608695652,4,2,2,5,0,0
84273,-43.4782608695652,4,2,2,90,0,0
84981,-25,4,2,2,90,0,0
85113,-25,4,2,2,5,0,0
85158,-43.4782608695652,4,2,2,90,0,0
85246,-43.4782608695652,4,2,2,5,0,0
85336,-43.4782608695652,4,2,2,90,0,0
85424,-43.4782608695652,4,2,2,5,0,0
85513,-43.4782608695652,4,2,2,90,0,0
85778,-43.4782608695652,4,2,2,5,0,0
85867,-43.4782608695652,4,2,2,90,0,0
86398,-26.3157894736842,4,2,2,90,0,0
86530,-26.3157894736842,4,2,2,5,0,0
86575,-43.4782608695652,4,2,2,90,0,0
86663,-43.4782608695652,4,2,2,5,0,0
86752,-43.4782608695652,4,2,2,90,0,0
86840,-43.4782608695652,4,2,2,5,0,0
86929,-43.4782608695652,4,2,2,90,0,0
87549,-43.4782608695652,4,2,2,5,0,0
87638,-43.4782608695652,4,2,2,90,0,0
87726,-43.4782608695652,4,2,2,5,0,0
87815,-26.3157894736842,4,2,2,90,0,0
87947,-26.3157894736842,4,2,2,5,0,0
87992,-43.4782608695652,4,2,2,90,0,0
88080,-43.4782608695652,4,2,2,5,0,0
88169,-43.4782608695652,4,2,2,90,0,0
88788,-43.4782608695652,4,2,2,5,0,0
88877,-43.4782608695652,4,2,2,90,0,0
89143,-43.4782608695652,4,2,2,5,0,0
89232,-26.3157894736842,4,2,2,90,0,0
89409,-43.4782608695652,4,2,2,90,0,0
90648,-100,4,2,1,90,0,0
90825,-100,4,2,1,5,0,0
91003,-100,4,2,1,90,0,0
91180,-100,4,2,1,5,0,0
91357,-100,4,2,1,90,0,0
92242,-100,4,2,1,5,0,0
92419,-100,4,2,1,90,0,0
93659,-100,4,2,1,5,0,0
93836,-100,4,2,1,90,0,0
94013,-100,4,2,1,5,0,0
94190,-100,4,2,1,90,0,0
94722,-76.9230769230769,4,2,1,90,0,0
95076,-100,4,2,1,5,0,0
95253,-100,4,2,1,90,0,0
96315,-86.9565217391304,4,2,1,90,0,0
96492,-86.9565217391304,4,2,1,5,0,0
96670,-86.9565217391304,4,2,1,90,0,0
97909,-86.9565217391304,4,2,1,5,0,0
98086,-86.9565217391304,4,2,1,90,0,0
98706,-86.9565217391304,4,2,1,5,0,0
98795,-86.9565217391304,4,2,1,90,0,0
98883,-86.9565217391304,4,2,1,5,0,0
98972,-86.9565217391304,4,2,1,90,0,0
99060,-86.9565217391304,4,2,1,5,0,0
99149,-86.9565217391304,4,2,1,90,0,0
99326,-86.9565217391304,4,2,1,5,0,0
99503,-86.9565217391304,4,2,1,90,0,0
100743,-86.9565217391304,4,2,1,5,0,0
100920,-86.9565217391304,4,2,1,90,0,0
101274,-50,4,2,1,90,0,0
101716,-50,4,2,1,5,0,0
101805,-58.8235294117647,4,2,3,90,0,0
101894,-58.8235294117647,4,2,3,5,0,0

[Colours]
Combo1 : 217,0,255
Combo2 : 128,255,0
Combo3 : 0,128,255
Combo4 : 255,0,0

[HitObjects]
40,336,5643,5,0,0:0:0:0:
112,368,5820,1,0,0:0:0:0:
212,264,5997,2,0,P|188:252|156:248,1,52.5000020027161
32,136,6351,5,0,0:0:0:0:
108,114,6528,1,0,0:0:0:0:
168,168,6705,1,0,0:0:0:0:
284,24,6882,2,0,L|226:39,1,52.5000020027161
227,117,7236,37,0,0:0:0:0:
242,112,7413,1,0,0:0:0:0:
284,24,7591,2,0,L|226:39,1,52.5000020027161
40,176,7945,2,0,L|97:191,2,52.5000020027161
234,346,8476,5,0,0:0:0:0:
315,324,8653,1,0,0:0:0:0:
293,243,8830,1,0,0:0:0:0:
212,264,9007,1,0,0:0:0:0:
388,364,9184,38,0,P|396:328|388:292,1,70
444,236,9539,1,0,0:0:0:0:
320,96,9716,6,0,L|397:116,1,70
500,40,10070,1,0,0:0:0:0:
416,36,10247,1,0,0:0:0:0:
387,114,10424,1,0,0:0:0:0:
508,172,10601,38,0,L|494:152,4,17.5
228,320,10955,6,0,P|242:290|271:267,1,70,0|0,0:0|2:0,0:0:0:0:
333,320,11132,2,0,P|318:349|289:372,1,70,0|0,0:0|2:0,0:0:0:0:
80,364,11310,6,0,B|53:391|12:354|22:317|64:306|64:306|183:274,1,196.875004693866,4|0,3:3|2:0,0:0:0:0:
179,223,11487,2,0,P|207:255|211:295,1,70,0|0,0:0|2:0,0:0:0:0:
12,172,11664,6,0,P|36:140|72:128,1,70,8|0,0:1|2:0,0:0:0:0:
140,128,11841,1,0,0:0:0:0:
45,27,12018,38,0,P|82:39|105:70,1,70,0|0,0:0|2:0,0:0:0:0:
104,200,12195,1,0,3:0:0:0:
256,36,12372,1,8,0:1:0:0:
372,240,12549,5,0,0:0:0:0:
384,248,12638,1,0,0:0:0:0:
396,256,12726,2,0,B|380:200|428:168|428:168|472:144|464:84,1,196.875004693866,0|0,3:0|2:0,0:0:0:0:
408,32,12903,2,0,P|388:68|388:104,1,70,0|0,0:0|2:0,0:0:0:0:
500,212,13081,1,8,0:1:0:0:
268,356,13258,37,0,0:0:0:0:
287,282,13435,2,0,L|297:243,2,35
268,356,13612,1,0,3:0:0:0:
504,304,13789,6,0,L|430:323,1,70,8|0,0:1|2:0,0:0:0:0:
268,136,13966,2,0,L|341:155,1,70,0|0,0:0|2:0,0:0:0:0:
196,184,14143,38,0,B|199:155|180:134|149:125|149:125|103:113|103:113|98:116|98:116|20:95,1,196.875004693866,0|0,3:0|2:0,0:0:0:0:
12,28,14320,2,0,P|51:22|86:37,1,70,0|0,0:0|2:0,0:0:0:0:
128,92,14497,2,0,B|111:153|111:153|104:164|104:164|86:230,1,140,8|0,0:1|2:0,0:0:0:0:
32,272,14763,1,0,0:0:0:0:
36,287,14851,1,0,0:0:0:0:
260,364,15029,5,0,3:0:0:0:
156,276,15206,2,0,L|256:249,1,70,8|0,0:1|2:0,0:0:0:0:
298,237,15383,1,0,0:0:0:0:
156,276,15560,37,0,3:0:0:0:
352,156,15737,1,0,0:0:0:0:
192,44,15914,1,8,0:1:0:0:
356,292,16091,6,0,L|433:271,1,70,0|0,0:0|2:0,0:0:0:0:
480,220,16268,2,0,L|470:186,2,35
499,293,16445,1,0,3:0:0:0:
272,160,16622,38,0,P|302:115|360:99,1,105.000004005432,8|0,0:1|2:0,0:0:0:0:
392,32,16800,6,0,P|443:46|477:97,1,105.000004005432,2|0,0:1|2:0,0:0:0:0:
480,220,16977,38,0,B|433:198|398:252|398:252|364:309|304:288,1,196.875004693866,0|0,3:0|2:0,0:0:0:0:
244,316,17154,2,0,B|252:346|252:346|249:351|249:351|260:394,1,70,0|0,0:0|2:0,0:0:0:0:
156,276,17331,6,0,P|140:247|100:217,1,70,8|0,0:1|2:0,0:0:0:0:
40,195,17508,1,0,3:0:0:0:
161,124,17685,38,0,P|129:129|88:158,1,70,0|0,0:0|2:0,0:0:0:0:
50,271,17862,1,0,3:0:0:0:
8,31,18039,1,8,0:1:0:0:
228,164,18216,5,0,0:0:0:0:
224,180,18305,1,0,0:0:0:0:
220,196,18393,2,0,B|281:179|335:164|335:164|369:155|396:136|391:81|360:60,1,196.875004693866,0|0,3:0|2:0,0:0:0:0:
304,28,18570,2,0,P|300:72|324:104,1,70,0|0,0:0|2:0,0:0:0:0:
496,212,18748,38,0,P|459:186|420:191,1,70,8|0,0:1|2:0,0:0:0:0:
373,234,18925,1,0,3:0:0:0:
368,249,19102,1,0,0:0:0:0:
424,40,19279,1,0,3:0:0:0:
483,288,19456,6,0,P|448:289|418:305,1,70,8|0,0:1|2:0,0:0:0:0:
437,376,19633,2,0,P|471:374|501:358,1,70,0|0,0:0|2:0,0:0:0:0:
292,252,19810,38,0,B|241:264|198:277|198:277|170:284|146:308|146:352,1,196.875004693866,0|0,3:0|2:0,0:0:0:0:
280,376,19987,2,0,P|247:350|207:348,1,70,0|0,0:0|2:0,0:0:0:0:
148,372,20164,5,8,0:1:0:0:
248,188,20341,1,0,3:0:0:0:
36,52,20519,1,0,0:0:0:0:
132,248,20696,38,0,L|151:174,1,70,0|0,3:0|2:0,0:0:0:0:
169,108,20873,1,8,0:1:0:0:
366,159,21050,6,0,L|347:85,1,70,0|0,0:0|2:0,0:0:0:0:
329,19,21227,1,0,3:0:0:0:
295,241,21404,37,0,0:0:0:0:
496,124,21581,1,8,0:1:0:0:
256,5,21758,1,0,3:0:0:0:
16,124,21935,6,0,L|29:174,2,35
36,52,22112,1,0,3:0:0:0:
132,248,22289,2,0,L|145:198,2,35,8|0|0,0:1|0:0|0:0,0:0:0:0:
76,296,22467,2,0,L|-1:317,1,70,2|0,0:1|2:0,0:0:0:0:
256,360,22644,38,0,P|336:312|424:304,1,183.750001752377,4|0,3:3|2:0,0:0:0:0:
500,324,22821,2,0,P|500:288|480:252,1,70,0|0,0:0|2:0,0:0:0:0:
480,128,22998,6,0,P|441:118|405:132,1,70,8|0,0:1|2:0,0:0:0:0:
353,176,23175,1,0,0:0:0:0:
361,38,23352,38,0,P|340:70|342:109,1,70,0|0,0:0|2:0,0:0:0:0:
427,208,23529,1,0,3:0:0:0:
504,8,23706,1,8,0:1:0:0:
280,152,23883,5,0,0:0:0:0:
260,146,23972,1,0,0:0:0:0:
241,141,24060,2,0,B|163:120|163:120|125:109|101:58|167:13|194:66,1,196.875004693866,0|0,3:0|2:0,0:0:0:0:
244,64,24238,2,0,P|244:24|231:-1,1,70,0|0,0:0|2:0,0:0:0:0:
60,44,24415,1,8,0:1:0:0:
188,252,24592,37,0,0:0:0:0:
207,326,24769,2,0,L|217:365,2,35
188,252,24946,1,0,3:0:0:0:
292,368,25123,6,0,L|361:349,1,70,8|0,0:1|2:0,0:0:0:0:
116,180,25300,2,0,L|46:161,1,70,0|0,0:0|2:0,0:0:0:0:
22,323,25477,38,0,B|68:340|103:286|103:286|137:233|192:252,1,196.875004693866,0|0,3:0|2:0,0:0:0:0:
260,272,25654,2,0,L|329:253,1,70,0|0,0:0|2:0,0:0:0:0:
395,168,25831,2,0,P|324:198|326:253,1,140,8|0,0:1|2:0,0:0:0:0:
380,308,26097,1,0,0:0:0:0:
375,323,26186,1,0,0:0:0:0:
336,96,26363,5,0,3:0:0:0:
490,254,26540,2,0,L|467:168,1,70,8|0,0:1|2:0,0:0:0:0:
452,112,26717,1,0,0:0:0:0:
490,254,26894,37,0,3:0:0:0:
292,368,27071,1,0,0:0:0:0:
452,112,27248,1,8,0:1:0:0:
220,16,27425,6,0,P|256:20|288:44,1,70,0|0,0:0|2:0,0:0:0:0:
336,96,27602,2,0,L|322:146,2,35
360,24,27779,1,0,3:0:0:0:
180,240,27957,38,0,P|131:235|95:203,1,87.5,8|0,0:1|2:0,0:0:0:0:
24,204,28134,6,0,P|12:156|31:112,1,87.5,2|0,0:1|2:0,0:0:0:0:
148,32,28311,38,0,B|168:1|81:-28|79:25|90:64|90:64|108:133,1,196.875004693866,0|0,3:0|2:0,0:0:0:0:
172,164,28488,2,0,L|192:90,1,70,0|0,0:0|2:0,0:0:0:0:
220,308,28665,6,0,P|252:300|291:269,1,70,8|0,0:1|2:0,0:0:0:0:
327,216,28842,1,0,3:0:0:0:
364,352,29019,38,0,P|367:319|350:272,1,70,0|0,0:0|2:0,0:0:0:0:
251,206,29196,1,0,3:0:0:0:
492,308,29373,1,8,0:1:0:0:
462,179,29550,5,0,0:0:0:0:
457,192,29639,1,0,0:0:0:0:
452,206,29728,2,0,B|440:225|440:254|440:254|417:169|417:169|420:164|420:164|402:99,1,196.875004693866,0|0,3:0|2:0,0:0:0:0:
420,38,29905,2,0,P|460:58|480:118,1,70,0|0,0:0|2:0,0:0:0:0:
328,144,30082,38,0,L|242:125,1,70,8|0,0:1|2:0,0:0:0:0:
142,105,30259,1,0,3:0:0:0:
128,102,30436,1,0,0:0:0:0:
344,28,30613,1,0,3:0:0:0:
196,304,30790,6,0,P|181:279|178:238,1,70,8|0,0:1|2:0,0:0:0:0:
251,218,30967,2,0,P|265:242|268:283,1,70,0|0,0:0|2:0,0:0:0:0:
64,308,31144,2,0,P|152:309|252:359,1,196.875004693866,0|0,3:0|2:0,0:0:0:0:
263,370,31321,1,0,0:0:0:0:
108,140,31498,1,8,0:1:0:0:
4,256,31676,1,0,3:0:0:0:
216,152,31853,37,0,0:0:0:0:
138,37,32030,1,0,3:0:0:0:
404,136,32207,5,8,0:1:0:0:
326,251,32384,2,0,L|411:232,1,70,0|0,0:0|2:0,0:0:0:0:
512,212,32561,1,0,3:0:0:0:
308,28,32738,38,0,P|308:68|340:104,1,70,0|0,0:0|2:0,0:0:0:0:
272,148,32915,2,0,P|307:168|354:158,1,70,8|0,0:1|2:0,0:0:0:0:
488,88,33092,5,0,3:0:0:0:
428,40,33269,2,0,L|436:1,2,35
488,88,33447,1,0,3:0:0:0:
344,324,33624,38,0,B|441:298|441:298|468:291|492:305|498:328,1,157.500006008148,8|0,0:1|2:0,0:0:0:0:
444,376,33801,2,0,P|413:339|419:299,1,83.9999974365235,2|0,0:1|0:0,0:0:0:0:
512,212,33978,22,0,P|471:190|423:195,1,70,4|0,3:1|2:0,0:0:0:0:
268,356,34332,2,0,P|313:350|350:319,1,70,8|0,0:3|2:0,0:0:0:0:
204,172,34686,5,0,0:0:0:0:
136,208,34863,1,0,3:0:0:0:
208,316,35040,2,0,P|208:276|192:236,1,70,8|0,0:3|2:0,0:0:0:0:
33,249,35395,38,0,B|86:270|118:210|118:210|149:150|203:171,2,210.000008010865,0|8|0,3:0|0:3|0:0,0:0:0:0:
96,120,36280,1,0,3:0:0:0:
12,16,36457,2,0,P|28:56|28:100,1,70,8|0,0:3|2:0,0:0:0:0:
268,88,36811,6,0,P|208:100|204:172,1,140,0|8,3:0|0:3,0:0:0:0:
272,208,37343,1,0,0:0:0:0:
404,36,37520,38,0,L|326:56,1,70,0|0,0:0|3:0,0:0:0:0:
484,148,37874,2,0,L|406:127,1,70,8|0,0:3|2:0,0:0:0:0:
316,310,38228,2,0,P|372:270|444:262,1,140,0|8,3:0|0:3,0:0:0:0:
456,264,38759,1,0,0:0:0:0:
504,320,38936,6,0,L|495:350,2,17.5
456,264,39114,1,0,3:0:0:0:
184,372,39291,37,8,0:3:0:0:
236,304,39468,2,0,L|240:320,2,17.5
200,157,39645,6,0,P|144:161|108:133,1,90.9999958343508,2|0,3:2|2:0,0:0:0:0:
256,28,39999,1,8,0:3:0:0:
256,104,40176,1,0,3:0:0:0:
312,157,40353,38,0,P|368:161|404:133,1,90.9999958343508,2|0,0:2|3:0,0:0:0:0:
256,28,40707,1,8,0:3:0:0:
256,104,40885,1,0,0:0:0:0:
330,252,41062,6,0,B|281:252|256:207|256:207|232:252|183:252,1,181.999991668702,2|8,3:2|0:3,0:0:0:0:
116,216,41593,1,0,3:0:0:0:
32,340,41770,38,0,L|26:318,2,22.7499989585877
98,374,41947,1,0,3:0:0:0:
12,224,42124,5,8,0:3:0:0:
116,143,42301,1,0,0:0:0:0:
312,157,42478,38,0,P|368:161|412:128,1,105.000004005432,2|0,3:2|2:0,0:0:0:0:
172,20,42833,1,8,0:3:0:0:
216,84,43010,1,0,3:0:0:0:
200,157,43187,6,0,P|144:161|104:132,1,105.000004005432,2|0,0:2|3:0,0:0:0:0:
340,20,43540,1,8,0:3:0:0:
296,84,43718,1,0,0:0:0:0:
312,156,43895,38,0,B|368:180|416:124|416:124|460:72|520:108,1,210.000008010865,2|8,3:2|0:3,0:0:0:0:
432,24,44426,1,0,0:0:0:0:
508,168,44604,6,0,L|508:208,1,30.6250002920628
494,170,44781,38,0,L|510:206,1,30.6250002920628
483,179,44958,6,0,L|513:204,1,30.6250002920628
477,191,45135,38,0,L|515:201,1,30.6250002920628
476,356,45312,6,0,P|428:332|360:324,1,105.000004005432,4|0,3:2|2:0,0:0:0:0:
248,272,45666,2,0,P|307:261|356:220,1,105.000004005432,8|0,0:2|2:0,0:0:0:0:
332,68,46020,37,0,0:0:0:0:
248,152,46197,1,0,3:0:0:0:
424,240,46374,5,8,0:2:0:0:
340,156,46551,1,0,0:0:0:0:
224,344,46729,38,0,B|177:331|177:331|172:334|172:334|118:319,1,105.000004005432,0|0,3:0|2:0,0:0:0:0:
0,220,47083,2,0,B|46:207|46:207|51:210|51:210|105:195,1,105.000004005432,8|0,0:2|2:0,0:0:0:0:
248,68,47437,6,0,L|256:37,2,26.2500010013581
132,36,47614,1,0,3:0:0:0:
180,220,47791,37,8,0:2:0:0:
160,144,47968,1,0,0:0:0:0:
431,119,48145,6,0,B|381:145|340:95|340:95|298:42|245:68,1,210.000008010865,0|8,3:0|0:2,0:0:0:0:
368,12,48677,1,0,0:0:0:0:
512,112,48854,37,0,0:0:0:0:
468,48,49031,1,0,3:0:0:0:
304,220,49208,5,8,0:2:0:0:
348,156,49385,1,0,0:0:0:0:
504,284,49562,2,0,P|448:288|404:312,1,105.000004005432,0|0,3:0|2:0,0:0:0:0:
304,352,49916,2,0,P|312:272|388:300,1,183.750001752377,8|0,0:2|2:0,0:0:0:0:
452,340,50271,38,0,L|460:370,2,26.2500010013581
504,284,50448,1,0,3:0:0:0:
224,248,50625,5,8,0:2:0:0:
280,196,50802,2,0,L|272:166,2,26.2500010013581,2|0|0,0:1|0:0|0:0,0:0:0:0:
120,368,50979,38,0,P|124:312|144:260,1,112,0|0,3:0|2:0,0:0:0:0:
24,136,51333,2,0,P|32:196|88:208,1,112,8|0,0:2|3:0,0:0:0:0:
112,72,51687,5,0,0:0:0:0:
24,24,51864,1,0,3:0:0:0:
224,108,52042,37,8,0:2:0:0:
136,156,52219,1,0,0:0:0:0:
288,200,52396,6,0,P|348:184|380:132,1,112,0|0,3:0|2:0,0:0:0:0:
296,16,52750,2,0,P|279:75|308:129,1,112,8|0,0:2|3:0,0:0:0:0:
480,144,53104,38,0,L|488:174,2,28
455,51,53281,1,0,3:0:0:0:
351,238,53458,5,8,0:2:0:0:
376,145,53635,1,0,0:0:0:0:
504,288,53813,38,0,B|450:258|408:313|408:313|367:376|313:347,1,224,0|8,3:0|0:2,0:0:0:0:
224,252,54344,1,0,3:0:0:0:
288,200,54521,1,0,0:0:0:0:
40,160,54698,5,0,3:0:0:0:
152,360,54875,1,8,0:2:0:0:
144,228,55052,1,0,0:0:0:0:
0,328,55229,38,0,B|50:314|50:314|53:309|53:309|118:292,2,112,0|0|8,3:0|0:0|0:2,0:0:0:0:
152,360,55761,1,0,3:0:0:0:
40,160,55938,2,0,L|31:129,2,28
108,124,56115,1,0,3:0:0:0:
220,232,56292,5,8,0:2:0:0:
152,196,56469,2,0,L|144:223,2,28,2|0|0,0:1|0:0|0:0,0:0:0:0:
296,96,56646,6,0,B|267:64|211:60|211:60|276:64|319:16|319:16|371:28|387:72|387:72|348:140|391:204|391:204|452:186|452:120,1,560,4|0,0:1|2:0,0:0:0:0:
368,364,62313,21,0,0:0:0:0:
294,344,62490,1,0,0:0:0:0:
408,244,62667,2,0,P|420:280|420:324,1,70
512,136,63021,5,0,0:0:0:0:
436,118,63199,1,0,0:0:0:0:
380,171,63376,1,0,0:0:0:0:
256,32,63553,2,0,L|333:52,1,70
304,156,63907,37,0,0:0:0:0:
276,163,64084,1,0,0:0:0:0:
200,104,64261,2,0,L|126:123,1,70
20,28,64615,2,0,P|56:36|96:60,2,70
115,264,65147,5,0,0:0:0:0:
94,188,65324,1,0,0:0:0:0:
19,209,65501,1,0,0:0:0:0:
39,284,65678,1,0,0:0:0:0:
172,319,65855,38,0,P|192:283|192:247,1,70
256,364,66209,1,0,0:0:0:0:
340,319,66386,6,0,P|320:283|320:247,1,70
256,368,66740,1,0,0:0:0:0:
340,180,66918,37,0,0:0:0:0:
172,180,67095,1,0,0:0:0:0:
324,24,67272,6,0,L|348:56,1,38.5000011749268,2|0,0:2|0:0,0:0:0:0:
256,60,67360,38,0,L|256:108,1,38.5000011749268,2|0,0:2|0:0,0:0:0:0:
188,24,67449,6,0,L|164:56,1,38.5000011749268,2|0,0:2|0:0,0:0:0:0:
324,24,67626,38,0,P|352:69|349:134,1,87.5,2|0,0:2|2:0,0:0:0:0:
188,24,67803,2,0,P|159:69|162:134,1,87.5,2|0,0:2|2:0,0:0:0:0:
256,196,67980,22,0,B|264:187|280:183|280:183|226:171|197:225|197:225|164:279|93:262,1,223.125004255772,4|0,3:2|2:0,0:0:0:0:
52,312,68157,2,0,P|92:340|132:340,1,80.5000015354157,0|0,0:0|2:0,0:0:0:0:
156,100,68334,6,0,P|116:88|76:104,1,80.5000015354157,10|0,0:1|2:0,0:0:0:0:
28,156,68511,1,0,0:0:0:0:
28,8,68689,38,0,P|4:42|7:85,1,80.5000015354157,2|0,0:2|2:0,0:0:0:0:
100,188,68866,1,0,3:0:0:0:
0,368,69043,1,8,0:1:0:0:
148,272,69220,5,0,0:0:0:0:
132,268,69308,1,0,0:0:0:0:
117,265,69397,2,0,B|164:240|204:292|204:292|244:344|291:324,1,199.499994672775,0|0,3:0|2:0,0:0:0:0:
384,276,69574,2,0,P|348:252|296:256,1,80.5000015354157,0|0,0:0|2:0,0:0:0:0:
188,380,69751,1,10,0:1:0:0:
380,180,69928,37,0,0:0:0:0:
447,224,70105,2,0,L|497:210,2,40.2500007677078,2|0|0,0:0|0:0|0:0,0:0:0:0:
380,180,70282,1,0,3:0:0:0:
504,320,70460,6,0,L|411:344,1,80.5000015354157,8|0,0:1|2:0,0:0:0:0:
302,159,70637,2,0,L|394:183,1,80.5000015354157,0|0,0:0|2:0,0:0:0:0:
490,131,70814,38,0,B|431:115|431:115|430:118|430:118|431:115|431:115|384:102|384:102|350:93|331:65|341:31,1,199.499994672775,0|0,3:0|2:0,0:0:0:0:
416,34,70991,2,0,P|406:83|371:110,1,80.5000015354157,0|0,0:0|2:0,0:0:0:0:
312,147,71168,2,0,B|238:127|238:127|228:132|228:132|147:111,1,161.000003070831,10|0,0:1|2:0,0:0:0:0:
104,172,71434,1,0,0:0:0:0:
112,184,71522,1,2,0:0:0:0:
8,372,71699,5,0,3:0:0:0:
162,331,71876,2,0,L|53:359,1,80.5000015354157,8|0,0:1|2:0,0:0:0:0:
8,372,72053,1,0,0:0:0:0:
162,331,72230,37,0,3:0:0:0:
24,192,72408,1,0,0:0:0:0:
188,24,72585,1,10,0:1:0:0:
228,132,72762,6,0,L|119:103,1,80.5000015354157,0|0,0:0|2:0,0:0:0:0:
96,56,72939,2,0,L|108:10,2,40.2500007677078,2|0|0,0:0|0:0|0:0,0:0:0:0:
76,129,73116,1,8,0:1:0:0:
276,321,73293,1,0,0:0:0:0:
256,248,73470,2,0,L|244:202,2,40.2500007677078,8|0|0,0:1|0:0|0:0,0:0:0:0:
276,320,73647,38,0,B|333:333|362:280|362:280|389:222|448:236,1,207.374998813391,0|0,3:0|2:0,0:0:0:0:
507,287,73824,2,0,P|466:314|429:312,1,80.5000015354157,0|0,0:0|2:0,0:0:0:0:
324,56,74001,6,0,P|364:72|384:112,1,80.5000015354157,10|0,0:1|2:0,0:0:0:0:
384,180,74179,1,0,3:0:0:0:
480,70,74356,38,0,P|477:112|445:144,1,80.5000015354157,2|0,0:0|2:0,0:0:0:0:
315,143,74533,1,0,3:0:0:0:
507,287,74710,1,8,0:1:0:0:
208,360,74887,5,0,0:0:0:0:
188,340,74975,1,0,0:0:0:0:
162,331,75064,2,0,B|15:370|15:370|46:362|55:334,1,199.499994672775,0|0,3:0|2:0,0:0:0:0:
82,272,75241,2,0,P|65:235|31:216,1,80.5000015354157,0|0,0:0|2:0,0:0:0:0:
205,85,75418,38,0,L|180:177,1,80.5000015354157,10|0,0:1|2:0,0:0:0:0:
163,239,75595,1,0,3:0:0:0:
159,255,75772,1,2,0:0:0:0:
36,36,75949,1,0,3:0:0:0:
205,85,76127,6,0,P|211:44|239:17,1,80.5000015354157,8|0,0:1|2:0,0:0:0:0:
308,52,76304,2,0,P|301:92|273:119,1,80.5000015354157,0|0,0:0|2:0,0:0:0:0:
208,160,76481,38,0,P|278:101|385:93,1,199.499994672775,0|0,3:0|2:0,0:0:0:0:
448,48,76658,2,0,P|464:25|442:42,1,80.5000015354157,0|0,0:0|2:0,0:0:0:0:
453,125,76835,5,10,0:1:0:0:
316,16,77012,1,0,3:0:0:0:
492,208,77189,1,2,0:0:0:0:
324,368,77366,38,0,L|302:286,1,80.5000015354157,0|0,3:0|2:0,0:0:0:0:
282,213,77543,1,8,0:1:0:0:
120,108,77720,6,0,L|98:189,1,80.5000015354157,0|0,0:0|2:0,0:0:0:0:
78,263,77898,1,0,3:0:0:0:
4,104,78075,37,0,0:0:0:0:
240,16,78252,1,10,0:1:0:0:
78,263,78429,1,0,3:0:0:0:
120,108,78606,6,0,L|73:95,2,40.2500007677078,2|0|0,0:0|0:0|0:0,0:0:0:0:
192,80,78783,1,8,0:1:0:0:
78,263,78960,2,0,L|125:250,2,40.2500007677078
8,232,79137,2,0,P|24:196|84:176,1,80.5000015354157,10|0,0:1|2:0,0:0:0:0:
256,364,79314,38,0,P|331:313|480:304,1,199.499994672775,4|0,3:2|2:0,0:0:0:0:
512,296,79491,2,0,P|502:259|466:225,1,80.5000015354157,0|0,0:0|2:0,0:0:0:0:
360,76,79668,6,0,P|340:108|342:158,1,80.5000015354157,10|0,0:1|2:0,0:0:0:0:
376,220,79846,1,0,0:0:0:0:
232,172,80023,38,0,P|257:200|304:214,1,80.5000015354157,2|0,0:0|2:0,0:0:0:0:
428,164,80200,1,0,3:0:0:0:
256,364,80377,1,8,0:1:0:0:
444,148,80554,5,0,0:0:0:0:
460,132,80642,1,0,0:0:0:0:
476,116,80731,2,0,B|495:104|518:110|518:110|418:83|418:83|413:86|413:86|324:62,1,199.499994672775,0|0,3:0|2:0,0:0:0:0:
312,20,80908,2,0,L|223:43,1,80.5000015354157,0|0,0:0|2:0,0:0:0:0:
104,76,81085,1,10,0:1:0:0:
232,272,81262,37,0,0:0:0:0:
168,312,81439,2,0,L|157:350,2,40.2500007677078,2|0|0,0:0|0:0|0:0,0:0:0:0:
232,272,81617,1,0,3:0:0:0:
84,364,81794,6,0,P|41:348|17:301,1,80.5000015354157,8|0,0:1|2:0,0:0:0:0:
173,161,81971,2,0,P|180:205|152:249,1,80.5000015354157,0|0,0:0|2:0,0:0:0:0:
8,243,82148,38,0,B|61:259|91:205|91:205|124:146|176:164,1,204.750000781059,0|0,3:0|2:0,0:0:0:0:
236,116,82325,2,0,P|223:78|236:35,1,80.5000015354157,0|0,0:0|2:0,0:0:0:0:
367,104,82502,2,0,P|331:179|222:162,1,161.000003070831,10|0,0:1|2:0,0:0:0:0:
236,116,82768,1,0,0:0:0:0:
255,110,82857,1,2,0:0:0:0:
412,320,83033,5,0,3:0:0:0:
238,273,83210,2,0,L|338:299,1,80.5000015354157,8|0,0:1|2:0,0:0:0:0:
412,320,83387,1,0,0:0:0:0:
255,110,83565,37,0,3:0:0:0:
156,350,83742,1,0,0:0:0:0:
476,252,83919,1,10,0:1:0:0:
336,92,84096,6,0,L|440:64,1,80.5000015354157,0|0,0:0|2:0,0:0:0:0:
488,92,84273,2,0,L|499:134,2,40.2500007677078,2|0|0,0:0|0:0|0:0,0:0:0:0:
468,16,84450,1,8,0:1:0:0:
315,293,84627,1,0,0:0:0:0:
336,220,84804,2,0,L|347:177,2,40.2500007677078,8|0|0,0:1|0:0|0:0,0:0:0:0:
315,293,84981,38,0,B|402:316|402:316|439:326|455:381|391:415|351:361,1,210,0|0,3:0|2:0,0:0:0:0:
308,368,85158,2,0,L|208:342,1,80.5000015354157,0|0,0:0|2:0,0:0:0:0:
88,288,85336,6,0,P|92:244|128:216,1,80.5000015354157,10|0,0:1|2:0,0:0:0:0:
188,196,85513,1,0,3:0:0:0:
56,140,85690,38,0,P|99:130|136:155,1,80.5000015354157,2|0,0:0|2:0,0:0:0:0:
176,272,85867,1,0,3:0:0:0:
8,364,86044,1,8,0:1:0:0:
56,140,86221,5,0,0:0:0:0:
48,124,86310,1,0,0:0:0:0:
40,108,86398,2,0,B|140:81|140:81|175:71|196:28|158:-6,1,199.499994672775,0|0,3:0|2:0,0:0:0:0:
92,0,86575,2,0,P|92:40|132:68,1,80.5000015354157,0|0,0:0|2:0,0:0:0:0:
316,84,86752,38,0,P|277:71|238:101,1,80.5000015354157,10|0,0:1|2:0,0:0:0:0:
208,160,86929,1,0,3:0:0:0:
203,175,87106,1,2,0:0:0:0:
268,0,87284,1,0,3:0:0:0:
396,184,87461,6,0,L|310:161,1,80.5000015354157,8|0,0:1|2:0,0:0:0:0:
256,272,87638,2,0,L|341:249,1,80.5000015354157,0|0,0:0|2:0,0:0:0:0:
504,376,87815,38,0,B|451:399|417:356|417:356|379:309|326:336,1,199.499994672775,0|0,3:0|2:0,0:0:0:0:
260,372,87992,2,0,P|252:332|268:292,1,80.5000015354157,0|0,0:0|2:0,0:0:0:0:
332,252,88169,1,10,0:1:0:0:
40,108,88346,1,0,3:0:0:0:
168,304,88523,1,2,0:0:0:0:
18,345,88700,6,0,L|110:320,1,80.5000015354157,0|0,3:0|2:0,0:0:0:0:
168,304,88877,1,8,0:1:0:0:
396,184,89055,38,0,L|303:159,1,80.5000015354157,0|0,0:0|2:0,0:0:0:0:
246,143,89232,1,0,3:0:0:0:
472,304,89409,5,0,0:0:0:0:
268,0,89586,1,10,0:1:0:0:
332,252,89763,1,0,3:0:0:0:
464,68,89940,38,0,L|502:57,2,40.2500007677078,2|0|0,0:0|0:0|0:0,0:0:0:0:
404,24,90117,1,8,0:1:0:0:
268,292,90294,5,0,0:0:0:0:
332,252,90471,2,0,L|370:262,2,40.2500007677078,10|0|0,0:1|0:0|0:0,0:0:0:0:
204,336,90648,6,0,P|172:308|128:304,1,70,4|0,3:1|2:0,0:0:0:0:
32,176,91003,2,0,P|23:217|42:257,1,70,8|0,0:2|2:0,0:0:0:0:
96,368,91357,5,0,0:0:0:0:
208,240,91534,1,0,3:0:0:0:
108,128,91711,1,8,0:2:0:0:
172,44,91888,38,0,P|244:40|256:112,1,140,0|0,0:0|2:0,0:0:0:0:
192,120,92419,1,8,0:2:0:0:
196,132,92596,1,0,0:0:0:0:
324,20,92774,6,0,L|354:11,2,17.5
484,140,92951,1,8,0:2:0:0:
410,120,93128,1,0,0:0:0:0:
337,100,93305,1,8,0:2:0:0:
440,4,93482,38,0,P|460:36|460:72,1,70,0|0,3:0|2:0,0:0:0:0:
376,236,93836,2,0,P|356:204|356:168,1,70,8|0,0:2|2:0,0:0:0:0:
460,220,94190,5,0,0:0:0:0:
328,296,94367,1,0,3:0:0:0:
488,380,94545,1,8,0:2:0:0:
328,296,94722,38,0,B|284:269|251:309|251:309|211:359|168:329,1,181.999991668702,0|0,0:0|2:0,0:0:0:0:
120,272,95253,1,8,0:2:0:0:
124,260,95430,1,0,0:0:0:0:
28,336,95607,6,0,L|-2:344,2,17.5
92,376,95784,1,8,0:2:0:0:
28,180,95961,37,0,0:0:0:0:
92,140,96138,2,0,L|122:148,2,17.5,10|0|0,0:2|0:0|0:0,0:0:0:0:
8,60,96315,6,0,L|93:37,1,80.5000015354157,0|0,3:0|2:0,0:0:0:0:
264,188,96670,2,0,L|178:165,1,80.5000015354157,8|0,0:2|3:0,0:0:0:0:
92,140,97024,37,0,0:0:0:0:
216,32,97201,1,0,3:0:0:0:
300,264,97378,1,8,0:2:0:0:
342,96,97555,6,0,P|266:116|270:196,1,161.000003070831,0|0,0:0|2:0,0:0:0:0:
336,176,98086,1,8,0:2:0:0:
351,171,98264,1,0,3:0:0:0:
472,36,98441,6,0,L|465:59,2,20.1250003838539
360,244,98618,6,0,L|377:309,1,40.2500007677078,8|0,0:2|2:0,0:0:0:0:
429,225,98795,2,0,L|446:290,1,40.2500007677078,8|0,0:2|2:0,0:0:0:0:
499,206,98972,2,0,L|516:271,1,40.2500007677078,8|0,0:2|2:0,0:0:0:0:
392,364,99149,6,0,P|344:352|312:320,1,80.5000015354157,0|0,3:0|2:0,0:0:0:0:
263,187,99503,2,0,P|276:234|264:278,1,80.5000015354157,8|0,0:2|3:0,0:0:0:0:
216,320,99857,5,0,0:0:0:0:
128,220,100034,1,0,3:0:0:0:
4,368,100212,1,8,0:2:0:0:
144,292,100389,38,0,B|106:315|76:280|76:280|41:236|3:262,1,161.000003070831,0|0,0:0|2:0,0:0:0:0:
72,312,100920,1,8,0:2:0:0:
67,296,101097,1,0,3:0:0:0:
160,148,101274,6,0,L|210:161,2,35
116,88,101451,1,8,0:2:0:0:
4,180,101628,2,0,P|40:180|72:160,1,70,0|0,0:0|2:0,0:0:0:0:
190,14,101805,5,10,0:2:0:0:
