osu file format v14

[General]
AudioFilename: audio.mp3
AudioLeadIn: 0
PreviewTime: 10867
Countdown: 0
SampleSet: Soft
StackLeniency: 0.4
Mode: 0
LetterboxInBreaks: 0
WidescreenStoryboard: 1

[Editor]
Bookmarks: 5643,11310,22644,33978,45312,56646,67980,79314,90648,101983
DistanceSpacing: 0.8
BeatDivisor: 2
GridSize: 4
TimelineZoom: 2.15

[Metadata]
Title:Haunted
TitleUnicode:Haunted
Artist:laura les
ArtistUnicode:laura les
Creator:A3THER_XX
Version:Sytho's Light Insane
Source:
Tags:100 gecs a2b2 night of fire 幽霊 euphoria electronic 殭屍 hyperpop 瘋 hyper pop english electronic pop aether xx a3ther_xx asap_bakery laplus axelixiya ggraterson sytho mix M_I_X
BeatmapID:3488611
BeatmapSetID:1682143

[Difficulty]
HPDrainRate:4.8
CircleSize:4
OverallDifficulty:7
ApproachRate:8.5
SliderMultiplier:1.4
SliderTickRate:1

[Events]
//Background and Video events
0,0,"darkinsanebg.jpg",0,0
//Break Periods
2,58063,61638
//Storyboard Layer 0 (Background)
//Storyboard Layer 1 (Fail)
//Storyboard Layer 2 (Pass)
//Storyboard Layer 3 (Foreground)
//Storyboard Layer 4 (Overlay)
//Storyboard Sound Samples

[TimingPoints]
5643,354.191263282172,4,2,1,50,1,0
5643,-125,4,2,1,50,0,0
11310,-83.3333333333333,4,2,2,90,0,0
13169,-83.3333333333333,4,2,2,5,0,0
13258,-83.3333333333333,4,2,2,90,0,0
13523,-83.3333333333333,4,2,2,5,0,0
13612,-83.3333333333333,4,2,2,90,0,0
16002,-83.3333333333333,4,2,2,5,0,0
16091,-83.3333333333333,4,2,2,90,0,0
16357,-83.3333333333333,4,2,2,5,0,0
16445,-83.3333333333333,4,2,2,90,0,0
16977,-66.6666666666667,4,2,2,90,0,0
17242,-66.6666666666667,4,2,2,5,0,0
17331,-83.3333333333333,4,2,2,90,0,0
18836,-83.3333333333333,4,2,2,5,0,0
18925,-83.3333333333333,4,2,2,90,0,0
19190,-83.3333333333333,4,2,2,5,0,0
19279,-83.3333333333333,4,2,2,90,0,0
22024,-83.3333333333333,4,2,2,5,0,0
22112,-83.3333333333333,4,2,2,90,0,0
22644,-66.6666666666667,4,2,2,90,0,0
22909,-66.6666666666667,4,2,2,5,0,0
22998,-83.3333333333333,4,2,2,90,0,0
24503,-83.3333333333333,4,2,2,5,0,0
24592,-83.3333333333333,4,2,2,90,0,0
24857,-83.3333333333333,4,2,2,5,0,0
24946,-83.3333333333333,4,2,2,90,0,0
25743,-83.3333333333333,4,2,2,5,0,0
25831,-83.3333333333333,4,2,2,90,0,0
27159,-83.3333333333333,4,2,2,5,0,0
27248,-83.3333333333333,4,2,2,90,0,0
27336,-83.3333333333333,4,2,2,5,0,0
27425,-83.3333333333333,4,2,2,90,0,0
27691,-83.3333333333333,4,2,2,5,0,0
27779,-83.3333333333333,4,2,2,90,0,0
28576,-83.3333333333333,4,2,2,5,0,0
28665,-83.3333333333333,4,2,2,90,0,0
29993,-83.3333333333333,4,2,2,5,0,0
30082,-83.3333333333333,4,2,2,90,0,0
30170,-83.3333333333333,4,2,2,5,0,0
30259,-83.3333333333333,4,2,2,90,0,0
30524,-83.3333333333333,4,2,2,5,0,0
30613,-83.3333333333333,4,2,2,90,0,0
31409,-83.3333333333333,4,2,2,5,0,0
31498,-83.3333333333333,4,2,2,90,0,0
33004,-83.3333333333333,4,2,2,5,0,0
33092,-83.3333333333333,4,2,2,90,0,0
33978,-100,4,2,1,50,0,0
34243,-100,4,2,1,5,0,0
34332,-100,4,2,1,50,0,0
35660,-100,4,2,1,5,0,0
35749,-100,4,2,1,50,0,0
35926,-100,4,2,1,5,0,0
36103,-100,4,2,1,50,0,0
37076,-100,4,2,1,5,0,0
37166,-100,4,2,1,50,0,0
38493,-100,4,2,1,5,0,0
38582,-100,4,2,1,50,0,0
39645,-83.3333333333333,4,2,1,50,0,0
39910,-83.3333333333333,4,2,1,5,0,0
39999,-100,4,2,1,50,0,0
40353,-83.3333333333333,4,2,1,50,0,0
40618,-83.3333333333333,4,2,1,5,0,0
40707,-100,4,2,1,50,0,0
41062,-83.3333333333333,4,2,1,50,0,0
41327,-83.3333333333333,4,2,1,5,0,0
41416,-100,4,2,1,50,0,0
42478,-83.3333333333333,4,2,1,50,0,0
42743,-83.3333333333333,4,2,1,5,0,0
42833,-100,4,2,1,50,0,0
43187,-83.3333333333333,4,2,1,50,0,0
43452,-83.3333333333333,4,2,1,5,0,0
43541,-100,4,2,1,50,0,0
43895,-83.3333333333333,4,2,1,50,0,0
44160,-83.3333333333333,4,2,1,5,0,0
44249,-100,4,2,1,50,0,0
45312,-83.3333333333333,4,2,1,65,0,0
45577,-83.3333333333333,4,2,1,5,0,0
45666,-83.3333333333333,4,2,1,65,0,0
46994,-83.3333333333333,4,2,1,5,0,0
47083,-83.3333333333333,4,2,1,65,0,0
50093,-83.3333333333333,4,2,1,5,0,0
50271,-83.3333333333333,4,2,1,65,0,0
51244,-83.3333333333333,4,2,1,5,0,0
51333,-83.3333333333333,4,2,1,65,0,0
52661,-83.3333333333333,4,2,1,5,0,0
52750,-83.3333333333333,4,2,1,65,0,0
54078,-83.3333333333333,4,2,1,5,0,0
54167,-83.3333333333333,4,2,1,65,0,0
55494,-83.3333333333333,4,2,1,5,0,0
55583,-83.3333333333333,4,2,1,65,0,0
62313,-125,4,2,1,65,0,0
67980,-66.6666666666667,4,2,2,90,0,1
68246,-66.6666666666667,4,2,2,5,0,1
68334,-83.3333333333333,4,2,2,90,0,1
69839,-83.3333333333333,4,2,2,5,0,1
69928,-83.3333333333333,4,2,2,90,0,1
70194,-83.3333333333333,4,2,2,5,0,1
70282,-83.3333333333333,4,2,2,90,0,1
71079,-83.3333333333333,4,2,2,5,0,1
71168,-83.3333333333333,4,2,2,90,0,1
72673,-83.3333333333333,4,2,2,5,0,1
72762,-83.3333333333333,4,2,2,90,0,1
73381,-83.3333333333333,4,2,2,5,0,1
73470,-83.3333333333333,4,2,2,90,0,1
73647,-66.6666666666667,4,2,2,90,0,1
73913,-66.6666666666667,4,2,2,5,0,1
74001,-83.3333333333333,4,2,2,90,0,1
75330,-83.3333333333333,4,2,2,5,0,1
75418,-83.3333333333333,4,2,2,90,0,1
75507,-83.3333333333333,4,2,2,5,0,1
75595,-83.3333333333333,4,2,2,90,0,1
75860,-83.3333333333333,4,2,2,5,0,1
75949,-83.3333333333333,4,2,2,90,0,1
76746,-83.3333333333333,4,2,2,5,0,1
76835,-83.3333333333333,4,2,2,90,0,1
78340,-83.3333333333333,4,2,2,5,0,1
78429,-83.3333333333333,4,2,2,90,0,1
78694,-83.3333333333333,4,2,2,5,0,1
78783,-83.3333333333333,4,2,2,90,0,1
78960,-83.3333333333333,4,2,2,90,0,0
79314,-66.6666666666667,4,2,2,90,0,1
79580,-66.6666666666667,4,2,2,5,0,1
79668,-83.3333333333333,4,2,2,90,0,1
81173,-83.3333333333333,4,2,2,5,0,1
81262,-83.3333333333333,4,2,2,90,0,1
82413,-83.3333333333333,4,2,2,5,0,1
82502,-83.3333333333333,4,2,2,90,0,1
83830,-83.3333333333333,4,2,2,5,0,1
83919,-83.3333333333333,4,2,2,90,0,1
84007,-83.3333333333333,4,2,2,5,0,1
84096,-83.3333333333333,4,2,2,90,0,1
84362,-83.3333333333333,4,2,2,5,0,1
84450,-83.3333333333333,4,2,2,90,0,1
86841,-83.3333333333333,4,2,2,5,0,1
86929,-83.3333333333333,4,2,2,90,0,1
87194,-83.3333333333333,4,2,2,5,0,1
87284,-83.3333333333333,4,2,2,90,0,1
88081,-83.3333333333333,4,2,2,5,0,1
88169,-83.3333333333333,4,2,2,90,0,1
89674,-83.3333333333333,4,2,2,5,0,1
89763,-83.3333333333333,4,2,2,90,0,1
90648,-100,4,2,1,90,0,0
92065,-100,4,2,1,5,0,0
92242,-100,4,2,1,90,0,0
94899,-100,4,2,1,5,0,0
95076,-100,4,2,1,90,0,0
97732,-100,4,2,1,5,0,0
97909,-100,4,2,1,90,0,0
100566,-100,4,2,1,5,0,0
100743,-100,4,2,1,90,0,0
101805,-100,4,2,3,90,0,0

[Colours]
Combo1 : 217,0,255
Combo2 : 128,255,0
Combo3 : 0,128,255
Combo4 : 255,0,0

[HitObjects]
56,339,5643,6,0,P|88:357|123:349,1,56
100,277,5997,2,0,P|78:259|68:234,1,56
213,297,6351,2,0,P|234:279|244:254,1,56
176,181,6705,1,0,0:0:0:0:
176,181,6882,2,0,P|183:207|174:234,1,56
254,171,7236,1,0,0:0:0:0:
254,171,7413,1,0,0:0:0:0:
325,296,7591,2,0,P|354:307|408:292,1,56
368,232,7945,2,0,P|344:216|329:192,1,56
329,192,8299,1,0,0:0:0:0:
416,15,8476,6,0,B|430:43|430:43|409:106,1,56
323,91,8830,2,0,B|342:76|342:76|347:45,1,56
192,70,9184,2,0,B|198:100|198:100|217:116,1,56
201,195,9539,1,0,0:0:0:0:
201,195,9716,2,0,B|176:193|176:193|155:172,1,56
70,285,10070,1,0,0:0:0:0:
70,285,10247,2,0,L|151:277,1,56
256,266,10601,1,0,0:0:0:0:
256,266,10955,1,0,0:0:0:0:
324,313,11132,1,0,0:0:0:0:
220,348,11310,6,0,B|184:306|222:271|215:271|271:236|196:147,1,167.999994873047,4|8,3:3|0:1,0:0:0:0:
157,82,11841,1,0,0:0:0:0:
67,216,12018,2,0,P|114:217|177:243,1,83.9999974365235,0|0,0:0|3:0,0:0:0:0:
232,66,12372,2,0,P|192:77|147:78,1,83.9999974365235,8|0,0:1|0:0,0:0:0:0:
224,190,12726,2,0,P|271:191|331:221,1,83.9999974365235,0|0,3:0|0:0,0:0:0:0:
424,129,13081,6,0,P|400:172|399:193,1,41.9999987182618,8|0,0:1|0:0,0:0:0:0:
379,249,13258,1,0,0:0:0:0:
509,240,13435,2,0,L|454:244,1,41.9999987182618
371,259,13612,1,0,3:0:0:0:
443,351,13789,1,8,0:1:0:0:
467,243,13966,1,0,0:0:0:0:
365,353,14143,38,0,B|305:360|300:306|299:313|285:265|187:286,1,167.999994873047,0|8,3:0|0:1,0:0:0:0:
128,354,14674,1,0,2:0:0:0:
29,283,14851,2,0,P|16:213|36:175,1,83.9999974365235,0|0,0:0|3:0,0:0:0:0:
140,151,15206,2,0,P|112:182|102:222,1,83.9999974365235,8|0,0:1|0:0,0:0:0:0:
44,89,15560,2,0,P|103:49|146:53,1,83.9999974365235,0|0,3:0|0:0,0:0:0:0:
320,100,15914,6,0,P|289:118|264:116,1,41.9999987182618,8|0,0:1|0:0,0:0:0:0:
218,78,16091,1,0,0:0:0:0:
310,19,16268,2,0,B|330:10|330:10|365:44,1,41.9999987182618
329,184,16445,1,0,3:0:0:0:
418,70,16622,1,8,0:1:0:0:
489,160,16800,1,2,0:1:0:0:
409,59,16977,38,0,B|416:134|416:134|411:130|411:130|422:232,1,157.500006008148,0|0,3:0|2:0,0:0:0:0:
471,269,17331,2,0,P|424:293|378:277,1,83.9999974365235,8|0,0:1|3:0,0:0:0:0:
264,240,17685,2,0,P|222:236|188:258,1,83.9999974365235,0|0,0:0|3:0,0:0:0:0:
211,336,18039,2,0,P|252:339|286:317,1,83.9999974365235,8|0,0:1|0:0,0:0:0:0:
119,376,18393,2,0,P|77:379|43:357,1,83.9999974365235,0|0,3:0|0:0,0:0:0:0:
39,144,18748,6,0,P|52:166|57:200,1,41.9999987182618,8|0,0:1|2:0,0:0:0:0:
45,259,18925,1,0,3:0:0:0:
171,247,19102,2,0,L|122:252,1,41.9999987182618
33,263,19279,1,0,3:0:0:0:
145,157,19456,2,0,P|198:169|255:166,1,83.9999974365235,8|0,0:1|0:0,0:0:0:0:
297,291,19810,38,0,B|252:200|349:217|289:117,1,167.999994873047,0|8,3:0|0:1,0:0:0:0:
204,48,20341,1,0,3:0:0:0:
85,95,20519,2,0,P|56:151|68:195,1,83.9999974365235,0|0,0:0|3:0,0:0:0:0:
216,261,20873,2,0,P|213:302|188:335,1,83.9999974365235,8|0,0:1|0:0,0:0:0:0:
88,374,21227,2,0,P|89:332|68:296,1,83.9999974365235,0|0,3:0|0:0,0:0:0:0:
187,335,21581,6,0,L|304:328,1,83.9999974365235,8|0,0:1|3:0,0:0:0:0:
448,324,21935,2,0,L|452:248,1,41.9999987182618
455,198,22112,1,0,3:0:0:0:
369,286,22289,1,8,0:1:0:0:
343,136,22467,1,2,0:1:0:0:
464,193,22644,38,0,B|369:167|406:235|301:206,1,157.500006008148,4|0,3:3|2:0,0:0:0:0:
300,204,22998,2,0,P|244:181|190:177,1,83.9999974365235,8|0,0:1|0:0,0:0:0:0:
94,298,23352,2,0,P|122:328|143:365,1,83.9999974365235,0|0,0:0|3:0,0:0:0:0:
147,167,23706,2,0,P|150:125|145:83,1,83.9999974365235,8|0,0:1|0:0,0:0:0:0:
46,194,24060,2,0,P|26:231|0:263,1,83.9999974365235,0|0,3:0|0:0,0:0:0:0:
56,32,24415,6,0,P|97:25|128:32,1,41.9999987182618,8|0,0:1|0:0,0:0:0:0:
204,37,24592,1,0,0:0:0:0:
150,175,24769,2,0,P|145:133|148:99,1,41.9999987182618
210,27,24946,1,0,3:0:0:0:
316,99,25123,2,0,P|264:125|211:122,1,83.9999974365235,8|0,0:1|0:0,0:0:0:0:
110,257,25477,38,0,B|190:238|150:288|248:271,1,125.999996154785,0|0,3:0|2:0,0:0:0:0:
290,224,25831,2,0,P|306:271|290:320,1,83.9999974365235,8|0,0:1|2:0,0:0:0:0:
436,186,26186,1,0,0:0:0:0:
384,296,26363,1,0,3:0:0:0:
365,126,26540,2,0,L|261:114,1,83.9999974365235,8|0,0:1|0:0,0:0:0:0:
26,132,26894,6,0,P|70:181|137:167,1,125.999996154785,0|0,3:0|0:0,0:0:0:0:
135,170,27248,2,0,P|162:138|152:106,1,41.9999987182618,8|0,0:1|0:0,0:0:0:0:
155,65,27425,1,0,0:0:0:0:
26,132,27602,2,0,P|22:173|48:194,1,41.9999987182618
69,229,27779,1,0,3:0:0:0:
67,54,27957,2,0,L|167:46,1,83.9999974365235,8|2,0:1|0:1,0:0:0:0:
380,24,28311,38,0,P|405:66|328:105,1,125.999996154785,0|0,3:0|2:0,0:0:0:0:
348,115,28665,2,0,P|370:151|372:201,1,83.9999974365235,8|0,0:1|3:0,0:0:0:0:
279,261,29019,2,0,P|257:225|255:175,1,83.9999974365235,0|0,0:0|3:0,0:0:0:0:
450,179,29373,2,0,P|446:220|419:262,1,83.9999974365235,8|0,0:1|0:0,0:0:0:0:
317,342,29728,2,0,P|246:345|206:293,1,125.999996154785,0|0,3:0|2:0,0:0:0:0:
201,314,30082,6,0,P|162:330|129:324,1,41.9999987182618,8|0,0:1|2:0,0:0:0:0:
83,318,30259,1,0,3:0:0:0:
88,202,30436,2,0,P|103:241|97:274,1,41.9999987182618
91,320,30613,1,0,3:0:0:0:
11,202,30790,2,0,B|15:158|15:158|73:121,1,83.9999974365235,8|0,0:1|0:0,0:0:0:0:
258,131,31144,38,0,B|276:135|280:171|280:171|250:214|189:186,1,125.999996154785,0|0,3:0|0:0,0:0:0:0:
165,133,31498,2,0,B|169:94|169:94|170:98|170:98|174:51,1,83.9999974365235,8|0,0:1|3:0,0:0:0:0:
360,176,31853,2,0,B|364:215|364:215|365:211|365:211|369:258,1,83.9999974365235,0|0,0:0|3:0,0:0:0:0:
298,304,32207,2,0,B|294:263|294:263|293:267|293:267|289:228,1,83.9999974365235,8|0,0:1|0:0,0:0:0:0:
335,103,32561,2,0,P|392:106|421:134,1,83.9999974365235,0|0,3:0|0:0,0:0:0:0:
500,241,32915,6,0,P|492:212|492:186,1,41.9999987182618,8|0,0:1|2:0,0:0:0:0:
493,108,33092,1,0,3:0:0:0:
436,279,33269,2,0,P|430:327|433:363,1,83.9999974365235,0|0,0:0|3:0,0:0:0:0:
354,241,33624,1,8,0:1:0:0:
313,365,33801,1,2,0:1:0:0:
229,260,33978,6,0,B|182:255|182:255|187:258|187:258|129:255,1,105,4|0,3:1|0:0,0:0:0:0:
121,254,34332,2,0,L|117:343,1,70,8|0,0:3|2:0,0:0:0:0:
40,245,34686,1,0,0:0:0:0:
40,245,34863,1,0,3:0:0:0:
87,173,35040,2,0,L|171:166,1,70,8|0,0:3|2:0,0:0:0:0:
252,52,35395,6,0,P|221:78|255:127,1,105,0|0,3:0|0:0,0:0:0:0:
262,125,35749,2,0,L|346:118,1,70,8|0,0:3|0:0,0:0:0:0:
462,106,36103,1,0,0:0:0:0:
462,106,36280,1,0,3:0:0:0:
405,179,36457,2,0,L|397:262,1,70,8|0,0:3|2:0,0:0:0:0:
297,358,36811,38,0,P|255:308|296:265,1,105,0|0,3:0|0:0,0:0:0:0:
278,273,37166,1,8,0:3:0:0:
284,194,37343,1,0,0:0:0:0:
205,231,37520,2,0,L|131:223,1,70,0|0,0:0|3:0,0:0:0:0:
21,204,37874,1,8,0:3:0:0:
69,293,38051,1,0,2:0:0:0:
87,154,38228,6,0,L|98:50,1,105,0|0,3:0|0:0,0:0:0:0:
102,41,38582,2,0,B|132:21|132:21|181:52,1,70,8|0,0:3|0:0,0:0:0:0:
217,127,38936,1,0,0:0:0:0:
276,42,39114,1,0,3:0:0:0:
211,136,39291,2,0,P|203:176|225:214,1,70,8|0,0:3|0:0,0:0:0:0:
310,282,39645,38,0,B|371:277|371:277|368:282|368:282|442:275,1,125.999996154785,2|0,3:2|0:0,0:0:0:0:
440,275,39999,2,0,L|428:180,1,70,8|0,0:3|3:0,0:0:0:0:
333,360,40353,2,0,B|272:355|272:355|275:360|275:360|201:353,1,125.999996154785,2|0,0:2|0:0,0:0:0:0:
203,353,40707,2,0,L|215:258,1,70,8|0,0:3|0:0,0:0:0:0:
102,114,41062,2,0,P|93:171|168:195,1,125.999996154785,2|0,3:2|0:0,0:0:0:0:
159,200,41416,2,0,P|202:187|249:194,1,70,8|0,0:3|3:0,0:0:0:0:
311,219,41770,1,0,0:0:0:0:
278,121,41947,1,0,3:0:0:0:
355,155,42124,1,8,0:3:0:0:
302,224,42301,1,0,0:0:0:0:
316,52,42478,6,0,P|379:77|456:72,1,125.999996154785,2|0,3:2|0:0,0:0:0:0:
449,74,42833,2,0,P|432:122|429:158,1,70,8|0,0:3|3:0,0:0:0:0:
490,286,43187,2,0,B|458:235|458:235|388:224,1,125.999996154785,2|0,0:2|0:0,0:0:0:0:
381,226,43541,2,0,P|340:228|303:216,1,70,8|0,0:3|0:0,0:0:0:0:
182,293,43895,2,0,P|231:227|224:171,1,125.999996154785,2|0,3:2|0:0,0:0:0:0:
226,173,44249,2,0,L|131:161,1,70,8|0,0:3|0:0,0:0:0:0:
51,19,44604,37,0,0:0:0:0:
131,13,44781,5,0,0:0:0:0:
141,95,44958,37,0,0:0:0:0:
61,101,45135,5,0,0:0:0:0:
136,7,45312,38,0,P|211:34|286:33,1,125.999996154785,4|0,3:2|0:0,0:0:0:0:
319,98,45666,2,0,B|351:123|351:123|381:54,1,83.9999974365235,8|0,0:2|2:0,0:0:0:0:
327,19,46020,1,0,0:0:0:0:
247,128,46197,1,0,3:0:0:0:
256,36,46374,1,8,0:2:0:0:
217,200,46552,1,0,0:0:0:0:
319,98,46729,6,0,P|381:92|439:68,1,125.999996154785,0|0,3:0|0:0,0:0:0:0:
447,62,47083,2,0,P|436:112|436:164,1,83.9999974365235,8|0,0:2|2:0,0:0:0:0:
469,295,47437,2,0,P|456:275|411:267,2,41.9999987182618,0|0|0,0:0|0:0|3:0,0:0:0:0:
395,339,47791,1,8,0:2:0:0:
347,219,47968,1,0,0:0:0:0:
313,366,48145,38,0,B|251:363|255:311|257:313|239:275|166:274,1,167.999994873047,0|8,3:0|0:2,0:0:0:0:
184,359,48677,1,0,0:0:0:0:
107,245,48854,2,0,P|104:303|123:332,2,83.9999974365235,0|0|8,0:0|3:0|0:2,0:0:0:0:
161,98,49385,1,0,0:0:0:0:
271,173,49562,6,0,P|229:177|187:183,1,83.9999974365235,0|0,3:0|2:0,0:0:0:0:
76,75,49916,2,0,P|137:83|171:86,1,83.9999974365235,8|0,0:2|0:0,0:0:0:0:
6,261,50271,2,0,P|14:200|17:166,1,83.9999974365235,0|0,0:0|3:0,0:0:0:0:
89,334,50625,1,8,0:2:0:0:
147,201,50802,1,2,0:1:0:0:
179,363,50979,38,0,P|257:356|268:287,1,125.999996154785,0|0,3:0|0:0,0:0:0:0:
280,299,51333,2,0,P|324:316|379:311,1,83.9999974365235,8|0,0:2|3:0,0:0:0:0:
472,262,51687,1,0,0:0:0:0:
472,262,51864,1,0,3:0:0:0:
352,204,52042,2,0,P|318:179|294:144,1,83.9999974365235,8|0,0:2|0:0,0:0:0:0:
404,22,52396,6,0,P|372:83|405:125,1,125.999996154785,0|0,3:0|0:0,0:0:0:0:
412,125,52750,2,0,P|467:114|475:74,1,83.9999974365235,8|0,0:2|3:0,0:0:0:0:
294,144,53104,2,0,P|238:155|185:156,1,83.9999974365235,0|0,0:0|3:0,0:0:0:0:
73,159,53458,1,8,0:2:0:0:
73,159,53635,1,0,0:0:0:0:
11,308,53813,38,0,B|56:280|103:307|81:341|144:340,1,125.999996154785,0|0,3:0|0:0,0:0:0:0:
133,342,54167,2,0,P|186:348|230:308,1,83.9999974365235,8|0,0:2|3:0,0:0:0:0:
259,237,54521,1,0,0:0:0:0:
204,110,54698,1,0,3:0:0:0:
167,256,54875,1,8,0:2:0:0:
167,256,55052,1,0,0:0:0:0:
292,121,55229,6,0,P|346:128|437:127,1,125.999996154785,0|0,3:0|0:0,0:0:0:0:
430,127,55583,1,8,0:2:0:0:
382,255,55761,2,0,P|373:297|372:352,1,83.9999974365235,0|0,3:0|0:0,0:0:0:0:
294,214,56115,1,0,3:0:0:0:
462,257,56292,1,8,0:2:0:0:
299,361,56469,1,2,0:1:0:0:
108,77,62313,38,0,L|117:146,1,56
190,172,62667,2,0,L|197:116,1,56
269,58,63021,2,0,L|278:127,1,56
298,202,63376,1,0,0:0:0:0:
298,202,63553,2,0,P|343:210|368:194,1,56
424,174,63907,1,0,0:0:0:0:
424,174,64084,1,0,0:0:0:0:
424,261,64261,2,0,L|431:336,1,56
344,301,64615,2,0,L|351:376,1,56
250,302,64970,1,0,0:0:0:0:
250,302,65147,6,0,P|224:282|186:277,1,56
106,356,65501,2,0,P|126:330|131:292,1,56
136,225,65855,1,0,0:0:0:0:
57,294,66032,2,0,B|45:271|45:271|55:236,1,56
88,152,66386,1,0,0:0:0:0:
139,233,66563,2,0,L|212:225,1,56
278,267,66918,2,0,L|351:259,1,56
421,199,67272,37,2,0:2:0:0:
418,213,67360,1,2,0:2:0:0:
417,229,67449,1,2,0:2:0:0:
428,314,67626,1,2,0:2:0:0:
507,225,67803,1,2,0:2:0:0:
462,124,67980,22,0,B|363:88|401:160|295:125,1,157.500006008148,4|0,3:2|2:0,0:0:0:0:
280,205,68334,2,0,P|245:177|235:124,1,83.9999974365235,10|0,0:1|0:0,0:0:0:0:
175,89,68689,2,0,P|155:124|160:166,1,83.9999974365235,2|0,0:2|3:0,0:0:0:0:
287,314,69043,2,0,P|245:320|207:302,1,83.9999974365235,8|0,0:1|0:0,0:0:0:0:
78,184,69397,2,0,P|91:223|124:248,1,83.9999974365235,0|0,3:0|0:0,0:0:0:0:
263,237,69751,6,0,P|303:227|327:213,1,41.9999987182618,10|0,0:1|0:0,0:0:0:0:
405,181,69928,1,0,0:0:0:0:
409,300,70105,2,0,P|394:251|391:231,1,41.9999987182618,2|0,0:0|0:0,0:0:0:0:
358,117,70282,1,0,3:0:0:0:
256,244,70460,2,0,P|265:175|262:134,1,83.9999974365235,8|0,0:1|0:0,0:0:0:0:
130,17,70814,38,0,B|106:25|106:25|216:42,1,125.999996154785,0|0,3:0|2:0,0:0:0:0:
215,43,71168,2,0,B|224:84|224:84|221:79|221:79|231:135,1,83.9999974365235,10|0,0:1|2:0,0:0:0:0:
117,220,71522,2,0,B|126:261|126:261|123:256|123:256|129:291,1,83.9999974365235,2|0,0:0|3:0,0:0:0:0:
45,165,71876,2,0,B|36:206|36:206|39:201|39:201|32:236,1,83.9999974365235,8|0,0:1|0:0,0:0:0:0:
247,271,72230,2,0,B|238:312|238:312|241:307|241:307|234:342,1,83.9999974365235,0|0,3:0|0:0,0:0:0:0:
348,151,72585,6,0,L|425:140,1,41.9999987182618,10|0,0:1|0:0,0:0:0:0:
469,131,72762,1,0,0:0:0:0:
329,309,72939,2,0,L|318:225,1,83.9999974365235,2|8,0:0|0:1,0:0:0:0:
236,85,73293,2,0,L|225:162,1,41.9999987182618
216,206,73470,1,8,0:1:0:0:
35,189,73647,38,0,P|76:118|137:176,1,157.500006008148,0|0,3:0|2:0,0:0:0:0:
133,155,74001,2,0,B|136:190|136:190|133:185|133:185|138:226,1,83.9999974365235,10|0,0:1|3:0,0:0:0:0:
41,359,74356,2,0,B|67:336|67:336|65:341|65:341|96:314,1,83.9999974365235,2|0,0:0|3:0,0:0:0:0:
266,330,74710,2,0,B|232:320|232:320|237:319|237:319|197:310,1,83.9999974365235,8|0,0:1|0:0,0:0:0:0:
236,218,74975,1,0,0:0:0:0:
236,218,75064,6,0,B|308:246|276:192|382:236,1,125.999996154785,0|0,3:0|2:0,0:0:0:0:
368,237,75418,2,0,L|375:289,1,41.9999987182618,10|0,0:1|2:0,0:0:0:0:
389,358,75595,1,0,3:0:0:0:
436,197,75772,2,0,P|401:165|373:162,1,41.9999987182618,2|0,0:0|0:0,0:0:0:0:
461,273,75949,1,0,3:0:0:0:
436,84,76127,1,8,0:1:0:0:
305,176,76304,1,0,0:0:0:0:
442,73,76481,38,0,P|372:87|284:92,1,125.999996154785,0|0,3:0|2:0,0:0:0:0:
302,93,76835,2,0,P|233:94|193:87,1,83.9999974365235,10|0,0:1|3:0,0:0:0:0:
158,251,77189,2,0,P|196:193|225:165,1,83.9999974365235,2|0,0:0|3:0,0:0:0:0:
81,62,77543,2,0,P|105:126|112:166,1,83.9999974365235,8|0,0:1|0:0,0:0:0:0:
121,325,77898,2,0,P|175:334|212:304,1,83.9999974365235,0|0,3:0|0:0,0:0:0:0:
311,206,78252,6,0,P|305:246|315:263,1,41.9999987182618,10|0,0:1|0:0,0:0:0:0:
338,320,78429,1,0,3:0:0:0:
440,258,78606,2,0,P|446:298|436:315,1,41.9999987182618,2|0,0:0|0:0,0:0:0:0:
413,372,78783,1,8,0:1:0:0:
383,200,78960,1,0,0:0:0:0:
338,330,79137,1,10,0:1:0:0:
263,145,79314,38,0,B|192:136|191:181|192:175|191:223|113:213,1,157.500006008148,4|0,3:2|2:0,0:0:0:0:
126,227,79668,2,0,L|14:235,1,83.9999974365235,10|0,0:1|0:0,0:0:0:0:
73,29,80023,2,0,L|156:34,1,83.9999974365235,2|0,0:0|3:0,0:0:0:0:
263,145,80377,2,0,L|179:139,1,83.9999974365235,8|0,0:1|0:0,0:0:0:0:
316,47,80731,2,0,P|361:94|361:148,1,83.9999974365235,0|0,3:0|0:0,0:0:0:0:
300,237,81085,6,0,P|334:207|362:210,1,41.9999987182618,10|0,0:1|0:0,0:0:0:0:
430,176,81262,1,0,0:0:0:0:
400,334,81439,2,0,P|395:270|385:213,1,83.9999974365235,2|0,0:0|3:0,0:0:0:0:
364,110,81794,1,8,0:1:0:0:
300,237,81971,1,0,0:0:0:0:
231,103,82148,38,0,B|135:99|135:99|160:148,1,125.999996154785,0|0,3:0|2:0,0:0:0:0:
157,141,82502,2,0,P|150:196|97:217,1,83.9999974365235,10|0,0:1|2:0,0:0:0:0:
0,289,82856,2,0,P|49:263|96:294,1,83.9999974365235,2|0,0:0|3:0,0:0:0:0:
208,341,83210,2,0,P|158:315|157:258,1,83.9999974365235,8|0,0:1|0:0,0:0:0:0:
283,206,83565,6,0,P|315:252|402:269,1,125.999996154785,0|0,3:0|0:0,0:0:0:0:
393,269,83919,2,0,P|428:251|442:220,1,41.9999987182618,10|0,0:1|0:0,0:0:0:0:
371,181,84096,1,0,0:0:0:0:
502,270,84273,2,0,P|502:230|481:203,1,41.9999987182618,2|0,0:0|0:0,0:0:0:0:
450,93,84450,1,8,0:1:0:0:
363,184,84627,1,0,0:0:0:0:
504,150,84804,1,8,0:1:0:0:
333,101,84981,38,0,B|232:77|264:137|151:107,1,167.999994873047,0|10,3:0|0:1,0:0:0:0:
66,16,85513,1,0,3:0:0:0:
10,137,85690,2,0,P|-1:195|5:243,1,83.9999974365235,2|0,0:0|3:0,0:0:0:0:
190,289,86044,2,0,P|199:248|199:206,1,83.9999974365235,8|0,0:1|0:0,0:0:0:0:
73,265,86398,2,0,P|74:313|84:363,1,83.9999974365235,0|0,3:0|0:0,0:0:0:0:
262,341,86752,6,0,L|325:335,1,41.9999987182618,10|0,0:1|2:0,0:0:0:0:
380,332,86929,1,0,3:0:0:0:
346,206,87106,2,0,P|335:250|343:270,1,41.9999987182618,2|0,0:0|0:0,0:0:0:0:
378,341,87284,1,0,3:0:0:0:
426,199,87461,2,0,P|406:145|361:125,1,83.9999974365235,8|0,0:1|0:0,0:0:0:0:
172,71,87815,38,0,B|158:109|158:109|171:206,1,125.999996154785,0|0,3:0|2:0,0:0:0:0:
173,206,88169,2,0,L|186:309,1,83.9999974365235,10|0,0:1|3:0,0:0:0:0:
43,335,88523,1,2,0:0:0:0:
69,208,88700,1,0,3:0:0:0:
183,289,88877,2,0,L|286:276,1,83.9999974365235,8|0,0:1|0:0,0:0:0:0:
454,215,89232,2,0,L|351:202,1,83.9999974365235,0|0,3:0|0:0,0:0:0:0:
220,177,89586,6,0,P|235:136|231:111,1,41.9999987182618,10|0,0:1|0:0,0:0:0:0:
232,33,89763,1,0,3:0:0:0:
138,145,89940,2,0,L|43:160,1,83.9999974365235,2|8,0:0|0:1,0:0:0:0:
0,240,90294,1,0,0:0:0:0:
82,62,90471,1,10,0:1:0:0:
162,223,90648,6,0,B|199:302|124:281|171:369,1,140,4|8,3:1|0:2,0:0:0:0:
258,276,91180,1,0,2:0:0:0:
336,330,91357,2,0,P|378:337|424:333,1,70,0|0,0:0|3:0,0:0:0:0:
431,171,91711,1,8,0:2:0:0:
431,171,91888,2,0,B|415:203|415:203|434:252,1,70
485,302,92242,5,0,2:0:0:0:
485,302,92419,1,8,0:2:0:0:
503,159,92596,2,0,L|510:65,1,70
340,171,92951,2,0,L|347:77,1,70,8|0,0:2|0:0,0:0:0:0:
273,216,93305,1,8,0:2:0:0:
273,216,93482,38,0,P|305:246|359:246,1,70,0|0,3:0|2:0,0:0:0:0:
373,321,93836,2,0,P|340:331|306:324,1,70,8|0,0:2|2:0,0:0:0:0:
188,206,94190,2,0,P|189:240|207:269,1,70,0|0,0:0|3:0,0:0:0:0:
238,138,94545,1,8,0:2:0:0:
238,138,94722,2,0,L|255:41,1,70
156,25,95076,5,0,2:0:0:0:
156,25,95253,1,8,0:2:0:0:
129,128,95430,2,0,P|96:145|44:127,1,70
24,8,95784,1,8,0:2:0:0:
156,25,95961,1,0,0:0:0:0:
3,89,96138,1,10,0:2:0:0:
137,124,96315,38,0,L|152:205,1,70,0|0,3:0|2:0,0:0:0:0:
261,223,96670,2,0,L|276:304,1,70,8|0,0:2|3:0,0:0:0:0:
175,347,97024,2,0,L|190:266,1,70,0|0,0:0|3:0,0:0:0:0:
187,278,97378,1,8,0:2:0:0:
265,217,97555,2,0,L|280:136,1,70
213,87,97909,5,0,2:0:0:0:
213,87,98086,1,8,0:2:0:0:
129,127,98264,2,0,L|144:208,1,70,0|0,3:0|0:0,0:0:0:0:
85,266,98618,2,0,L|100:347,2,70,8|8|8,0:2|0:2|0:2,0:0:0:0:
53,100,99149,5,0,3:0:0:0:
143,205,99326,1,0,2:0:0:0:
191,76,99503,2,0,L|283:68,1,70,8|0,0:2|3:0,0:0:0:0:
354,204,99857,2,0,L|284:199,1,70,0|0,0:0|3:0,0:0:0:0:
364,100,100212,1,8,0:2:0:0:
378,277,100389,2,0,P|427:240|427:194,1,70
274,200,100743,5,0,2:0:0:0:
437,154,100920,1,8,0:2:0:0:
300,279,101097,2,0,L|319:378,1,70,0|0,3:0|0:0,0:0:0:0:
501,277,101451,1,8,0:2:0:0:
353,179,101628,1,0,0:0:0:0:
398,369,101805,1,10,0:2:0:0:
