osu file format v14

[General]
AudioFilename: audio.mp3
AudioLeadIn: 0
PreviewTime: 10867
Countdown: 0
SampleSet: Soft
StackLeniency: 0
Mode: 0
LetterboxInBreaks: 0
WidescreenStoryboard: 1

[Editor]
Bookmarks: 5643,11310,22644,33978,45312,56646,67980,79314,90648,101983
DistanceSpacing: 0.8
BeatDivisor: 1
GridSize: 4
TimelineZoom: 2.55

[Metadata]
Title:Haunted
TitleUnicode:Haunted
Artist:laura les
ArtistUnicode:laura les
Creator:A3THER_XX
Version:Hard
Source:
Tags:100 gecs a2b2 night of fire 幽霊 euphoria electronic 殭屍 hyperpop 瘋 hyper pop english electronic pop aether xx a3ther_xx asap_bakery laplus axelixiya ggraterson sytho mix M_I_X
BeatmapID:3456604
BeatmapSetID:1682143

[Difficulty]
HPDrainRate:4.5
CircleSize:3.5
OverallDifficulty:6.3
ApproachRate:8
SliderMultiplier:1.4
SliderTickRate:1

[Events]
//Background and Video events
0,0,"darkinsanebg.jpg",0,0
//Break Periods
2,59480,61563
//Storyboard Layer 0 (Background)
//Storyboard Layer 1 (Fail)
//Storyboard Layer 2 (Pass)
//Storyboard Layer 3 (Foreground)
//Storyboard Layer 4 (Overlay)
//Storyboard Sound Samples

[TimingPoints]
5643,354.191263282172,4,2,1,50,1,0
5643,-100,4,2,1,50,0,0
9716,-74.0740740740741,4,2,1,50,0,0
9804,-74.0740740740741,4,2,1,5,0,0
10424,-74.0740740740741,4,2,1,5,0,0
10601,-74.0740740740741,4,2,1,50,0,0
11221,-74.0740740740741,4,2,1,5,0,0
11310,-68.9655172413793,4,2,2,90,0,0
16977,-68.9655172413793,4,2,2,90,0,0
22644,-68.9655172413793,4,2,2,90,0,0
28311,-68.9655172413793,4,2,2,90,0,0
33978,-100,4,2,1,50,0,0
39645,-90.9090909090909,4,2,1,50,0,0
40353,-83.3333333333333,4,2,1,50,0,0
41062,-76.9230769230769,4,2,1,50,0,0
41770,-100,4,2,1,50,0,0
42478,-76.9230769230769,4,2,1,50,0,0
43187,-83.3333333333333,4,2,1,50,0,0
43895,-90.9090909090909,4,2,1,50,0,0
44604,-1000,4,2,1,50,0,0
45312,-86.9565217391304,4,2,1,65,0,0
48145,-83.3333333333333,4,2,1,65,0,0
49828,-83.3333333333333,4,2,1,5,0,0
49916,-83.3333333333333,4,2,1,65,0,0
50979,-80,4,2,1,65,0,0
53813,-83.3333333333333,4,2,1,65,0,0
56646,-117.647058823529,4,2,1,65,0,0
56735,-117.647058823529,4,2,1,5,0,0
58063,-117.647058823529,4,2,1,5,0,0
62313,-100,4,2,1,65,0,0
66386,-62.5,4,2,1,65,0,0
66475,-62.5,4,2,1,5,0,0
67094,-62.5,4,2,1,5,0,0
67272,-62.5,4,2,1,65,0,0
67980,-68.9655172413793,4,2,2,90,0,0
73647,-68.9655172413793,4,2,2,90,0,0
79314,-68.9655172413793,4,2,2,90,0,0
84981,-68.9655172413793,4,2,2,90,0,0
90648,-100,4,2,1,90,0,0
101805,-166.666666666667,4,2,3,90,0,0
101894,-166.666666666667,4,2,3,5,0,0

[Colours]
Combo1 : 217,0,255
Combo2 : 128,255,0
Combo3 : 0,128,255
Combo4 : 255,0,0

[HitObjects]
200,364,5643,6,0,P|192:328|160:294,1,70
169,276,5997,2,0,P|138:256|92:254,1,70
32,216,6351,5,0,0:0:0:0:
40,196,6528,1,0,0:0:0:0:
100,140,6705,37,0,0:0:0:0:
92,120,6882,1,0,0:0:0:0:
67,43,7059,6,0,L|-14:21,2,70
158,16,7591,2,0,L|239:37,1,70
79,37,7945,2,0,L|-2:15,2,70
158,16,8476,38,0,P|173:58|212:83,1,70
186,104,8830,2,0,P|227:123|272:113,1,70
319,72,9184,5,0,0:0:0:0:
337,62,9362,1,0,0:0:0:0:
356,57,9539,1,0,0:0:0:0:
436,84,9716,38,0,B|444:128|488:144|488:144|432:128|400:176|400:176|364:232|308:208|308:208|340:156|400:176|436:216,1,378.000001441956
464,228,10601,2,0,L|468:252,4,23.6250000901222
396,288,10955,6,0,P|466:313|472:377,1,141.750000540733
392,368,11310,6,0,B|334:394|292:345|322:328|280:279|222:305,1,203.000006195069,4|8,3:3|0:1,0:0:0:0:
168,368,11841,1,0,0:0:0:0:
88,368,12018,2,0,P|80:316|48:272,1,101.500003097534,0|0,0:0|3:0,0:0:0:0:
117,219,12372,2,0,P|97:267|41:271,1,101.500003097534,8|0,0:1|0:0,0:0:0:0:
32,188,12726,5,0,3:0:0:0:
40,172,12903,1,0,0:0:0:0:
8,96,13081,2,0,B|50:84|50:84|59:86|59:86|113:71,1,101.500003097534,8|0,0:1|0:0,0:0:0:0:
176,28,13435,2,0,B|230:77|230:77|197:210,1,203.000006195069,0|8,0:0|0:1,0:0:0:0:
208,216,13966,1,0,0:0:0:0:
290,215,14143,38,0,P|330:191|386:191,1,101.500003097534,0|0,3:0|0:0,0:0:0:0:
430,267,14497,2,0,P|346:259|298:155,2,203.000006195069,8|0|8,0:1|0:0|0:1,0:0:0:0:
466,191,15383,1,0,0:0:0:0:
428,117,15560,6,0,P|399:75|402:25,1,101.500003097534,0|0,3:0|0:0,0:0:0:0:
484,3,15914,2,0,P|511:44|507:94,1,101.500003097534,8|0,0:1|0:0,0:0:0:0:
428,117,16268,1,0,0:0:0:0:
466,191,16445,1,0,3:0:0:0:
430,267,16622,1,8,0:1:0:0:
464,344,16800,1,2,0:1:0:0:
388,380,16977,38,0,B|390:347|359:320|328:314|328:314|269:301|269:301|264:304|264:304|206:292,1,203.000006195069,0|8,3:0|0:1,0:0:0:0:
148,324,17508,2,0,P|120:364|60:364,1,101.500003097534,0|0,3:0|0:0,0:0:0:0:
48,360,17862,1,0,3:0:0:0:
20,280,18039,2,0,P|48:236|56:184,1,101.500003097534,8|0,0:1|0:0,0:0:0:0:
138,216,18393,6,0,P|38:196|26:108,1,203.000006195069,0|8,3:0|0:1,0:0:0:0:
47,28,18925,2,0,P|98:57|113:111,1,101.500003097534,0|0,3:0|0:0,0:0:0:0:
113,115,19279,1,0,3:0:0:0:
188,148,19456,2,0,B|234:135|234:135|237:130|237:130|295:115,1,101.500003097534,8|0,0:1|0:0,0:0:0:0:
300,36,19810,38,0,B|377:56|377:56|399:95|399:95|477:116,1,203.000006195069,0|8,3:0|0:1,0:0:0:0:
490,37,20341,1,0,3:0:0:0:
468,32,20519,2,0,P|416:44|392:88,1,101.500003097534,0|0,0:0|3:0,0:0:0:0:
360,168,20873,1,8,0:1:0:0:
344,180,21050,6,0,P|396:196|408:240,1,101.500003097534,0|0,0:0|3:0,0:0:0:0:
480,284,21404,1,0,0:0:0:0:
496,296,21581,2,0,P|444:312|432:356,1,101.500003097534,8|0,0:1|3:0,0:0:0:0:
352,376,21935,1,0,0:0:0:0:
272,356,22112,1,0,3:0:0:0:
208,264,22289,1,8,0:1:0:0:
288,244,22466,1,2,0:1:0:0:
188,344,22644,38,0,B|41:304|41:304|68:311|93:293,1,203.000006195069,4|8,3:3|0:1,0:0:0:0:
132,224,23175,1,0,0:0:0:0:
104,144,23352,2,0,P|76:103|24:94,1,101.500003097534,0|0,0:0|3:0,0:0:0:0:
16,176,23706,2,0,P|68:178|106:140,1,101.500003097534,8|0,0:1|0:0,0:0:0:0:
184,116,24060,5,0,3:0:0:0:
200,120,24238,1,0,0:0:0:0:
264,64,24415,2,0,B|307:54|307:54|315:57|315:57|370:45,1,101.500003097534,8|0,0:1|0:0,0:0:0:0:
448,60,24769,2,0,B|443:97|411:120|392:125|392:125|267:151,1,203.000006195069,0|8,0:0|0:1,0:0:0:0:
240,220,25300,1,0,0:0:0:0:
282,148,25477,38,0,L|395:123,1,101.500003097534,0|0,3:0|0:0,0:0:0:0:
432,196,25831,2,0,B|396:248|440:296|460:268|508:320|480:376,2,203.000006195069,8|0|8,0:1|0:0|0:1,0:0:0:0:
512,222,26717,1,0,0:0:0:0:
452,284,26894,6,0,P|400:272|340:292,1,101.500003097534,0|0,3:0|0:0,0:0:0:0:
276,252,27248,2,0,P|239:291|226:352,1,101.500003097534,8|0,0:1|0:0,0:0:0:0:
152,368,27602,1,0,0:0:0:0:
124,288,27779,1,0,3:0:0:0:
44,252,27957,1,8,0:1:0:0:
8,176,28134,1,2,0:1:0:0:
44,101,28311,38,0,P|131:115|139:19,1,203.000006195069,0|8,3:0|0:1,0:0:0:0:
58,12,28842,2,0,P|30:60|50:108,1,101.500003097534,0|0,3:0|0:0,0:0:0:0:
127,103,29196,1,0,3:0:0:0:
104,180,29373,2,0,L|204:200,1,101.500003097534,8|0,0:1|0:0,0:0:0:0:
264,252,29728,6,0,P|187:208|241:128,1,203.000006195069,0|8,3:0|0:1,0:0:0:0:
304,180,30259,2,0,P|324:136|308:80,1,101.500003097534,0|0,3:0|0:0,0:0:0:0:
252,28,30613,1,0,3:0:0:0:
312,85,30790,2,0,B|355:75|355:75|363:78|363:78|418:66,1,101.500003097534,8|0,0:1|0:0,0:0:0:0:
480,16,31144,38,0,B|526:59|493:119|470:103|441:163|499:204,1,203.000006195069,0|8,3:0|0:1,0:0:0:0:
496,284,31676,1,0,3:0:0:0:
512,296,31853,2,0,B|469:286|469:286|461:289|461:289|406:277,1,101.500003097534,0|0,0:0|3:0,0:0:0:0:
350,203,32207,1,8,0:1:0:0:
358,216,32384,6,0,P|326:264|342:316,1,101.500003097534,0|0,0:0|3:0,0:0:0:0:
271,362,32738,1,0,0:0:0:0:
258,370,32915,2,0,P|210:338|158:354,1,101.500003097534,8|0,0:1|3:0,0:0:0:0:
80,363,33269,1,0,0:0:0:0:
180,254,33447,1,0,3:0:0:0:
35,283,33624,1,8,0:1:0:0:
169,345,33801,1,2,0:1:0:0:
98,216,33978,6,0,P|86:161|38:89,2,140,4|8|0,3:1|0:3|0:0,0:0:0:0:
112,200,34863,1,0,3:0:0:0:
180,156,35040,2,0,P|188:108|208:76,1,70,8|0,0:3|0:0,0:0:0:0:
136,32,35395,6,0,P|204:4|264:36,2,140,0|8|0,3:0|0:3|0:0,0:0:0:0:
125,47,36280,1,0,3:0:0:0:
197,89,36457,2,0,P|233:113|281:113,1,70,8|0,0:3|0:0,0:0:0:0:
336,76,36811,38,0,B|378:88|407:57|391:49|420:18|459:31,1,140,0|8,3:0|0:3,0:0:0:0:
512,96,37343,1,0,0:0:0:0:
448,152,37520,2,0,L|468:236,1,70,0|0,0:0|3:0,0:0:0:0:
392,264,37874,2,0,L|372:180,1,70,8|0,0:3|0:0,0:0:0:0:
467,232,38228,2,0,P|475:308|411:340,1,140,0|8,3:0|0:3,0:0:0:0:
414,360,38936,6,0,P|374:332|334:332,1,70,0|0,0:0|3:0,0:0:0:0:
302,268,39291,1,8,0:3:0:0:
286,272,39468,1,0,0:0:0:0:
218,316,39645,38,0,L|132:301,1,77.0000023498536,2|0,3:2|0:0,0:0:0:0:
150,221,39999,1,8,0:3:0:0:
166,217,40176,1,0,3:0:0:0:
218,316,40353,6,0,L|132:301,1,83.9999974365235,2|0,0:2|3:0,0:0:0:0:
166,217,40707,1,8,0:3:0:0:
182,213,40884,1,0,0:0:0:0:
218,316,41062,38,0,L|128:301,1,90.9999958343508,2|0,3:2|0:0,0:0:0:0:
182,213,41416,1,8,0:3:0:0:
198,209,41593,1,0,3:0:0:0:
196,125,41770,6,0,P|152:125|124:145,1,70,0|0,0:0|3:0,0:0:0:0:
46,169,42124,2,0,P|22:145|18:101,1,70,8|0,0:3|0:0,0:0:0:0:
20,24,42478,38,0,L|110:39,1,90.9999958343508,2|0,3:2|0:0,0:0:0:0:
128,116,42832,1,8,0:3:0:0:
112,120,43009,1,0,3:0:0:0:
20,24,43187,6,0,L|110:39,1,83.9999974365235,2|0,0:2|3:0,0:0:0:0:
144,112,43541,1,8,0:3:0:0:
128,116,43718,1,0,0:0:0:0:
20,24,43895,38,0,L|110:39,1,77.0000023498536,2|0,3:2|0:0,0:0:0:0:
144,112,44249,2,0,L|234:97,1,77.0000023498536,8|0,0:3|0:0,0:0:0:0:
252,24,44604,5,0,0:0:0:0:
267,27,44781,1,0,0:0:0:0:
283,30,44958,1,0,0:0:0:0:
298,33,45135,1,0,0:0:0:0:
348,100,45312,38,0,P|408:44|496:40,2,161.000003070831,4|8|0,3:2|0:2|0:0,0:0:0:0:
340,184,46197,1,0,3:0:0:0:
400,244,46374,2,0,L|478:227,1,80.5000015354157,8|0,0:2|0:0,0:0:0:0:
508,304,46729,6,0,B|437:318|437:318|427:329|427:329|353:345,2,161.000003070831,0|8|0,3:0|0:2|0:0,0:0:0:0:
440,356,47614,1,0,3:0:0:0:
354,344,47791,2,0,P|322:316|270:308,1,80.5000015354157,8|0,0:2|0:0,0:0:0:0:
208,268,48145,38,0,B|160:264|141:308|141:308|121:353|74:349,1,167.999994873047,0|8,3:0|0:2,0:0:0:0:
8,300,48677,1,0,0:0:0:0:
20,284,48854,2,0,P|16:240|0:200,1,83.9999974365235,0|0,0:0|3:0,0:0:0:0:
38,131,49208,2,0,P|42:87|58:47,1,83.9999974365235,8|0,0:2|0:0,0:0:0:0:
129,10,49562,6,0,P|149:74|153:142,1,125.999996154785,0|0,3:0|0:0,0:0:0:0:
153,155,49916,2,0,P|161:99|181:67,1,83.9999974365235,8|0,0:2|0:0,0:0:0:0:
244,28,50271,37,0,0:0:0:0:
256,52,50448,1,0,3:0:0:0:
284,128,50625,5,8,0:2:0:0:
272,152,50802,1,2,0:1:0:0:
324,220,50979,38,0,P|388:176|488:164,2,175,0|8|0,3:0|0:2|0:0,0:0:0:0:
380,156,51864,1,0,3:0:0:0:
352,76,52042,2,0,P|360:32|404:8,1,87.5,8|0,0:2|0:0,0:0:0:0:
472,52,52396,6,0,B|446:106|484:140|488:123|526:157|505:215,2,175,0|8|0,3:0|0:2|0:0,0:0:0:0:
512,127,53281,1,0,3:0:0:0:
507,211,53458,2,0,L|488:297,1,87.5,8|0,0:2|0:0,0:0:0:0:
424,360,53813,38,0,P|352:312|264:304,1,167.999994873047,0|8,3:0|0:2,0:0:0:0:
207,357,54344,1,0,3:0:0:0:
192,366,54521,2,0,L|94:345,1,83.9999974365235,0|0,0:0|3:0,0:0:0:0:
40,300,54875,2,0,P|60:256|100:240,1,83.9999974365235,8|0,0:2|0:0,0:0:0:0:
172,272,55229,6,0,P|168:192|96:152,1,167.999994873047,0|8,3:0|0:2,0:0:0:0:
32,96,55761,1,0,3:0:0:0:
96,16,55938,38,0,L|88:51,4,20.9999993591309,0|0|0|0|0,0:0|0:0|0:0|0:0|3:0,0:0:0:0:
164,80,56292,1,8,0:2:0:0:
187,85,56469,1,2,0:1:0:0:
264,48,56646,6,0,B|252:-24|378:-43|397:59|345:94|310:117|310:117|247:160|280:232|280:232|288:172|336:152,1,476.00000907898,4|0,0:1|0:0,0:0:0:0:
300,364,62313,38,0,L|368:348,1,70
400,272,62667,2,0,L|468:288,1,70
508,212,63021,5,0,0:0:0:0:
492,208,63199,1,0,0:0:0:0:
420,168,63376,37,0,0:0:0:0:
404,172,63554,1,0,0:0:0:0:
340,116,63730,6,0,P|370:85|412:82,2,70
260,144,64261,2,0,P|229:174|187:177,1,70
332,100,64615,2,0,P|362:69|404:66,2,70
260,144,65147,38,0,P|232:120|160:128,1,70
152,44,65501,2,0,P|117:56|88:122,1,70
32,136,65855,5,0,0:0:0:0:
44,156,66032,1,0,0:0:0:0:
40,180,66209,1,0,0:0:0:0:
16,264,66386,38,0,B|30:314|124:299|178:372|44:440|-56:346|30:314|124:299|124:199|124:199|134:246|181:260,1,448
228,320,67272,2,0,L|212:376,2,56,2|2|2,0:2|0:2|0:2,0:0:0:0:
312,300,67626,5,2,0:2:0:0:
376,364,67803,1,2,0:2:0:0:
484,244,67980,6,0,B|432:204|384:252|412:264|352:312|304:276,1,203.000006195069,4|10,3:2|0:1,0:0:0:0:
316,184,68511,1,0,0:0:0:0:
376,112,68689,2,0,P|428:112|464:152,1,101.500003097534,2|0,0:2|3:0,0:0:0:0:
484,148,69043,2,0,P|432:100|382:94,1,101.500003097534,8|0,0:1|0:0,0:0:0:0:
340,36,69397,5,0,3:0:0:0:
260,64,69574,1,0,0:0:0:0:
228,144,69751,2,0,L|124:124,1,101.500003097534,10|0,0:1|0:0,0:0:0:0:
80,28,70105,2,0,B|28:88|28:88|68:208,1,203.000006195069,2|8,0:0|0:1,0:0:0:0:
40,220,70637,1,0,0:0:0:0:
64,340,70814,38,0,P|104:308|168:300,1,101.500003097534,0|0,3:0|0:0,0:0:0:0:
216,364,71168,2,0,P|264:288|188:220,2,203.000006195069,10|2|8,0:1|0:0|0:1,0:0:0:0:
296,328,72053,1,0,0:0:0:0:
368,380,72230,6,0,B|414:370|414:370|418:365|418:365|480:351,1,101.500003097534,0|0,3:0|0:0,0:0:0:0:
508,268,72585,2,0,B|461:258|461:258|457:253|457:253|395:239,1,101.500003097534,10|0,0:1|0:0,0:0:0:0:
328,176,72939,1,2,0:0:0:0:
278,99,73116,1,8,0:1:0:0:
444,24,73293,1,0,0:0:0:0:
394,101,73470,1,8,0:1:0:0:
324,20,73647,38,0,B|402:36|402:36|428:66|428:66|522:86,1,203.000006195069,0|10,3:0|0:1,0:0:0:0:
512,172,74179,2,0,L|390:146,1,101.500003097534,0|2,3:0|0:0,0:0:0:0:
328,176,74533,1,0,3:0:0:0:
312,192,74710,2,0,P|303:140|279:98,1,101.500003097534,8|0,0:1|0:0,0:0:0:0:
212,36,75064,6,0,B|160:8|112:60|136:68|88:120|36:96,1,203.000006195069,0|10,3:0|0:1,0:0:0:0:
56,12,75595,2,0,P|112:36|120:84,1,101.500003097534,0|2,3:0|0:0,0:0:0:0:
40,188,75949,1,0,3:0:0:0:
17,182,76127,2,0,P|9:121|47:90,1,101.500003097534,8|0,0:1|0:0,0:0:0:0:
128,168,76481,38,0,B|157:308|157:308|88:292,1,203.000006195069,0|10,3:0|0:1,0:0:0:0:
32,344,77012,1,0,3:0:0:0:
12,360,77189,2,0,L|116:384,1,101.500003097534,2|0,0:0|3:0,0:0:0:0:
208,376,77543,1,8,0:1:0:0:
224,364,77720,6,0,P|248:316|228:268,1,101.500003097534,0|0,0:0|3:0,0:0:0:0:
300,212,78075,1,0,0:0:0:0:
312,228,78252,2,0,P|360:252|408:232,1,101.500003097534,10|0,0:1|3:0,0:0:0:0:
472,308,78606,1,2,0:0:0:0:
512,384,78783,1,8,0:1:0:0:
352,304,78960,1,0,0:0:0:0:
402,237,79137,1,10,0:1:0:0:
410,368,79314,38,0,P|420:284|458:168,1,203.000006195069,4|10,3:2|0:1,0:0:0:0:
376,144,79846,1,0,0:0:0:0:
376,44,80023,2,0,P|424:36|464:-8,1,101.500003097534,2|0,0:0|3:0,0:0:0:0:
472,16,80377,2,0,P|436:51|387:60,1,101.500003097534,8|0,0:1|0:0,0:0:0:0:
296,16,80731,5,0,3:0:0:0:
226,65,80908,1,0,0:0:0:0:
289,126,81085,2,0,P|305:174|305:230,1,101.500003097534,10|0,0:1|0:0,0:0:0:0:
248,296,81439,2,0,P|148:288|156:208,1,203.000006195069,2|8,0:0|0:1,0:0:0:0:
176,188,81971,1,0,0:0:0:0:
248,296,82148,38,0,P|200:312|168:352,1,101.500003097534,0|0,3:0|0:0,0:0:0:0:
84,380,82502,2,0,B|66:297|66:297|46:281|46:281|25:183,2,203.000006195069,10|2|8,0:1|0:0|0:1,0:0:0:0:
16,318,83387,1,0,0:0:0:0:
52,228,83565,6,0,P|71:175|106:139,1,101.500003097534,0|0,3:0|0:0,0:0:0:0:
48,48,83919,2,0,P|45:101|99:124,1,101.500003097534,10|0,0:1|0:0,0:0:0:0:
200,5,84273,1,2,0:0:0:0:
132,57,84450,1,8,0:1:0:0:
250,176,84627,1,0,0:0:0:0:
182,124,84804,1,8,0:1:0:0:
272,52,84981,38,0,B|316:16|376:56|352:68|404:116|456:80,1,203.000006195069,0|10,3:0|0:1,0:0:0:0:
492,4,85513,2,0,P|432:-4|384:36,1,101.500003097534,0|2,3:0|0:0,0:0:0:0:
356,96,85867,1,0,3:0:0:0:
360,119,86044,2,0,B|369:165|369:165|374:169|374:169|385:219,1,101.500003097534,8|0,0:1|0:0,0:0:0:0:
472,240,86398,6,0,P|376:232|288:304,1,203.000006195069,0|10,3:0|0:1,0:0:0:0:
332,372,86929,2,0,P|329:317|281:292,1,101.500003097534,0|2,3:0|0:0,0:0:0:0:
140,344,87284,1,0,3:0:0:0:
156,360,87461,2,0,P|205:384|250:355,1,101.500003097534,8|0,0:1|0:0,0:0:0:0:
252,192,87815,38,0,B|200:256|120:240|120:240|164:244|184:212,1,203.000006195069,0|10,3:0|0:1,0:0:0:0:
120,156,88346,1,0,3:0:0:0:
108,140,88523,2,0,B|64:130|64:130|56:133|56:133|1:121,1,101.500003097534,2|0,0:0|3:0,0:0:0:0:
32,20,88877,1,8,0:1:0:0:
44,36,89055,6,0,B|87:45|87:45|95:42|95:42|150:54,1,101.500003097534,0|0,0:0|3:0,0:0:0:0:
216,104,89409,1,0,0:0:0:0:
228,88,89586,2,0,B|272:78|272:78|280:81|280:81|335:69,1,101.500003097534,10|0,0:1|3:0,0:0:0:0:
490,97,89940,1,2,0:0:0:0:
344,72,90117,1,8,0:1:0:0:
447,176,90294,1,0,0:0:0:0:
426,31,90471,1,10,0:1:0:0:
357,161,90648,6,0,P|359:200|386:229,1,70,4|0,3:1|0:0,0:0:0:0:
355,303,91003,2,0,P|393:312|429:296,1,70,8|0,0:2|0:0,0:0:0:0:
490,249,91357,5,0,0:0:0:0:
512,334,91534,1,0,3:0:0:0:
442,384,91711,1,8,0:2:0:0:
355,303,91888,38,0,B|288:317|288:317|278:327|278:327|211:341,1,140
148,304,92419,1,8,0:2:0:0:
140,328,92596,2,0,P|112:360|64:368,1,70
16,320,92951,2,0,L|0:240,2,70,8|0|8,0:2|0:0|0:2,0:0:0:0:
88,232,93482,6,0,P|88:188|108:148,1,70,0|0,3:0|0:0,0:0:0:0:
156,112,93836,2,0,P|134:147|97:158,1,70,8|0,0:2|0:0,0:0:0:0:
16,136,94190,37,0,0:0:0:0:
16,52,94367,1,0,3:0:0:0:
92,12,94545,1,8,0:2:0:0:
156,112,94722,6,0,B|196:133|232:104|210:104|247:71|287:93,1,140
356,52,95253,1,8,0:2:0:0:
372,36,95430,2,0,P|400:16|448:20,1,70
500,68,95784,2,0,P|480:100|484:136,1,70,8|0,0:2|0:0,0:0:0:0:
512,212,96138,1,10,0:2:0:0:
424,272,96315,38,0,L|409:201,1,70,0|0,3:0|0:0,0:0:0:0:
320,172,96670,2,0,L|334:242,1,70,8|0,0:2|3:0,0:0:0:0:
344,324,97024,5,0,0:0:0:0:
408,380,97201,1,0,3:0:0:0:
492,360,97378,1,8,0:2:0:0:
424,272,97555,38,0,L|256:244,1,140
208,204,98086,1,8,0:2:0:0:
192,216,98264,2,0,P|204:256|200:300,1,70,0|0,3:0|0:0,0:0:0:0:
168,364,98618,21,8,0:2:0:0:
85,346,98795,1,8,0:2:0:0:
3,329,98972,1,8,0:2:0:0:
40,252,99149,22,0,P|40:212|24:172,1,70,0|0,3:0|0:0,0:0:0:0:
88,124,99503,2,0,P|88:84|104:44,1,70,8|0,0:2|3:0,0:0:0:0:
160,0,99857,5,0,0:0:0:0:
220,64,100034,1,0,3:0:0:0:
172,136,100212,1,8,0:2:0:0:
220,64,100389,38,0,P|284:36|356:44,1,140
436,28,100920,1,8,0:2:0:0:
492,100,101097,6,0,P|456:116|408:112,1,70,0|0,3:0|0:0,0:0:0:0:
376,188,101451,2,0,P|412:202|443:238,1,70,8|0,0:2|0:0,0:0:0:0:
494,298,101805,5,10,0:2:0:0:
