osu file format v14

[General]
AudioFilename: audio.mp3
AudioLeadIn: 0
PreviewTime: 10867
Countdown: 0
SampleSet: Soft
StackLeniency: 0.4
Mode: 0
LetterboxInBreaks: 0
WidescreenStoryboard: 1

[Editor]
Bookmarks: 5643,11310,22644,33978,45312,56646,67980,79314,90648,101983
DistanceSpacing: 1.6
BeatDivisor: 1
GridSize: 4
TimelineZoom: 2.599999

[Metadata]
Title:Haunted
TitleUnicode:Haunted
Artist:laura les
ArtistUnicode:laura les
Creator:A3THER_XX
Version:Collab Advanced
Source:
Tags:100 gecs a2b2 night of fire 幽霊 euphoria electronic 殭屍 hyperpop 瘋 hyper pop english electronic pop aether xx a3ther_xx asap_bakery laplus axelixiya ggraterson sytho mix M_I_X
BeatmapID:3534351
BeatmapSetID:1682143

[Difficulty]
HPDrainRate:4.5
CircleSize:4
OverallDifficulty:5
ApproachRate:6.5
SliderMultiplier:1.1
SliderTickRate:1

[Events]
//Background and Video events
0,0,"darkinsanebg.jpg",0,0
//Break Periods
2,58063,67005
//Storyboard Layer 0 (Background)
//Storyboard Layer 1 (Fail)
//Storyboard Layer 2 (Pass)
//Storyboard Layer 3 (Foreground)
//Storyboard Layer 4 (Overlay)
//Storyboard Sound Samples

[TimingPoints]
5643,354.191263282172,4,2,1,50,1,0
5643,-100,4,2,1,50,0,0
9893,-100,4,2,1,50,0,0
10070,-100,4,2,1,5,0,0
10601,-100,4,2,1,5,0,0
11310,-83.3333333333333,4,2,2,90,0,0
33978,-111.111111111111,4,2,1,50,0,0
45312,-100,4,2,1,65,0,0
67980,-83.3333333333333,4,2,2,90,0,0
90648,-111.111111111111,4,2,1,90,0,0
101805,-100,4,2,3,90,0,0
101894,-100,4,2,3,90,0,0

[Colours]
Combo1 : 217,0,255
Combo2 : 128,255,0
Combo3 : 0,128,255
Combo4 : 255,0,0

[HitObjects]
39,367,5643,6,0,B|52:349|52:349|146:329,1,110
227,257,6351,2,0,B|213:239|213:239|119:219,1,110
98,192,6882,1,0,0:0:0:0:
98,192,7059,2,0,L|87:134,2,55
19,228,7591,2,0,L|-2:113,1,110
123,26,8299,5,0,0:0:0:0:
123,26,8476,2,0,B|143:46|143:46|228:31,1,110
345,5,9184,2,0,P|371:58|348:104,1,110
288,155,9716,1,0,0:0:0:0:
288,155,9893,2,0,B|335:114|396:159|368:178|432:227|481:181,1,220
508,344,11310,6,0,B|410:323|410:323|376:344,1,131.99999597168,4|8,3:3|0:1,0:0:0:0:
261,380,12018,2,0,L|246:309,1,65.9999979858399,0|0,0:0|3:0,0:0:0:0:
222,243,12372,1,8,0:1:0:0:
85,312,12726,6,0,P|21:296|1:232,1,131.99999597168,0|8,3:0|0:1,0:0:0:0:
36,168,13258,1,0,0:0:0:0:
36,168,13435,2,0,L|104:156,1,65.9999979858399,0|0,0:0|3:0,0:0:0:0:
171,182,13789,1,8,0:1:0:0:
148,46,14143,37,0,3:0:0:0:
272,0,14497,1,8,0:1:0:0:
327,124,14851,2,0,L|240:105,2,65.9999979858399,0|0|8,0:0|3:0|0:1,0:0:0:0:
436,64,15560,6,0,B|456:28|444:-8|444:-8|480:20|456:68,1,131.99999597168,0|8,3:0|0:1,0:0:0:0:
500,116,16091,1,0,0:0:0:0:
500,132,16268,2,0,P|500:164|516:200,1,65.9999979858399,0|0,0:0|3:0,0:0:0:0:
488,224,16622,2,0,P|488:256|472:292,1,65.9999979858399,8|2,0:1|0:1,0:0:0:0:
400,328,16977,38,0,P|328:328|284:388,1,131.99999597168,0|8,3:0|0:1,0:0:0:0:
208,368,17508,2,0,B|112:344|112:344|72:364,1,131.99999597168,0|0,3:0|3:0,0:0:0:0:
36,296,18039,1,8,0:1:0:0:
110,182,18393,6,0,P|122:118|70:82,1,131.99999597168,0|8,3:0|0:1,0:0:0:0:
14,30,18925,2,0,P|78:26|142:-2,1,131.99999597168,0|0,3:0|3:0,0:0:0:0:
214,26,19456,1,8,0:1:0:0:
260,148,19810,38,0,P|320:124|392:124,1,131.99999597168,0|8,3:0|0:1,0:0:0:0:
464,100,20341,1,0,3:0:0:0:
464,102,20519,2,0,P|460:38|400:66,1,131.99999597168,0|8,0:0|0:1,0:0:0:0:
384,124,21050,2,0,P|384:168|420:200,1,65.9999979858399,0|0,0:0|3:0,0:0:0:0:
404,232,21404,1,0,0:0:0:0:
416,240,21581,2,0,P|459:248|492:231,1,65.9999979858399,8|0,0:1|3:0,0:0:0:0:
512,212,21935,1,0,0:0:0:0:
512,352,22289,6,0,L|436:340,1,65.9999979858399,8|2,0:1|0:1,0:0:0:0:
372,372,22644,38,0,B|250:346|250:346|236:318,1,131.99999597168,4|8,3:3|0:1,0:0:0:0:
248,204,23352,2,0,L|173:219,1,65.9999979858399,0|0,0:0|3:0,0:0:0:0:
136,275,23706,1,8,0:1:0:0:
31,360,24060,6,0,L|3:216,1,131.99999597168,0|8,3:0|0:1,0:0:0:0:
47,160,24592,1,0,0:0:0:0:
47,160,24769,2,0,L|55:80,1,65.9999979858399,0|0,0:0|3:0,0:0:0:0:
9,33,25123,1,8,0:1:0:0:
155,0,25477,37,0,3:0:0:0:
234,106,25831,1,8,0:1:0:0:
359,53,26186,2,0,L|266:33,2,65.9999979858399,0|0|8,0:0|3:0|0:1,0:0:0:0:
444,4,26894,6,0,P|436:64|504:104,1,131.99999597168,0|8,3:0|0:1,0:0:0:0:
512,180,27425,1,0,0:0:0:0:
500,182,27602,2,0,L|406:201,1,65.9999979858399,0|0,0:0|3:0,0:0:0:0:
404,220,27957,2,0,L|310:200,1,65.9999979858399,8|2,0:1|0:1,0:0:0:0:
260,188,28311,38,0,B|276:296|276:296|256:328,1,131.99999597168,0|8,3:0|0:1,0:0:0:0:
196,360,28842,2,0,P|140:300|68:308,1,131.99999597168,0|0,3:0|3:0,0:0:0:0:
20,328,29373,1,8,0:1:0:0:
72,193,29728,6,0,P|96:121|76:61,1,131.99999597168,0|8,3:0|0:1,0:0:0:0:
20,17,30259,2,0,B|38:4|38:4|152:28,1,131.99999597168,0|0,3:0|3:0,0:0:0:0:
224,17,30790,1,8,0:1:0:0:
324,108,31144,38,0,L|460:76,1,131.99999597168,0|8,3:0|0:1,0:0:0:0:
506,7,31676,1,0,3:0:0:0:
506,7,31853,2,0,P|442:27|454:79,1,131.99999597168,0|8,0:0|0:1,0:0:0:0:
512,128,32384,2,0,L|492:200,1,65.9999979858399,0|0,0:0|3:0,0:0:0:0:
428,224,32738,1,0,0:0:0:0:
436,248,32915,2,0,L|456:320,1,65.9999979858399,8|0,0:1|3:0,0:0:0:0:
508,368,33269,1,0,0:0:0:0:
361,292,33624,6,0,L|346:358,1,65.9999979858399,8|2,0:1|0:1,0:0:0:0:
273,376,33978,6,0,P|225:340|161:344,1,98.9999969787599,4|8,3:1|0:3,0:0:0:0:
85,356,34686,2,0,L|101:292,2,49.4999984893799,0|0|8,0:0|3:0|0:3,0:0:0:0:
15,259,35395,6,0,L|111:219,1,98.9999969787599,0|8,3:0|0:3,0:0:0:0:
204,180,36103,1,0,0:0:0:0:
200,164,36280,1,0,3:0:0:0:
197,148,36457,2,0,L|182:81,1,49.4999984893799,8|0,0:3|2:0,0:0:0:0:
148,31,36811,38,0,P|148:83|200:95,1,98.9999969787599,0|8,3:0|0:3,0:0:0:0:
224,33,37343,1,0,0:0:0:0:
241,30,37520,1,0,0:0:0:0:
331,92,37874,6,0,L|341:142,1,49.4999984893799,8|0,0:3|2:0,0:0:0:0:
408,174,38228,2,0,B|497:154|497:154|518:134,1,98.9999969787599,0|8,3:0|0:3,0:0:0:0:
496,4,38936,1,0,0:0:0:0:
457,34,39113,1,0,3:0:0:0:
455,85,39291,1,8,0:3:0:0:
502,148,39645,38,0,P|475:194|488:240,1,98.9999969787599,2|8,3:2|0:3,0:0:0:0:
416,272,40353,2,0,P|452:311|500:313,1,98.9999969787599,2|8,0:2|0:3,0:0:0:0:
484,236,41062,1,2,3:2:0:0:
424,352,41416,1,8,0:3:0:0:
316,300,41770,2,0,L|326:249,2,49.4999984893799,0|0|8,0:0|3:0|0:3,0:0:0:0:
208,328,42478,6,0,P|171:288|123:286,1,98.9999969787599,2|8,3:2|0:3,0:0:0:0:
116,207,43186,2,0,P|66:228|50:274,1,98.9999969787599,2|8,0:2|0:3,0:0:0:0:
128,284,43895,1,2,3:2:0:0:
36,192,44249,1,8,0:3:0:0:
60,116,44604,38,0,L|50:65,3,49.4999984893799
72,24,45312,6,0,P|126:24|169:56,1,110,4|8,3:2|0:2,0:0:0:0:
244,128,46020,2,0,L|314:113,1,55,0|0,0:0|3:0,0:0:0:0:
324,84,46374,2,0,L|394:98,1,55,8|0,0:2|0:0,0:0:0:0:
404,124,46729,1,0,3:0:0:0:
508,32,47083,2,0,B|488:121|488:121|501:140,1,110,8|0,0:2|0:0,0:0:0:0:
512,212,47614,1,0,3:0:0:0:
488,212,47791,2,0,P|456:224|436:248,1,55,8|0,0:2|0:0,0:0:0:0:
392,296,48145,38,0,P|456:308|472:360,1,110,0|8,3:0|0:2,0:0:0:0:
404,376,48677,1,0,0:0:0:0:
392,372,48854,1,0,0:0:0:0:
320,276,49208,2,0,L|257:262,1,55,8|0,0:2|0:0,0:0:0:0:
196,220,49562,6,0,B|215:309|215:309|199:333,1,110,0|8,3:0|0:2,0:0:0:0:
100,356,50271,1,0,0:0:0:0:
76,351,50448,1,0,3:0:0:0:
53,346,50625,2,0,L|-2:334,1,55,8|2,0:2|0:1,0:0:0:0:
0,256,50979,38,0,P|36:196|80:208,1,110,0|8,3:0|0:2,0:0:0:0:
172,172,51687,2,0,L|188:93,1,55,0|0,0:0|3:0,0:0:0:0:
216,88,52042,2,0,L|199:9,1,55,8|0,0:2|0:0,0:0:0:0:
184,0,52396,1,0,3:0:0:0:
304,72,52750,2,0,L|413:48,1,110,8|0,0:2|0:0,0:0:0:0:
476,4,53281,1,0,3:0:0:0:
484,20,53458,2,0,P|488:52|476:100,1,55,8|0,0:2|0:0,0:0:0:0:
428,128,53813,6,0,B|428:180|408:224|408:224|428:212,1,110,0|8,3:0|0:2,0:0:0:0:
492,212,54344,1,0,3:0:0:0:
492,232,54521,2,0,P|484:260|464:284,1,55,0|0,0:0|3:0,0:0:0:0:
449,352,54875,2,0,P|419:353|390:341,1,55,8|0,0:2|0:0,0:0:0:0:
324,356,55229,38,0,B|311:337|311:337|209:315,1,110,0|8,3:0|0:2,0:0:0:0:
186,250,55761,2,0,P|154:294|158:358,1,110,0|0,3:0|3:0,0:0:0:0:
86,375,56292,1,8,0:2:0:0:
48,343,56469,1,2,0:1:0:0:
0,329,56646,1,4,0:1:0:0:
4,40,67980,22,0,B|102:61|102:61|136:40,1,131.99999597168,4|10,3:2|0:1,0:0:0:0:
238,0,68688,2,0,L|253:71,1,65.9999979858399,2|0,0:2|3:0,0:0:0:0:
312,110,69042,1,8,0:1:0:0:
403,19,69396,6,0,P|467:35|487:99,1,131.99999597168,0|10,3:0|0:1,0:0:0:0:
442,158,69928,1,0,0:0:0:0:
442,158,70105,2,0,L|374:146,1,65.9999979858399,2|0,0:0|3:0,0:0:0:0:
315,190,70459,1,8,0:1:0:0:
459,288,70814,37,0,3:0:0:0:
350,363,71168,1,10,0:1:0:0:
262,264,71522,2,0,L|352:278,2,65.9999979858399,2|0|8,0:0|3:0|0:1,0:0:0:0:
454,364,72230,2,0,B|437:373|437:373|296:348,1,131.99999597168,0|10,3:0|0:1,0:0:0:0:
249,351,72762,1,0,0:0:0:0:
238,342,72939,2,0,L|151:361,1,65.9999979858399,2|8,0:0|0:1,0:0:0:0:
146,369,73293,2,0,L|59:349,1,65.9999979858399,0|8,0:0|0:1,0:0:0:0:
30,290,73647,6,0,B|31:223|96:253|94:171,1,131.99999597168,0|10,3:0|0:1,0:0:0:0:
43,122,74179,2,0,P|28:40|-7:-12,1,131.99999597168,0|0,3:0|3:0,0:0:0:0:
73,43,74709,1,8,0:1:0:0:
187,123,75064,38,0,P|255:124|290:68,1,131.99999597168,0|10,3:0|0:1,0:0:0:0:
199,9,75595,2,0,B|171:120|171:120|187:149,1,131.99999597168,0|0,3:0|3:0,0:0:0:0:
257,161,76126,1,8,0:1:0:0:
397,7,76481,6,0,B|425:118|425:118|409:147,1,131.99999597168,0|10,3:0|0:1,0:0:0:0:
342,186,77012,1,0,3:0:0:0:
346,173,77189,2,0,P|414:172|449:228,1,131.99999597168,2|8,0:0|0:1,0:0:0:0:
509,285,77720,2,0,L|494:362,1,65.9999979858399,0|0,0:0|3:0,0:0:0:0:
429,383,78074,1,0,0:0:0:0:
413,384,78252,2,0,L|343:330,1,65.9999979858399,10|0,0:1|3:0,0:0:0:0:
425,287,78605,1,2,0:0:0:0:
268,227,78960,38,0,L|256:303,1,65.9999979858399,0|10,0:0|0:1,0:0:0:0:
206,361,79314,6,0,B|198:358|198:358|76:384,1,131.99999597168,4|10,3:2|0:1,0:0:0:0:
155,276,80022,2,0,L|98:222,1,65.9999979858399,2|0,0:0|3:0,0:0:0:0:
126,159,80376,1,8,0:1:0:0:
4,66,80731,38,0,B|11:68|11:68|133:42,1,131.99999597168,0|10,3:0|0:1,0:0:0:0:
204,0,81262,1,0,0:0:0:0:
213,14,81439,2,0,L|300:36,1,65.9999979858399,2|0,0:0|3:0,0:0:0:0:
329,82,81793,1,8,0:1:0:0:
437,25,82148,5,0,3:0:0:0:
384,145,82501,1,10,0:1:0:0:
487,227,82856,2,0,L|514:142,2,65.9999979858399,2|0|8,0:0|3:0|0:1,0:0:0:0:
322,249,83565,38,0,P|384:242|422:292,1,131.99999597168,0|10,3:0|0:1,0:0:0:0:
512,310,84095,1,0,0:0:0:0:
509,327,84272,2,0,P|484:342|462:373,1,65.9999979858399,2|8,0:0|0:1,0:0:0:0:
386,360,84627,2,0,P|345:358|314:314,1,65.9999979858399,0|8,0:0|0:1,0:0:0:0:
307,270,84981,6,0,B|318:341|245:316|259:395,1,131.99999597168,0|10,3:0|0:1,0:0:0:0:
169,384,85512,2,0,P|113:324|41:332,1,131.99999597168,0|0,3:0|3:0,0:0:0:0:
35,354,86043,1,8,0:1:0:0:
200,285,86398,38,0,L|166:138,1,131.99999597168,0|10,3:0|0:1,0:0:0:0:
152,80,86929,2,0,B|153:103|153:103|69:198,1,131.99999597168,0|0,3:0|3:0,0:0:0:0:
5,176,87460,1,8,0:1:0:0:
76,49,87815,6,0,L|212:17,1,131.99999597168,0|10,3:0|0:1,0:0:0:0:
264,88,88346,1,0,3:0:0:0:
264,88,88523,2,0,P|257:28|316:16,1,131.99999597168,2|8,0:0|0:1,0:0:0:0:
344,93,89054,2,0,L|324:165,1,65.9999979858399,0|0,0:0|3:0,0:0:0:0:
433,110,89408,1,0,0:0:0:0:
425,92,89585,2,0,L|408:29,1,65.9999979858399,10|0,0:1|3:0,0:0:0:0:
482,0,89939,1,2,0:0:0:0:
512,137,90294,38,0,L|497:203,1,65.9999979858399,0|10,0:0|0:1,0:0:0:0:
429,261,90648,22,0,P|446:320|485:356,1,98.9999969787599,4|8,3:1|0:2,0:0:0:0:
320,282,91357,2,0,P|322:343|351:387,1,98.9999969787599,0|8,0:0|0:2,0:0:0:0:
234,338,92065,1,0,3:0:0:0:
210,330,92242,1,0,0:0:0:0:
151,373,92419,1,8,0:2:0:0:
127,381,92596,1,0,0:0:0:0:
95,258,92951,2,0,P|78:317|39:353,1,98.9999969787599,8|8,0:2|0:2,0:0:0:0:
16,368,93482,5,0,3:0:0:0:
170,334,93836,1,8,0:2:0:0:
165,175,94190,2,0,B|151:180|151:180|46:162,1,98.9999969787599,0|8,0:0|0:2,0:0:0:0:
24,77,94899,2,0,L|73:66,1,49.4999984893799,0|0,3:0|2:0,0:0:0:0:
104,24,95253,2,0,L|169:36,1,49.4999984893799,8|0,0:2|0:0,0:0:0:0:
170,62,95607,1,0,0:0:0:0:
226,115,95784,2,0,B|242:99|242:99|256:13,1,98.9999969787599,8|10,0:2|0:2,0:0:0:0:
321,0,96315,38,0,L|425:28,1,98.9999969787599,0|8,3:0|0:2,0:0:0:0:
361,144,97024,2,0,L|467:127,1,98.9999969787599,0|8,0:0|0:2,0:0:0:0:
512,240,97732,1,0,3:0:0:0:
488,232,97909,1,0,0:0:0:0:
429,275,98086,1,8,0:2:0:0:
405,283,98264,1,0,3:0:0:0:
321,384,98618,2,0,L|425:356,1,98.9999969787599,8|8,0:2|0:2,0:0:0:0:
454,379,99149,5,0,3:0:0:0:
318,297,99503,1,8,0:2:0:0:
182,372,99857,2,0,B|128:375|156:318|77:327,1,98.9999969787599,0|8,0:0|0:2,0:0:0:0:
60,357,100389,1,0,0:0:0:0:
36,275,100566,38,0,P|67:238|91:235,1,49.4999984893799,0|0,3:0|2:0,0:0:0:0:
152,259,100920,2,0,P|156:214|165:202,1,49.4999984893799,8|0,0:2|3:0,0:0:0:0:
96,157,101274,6,0,P|88:136|89:96,1,49.4999984893799,0|8,0:0|0:2,0:0:0:0:
148,66,101628,1,0,0:0:0:0:
107,3,101805,1,10,0:2:0:0:
