osu file format v14

[General]
AudioFilename: audio.mp3
AudioLeadIn: 0
PreviewTime: 143
Countdown: 0
SampleSet: Soft
StackLeniency: 0.9
Mode: 0
LetterboxInBreaks: 0
EpilepsyWarning: 1
WidescreenStoryboard: 1

[Editor]
Bookmarks: 71254,90143,133476,142365,160143,177920,200490,213476
DistanceSpacing: 0.3
BeatDivisor: 4
GridSize: 4
TimelineZoom: 0.9999996

[Metadata]
Title:MOTHER
TitleUnicode:MOTHER
Artist:lasah
ArtistUnicode:lasah
Creator:Cellina
Version:Hard
Source:
Tags:reana sasakure.UK toybot enon vikala _epreus molang english electronic pop zzx supporter plz 1st track 1 #1 2018 osamu tezuka 手塚 治
BeatmapID:2899923
BeatmapSetID:1372317

[Difficulty]
HPDrainRate:4.6
CircleSize:3.6
OverallDifficulty:6
ApproachRate:8
SliderMultiplier:1.4
SliderTickRate:1

[Events]
//Background and Video events
0,0,"bg.jpg",0,0
//Break Periods
2,107009,123837
2,160343,177170
//Storyboard Layer 0 (Background)
//Storyboard Layer 1 (Fail)
//Storyboard Layer 2 (Pass)
//Storyboard Layer 3 (Foreground)
Sprite,Foreground,Centre,"sb\bar.png",0,0 M,0,133476,,95,240 R,0,133476,,1.570796 C,0,133476,,200,200,200 V,0,133476,,0.563,1 F,2,133476,133876,0.5,0 P,0,133476,133876,A
Sprite,Foreground,Centre,"sb\bar.png",0,0 M,0,134865,,155,240 R,0,134865,,1.570796 C,0,134865,,200,200,200 V,0,134865,,0.563,1 F,2,134865,135265,0.5,0 P,0,134865,135265,A
Sprite,Foreground,Centre,"sb\bar.png",0,0 M,0,135143,,64,240 R,0,135143,,1.570796 C,0,135143,,200,200,200 V,0,135143,,0.563,1 F,2,135143,135543,0.5,0 P,0,135143,135543,A
Sprite,Foreground,Centre,"sb\bar.png",0,0 M,0,135698,,172,240 R,0,135698,,1.570796 C,0,135698,,145,145,145 V,0,135698,,0.563,1 F,2,135698,136098,0.5,0 P,0,135698,136098,A
Sprite,Foreground,Centre,"sb\bar.png",0,0 M,0,137087,,306,240 R,0,137087,,1.570796 C,0,137087,,145,145,145 V,0,137087,,0.563,1 F,2,137087,137487,0.5,0 P,0,137087,137487,A
Sprite,Foreground,Centre,"sb\bar.png",0,0 M,0,137365,,252,240 R,0,137365,,1.570796 C,0,137365,,145,145,145 V,0,137365,,0.563,1 F,2,137365,137765,0.5,0 P,0,137365,137765,A
Sprite,Foreground,Centre,"sb\bar.png",0,0 M,0,137781,,222,240 R,0,137781,,1.570796 C,0,137781,,200,200,200 V,0,137781,,0.563,1 F,2,137781,138181,0.5,0 P,0,137781,138181,A
Sprite,Foreground,Centre,"sb\bar.png",0,0 M,0,137920,,222,240 R,0,137920,,1.570796 C,0,137920,,200,200,200 V,0,137920,,0.563,1 F,2,137920,138320,0.5,0 P,0,137920,138320,A
Sprite,Foreground,Centre,"sb\bar.png",0,0 M,0,139309,,134,240 R,0,139309,,1.570796 C,0,139309,,200,200,200 V,0,139309,,0.563,1 F,2,139309,139709,0.5,0 P,0,139309,139709,A
Sprite,Foreground,Centre,"sb\bar.png",0,0 M,0,139587,,154,240 R,0,139587,,1.570796 C,0,139587,,200,200,200 V,0,139587,,0.563,1 F,2,139587,139987,0.5,0 P,0,139587,139987,A
Sprite,Foreground,Centre,"sb\bar.png",0,0 M,0,140143,,267,240 R,0,140143,,1.570796 C,0,140143,,145,145,145 V,0,140143,,0.563,1 F,2,140143,140543,0.5,0 P,0,140143,140543,A
Sprite,Foreground,Centre,"sb\bar.png",0,0 M,0,141531,,276,240 R,0,141531,,1.570796 C,0,141531,,145,145,145 V,0,141531,,0.563,1 F,2,141531,141931,0.5,0 P,0,141531,141931,A
Sprite,Foreground,Centre,"sb\bar.png",0,0 M,0,141809,,285,240 R,0,141809,,1.570796 C,0,141809,,145,145,145 V,0,141809,,0.563,1 F,2,141809,142209,0.5,0 P,0,141809,142209,A
Sprite,Foreground,Centre,"sb\bar.png",0,0 M,0,142087,,294,240 R,0,142087,,1.570796 C,0,142087,,145,145,145 V,0,142087,,0.563,1 F,2,142087,142487,0.5,0 P,0,142087,142487,A
Sprite,Foreground,Centre,"sb\bar.png",0,0 M,0,142365,,415,240 R,0,142365,,1.570796 C,0,142365,,194,255,192 V,0,142365,,0.563,1 F,2,142365,142765,0.5,0 P,0,142365,142765,A
Sprite,Foreground,Centre,"sb\bar.png",0,0 M,0,142781,,440,240 R,0,142781,,1.570796 C,0,142781,,194,255,192 V,0,142781,,0.563,1 F,2,142781,143181,0.5,0 P,0,142781,143181,A
Sprite,Foreground,Centre,"sb\bar.png",0,0 M,0,143337,,537,240 R,0,143337,,1.570796 C,0,143337,,73,255,73 V,0,143337,,0.563,1 F,2,143337,143737,0.5,0 P,0,143337,143737,A
Sprite,Foreground,Centre,"sb\bar.png",0,0 M,0,143893,,325,240 R,0,143893,,1.570796 C,0,143893,,73,255,73 V,0,143893,,0.563,1 F,2,143893,144293,0.5,0 P,0,143893,144293,A
Sprite,Foreground,Centre,"sb\bar.png",0,0 M,0,144309,,210,240 R,0,144309,,1.570796 C,0,144309,,73,255,73 V,0,144309,,0.563,1 F,2,144309,144709,0.5,0 P,0,144309,144709,A
Sprite,Foreground,Centre,"sb\bar.png",0,0 M,0,144587,,182,240 R,0,144587,,1.570796 C,0,144587,,194,255,192 V,0,144587,,0.563,1 F,2,144587,144987,0.5,0 P,0,144587,144987,A
Sprite,Foreground,Centre,"sb\bar.png",0,0 M,0,145004,,83,240 R,0,145004,,1.570796 C,0,145004,,194,255,192 V,0,145004,,0.563,1 F,2,145004,145404,0.5,0 P,0,145004,145404,A
Sprite,Foreground,Centre,"sb\bar.png",0,0 M,0,145559,,130,240 R,0,145559,,1.570796 C,0,145559,,73,255,73 V,0,145559,,0.563,1 F,2,145559,145959,0.5,0 P,0,145559,145959,A
Sprite,Foreground,Centre,"sb\bar.png",0,0 M,0,146115,,352,240 R,0,146115,,1.570796 C,0,146115,,73,255,73 V,0,146115,,0.563,1 F,2,146115,146515,0.5,0 P,0,146115,146515,A
Sprite,Foreground,Centre,"sb\bar.png",0,0 M,0,146670,,574,240 R,0,146670,,1.570796 C,0,146670,,194,255,192 V,0,146670,,0.563,1 F,2,146670,147070,0.5,0 P,0,146670,147070,A
Sprite,Foreground,Centre,"sb\bar.png",0,0 M,0,146809,,574,240 R,0,146809,,1.570796 C,0,146809,,194,255,192 V,0,146809,,0.563,1 F,2,146809,147209,0.5,0 P,0,146809,147209,A
Sprite,Foreground,Centre,"sb\bar.png",0,0 M,0,147226,,479,240 R,0,147226,,1.570796 C,0,147226,,194,255,192 V,0,147226,,0.563,1 F,2,147226,147626,0.5,0 P,0,147226,147626,A
Sprite,Foreground,Centre,"sb\bar.png",0,0 M,0,147781,,412,240 R,0,147781,,1.570796 C,0,147781,,73,255,73 V,0,147781,,0.563,1 F,2,147781,148181,0.5,0 P,0,147781,148181,A
Sprite,Foreground,Centre,"sb\bar.png",0,0 M,0,148337,,173,240 R,0,148337,,1.570796 C,0,148337,,73,255,73 V,0,148337,,0.563,1 F,2,148337,148737,0.5,0 P,0,148337,148737,A
Sprite,Foreground,Centre,"sb\bar.png",0,0 M,0,148754,,186,240 R,0,148754,,1.570796 C,0,148754,,73,255,73 V,0,148754,,0.563,1 F,2,148754,149154,0.5,0 P,0,148754,149154,A
Sprite,Foreground,Centre,"sb\bar.png",0,0 M,0,149031,,67,240 R,0,149031,,1.570796 C,0,149031,,194,255,192 V,0,149031,,0.563,1 F,2,149031,149431,0.5,0 P,0,149031,149431,A
Sprite,Foreground,Centre,"sb\bar.png",0,0 M,0,149448,,80,240 R,0,149448,,1.570796 C,0,149448,,194,255,192 V,0,149448,,0.563,1 F,2,149448,149848,0.5,0 P,0,149448,149848,A
Sprite,Foreground,Centre,"sb\bar.png",0,0 M,0,150004,,295,240 R,0,150004,,1.570796 C,0,150004,,73,255,73 V,0,150004,,0.563,1 F,2,150004,150404,0.5,0 P,0,150004,150404,A
Sprite,Foreground,Centre,"sb\bar.png",0,0 M,0,150559,,487,240 R,0,150559,,1.570796 C,0,150559,,73,255,73 V,0,150559,,0.563,1 F,2,150559,150959,0.5,0 P,0,150559,150959,A
Sprite,Foreground,Centre,"sb\bar.png",0,0 M,0,150976,,323,240 R,0,150976,,1.570796 C,0,150976,,200,200,200 V,0,150976,,0.563,1 F,2,150976,151376,0.5,0 P,0,150976,151376,A
Sprite,Foreground,Centre,"sb\bar.png",0,0 M,0,151254,,252,240 R,0,151254,,1.570796 C,0,151254,,194,255,192 V,0,151254,,0.563,1 F,2,151254,151654,0.5,0 P,0,151254,151654,A
Sprite,Foreground,Centre,"sb\bar.png",0,0 M,0,151670,,152,240 R,0,151670,,1.570796 C,0,151670,,194,255,192 V,0,151670,,0.563,1 F,2,151670,152070,0.5,0 P,0,151670,152070,A
Sprite,Foreground,Centre,"sb\bar.png",0,0 M,0,152226,,64,240 R,0,152226,,1.570796 C,0,152226,,73,255,73 V,0,152226,,0.563,1 F,2,152226,152626,0.5,0 P,0,152226,152626,A
Sprite,Foreground,Centre,"sb\bar.png",0,0 M,0,152781,,269,240 R,0,152781,,1.570796 C,0,152781,,73,255,73 V,0,152781,,0.563,1 F,2,152781,153181,0.5,0 P,0,152781,153181,A
Sprite,Foreground,Centre,"sb\bar.png",0,0 M,0,153198,,382,240 R,0,153198,,1.570796 C,0,153198,,73,255,73 V,0,153198,,0.563,1 F,2,153198,153598,0.5,0 P,0,153198,153598,A
Sprite,Foreground,Centre,"sb\bar.png",0,0 M,0,153476,,522,240 R,0,153476,,1.570796 C,0,153476,,194,255,192 V,0,153476,,0.563,1 F,2,153476,153876,0.5,0 P,0,153476,153876,A
Sprite,Foreground,Centre,"sb\bar.png",0,0 M,0,153893,,460,240 R,0,153893,,1.570796 C,0,153893,,194,255,192 V,0,153893,,0.563,1 F,2,153893,154293,0.5,0 P,0,153893,154293,A
Sprite,Foreground,Centre,"sb\bar.png",0,0 M,0,154448,,565,240 R,0,154448,,1.570796 C,0,154448,,73,255,73 V,0,154448,,0.563,1 F,2,154448,154848,0.5,0 P,0,154448,154848,A
Sprite,Foreground,Centre,"sb\bar.png",0,0 M,0,155004,,339,240 R,0,155004,,1.570796 C,0,155004,,73,255,73 V,0,155004,,0.563,1 F,2,155004,155404,0.5,0 P,0,155004,155404,A
Sprite,Foreground,Centre,"sb\bar.png",0,0 M,0,155559,,110,240 R,0,155559,,1.570796 C,0,155559,,194,255,192 V,0,155559,,0.563,1 F,2,155559,155959,0.5,0 P,0,155559,155959,A
Sprite,Foreground,Centre,"sb\bar.png",0,0 M,0,155698,,110,240 R,0,155698,,1.570796 C,0,155698,,194,255,192 V,0,155698,,0.563,1 F,2,155698,156098,0.5,0 P,0,155698,156098,A
Sprite,Foreground,Centre,"sb\bar.png",0,0 M,0,156115,,132,240 R,0,156115,,1.570796 C,0,156115,,194,255,192 V,0,156115,,0.563,1 F,2,156115,156515,0.5,0 P,0,156115,156515,A
Sprite,Foreground,Centre,"sb\bar.png",0,0 M,0,156670,,140,240 R,0,156670,,1.570796 C,0,156670,,73,255,73 V,0,156670,,0.563,1 F,2,156670,157070,0.5,0 P,0,156670,157070,A
Sprite,Foreground,Centre,"sb\bar.png",0,0 M,0,157226,,360,240 R,0,157226,,1.570796 C,0,157226,,73,255,73 V,0,157226,,0.563,1 F,2,157226,157626,0.5,0 P,0,157226,157626,A
Sprite,Foreground,Centre,"sb\bar.png",0,0 M,0,157643,,458,240 R,0,157643,,1.570796 C,0,157643,,73,255,73 V,0,157643,,0.563,1 F,2,157643,158043,0.5,0 P,0,157643,158043,A
Sprite,Foreground,Centre,"sb\bar.png",0,0 M,0,157920,,452,240 R,0,157920,,1.570796 C,0,157920,,194,255,192 V,0,157920,,0.563,1 F,2,157920,158320,0.5,0 P,0,157920,158320,A
Sprite,Foreground,Centre,"sb\bar.png",0,0 M,0,158337,,541,240 R,0,158337,,1.570796 C,0,158337,,194,255,192 V,0,158337,,0.563,1 F,2,158337,158737,0.5,0 P,0,158337,158737,A
Sprite,Foreground,Centre,"sb\bar.png",0,0 M,0,158893,,320,240 R,0,158893,,1.570796 C,0,158893,,73,255,73 V,0,158893,,0.563,1 F,2,158893,159293,0.5,0 P,0,158893,159293,A
Sprite,Foreground,Centre,"sb\blackc.png",0,0 M,0,142245,,320,240 S,0,142245,,0.2 F,1,142245,142365,0,0.85 F,0,142365,160143,0.85 F,0,160143,160263,0.85,0
Sprite,Foreground,Centre,"sb\f\0064.png",299.3787,241.1287 S,0,142360,,0.5 F,0,142360,142780,1
Sprite,Foreground,Centre,"sb\f\0065.png",314.6287,243.6287 S,0,142360,,0.5 F,0,142360,142780,1
Sprite,Foreground,Centre,"sb\f\0061.png",329.3787,243.6287 S,0,142360,,0.5 F,0,142360,142780,1
Sprite,Foreground,Centre,"sb\f\0072.png",343.3787,243.6287 S,0,142360,,0.5 F,0,142360,142780,1
Sprite,Foreground,Centre,"sb\f\0049.png",320.6287,241.6287 S,0,142780,,0.5 F,0,142780,143200,1
Sprite,Foreground,Centre,"sb\f\0068.png",297.3787,241.1287 S,0,143200,,0.5 F,0,143200,143610,1
Sprite,Foreground,Centre,"sb\f\006f.png",313.3787,243.6287 S,0,143200,,0.5 F,0,143200,143610,1
Sprite,Foreground,Centre,"sb\f\0070.png",329.1287,245.8787 S,0,143200,,0.5 F,0,143200,143610,1
Sprite,Foreground,Centre,"sb\f\0065.png",344.6287,243.6287 S,0,143200,,0.5 F,0,143200,143610,1
Sprite,Foreground,Centre,"sb\f\006d.png",284.8787,243.6287 S,0,143610,,0.5 F,0,143610,144450,1
Sprite,Foreground,Centre,"sb\f\006f.png",303.6287,243.6287 S,0,143610,,0.5 F,0,143610,144450,1
Sprite,Foreground,Centre,"sb\f\0074.png",316.8787,242.3787 S,0,143610,,0.5 F,0,143610,144450,1
Sprite,Foreground,Centre,"sb\f\0068.png",331.1287,241.1287 S,0,143610,,0.5 F,0,143610,144450,1
Sprite,Foreground,Centre,"sb\f\0065.png",346.8787,243.6287 S,0,143610,,0.5 F,0,143610,144450,1
Sprite,Foreground,Centre,"sb\f\0072.png",360.6287,243.6287 S,0,143610,,0.5 F,0,143610,144450,1
Sprite,Foreground,Centre,"sb\f\0049.png",320.6287,241.6287 S,0,144450,,0.5 F,0,144450,144860,1
Sprite,Foreground,Centre,"sb\f\0073.png",298.1287,243.6287 S,0,144860,,0.5 F,0,144860,145280,1
Sprite,Foreground,Centre,"sb\f\0074.png",310.3787,242.3787 S,0,144860,,0.5 F,0,144860,145280,1
Sprite,Foreground,Centre,"sb\f\0069.png",321.6287,241.3787 S,0,144860,,0.5 F,0,144860,145280,1
Sprite,Foreground,Centre,"sb\f\006c.png",332.8787,241.1287 S,0,144860,,0.5 F,0,144860,145280,1
Sprite,Foreground,Centre,"sb\f\006c.png",343.8787,241.1287 S,0,144860,,0.5 F,0,144860,145280,1
Sprite,Foreground,Centre,"sb\f\0064.png",305.8787,241.1287 S,0,145280,,0.5 F,0,145280,145700,1
Sprite,Foreground,Centre,"sb\f\0061.png",321.3787,243.6287 S,0,145280,,0.5 F,0,145280,145700,1
Sprite,Foreground,Centre,"sb\f\0079.png",336.1287,246.1287 S,0,145280,,0.5 F,0,145280,145700,1
Sprite,Foreground,Centre,"sb\f\006f.png",305.6287,243.6287 S,0,145700,,0.5 F,0,145700,146110,1
Sprite,Foreground,Centre,"sb\f\0075.png",321.3787,243.6287 S,0,145700,,0.5 F,0,145700,146110,1
Sprite,Foreground,Centre,"sb\f\0072.png",336.6287,243.6287 S,0,145700,,0.5 F,0,145700,146110,1
Sprite,Foreground,Centre,"sb\f\0074.png",290.3787,242.3787 S,0,146110,,0.5 F,0,146110,146530,1
Sprite,Foreground,Centre,"sb\f\0068.png",304.6287,241.1287 S,0,146110,,0.5 F,0,146110,146530,1
Sprite,Foreground,Centre,"sb\f\0069.png",318.1287,241.3787 S,0,146110,,0.5 F,0,146110,146530,1
Sprite,Foreground,Centre,"sb\f\006e.png",332.1287,243.6287 S,0,146110,,0.5 F,0,146110,146530,1
Sprite,Foreground,Centre,"sb\f\006b.png",348.3787,241.1287 S,0,146110,,0.5 F,0,146110,146530,1
Sprite,Foreground,Centre,"sb\f\006f.png",314.3787,243.6287 S,0,146530,,0.5 F,0,146530,146810,1
Sprite,Foreground,Centre,"sb\f\0066.png",328.8787,241.1287 S,0,146530,,0.5 F,0,146530,146810,1
Sprite,Foreground,Centre,"sb\f\0064.png",299.3787,241.1287 S,0,146810,,0.5 F,0,146810,147220,1
Sprite,Foreground,Centre,"sb\f\0065.png",314.6287,243.6287 S,0,146810,,0.5 F,0,146810,147220,1
Sprite,Foreground,Centre,"sb\f\0061.png",329.3787,243.6287 S,0,146810,,0.5 F,0,146810,147220,1
Sprite,Foreground,Centre,"sb\f\0072.png",343.3787,243.6287 S,0,146810,,0.5 F,0,146810,147220,1
Sprite,Foreground,Centre,"sb\f\0049.png",320.6287,241.6287 S,0,147220,,0.5 F,0,147220,147640,1
Sprite,Foreground,Centre,"sb\f\0068.png",297.3787,241.1287 S,0,147640,,0.5 F,0,147640,148060,1
Sprite,Foreground,Centre,"sb\f\006f.png",313.3787,243.6287 S,0,147640,,0.5 F,0,147640,148060,1
Sprite,Foreground,Centre,"sb\f\0070.png",329.1287,245.8787 S,0,147640,,0.5 F,0,147640,148060,1
Sprite,Foreground,Centre,"sb\f\0065.png",344.6287,243.6287 S,0,147640,,0.5 F,0,147640,148060,1
Sprite,Foreground,Centre,"sb\f\0067.png",291.3787,245.8787 S,0,148060,,0.5 F,0,148060,148890,1
Sprite,Foreground,Centre,"sb\f\006f.png",306.6287,243.6287 S,0,148060,,0.5 F,0,148060,148890,1
Sprite,Foreground,Centre,"sb\f\0069.png",319.6287,241.3787 S,0,148060,,0.5 F,0,148060,148890,1
Sprite,Foreground,Centre,"sb\f\006e.png",333.6287,243.6287 S,0,148060,,0.5 F,0,148060,148890,1
Sprite,Foreground,Centre,"sb\f\0067.png",349.3787,245.8787 S,0,148060,,0.5 F,0,148060,148890,1
Sprite,Foreground,Centre,"sb\f\0074.png",283.8787,242.3787 S,0,148890,,0.5 F,0,148890,149310,1
Sprite,Foreground,Centre,"sb\f\0068.png",298.1287,241.1287 S,0,148890,,0.5 F,0,148890,149310,1
Sprite,Foreground,Centre,"sb\f\0069.png",311.6287,241.3787 S,0,148890,,0.5 F,0,148890,149310,1
Sprite,Foreground,Centre,"sb\f\006e.png",325.6287,243.6287 S,0,148890,,0.5 F,0,148890,149310,1
Sprite,Foreground,Centre,"sb\f\0067.png",341.3787,245.8787 S,0,148890,,0.5 F,0,148890,149310,1
Sprite,Foreground,Centre,"sb\f\0073.png",355.6287,243.6287 S,0,148890,,0.5 F,0,148890,149310,1
Sprite,Foreground,Centre,"sb\f\006d.png",284.8787,243.6287 S,0,149310,,0.5 F,0,149310,150140,1
Sprite,Foreground,Centre,"sb\f\006f.png",303.6287,243.6287 S,0,149310,,0.5 F,0,149310,150140,1
Sprite,Foreground,Centre,"sb\f\0074.png",316.8787,242.3787 S,0,149310,,0.5 F,0,149310,150140,1
Sprite,Foreground,Centre,"sb\f\0068.png",331.1287,241.1287 S,0,149310,,0.5 F,0,149310,150140,1
Sprite,Foreground,Centre,"sb\f\0065.png",346.8787,243.6287 S,0,149310,,0.5 F,0,149310,150140,1
Sprite,Foreground,Centre,"sb\f\0072.png",360.6287,243.6287 S,0,149310,,0.5 F,0,149310,150140,1
Sprite,Foreground,Centre,"sb\f\0065.png",292.3787,243.6287 S,0,150140,,0.5 F,0,150140,150970,1
Sprite,Foreground,Centre,"sb\f\0076.png",306.6287,243.6287 S,0,150140,,0.5 F,0,150140,150970,1
Sprite,Foreground,Centre,"sb\f\0065.png",321.3787,243.6287 S,0,150140,,0.5 F,0,150140,150970,1
Sprite,Foreground,Centre,"sb\f\0072.png",335.1287,243.6287 S,0,150140,,0.5 F,0,150140,150970,1
Sprite,Foreground,Centre,"sb\f\0079.png",348.8787,246.1287 S,0,150140,,0.5 F,0,150140,150970,1
Sprite,Foreground,Centre,"sb\f\0077.png",302.1287,243.6287 S,0,150970,,0.5 F,0,150970,151250,1
Sprite,Foreground,Centre,"sb\f\0065.png",319.3787,243.6287 S,0,150970,,0.5 F,0,150970,151250,1
Sprite,Foreground,Centre,"sb\f\006c.png",331.8787,241.1287 S,0,150970,,0.5 F,0,150970,151250,1
Sprite,Foreground,Centre,"sb\f\006c.png",342.8787,241.1287 S,0,150970,,0.5 F,0,150970,151250,1
Sprite,Foreground,Centre,"sb\f\0064.png",299.3787,241.1287 S,0,151250,,0.5 F,0,151250,151670,1
Sprite,Foreground,Centre,"sb\f\0065.png",314.6287,243.6287 S,0,151250,,0.5 F,0,151250,151670,1
Sprite,Foreground,Centre,"sb\f\0061.png",329.3787,243.6287 S,0,151250,,0.5 F,0,151250,151670,1
Sprite,Foreground,Centre,"sb\f\0072.png",343.3787,243.6287 S,0,151250,,0.5 F,0,151250,151670,1
Sprite,Foreground,Centre,"sb\f\0068.png",294.3787,241.1287 S,0,151670,,0.5 F,0,151670,152080,1
Sprite,Foreground,Centre,"sb\f\006f.png",310.3787,243.6287 S,0,151670,,0.5 F,0,151670,152080,1
Sprite,Foreground,Centre,"sb\f\006d.png",329.1287,243.6287 S,0,151670,,0.5 F,0,151670,152080,1
Sprite,Foreground,Centre,"sb\f\0065.png",347.6287,243.6287 S,0,151670,,0.5 F,0,151670,152080,1
Sprite,Foreground,Centre,"sb\f\0069.png",313.3787,241.3787 S,0,152080,,0.5 F,0,152080,152500,1
Sprite,Foreground,Centre,"sb\f\0073.png",325.8787,243.6287 S,0,152080,,0.5 F,0,152080,152500,1
Sprite,Foreground,Centre,"sb\f\006f.png",305.6287,243.6287 S,0,152500,,0.5 F,0,152500,152920,1
Sprite,Foreground,Centre,"sb\f\0075.png",321.3787,243.6287 S,0,152500,,0.5 F,0,152500,152920,1
Sprite,Foreground,Centre,"sb\f\0072.png",336.6287,243.6287 S,0,152500,,0.5 F,0,152500,152920,1
Sprite,Foreground,Centre,"sb\f\006e.png",303.3787,243.6287 S,0,152920,,0.5 F,0,152920,153340,1
Sprite,Foreground,Centre,"sb\f\0065.png",319.1287,243.6287 S,0,152920,,0.5 F,0,152920,153340,1
Sprite,Foreground,Centre,"sb\f\0077.png",335.8787,243.6287 S,0,152920,,0.5 F,0,152920,153340,1
Sprite,Foreground,Centre,"sb\f\0070.png",271.8787,245.8787 S,0,153340,,0.5 F,0,153340,154170,1
Sprite,Foreground,Centre,"sb\f\006c.png",285.3787,241.1287 S,0,153340,,0.5 F,0,153340,154170,1
Sprite,Foreground,Centre,"sb\f\0065.png",298.3787,243.6287 S,0,153340,,0.5 F,0,153340,154170,1
Sprite,Foreground,Centre,"sb\f\0061.png",313.1287,243.6287 S,0,153340,,0.5 F,0,153340,154170,1
Sprite,Foreground,Centre,"sb\f\0073.png",327.1287,243.6287 S,0,153340,,0.5 F,0,153340,154170,1
Sprite,Foreground,Centre,"sb\f\0061.png",341.6287,243.6287 S,0,153340,,0.5 F,0,153340,154170,1
Sprite,Foreground,Centre,"sb\f\006e.png",357.1287,243.6287 S,0,153340,,0.5 F,0,153340,154170,1
Sprite,Foreground,Centre,"sb\f\0074.png",370.8787,242.3787 S,0,153340,,0.5 F,0,153340,154170,1
Sprite,Foreground,Centre,"sb\f\0070.png",292.8787,245.8787 S,0,154170,,0.5 F,0,154170,154580,1
Sprite,Foreground,Centre,"sb\f\006c.png",306.3787,241.1287 S,0,154170,,0.5 F,0,154170,154580,1
Sprite,Foreground,Centre,"sb\f\0061.png",319.6287,243.6287 S,0,154170,,0.5 F,0,154170,154580,1
Sprite,Foreground,Centre,"sb\f\0063.png",334.3787,243.6287 S,0,154170,,0.5 F,0,154170,154580,1
Sprite,Foreground,Centre,"sb\f\0065.png",348.8787,243.6287 S,0,154170,,0.5 F,0,154170,154580,1
Sprite,Foreground,Centre,"sb\f\006f.png",312.1287,243.6287 S,0,154580,,0.5 F,0,154580,155000,1
Sprite,Foreground,Centre,"sb\f\0068.png",328.1287,241.1287 S,0,154580,,0.5 F,0,154580,155000,1
Sprite,Foreground,Centre,"sb\f\006d.png",284.8787,243.6287 S,0,155000,,0.5 F,0,155000,155700,1
Sprite,Foreground,Centre,"sb\f\006f.png",303.6287,243.6287 S,0,155000,,0.5 F,0,155000,155700,1
Sprite,Foreground,Centre,"sb\f\0074.png",316.8787,242.3787 S,0,155000,,0.5 F,0,155000,155700,1
Sprite,Foreground,Centre,"sb\f\0068.png",331.1287,241.1287 S,0,155000,,0.5 F,0,155000,155700,1
Sprite,Foreground,Centre,"sb\f\0065.png",346.8787,243.6287 S,0,155000,,0.5 F,0,155000,155700,1
Sprite,Foreground,Centre,"sb\f\0072.png",360.6287,243.6287 S,0,155000,,0.5 F,0,155000,155700,1
Sprite,Foreground,Centre,"sb\f\0064.png",299.3787,241.1287 S,0,155700,,0.5 F,0,155700,156110,1
Sprite,Foreground,Centre,"sb\f\0065.png",314.6287,243.6287 S,0,155700,,0.5 F,0,155700,156110,1
Sprite,Foreground,Centre,"sb\f\0061.png",329.3787,243.6287 S,0,155700,,0.5 F,0,155700,156110,1
Sprite,Foreground,Centre,"sb\f\0072.png",343.3787,243.6287 S,0,155700,,0.5 F,0,155700,156110,1
Sprite,Foreground,Centre,"sb\f\0049.png",320.6287,241.6287 S,0,156110,,0.5 F,0,156110,156530,1
Sprite,Foreground,Centre,"sb\f\0068.png",297.3787,241.1287 S,0,156530,,0.5 F,0,156530,156950,1
Sprite,Foreground,Centre,"sb\f\006f.png",313.3787,243.6287 S,0,156530,,0.5 F,0,156530,156950,1
Sprite,Foreground,Centre,"sb\f\0070.png",329.1287,245.8787 S,0,156530,,0.5 F,0,156530,156950,1
Sprite,Foreground,Centre,"sb\f\0065.png",344.6287,243.6287 S,0,156530,,0.5 F,0,156530,156950,1
Sprite,Foreground,Centre,"sb\f\006d.png",284.8787,243.6287 S,0,156950,,0.5 F,0,156950,157780,1
Sprite,Foreground,Centre,"sb\f\006f.png",303.6287,243.6287 S,0,156950,,0.5 F,0,156950,157780,1
Sprite,Foreground,Centre,"sb\f\0074.png",316.8787,242.3787 S,0,156950,,0.5 F,0,156950,157780,1
Sprite,Foreground,Centre,"sb\f\0068.png",331.1287,241.1287 S,0,156950,,0.5 F,0,156950,157780,1
Sprite,Foreground,Centre,"sb\f\0065.png",346.8787,243.6287 S,0,156950,,0.5 F,0,156950,157780,1
Sprite,Foreground,Centre,"sb\f\0072.png",360.6287,243.6287 S,0,156950,,0.5 F,0,156950,157780,1
Sprite,Foreground,Centre,"sb\f\0049.png",320.6287,241.6287 S,0,157780,,0.5 F,0,157780,158200,1
Sprite,Foreground,Centre,"sb\f\0073.png",298.1287,243.6287 S,0,158200,,0.5 F,0,158200,158610,1
Sprite,Foreground,Centre,"sb\f\0074.png",310.3787,242.3787 S,0,158200,,0.5 F,0,158200,158610,1
Sprite,Foreground,Centre,"sb\f\0069.png",321.6287,241.3787 S,0,158200,,0.5 F,0,158200,158610,1
Sprite,Foreground,Centre,"sb\f\006c.png",332.8787,241.1287 S,0,158200,,0.5 F,0,158200,158610,1
Sprite,Foreground,Centre,"sb\f\006c.png",343.8787,241.1287 S,0,158200,,0.5 F,0,158200,158610,1
Sprite,Foreground,Centre,"sb\f\0049.png",320.6287,241.6287 S,0,158610,,0.5 F,0,158610,159030,1
Sprite,Foreground,Centre,"sb\f\006d.png",301.3787,243.6287 S,0,159030,,0.5 F,0,159030,159580,1
Sprite,Foreground,Centre,"sb\f\0069.png",317.6287,241.3787 S,0,159030,,0.5 F,0,159030,159580,1
Sprite,Foreground,Centre,"sb\f\0073.png",330.1287,243.6287 S,0,159030,,0.5 F,0,159030,159580,1
Sprite,Foreground,Centre,"sb\f\0073.png",343.6287,243.6287 S,0,159030,,0.5 F,0,159030,159580,1
Sprite,Foreground,Centre,"sb\f\0022.png",291.3787,236.8787 S,0,159580,,0.5 F,0,159580,160140,1
Sprite,Foreground,Centre,"sb\f\0079.png",304.6287,246.1287 S,0,159580,,0.5 F,0,159580,160140,1
Sprite,Foreground,Centre,"sb\f\006f.png",319.3787,243.6287 S,0,159580,,0.5 F,0,159580,160140,1
Sprite,Foreground,Centre,"sb\f\0075.png",335.1287,243.6287 S,0,159580,,0.5 F,0,159580,160140,1
Sprite,Foreground,Centre,"sb\f\0022.png",349.3787,236.8787 S,0,159580,,0.5 F,0,159580,160140,1
//Storyboard Layer 4 (Overlay)
//Storyboard Sound Samples

[TimingPoints]
143,277.777777777778,4,2,1,30,1,0
17920,-200,4,2,1,30,0,0
22087,-142.857142857143,4,2,1,30,0,0
22365,-200,4,2,1,30,0,0
26531,-142.857142857143,4,2,1,30,0,0
26809,-200,4,2,1,30,0,0
30976,-142.857142857143,4,2,1,30,0,0
31254,-200,4,2,1,30,0,0
33198,-142.857142857143,4,2,1,30,0,0
33476,-200,4,2,1,30,0,0
35420,-142.857142857143,4,2,1,30,0,0
35698,-166.666666666667,4,2,1,30,0,0
44587,-142.857142857143,4,2,1,30,0,0
62365,-166.666666666667,4,2,1,25,0,0
69031,-142.857142857143,4,2,1,25,0,0
70212,-111.111111111111,4,2,1,25,0,0
71254,-100,4,2,1,60,0,1
89031,-100,4,2,1,60,0,0
106809,-100,4,2,1,45,0,0
124587,-125,4,2,1,45,0,0
132365,-100,4,2,1,45,0,0
133476,-142.857142857143,4,2,1,45,0,0
142365,-121.951219512195,4,2,1,60,0,1
160143,-121.951219512195,4,2,1,45,0,0
177920,-100,4,2,1,60,0,1
213476,-142.857142857143,4,2,1,45,0,0

[Colours]
Combo1 : 73,255,73
Combo2 : 128,128,192
Combo3 : 153,204,255
Combo4 : 255,125,129
Combo5 : 236,172,229
Combo6 : 194,255,192
Combo7 : 200,200,200
Combo8 : 145,145,145

[HitObjects]
197,114,17920,6,0,L|56:102,2,140,2|0|2,0:0|0:0|0:0,0:0:0:0:
315,270,20143,2,0,L|456:282,2,140,2|0|2,0:0|0:0|0:0,0:0:0:0:
252,219,22087,6,0,L|260:157,1,48.9999985046387,2|2,0:0|0:0,0:0:0:0:
334,133,22365,2,0,L|314:-7,2,140,2|0|2,0:0|0:0|0:0,0:0:0:0:
178,251,24587,2,0,L|198:391,2,140,2|0|2,0:0|0:0|0:0,0:0:0:0:
229,188,26531,102,0,L|291:196,1,48.9999985046387,2|2,0:0|0:0,0:0:0:0:
315,270,26809,2,0,P|345:237|435:236,1,140,2|0,0:0|0:0,0:0:0:0:
393,310,27920,1,2,0:0:0:0:
197,114,29031,2,0,P|167:147|77:148,2,140,2|0|2,0:0|0:0|0:0,0:0:0:0:
260,165,30976,6,0,L|252:227,1,48.9999985046387,2|2,0:0|0:0,0:0:0:0:
178,251,31254,2,0,L|189:331,2,70,2|0|0,0:0|0:0|0:0,0:0:0:0:
100,229,32087,2,0,L|108:180,2,35,0|0|2,0:0|0:0|0:0,0:0:0:0:
27,268,32643,1,0,0:0:0:0:
253,213,33198,102,0,L|260:165,1,48.9999985046387
334,133,33476,2,0,L|323:53,2,70,2|0|0,0:0|0:0|0:0,0:0:0:0:
412,155,34309,2,0,L|404:204,2,35,0|0|2,0:0|0:0|0:0,0:0:0:0:
485,116,34865,1,0,0:0:0:0:
256,0,35420,6,0,L|256:49,1,48.9999985046387,2|2,0:0|0:0,0:0:0:0:
256,49,35698,2,0,P|181:41|119:102,1,167.999994873047,12|10,0:0|0:0,0:0:0:0:
95,185,36531,1,0,0:0:0:0:
156,247,36809,1,10,0:0:0:0:
122,326,37087,2,0,L|37:337,2,83.9999974365235,0|8|2,0:0|0:0|0:0,0:0:0:0:
156,247,37920,102,0,L|241:258,2,83.9999974365235,8|2|8,0:0|0:0|0:0,0:0:0:0:
95,185,38754,1,2,0:0:0:0:
118,102,39031,2,0,P|174:43|256:49,1,167.999994873047,10|8,0:0|0:0,0:0:0:0:
256,136,39865,1,2,0:0:0:0:
256,49,40143,6,0,P|331:41|393:102,1,167.999994873047,8|8,0:0|0:0,0:0:0:0:
417,185,40976,1,2,0:0:0:0:
356,247,41254,1,10,0:0:0:0:
390,326,41532,2,0,L|475:337,2,83.9999974365235,0|8|2,0:0|0:0|0:0,0:0:0:0:
356,247,42365,102,0,L|271:258,1,83.9999974365235,8|2,0:0|0:0,0:0:0:0:
417,185,42920,2,0,L|477:192,2,41.9999987182618,8|2|2,0:0|0:0|0:0,0:0:0:0:
368,115,43476,2,0,L|308:122,2,41.9999987182618,8|2|2,0:0|0:0|0:0,0:0:0:0:
418,44,44031,2,0,L|478:51,2,41.9999987182618,10|2|2,0:0|0:0|0:0,0:0:0:0:
347,0,44587,5,10,0:0:0:0:
326,119,45143,1,10,0:0:0:0:
213,161,45698,1,10,0:0:0:0:
100,115,46254,1,10,0:0:0:0:
89,35,46531,101,2,0:0:0:0:
163,67,46809,5,10,0:0:0:0:
142,186,47365,1,10,0:0:0:0:
233,264,47920,1,8,0:0:0:0:
355,259,48476,1,8,0:0:0:0:
462,207,48754,102,0,L|391:199,1,48.9999985046387,2|2,0:0|0:0,0:0:0:0:
355,259,49031,5,10,0:0:0:0:
233,264,49587,1,8,0:0:0:0:
142,186,50142,1,8,0:0:0:0:
163,67,50698,1,10,0:0:0:0:
241,47,50976,101,2,0:0:0:0:
218,124,51254,5,10,0:0:0:0:
96,119,51810,1,10,0:0:0:0:
5,197,52365,1,8,0:0:0:0:
26,316,52921,1,8,0:0:0:0:
106,233,53198,102,0,L|99:299,1,48.9999985046387,2|2,0:0|0:0,0:0:0:0:
129,358,53476,5,10,0:0:0:0:
183,249,54032,1,10,0:0:0:0:
303,229,54587,1,10,0:0:0:0:
398,304,55143,1,8,0:0:0:0:
358,373,55420,101,2,0:0:0:0:
313,306,55698,5,10,0:0:0:0:
404,227,56254,1,10,0:0:0:0:
410,105,56809,1,10,0:0:0:0:
315,32,57365,1,8,0:0:0:0:
200,90,57643,102,0,L|248:81,1,48.9999985046387,2|2,0:0|0:0,0:0:0:0:
315,32,57920,5,10,0:0:0:0:
383,81,58198,1,0,0:0:0:0:
357,159,58476,1,10,0:0:0:0:
281,188,58754,102,0,L|232:196,1,48.9999985046387,2|2,0:0|0:0,0:0:0:0:
155,225,59031,5,10,0:0:0:0:
129,303,59309,1,2,0:0:0:0:
197,352,59587,1,8,0:0:0:0:
312,294,59865,102,0,L|263:302,1,48.9999985046387,0|2,0:0|0:0,0:0:0:0:
197,352,60142,5,8,0:0:0:0:
129,303,60420,1,0,0:0:0:0:
155,225,60698,1,8,0:0:0:0:
231,188,60977,102,0,L|279:196,1,48.9999985046387,2|2,0:0|0:0,0:0:0:0:
357,159,61253,5,10,0:0:0:0:
383,81,61531,1,2,0:0:0:0:
315,32,61809,1,8,0:0:0:0:
248,81,62087,102,0,L|200:73,1,48.9999985046387,2|2,0:0|0:0,0:0:0:0:
127,29,62365,6,0,P|73:87|98:184,1,167.999994873047,10|0,0:0|0:0,0:0:0:0:
166,203,63198,1,8,0:0:0:0:
246,236,63476,2,0,P|244:317|200:353,2,125.999996154785,10|10|10,0:0|0:0|0:0,0:0:0:0:
134,367,64587,102,0,L|394:350,1,251.999992309571,10|8,0:0|0:0,0:0:0:0:
451,298,65698,1,10,0:0:0:0:
407,226,65976,1,0,0:0:0:0:
471,171,66254,2,0,L|460:77,1,83.9999974365235,0|10,0:0|0:0,0:0:0:0:
308,68,66809,6,0,L|328:245,1,167.999994873047,10|0,0:0|0:0,0:0:0:0:
256,280,67643,1,8,0:0:0:0:
176,256,67920,2,0,L|157:89,1,167.999994873047,10|0,0:0|0:0,0:0:0:0:
157,89,69031,102,0,P|85:75|20:135,1,146.999995513916,10|8,0:0|0:0,0:0:0:0:
75,261,69865,1,8,0:0:0:0:
87,181,70143,2,0,P|161:191|242:211,1,146.999995513916
256,176,70698,5,2,0:0:0:0:
313,241,70976,1,2,1:2:0:0:
313,241,71254,6,0,P|351:284|443:291,2,140,6|10|2,1:2|0:2|1:2,0:0:0:0:
299,110,72087,1,8,0:2:0:0:
256,176,72226,2,0,B|227:89|287:125|256:28,2,140,2|2|2,1:2|1:2|1:2,0:0:0:0:
198,241,72920,2,0,L|95:230,1,70,2|0,0:0|1:2,0:0:0:0:
61,289,73198,2,0,P|29:315|47:397,1,105,10|0,0:2|0:0,0:0:0:0:
27,375,73476,6,0,P|56:338|159:339,1,140,2|10,1:2|0:2,0:0:0:0:
222,369,73893,1,0,0:0:0:0:
222,369,74031,2,0,L|378:349,1,140,2|8,1:2|0:2,0:0:0:0:
443,371,74448,2,0,P|419:310|486:240,1,140,2|2,1:2|1:2,0:0:0:0:
512,185,74865,2,0,P|444:192|380:131,1,140,8|2,0:2|0:0,0:0:0:0:
313,20,75420,1,8,0:2:0:0:
193,105,75698,102,0,B|115:112|115:112|90:160|90:160|-9:171,1,210,2|2,1:2|0:0,0:0:0:0:
12,168,76254,2,0,B|-19:109|-19:109|4:35,1,140,2|8,1:2|0:2,0:0:0:0:
75,106,76670,5,2,1:2:0:0:
75,106,76809,2,0,L|233:125,1,140,2|8,0:0|0:2,0:0:0:0:
294,170,77226,1,2,1:2:0:0:
294,170,77365,2,0,P|298:133|305:85,1,70,2|0,0:0|1:2,0:0:0:0:
214,209,77643,2,0,P|218:243|222:278,1,70,8|0,0:2|0:0,0:0:0:0:
192,384,77920,102,0,P|258:313|324:331,1,140,2|10,1:2|0:2,0:0:0:0:
362,260,78337,2,0,P|428:330|494:313,1,140,2|2,0:0|0:0,0:0:0:0:
495,254,78754,5,8,0:2:0:0:
495,254,78893,2,0,B|534:195|534:195|503:121,1,140,2|2,1:2|1:2,0:0:0:0:
426,102,79309,1,8,0:2:0:0:
426,102,79448,2,0,B|387:161|387:161|418:235,1,140,2|2,1:2|1:2,0:0:0:0:
347,270,79865,2,0,L|271:275,1,70,8|0,0:2|0:0,0:0:0:0:
199,241,80143,102,0,P|161:284|69:291,2,140,6|10|2,1:2|0:2|1:2,0:0:0:0:
211,111,80976,1,8,0:2:0:0:
256,176,81115,2,0,B|285:89|225:125|256:28,2,140,2|2|2,1:2|1:2|1:2,0:0:0:0:
314,241,81809,2,0,L|417:230,1,70,2|0,0:0|1:2,0:0:0:0:
451,289,82087,2,0,P|483:315|465:397,1,105,10|0,0:2|0:0,0:0:0:0:
485,375,82365,6,0,P|456:338|353:339,1,140,2|10,1:2|0:2,0:0:0:0:
290,369,82781,1,0,0:0:0:0:
290,369,82920,2,0,L|134:349,1,140,2|8,1:2|0:2,0:0:0:0:
69,371,83337,2,0,P|93:310|26:240,1,140,2|2,1:2|1:2,0:0:0:0:
0,185,83754,2,0,P|68:192|132:131,1,140,8|2,0:2|0:0,0:0:0:0:
199,20,84309,1,8,0:2:0:0:
319,105,84587,102,0,B|397:112|397:112|422:160|422:160|521:171,1,210,2|2,1:2|0:0,0:0:0:0:
500,168,85143,2,0,B|529:105|529:105|508:35,1,140,2|8,1:2|0:2,0:0:0:0:
437,106,85559,5,2,1:2:0:0:
437,106,85698,2,0,L|279:125,1,140,2|8,0:0|0:2,0:0:0:0:
218,170,86115,1,2,1:2:0:0:
218,170,86254,2,0,P|214:133|207:85,1,70,2|0,0:0|1:2,0:0:0:0:
298,209,86532,2,0,P|294:243|290:278,1,70,8|2,0:2|0:0,0:0:0:0:
320,384,86809,102,0,P|254:313|188:331,1,140,2|10,1:2|0:2,0:0:0:0:
150,260,87226,2,0,P|84:330|18:313,1,140,2|2,0:0|0:0,0:0:0:0:
17,254,87643,5,8,0:2:0:0:
17,254,87782,2,0,B|-22:195|-22:195|9:121,1,140,2|2,1:2|1:2,0:0:0:0:
0,51,88198,1,8,0:2:0:0:
0,51,88337,2,0,P|66:121|132:104,1,140,2|2,1:2|1:2,0:0:0:0:
169,72,88754,2,0,L|238:67,1,70,8|0,0:2|1:2,0:0:0:0:
329,39,89031,70,0,L|320:109,1,70,4|0,1:0|0:1,0:0:0:0:
245,150,89309,2,0,L|267:305,2,140,10|0|10,0:1|1:0|0:1,0:0:0:0:
235,155,90143,6,0,L|245:86,1,70,2|2,1:1|0:1,0:0:0:0:
162,198,90420,2,0,L|182:337,2,140,8|2|10,0:0|1:1|0:1,0:0:0:0:
338,124,91254,102,0,L|350:36,1,70,0|0,1:1|0:0,0:0:0:0:
425,17,91531,2,0,L|495:71,1,70,10|0,0:1|0:0,0:0:0:0:
474,145,91809,2,0,L|391:178,1,70,0|0,1:2|0:0,0:0:0:0:
338,124,92087,1,10,0:1:0:0:
177,193,92365,6,0,L|165:105,1,70,2|2,1:1|0:1,0:0:0:0:
100,73,92643,2,0,P|50:77|10:149,1,140,10|2,0:1|1:1,0:0:0:0:
56,223,93059,1,0,0:0:0:0:
39,307,93198,2,0,L|127:295,1,70,10|0,0:1|0:0,0:0:0:0:
182,344,93476,102,0,L|192:275,1,70,0|0,1:2|0:0,0:0:0:0:
267,234,93754,2,0,L|245:79,2,140,10|0|10,0:1|1:2|0:1,0:0:0:0:
277,235,94588,6,0,L|267:304,1,70,2|2,1:1|0:1,0:0:0:0:
353,197,94865,2,0,L|334:59,2,140,8|2|10,0:0|1:1|0:1,0:0:0:0:
174,260,95698,102,0,L|162:348,2,70,0|0|10,1:2|0:0|0:1,0:0:0:0:
282,242,96254,2,0,L|315:324,2,70,2|0|8,1:1|0:0|0:0,0:0:0:0:
366,176,96809,2,0,L|436:230,2,70,2|0|8,1:1|0:0|0:0,0:0:0:0:
408,75,97365,2,0,L|496:87,1,70,2|0,1:1|0:0,0:0:0:0:
333,23,97643,2,0,L|263:32,1,70,8|0,0:0|0:0,0:0:0:0:
182,39,97920,6,0,L|192:109,1,70,4|0,1:2|0:0,0:0:0:0:
267,150,98198,2,0,L|245:305,2,140,10|0|10,0:1|1:2|0:1,0:0:0:0:
277,152,99031,102,0,L|267:83,1,70,2|2,1:1|0:1,0:0:0:0:
364,194,99309,2,0,L|345:333,2,140,8|2|10,0:0|1:1|0:1,0:0:0:0:
174,124,100143,6,0,L|162:36,1,70,0|0,1:2|0:0,0:0:0:0:
87,17,100420,2,0,L|17:71,1,70,10|0,0:1|0:0,0:0:0:0:
38,145,100698,2,0,L|121:178,1,70,0|0,1:2|0:0,0:0:0:0:
174,124,100976,1,10,0:1:0:0:
335,193,101254,102,0,L|347:105,1,70,2|2,1:1|0:1,0:0:0:0:
412,73,101532,2,0,P|462:77|502:149,1,140,10|2,0:1|1:1,0:0:0:0:
456,223,101948,1,0,0:0:0:0:
473,307,102087,2,0,L|385:295,1,70,10|0,0:1|0:0,0:0:0:0:
329,344,102365,6,0,L|320:275,1,70,0|0,1:2|0:0,0:0:0:0:
245,234,102643,2,0,L|267:79,2,140,10|0|10,0:1|1:2|0:1,0:0:0:0:
236,245,103477,102,0,L|246:314,1,70,2|2,1:1|0:1,0:0:0:0:
148,202,103754,2,0,L|168:64,2,140,8|2|10,0:0|1:1|0:1,0:0:0:0:
338,260,104587,6,0,L|350:348,2,70,0|0|10,1:2|0:0|0:1,0:0:0:0:
230,242,105143,2,0,L|196:324,2,70,2|0|8,1:1|0:0|0:0,0:0:0:0:
146,176,105698,2,0,L|75:230,2,70,2|0|8,1:1|0:0|0:0,0:0:0:0:
104,75,106254,2,0,L|15:87,1,70,2|0,1:1|0:0,0:0:0:0:
179,23,106532,2,0,L|248:32,1,70,8|0,0:0|0:0,0:0:0:0:
316,91,106809,1,2,1:2:0:0:
316,91,124587,102,0,P|303:202|293:324,1,224,2|2,1:2|1:2,0:0:0:0:
221,362,125420,1,10,0:0:0:0:
173,289,125698,1,2,1:2:0:0:
97,322,125976,2,0,P|39:330|-32:342,2,112,10|2|8,0:0|1:2|0:0,0:0:0:0:
154,384,126809,6,0,P|193:360|181:198,1,224,2|0,1:2|0:0,0:0:0:0:
109,235,127643,1,10,0:0:0:0:
36,192,127920,2,0,B|11:243|11:243|53:304,1,112,2|10,1:2|0:0,0:0:0:0:
109,235,128476,1,2,1:2:0:0:
121,150,128754,1,10,0:0:0:0:
49,107,129031,102,0,L|229:95,1,168,2|0,1:2|0:0,0:0:0:0:
216,95,129587,2,0,B|241:44|241:44|199:-17,1,112,2|8,1:2|0:0,0:0:0:0:
268,171,130143,6,0,B|341:181|341:181|359:246|359:246|461:260,1,224,2|2,1:2|1:2,0:0:0:0:
505,68,130976,102,0,L|499:-6,1,56,8|0,0:0|0:0,0:0:0:0:
500,12,131254,2,0,B|427:22|427:22|409:87|409:87|307:101,1,224,2|0,1:2|0:0,0:0:0:0:
178,30,132087,1,10,0:0:0:0:
38,120,132365,2,0,L|32:187,15,35,2|0|0|0|0|0|0|0|0|0|0|0|0|0|0|0,0:0|0:0|0:0|0:0|0:0|0:0|0:0|0:0|0:0|0:0|0:0|0:0|0:0|0:0|0:0|0:0,0:0:0:0:
31,106,133476,70,0,P|85:83|177:168,2,195.999994018555,2|0|0,1:2|0:0|0:0,0:0:0:0:
91,173,134865,1,2,0:0:0:0:
0,296,135143,2,0,B|50:297|50:297|90:253,1,97.9999970092774,0|2,0:0|0:0,0:0:0:0:
108,368,135698,6,0,L|89:154,2,195.999994018555,0|0|0,1:2|0:0|0:0,0:0:0:0:
242,384,137087,1,2,0:0:0:0:
188,326,137365,2,0,L|203:218,1,97.9999970092774,0|2,0:0|0:0,0:0:0:0:
158,164,137781,101,2,0:0:0:0:
158,164,137920,2,0,P|103:239|12:222,2,195.999994018555,2|0|0,1:2|0:0|0:0,0:0:0:0:
70,154,139309,1,2,0:0:0:0:
90,0,139587,2,0,B|85:50|85:50|125:88,1,97.9999970092774,0|2,0:0|0:0,0:0:0:0:
203,63,140143,6,0,P|142:55|72:167,2,195.999994018555,2|0|0,1:2|0:0|0:0,0:0:0:0:
212,149,141531,1,2,0:0:0:0:
221,235,141809,1,0,0:0:0:0:
230,321,142087,2,0,L|283:326,1,48.9999985046387,2|2,0:0|0:0,0:0:0:0:
351,373,142365,86,0,P|385:337|368:266,1,114.800001751709,6|8,1:2|0:0,0:0:0:0:
376,276,142781,2,0,P|388:185|400:95,1,172.200002627564,2|10,1:2|0:0,0:0:0:0:
473,13,143337,38,0,P|443:60|328:30,1,172.200002627564,0|10,1:2|0:0,0:0:0:0:
261,21,143893,2,0,L|146:13,1,114.800001751709,2|2,1:2|1:2,0:0:0:0:
146,13,144309,2,0,L|156:88,1,57.4000008758545,10|0,0:0|0:0,0:0:0:0:
118,151,144587,70,0,P|81:118|14:127,1,114.800001751709,2|10,1:2|0:0,0:0:0:0:
19,123,145004,2,0,P|28:236|-16:278,1,172.200002627564,2|10,1:2|0:0,0:0:0:0:
66,318,145559,38,0,B|174:308|116:372|245:360,1,172.200002627564,2|8,1:2|0:0,0:0:0:0:
288,298,146115,2,0,B|396:308|338:244|467:256,1,172.200002627564,2|10,1:2|0:0,0:0:0:0:
510,201,146670,69,2,0:0:0:0:
510,201,146809,2,0,P|456:216|412:153,1,114.800001751709,2|8,1:2|0:0,0:0:0:0:
415,180,147226,2,0,P|426:91|436:5,1,172.200002627564,2|10,1:2|0:0,0:0:0:0:
348,49,147781,38,0,P|291:2|188:25,1,172.200002627564,0|10,1:2|0:0,0:0:0:0:
109,41,148337,2,0,B|146:86|146:86|121:141,1,114.800001751709,2|2,1:2|1:2,0:0:0:0:
122,137,148754,2,0,L|51:132,1,57.4000008758545,10|0,0:0|0:0,0:0:0:0:
3,193,149031,70,0,P|-14:221|22:293,1,114.800001751709,2|10,1:2|0:0,0:0:0:0:
16,290,149448,2,0,P|52:260|175:273,1,172.200002627564,2|10,1:2|0:0,0:0:0:0:
231,329,150004,38,0,P|283:348|347:253,1,172.200002627564,2|10,1:2|0:0,0:0:0:0:
423,230,150559,2,0,P|363:225|335:166,1,114.800001751709,2|0,1:2|1:2,0:0:0:0:
259,143,150976,86,0,L|250:221,1,57.4000008758545,10|2,0:0|0:0,0:0:0:0:
188,260,151254,102,0,P|133:252|80:308,1,114.800001751709,6|8,1:2|0:0,0:0:0:0:
88,286,151670,2,0,P|22:247|34:158,1,172.200002627564,2|10,1:2|0:0,0:0:0:0:
0,83,152226,38,0,B|55:123|55:123|154:82,1,172.200002627564,0|10,1:2|0:0,0:0:0:0:
205,19,152781,2,0,L|330:40,1,114.800001751709,2|2,1:2|1:2,0:0:0:0:
318,38,153198,2,0,L|379:24,1,57.4000008758545,10|0,0:0|0:0,0:0:0:0:
458,58,153476,70,0,P|416:70|405:151,1,114.800001751709,2|10,1:2|0:0,0:0:0:0:
396,132,153893,2,0,P|455:139|493:244,1,172.200002627564,2|10,1:2|0:0,0:0:0:0:
501,318,154448,38,0,B|393:308|451:372|322:360,1,172.200002627564,2|8,1:2|0:0,0:0:0:0:
275,312,155004,2,0,B|167:322|225:258|96:270,1,172.200002627564,2|10,1:2|0:0,0:0:0:0:
46,308,155559,69,2,0:0:0:0:
46,308,155698,2,0,B|83:260|83:260|64:190,1,114.800001751709,2|8,1:2|0:0,0:0:0:0:
68,207,156115,2,0,P|7:144|46:56,1,172.200002627564,2|10,1:2|0:0,0:0:0:0:
76,0,156670,38,0,P|128:54|228:27,1,172.200002627564,0|10,1:2|0:0,0:0:0:0:
296,11,157226,2,0,P|355:2|397:42,1,114.800001751709,2|2,1:2|1:2,0:0:0:0:
394,35,157643,2,0,L|387:95,1,57.4000008758545,10|0,0:0|0:0,0:0:0:0:
388,180,157920,70,0,P|443:179|477:224,1,114.800001751709,2|10,1:2|0:0,0:0:0:0:
477,224,158337,2,0,P|394:283|304:265,1,172.200002627564,2|10,1:2|0:0,0:0:0:0:
256,224,158893,37,2,1:2:0:0:
256,192,159031,12,2,160143,0:0:0:0:
191,285,177920,38,0,P|153:242|61:235,2,140,6|10|2,1:2|0:2|1:2,0:0:0:0:
214,157,178754,1,8,0:2:0:0:
256,224,178892,2,0,B|227:137|287:173|256:76,2,140,2|2|2,1:2|1:2|1:2,0:0:0:0:
321,285,179587,2,0,L|424:274,1,70,0|0,0:0|1:2,0:0:0:0:
484,310,179865,2,0,P|477:258|515:209,1,105,10|0,0:2|0:0,0:0:0:0:
504,215,180143,6,0,P|465:219|382:140,1,140,2|10,1:2|0:2,0:0:0:0:
388,80,180559,1,0,0:0:0:0:
388,80,180698,2,0,P|337:22|277:51,1,140,2|8,1:2|0:2,0:0:0:0:
203,25,181115,2,0,P|252:63|224:145,1,140,2|2,1:2|1:2,0:0:0:0:
164,170,181531,2,0,P|108:130|26:155,1,140,8|2,0:2|0:0,0:0:0:0:
0,288,182087,1,8,0:2:0:0:
127,376,182365,102,0,P|193:298|305:316,1,210,2|2,1:2|0:0,0:0:0:0:
292,306,182920,2,0,B|330:246|330:246|305:178,1,140,2|8,1:2|0:2,0:0:0:0:
238,238,183337,5,2,1:2:0:0:
238,238,183476,2,0,L|85:255,1,140,2|8,0:0|0:2,0:0:0:0:
11,232,183893,1,2,1:2:0:0:
11,232,184031,2,0,L|22:301,1,70,2|0,0:0|1:2,0:0:0:0:
74,172,184309,2,0,L|85:103,1,70,8|0,0:2|0:0,0:0:0:0:
153,45,184587,102,0,P|177:99|270:105,1,140,2|10,1:2|0:2,0:0:0:0:
306,181,185004,2,0,P|372:171|403:111,1,140,2|2,0:0|0:0,0:0:0:0:
356,43,185420,5,8,0:2:0:0:
356,43,185559,2,0,B|302:4|302:4|235:32,1,140,2|2,1:2|1:2,0:0:0:0:
183,103,185976,1,8,0:2:0:0:
183,103,186115,2,0,B|231:149|231:149|215:220,1,140,2|2,1:2|1:2,0:0:0:0:
168,298,186531,2,0,L|263:306,1,70,8|0,0:2|0:0,0:0:0:0:
321,285,186809,102,0,P|359:242|451:235,2,140,6|10|2,1:2|0:2|1:2,0:0:0:0:
300,156,187643,1,8,0:2:0:0:
256,224,187781,2,0,B|285:137|225:173|256:76,2,140,2|2|2,1:2|1:2|1:2,0:0:0:0:
191,285,188476,2,0,L|88:274,1,70,2|0,0:0|1:2,0:0:0:0:
28,310,188754,2,0,P|35:258|-3:209,1,105,10|0,0:2|0:0,0:0:0:0:
8,215,189032,6,0,P|46:219|130:140,1,140,2|10,1:2|0:2,0:0:0:0:
124,80,189448,1,0,0:0:0:0:
124,80,189587,2,0,P|175:22|235:51,1,140,2|8,1:2|0:2,0:0:0:0:
309,25,190004,2,0,P|260:63|288:145,1,140,2|2,1:2|1:2,0:0:0:0:
348,170,190420,2,0,P|404:130|486:155,1,140,8|0,0:2|0:0,0:0:0:0:
512,288,190976,1,8,0:2:0:0:
385,376,191254,102,0,P|319:298|207:316,1,210,2|2,1:2|0:0,0:0:0:0:
220,306,191809,2,0,B|181:246|181:246|206:178,1,140,2|8,1:2|0:2,0:0:0:0:
281,241,192226,5,0,1:2:0:0:
281,241,192365,2,0,L|434:258,1,140,2|8,0:0|0:2,0:0:0:0:
509,237,192782,1,2,1:2:0:0:
509,237,192920,2,0,L|498:306,1,70,2|0,0:0|1:2,0:0:0:0:
438,173,193198,2,0,L|427:104,1,70,8|0,0:2|0:0,0:0:0:0:
359,45,193476,102,0,P|335:99|242:105,1,140,2|10,1:2|0:2,0:0:0:0:
206,181,193893,2,0,P|139:171|108:111,1,140,2|2,0:0|0:0,0:0:0:0:
155,43,194309,5,8,0:2:0:0:
155,43,194448,2,0,B|210:4|210:4|276:32,1,140,2|2,1:2|1:2,0:0:0:0:
261,114,194865,1,8,0:2:0:0:
261,114,195004,2,0,L|245:267,1,140,2|2,1:2|1:2,0:0:0:0:
163,361,195420,2,0,L|168:291,1,70,8|0,0:2|1:2,0:0:0:0:
256,344,195698,102,0,B|378:300|327:404|465:352,1,210,6|0,1:2|0:0,0:0:0:0:
504,279,196254,2,0,L|354:261,1,140,0|10,1:2|0:0,0:0:0:0:
256,252,196809,6,0,B|134:208|185:312|47:260,1,210,6|0,0:0|0:0,0:0:0:0:
8,187,197365,2,0,L|158:169,1,140,0|10,0:0|0:0,0:0:0:0:
256,160,197920,102,0,B|378:116|327:220|465:168,1,210,6|2,1:2|0:0,0:0:0:0:
504,95,198476,2,0,L|354:77,1,140,2|10,1:2|0:0,0:0:0:0:
256,68,199031,6,0,B|134:24|185:128|47:76,1,210,6|0,0:0|1:2,0:0:0:0:
0,18,199587,2,0,P|14:80|27:182,1,140,0|10,0:0|0:0,0:0:0:0:
10,245,200004,101,0,0:0:0:0:
10,245,200143,2,0,P|48:181|181:210,1,210,6|0,1:2|0:0,0:0:0:0:
169,194,200698,2,0,P|118:242|141:317,1,140,2|10,1:2|0:0,0:0:0:0:
313,370,201254,6,0,P|344:318|232:126,1,280,6|0,0:0|0:0,0:0:0:0:
190,21,202087,101,10,0:0:0:0:
190,21,202365,2,0,P|263:27|342:31,1,140,6|10,1:2|0:0,0:0:0:0:
421,17,202781,1,0,0:0:0:0:
421,17,202920,2,0,P|464:75|446:124,1,105,2|0,1:2|0:0,0:0:0:0:
459,103,203198,2,0,P|423:99|363:97,1,70,10|0,0:0|1:2,0:0:0:0:
249,150,203476,6,0,P|245:185|243:246,1,70,6|0,0:0|1:2,0:0:0:0:
327,207,203754,2,0,P|324:241|322:276,1,70,8|0,0:0|1:2,0:0:0:0:
418,182,204031,102,0,P|414:217|412:278,1,70,0|0,0:0|1:2,0:0:0:0:
496,239,204309,2,0,P|493:273|491:308,1,70,8|0,0:0|0:0,0:0:0:0:
419,362,204587,6,0,P|368:318|217:340,1,210,6|0,1:2|0:0,0:0:0:0:
166,381,205143,2,0,B|209:320|209:320|193:238,1,140,0|10,1:2|0:0,0:0:0:0:
93,265,205698,102,0,P|144:221|295:243,1,210,6|0,0:0|0:0,0:0:0:0:
346,284,206254,2,0,B|303:223|303:223|319:141,1,140,0|10,0:0|0:0,0:0:0:0:
419,168,206809,6,0,P|368:124|217:146,1,210,6|2,1:2|0:0,0:0:0:0:
166,187,207365,2,0,B|209:126|209:126|193:44,1,140,2|10,1:2|0:0,0:0:0:0:
93,71,207920,102,0,P|144:27|295:49,1,210,6|0,0:0|1:2,0:0:0:0:
357,0,208476,2,0,B|331:67|331:67|373:132,1,140,0|10,0:0|0:0,0:0:0:0:
450,164,208893,5,2,0:0:0:0:
450,164,209031,2,0,P|441:237|433:331,1,140,6|10,1:2|0:0,0:0:0:0:
291,366,209587,102,0,P|267:328|186:331,1,105,2|0,1:2|0:0,0:0:0:0:
210,317,209865,2,0,P|218:243|221:214,1,70,10|2,0:0|1:2,0:0:0:0:
168,176,210143,2,0,P|236:190|288:125,2,140,6|10|0,0:0|0:0|0:0,0:0:0:0:
48,99,210976,6,0,P|44:133|61:163,1,70,10|2,0:0|0:0,0:0:0:0:
62,164,211254,2,0,P|70:237|79:331,1,140,6|10,1:2|0:0,0:0:0:0:
221,366,211809,102,0,P|245:328|326:331,1,105,2|0,1:2|0:0,0:0:0:0:
302,317,212087,2,0,P|293:243|291:214,1,70,10|0,0:0|1:2,0:0:0:0:
344,176,212365,2,0,P|276:190|224:125,1,140,8|8,0:0|0:0,0:0:0:0:
304,102,212781,1,0,1:0:0:0:
304,102,212851,1,0,1:0:0:0:
304,102,212920,2,0,L|363:50,1,70,8|8,0:0|0:0,0:0:0:0:
169,15,213198,2,0,L|221:61,1,70,0|0,1:0|1:0,0:0:0:0:
286,6,213476,86,0,P|231:69|231:274,1,293.999991027832,12|0,0:0|0:0,0:0:0:0:
289,338,214587,2,0,P|319:281|297:145,1,195.999994018555,10|8,0:0|0:0,0:0:0:0:
231,106,215420,1,2,0:0:0:0:
146,115,215698,6,0,P|103:142|128:356,1,293.999991027832,8|2,0:0|0:0,0:0:0:0:
203,327,216809,1,10,0:0:0:0:
271,378,217087,2,0,P|326:378|379:342,1,97.9999970092774,0|8,0:0|0:0,0:0:0:0:
449,342,217643,102,0,L|455:287,1,48.9999985046387,2|0,0:0|0:0,0:0:0:0:
454,293,217920,2,0,P|443:153|314:99,1,293.999991027832,8|2,0:0|0:0,0:0:0:0:
233,59,219031,2,0,P|150:63|91:172,1,195.999994018555,10|8,0:0|0:0,0:0:0:0:
30,210,219865,1,2,0:0:0:0:
66,288,220143,6,0,P|132:265|360:243,1,293.999991027832,8|2,0:0|0:0,0:0:0:0:
416,177,221254,2,0,P|371:157|306:151,1,97.9999970092774,8|2,0:0|0:0,0:0:0:0:
248,106,221809,2,0,P|199:112|155:132,1,97.9999970092774,10|2,0:0|0:0,0:0:0:0:
71,111,222365,102,0,P|136:123|189:323,1,293.999991027832,12|0,0:0|0:0,0:0:0:0:
307,354,223476,2,0,P|294:315|397:204,1,195.999994018555,10|8,0:0|0:0,0:0:0:0:
458,242,224309,1,2,0:0:0:0:
512,173,224587,6,0,P|477:73|294:32,1,293.999991027832,8|2,0:0|0:0,0:0:0:0:
256,96,225698,1,10,0:0:0:0:
205,167,225976,2,0,P|165:184|100:175,1,97.9999970092774,0|8,0:0|0:0,0:0:0:0:
32,207,226531,102,0,P|20:186|0:173,1,48.9999985046387,2|0,0:0|0:0,0:0:0:0:
0,173,226809,2,0,P|35:73|218:32,1,293.999991027832,8|2,0:0|0:0,0:0:0:0:
258,92,227920,2,0,P|322:117|359:237,1,195.999994018555,10|8,0:0|0:0,0:0:0:0:
410,304,228754,1,2,0:0:0:0:
355,369,229031,6,0,P|221:335|51:329,1,293.999991027832,8|2,0:0|0:0,0:0:0:0:
11,255,230143,2,0,P|58:235|121:230,1,97.9999970092774,8|2,0:0|0:0,0:0:0:0:
175,179,230698,2,0,P|223:185|268:204,1,97.9999970092774,10|2,0:0|0:0,0:0:0:0:
353,216,231254,101,12,0:0:0:0:
