osu file format v14

[General]
AudioFilename: audio.mp3
AudioLeadIn: 0
PreviewTime: 61081
Countdown: 0
SampleSet: Soft
StackLeniency: 0.2
Mode: 0
LetterboxInBreaks: 1
WidescreenStoryboard: 1

[Editor]
Bookmarks: 165,12164,24164,36164,38164,54164,62164,89829,95829,101828,113828,129828,145828,153828,161828,177828,183828,185828,197494,199494,213493,241158,253158
DistanceSpacing: 1.4
BeatDivisor: 8
GridSize: 4
TimelineZoom: 1.9

[Metadata]
Title:GHOST OF LORELEY
TitleUnicode:GHOST OF LORELEY
Artist:lasah
ArtistUnicode:らさ
Creator:moph
Version:wa's Insane
Source:
Tags:sasakure.uk I love you wa_ Ambient Fizz
BeatmapID:1050849
BeatmapSetID:486177

[Difficulty]
HPDrainRate:7
CircleSize:4.2
OverallDifficulty:8
ApproachRate:8.8
SliderMultiplier:1.62
SliderTickRate:1

[Events]
//Background and Video events
0,0,"bg.jpg",0,0
//Break Periods
2,186028,196865
//Storyboard Layer 0 (Background)
//Storyboard Layer 1 (Fail)
//Storyboard Layer 2 (Pass)
//Storyboard Layer 3 (Foreground)
//Storyboard Sound Samples

[TimingPoints]
165,333.333333333333,3,2,1,80,1,0
12164,-125,3,2,1,50,0,0
17164,-111.111111111111,3,2,1,50,0,0
18164,-142.857142857143,3,2,1,50,0,0
18664,-111.111111111111,3,2,1,50,0,0
19164,-125,3,2,1,50,0,0
24164,-200,3,2,1,50,0,0
37664,-125,3,2,1,50,0,0
54164,-200,3,2,1,50,0,0
60164,-100,3,2,1,50,0,0
60998,-100,3,2,1,5,0,0
61164,-142.857142857143,3,2,1,50,0,0
61331,-142.857142857143,3,2,1,5,0,0
61498,-142.857142857143,3,2,1,50,0,0
61664,-142.857142857143,3,2,1,5,0,0
61831,-142.857142857143,3,2,1,50,0,0
62081,-142.857142857143,3,2,1,5,0,0
62164,333.333333333333,5,2,1,80,1,1
62164,-90.9090909090909,5,2,1,80,0,1
68497,-66.6666666666667,5,2,1,80,0,1
68830,-90.9090909090909,5,2,1,80,0,1
71330,-111.111111111111,5,2,1,80,0,1
72163,-90.9090909090909,5,2,1,80,0,1
73830,333.333333333333,3,2,1,80,1,1
73830,-90.9090909090909,6,2,1,80,0,1
74830,-111.111111111111,6,2,1,80,0,0
75330,-142.857142857143,6,2,1,80,0,0
75746,-142.857142857143,6,2,1,5,0,0
75830,333.333333333333,5,2,1,80,1,1
75830,-83.3333333333333,5,2,1,80,0,1
81830,-111.111111111111,5,2,1,80,0,1
82496,333.333333333333,3,2,1,80,1,1
82496,-83.3333333333333,3,2,1,80,0,1
82996,-111.111111111111,3,2,1,80,0,1
83496,-83.3333333333333,3,2,1,80,0,1
83996,-111.111111111111,3,2,1,80,0,1
84496,-125,3,2,1,80,0,1
85496,-111.111111111111,3,2,1,80,0,1
86496,333.333333333333,5,2,1,70,1,0
86496,-100,5,2,1,70,0,0
89829,333.333333333333,3,2,1,50,1,0
89829,-166.666666666667,9,2,1,50,0,0
90329,-125,9,2,1,50,0,0
91829,-166.666666666667,9,2,1,50,0,0
93329,-125,9,2,1,50,0,0
105328,-100,9,2,1,50,0,0
105662,-125,9,2,1,50,0,0
107828,-100,9,2,1,50,0,0
111662,-125,9,2,1,50,0,0
112162,-100,9,2,1,50,0,0
113828,-200,3,2,1,50,0,0
127827,-125,3,2,1,50,0,0
142827,-166.666666666667,3,2,1,50,0,0
143327,-125,3,2,1,50,0,0
144994,-125,3,2,1,5,0,0
145077,-125,3,2,1,50,0,0
145244,-125,3,2,1,5,0,0
145327,-125,3,2,1,50,0,0
145827,-200,3,2,1,50,0,0
153827,-125,3,2,1,50,0,0
161828,-111.111111111111,3,2,1,50,0,1
162162,-111.111111111111,3,2,1,50,0,0
162827,-142.857142857143,3,2,1,50,0,0
163327,-111.111111111111,3,2,1,50,0,0
169827,-142.857142857143,3,2,1,50,0,0
170327,-111.111111111111,3,2,1,50,0,0
177827,-200,3,2,1,50,0,0
183827,-100,3,2,1,50,0,0
185828,333.333333333333,5,2,1,80,1,0
197494,333.333333333333,3,2,1,80,1,0
199494,333.333333333333,3,2,1,80,1,1
205160,-125,3,2,1,80,0,1
206160,333.333333333333,3,2,1,80,1,1
206660,-125,3,2,1,80,0,1
207160,-100,3,2,1,80,0,1
207660,-125,3,2,1,80,0,1
209160,-111.111111111111,3,2,1,80,0,1
210160,-100,3,2,1,80,0,0
213493,333.333333333333,5,2,1,80,1,1
213493,-83.3333333333333,5,2,1,80,0,1
213993,-111.111111111111,5,2,1,80,0,1
214493,-83.3333333333333,5,2,1,80,0,1
217326,-100,5,2,1,80,0,1
225159,333.333333333333,3,2,1,60,1,1
225159,-125,6,2,1,60,0,1
226159,-142.857142857143,6,2,1,60,0,1
226659,-200,6,2,1,80,0,0
227075,-200,6,2,1,5,0,0
227159,333.333333333333,5,2,1,80,1,1
227159,-83.3333333333333,5,2,1,80,0,1
233159,-125,5,2,1,80,0,1
233825,333.333333333333,3,2,1,80,1,1
234325,-125,3,2,1,80,0,1
234825,-100,3,2,1,80,0,1
235325,-125,3,2,1,80,0,1
236825,-111.111111111111,3,2,1,80,0,1
237825,333.333333333333,5,2,1,80,1,0
239991,-125,5,2,1,80,0,0
241158,333.333333333333,3,2,1,80,1,0
241158,-100,3,2,1,80,0,0

[Colours]
Combo1 : 179,125,189
Combo2 : 139,134,191
Combo3 : 196,111,157
Combo4 : 135,159,205

[HitObjects]
248,104,12164,6,0,L|328:100,1,64.8,4|0,0:0|0:0,0:0:0:0:
388,156,12498,1,0,0:0:0:0:
332,228,12664,2,0,P|316:276|360:360,1,129.6,2|2,0:0|0:0,0:0:0:0:
343,346,13164,1,0,0:0:0:0:
404,280,13331,5,0,0:0:0:0:
404,280,13414,1,0,0:0:0:0:
404,280,13498,1,2,0:0:0:0:
448,360,13664,1,0,0:0:0:0:
496,280,13831,1,2,0:0:0:0:
200,328,14164,6,0,P|156:332|128:320,1,64.8,2|2,0:0|0:0,0:0:0:0:
68,264,14498,2,0,P|36:255|5:261,1,64.8,2|2,0:0|0:0,0:0:0:0:
170,244,14831,1,0,0:0:0:0:
174,221,14914,1,0,0:0:0:0:
172,199,14998,1,0,0:0:0:0:
276,248,15164,6,0,L|272:384,1,129.6,6|0,0:0|0:0,0:0:0:0:
368,328,15664,2,0,L|370:242,2,64.8,2|0|2,0:0|0:0|0:0,0:0:0:0:
368,328,16164,1,0,0:0:0:0:
336,160,16331,5,2,0:0:0:0:
313,154,16414,1,0,0:0:0:0:
291,149,16498,1,2,0:0:0:0:
269,144,16581,1,0,0:0:0:0:
247,138,16664,2,0,L|250:62,1,64.8,0|2,0:0|0:0,0:0:0:0:
160,216,16998,5,0,0:0:0:0:
160,216,17081,1,0,0:0:0:0:
160,216,17164,2,0,P|100:232|80:228,1,72.8999977752686,2|2,0:0|0:0,0:0:0:0:
0,180,17498,1,2,0:0:0:0:
32,360,17664,6,0,P|92:376|112:372,1,72.8999977752686,2|2,0:0|0:0,0:0:0:0:
192,324,17998,1,2,0:0:0:0:
280,272,18164,6,0,P|353:261|392:284,1,113.399996539307,6|0,0:0|0:0,0:0:0:0:
512,248,18664,2,0,P|472:208|465:170,1,72.8999977752686,2|0,0:0|0:0,0:0:0:0:
467,193,18998,1,2,0:0:0:0:
454,329,19164,5,0,0:0:0:0:
368,304,19331,1,0,0:0:0:0:
368,304,19414,1,0,0:0:0:0:
368,304,19498,1,2,0:0:0:0:
284,336,19664,1,0,0:0:0:0:
200,304,19831,1,2,0:0:0:0:
460,264,20164,6,0,L|454:329,1,64.8,2|2,0:0|0:0,0:0:0:0:
370,213,20498,2,0,L|364:148,1,64.8,2|2,0:0|0:0,0:0:0:0:
424,64,20831,1,0,0:0:0:0:
424,64,20914,1,0,0:0:0:0:
424,64,20998,1,0,0:0:0:0:
252,216,21164,6,0,B|199:211|199:211|188:206|188:206|109:200,1,129.6,6|0,0:0|0:0,0:0:0:0:
24,344,21664,2,0,P|64:348|100:336,1,64.8,2|0,0:0|0:0,0:0:0:0:
160,288,21998,1,2,0:0:0:0:
212,360,22164,1,0,0:0:0:0:
292,320,22331,1,0,0:0:0:0:
212,360,22498,5,2,0:0:0:0:
213,340,22581,1,0,0:0:0:0:
214,321,22664,1,0,0:0:0:0:
216,301,22748,1,0,0:0:0:0:
217,282,22831,1,2,0:0:0:0:
372,304,22998,5,0,0:0:0:0:
372,304,23081,1,0,0:0:0:0:
372,304,23164,1,6,0:0:0:0:
360,216,23331,1,2,0:0:0:0:
348,128,23498,1,10,0:0:0:0:
264,188,23664,5,2,0:0:0:0:
348,128,23831,1,10,0:0:0:0:
424,56,23998,1,2,0:0:0:0:
444,152,24164,6,0,L|280:144,1,162,6|0,0:0|0:0,0:0:0:0:
184,284,25164,2,0,B|180:224|180:224|168:208|168:208|164:146|164:146|152:128|152:128|148:69|148:69|136:52,1,243,8|2,0:0|0:0,0:0:0:0:
292,320,27164,6,0,P|338:324|372:312,2,81,8|2|2,0:0|0:0|0:0,0:0:0:0:
192,268,28164,2,0,B|160:254|113:270|113:270|73:284|31:267,1,162,6|0,0:0|0:0,0:0:0:0:
76,164,29164,2,0,P|159:149|242:166,1,162,8|0,0:0|0:0,0:0:0:0:
120,320,30164,6,0,L|72:318,2,40.5,2|0|0,0:0|0:0|0:0,0:0:0:0:
195,290,30664,2,0,L|236:292,2,40.5
348,252,31164,2,0,L|300:250,2,40.5,8|0|0,0:0|0:0|0:0,0:0:0:0:
423,222,31664,2,0,L|464:224,2,40.5,2|0|0,0:0|0:0|0:0,0:0:0:0:
340,168,32164,6,0,B|320:132|316:88|344:52|344:52|386:81|430:78|468:56,1,243,6|8,0:0|0:0,0:0:0:0:
457,61,33664,5,2,0:0:0:0:
428,176,34164,1,2,0:0:0:0:
456,344,35164,6,0,L|361:340,1,81,8|2,0:0|0:0,0:0:0:0:
244,332,35831,1,2,0:0:0:0:
252,200,36164,5,2,0:0:0:0:
252,200,36331,1,2,0:0:0:0:
124,268,36498,1,2,0:0:0:0:
124,268,36664,1,2,0:0:0:0:
136,140,36831,1,2,0:0:0:0:
136,140,36998,1,2,0:0:0:0:
256,204,37164,5,2,0:0:0:0:
256,204,37248,1,0,0:0:0:0:
248,336,37414,1,0,0:0:0:0:
248,336,37498,1,8,0:0:0:0:
432,244,37664,5,2,0:0:0:0:
451,241,37748,1,0,0:0:0:0:
470,244,37831,1,2,0:0:0:0:
441,258,37914,1,0,0:0:0:0:
409,266,37998,1,10,0:0:0:0:
377,265,38081,1,0,0:0:0:0:
346,257,38164,6,0,P|284:248|224:308,1,129.6,6|0,0:0|0:0,0:0:0:0:
192,376,38664,1,0,0:0:0:0:
44,292,38831,2,0,B|40:240|40:240|44:224|44:224|38:157,1,129.6,0|8,0:0|0:0,0:0:0:0:
176,212,39498,5,2,0:0:0:0:
284,112,39831,1,0,0:0:0:0:
392,208,40164,6,0,B|496:212|496:212|474:246,1,129.6,2|0,0:0|0:0,0:0:0:0:
320,276,40664,2,0,B|271:183|271:183|311:185,1,129.6,0|2,0:0|0:0,0:0:0:0:
392,372,41164,2,0,B|260:366,1,129.6,8|2,0:0|0:0,0:0:0:0:
262,367,41664,5,2,0:0:0:0:
408,288,41831,1,0,0:0:0:0:
332,160,42164,6,0,P|328:120|384:48,1,129.6,6|0,0:0|0:0,0:0:0:0:
421,132,42664,1,0,0:0:0:0:
476,52,42831,1,0,0:0:0:0:
472,264,43164,6,0,L|332:260,1,129.6,8|2,0:0|0:0,0:0:0:0:
268,208,43664,1,0,0:0:0:0:
352,172,43831,1,0,0:0:0:0:
44,32,44164,6,0,P|52:72|48:104,1,64.8,2|2,0:0|0:0,0:0:0:0:
20,188,44498,1,2,0:0:0:0:
242,255,44664,5,0,0:0:0:0:
186,177,44831,1,0,0:0:0:0:
148,267,44998,1,2,0:0:0:0:
401,270,45164,6,0,P|411:240|408:208,1,64.8,8|0,0:0|0:0,0:0:0:0:
292,91,45498,2,0,P|314:115|344:128,1,64.8,2|0,0:0|0:0,0:0:0:0:
501,93,45831,2,0,P|470:101|444:120,1,64.8,2|2,0:0|0:0,0:0:0:0:
408,208,46164,5,6,0:0:0:0:
84,288,46498,5,0,0:0:0:0:
96,192,46664,1,2,0:0:0:0:
204,256,46831,1,0,0:0:0:0:
216,160,46998,1,2,0:0:0:0:
324,224,47164,6,0,P|364:228|392:220,1,64.8,8|0,0:0|0:0,0:0:0:0:
512,136,47498,2,0,P|472:132|444:140,1,64.8,2|0,0:0|0:0,0:0:0:0:
348,52,47831,2,0,L|352:117,1,64.8,2|0,0:0|0:0,0:0:0:0:
476,260,48164,5,2,0:0:0:0:
476,260,48331,1,2,0:0:0:0:
380,348,48498,1,2,0:0:0:0:
380,348,48664,1,0,0:0:0:0:
268,284,48831,1,0,0:0:0:0:
268,284,48998,1,2,0:0:0:0:
160,356,49164,5,8,0:0:0:0:
68,308,49331,1,0,0:0:0:0:
160,356,49498,5,2,0:0:0:0:
68,308,49664,1,0,0:0:0:0:
160,356,49831,5,2,0:0:0:0:
68,308,49998,1,0,0:0:0:0:
160,356,50164,6,0,L|308:352,1,129.6,6|0,0:0|0:0,0:0:0:0:
358,298,50664,1,0,0:0:0:0:
256,252,50831,1,0,0:0:0:0:
308,156,50998,1,2,0:0:0:0:
236,76,51164,6,0,L|156:68,1,64.8,8|0,0:0|0:0,0:0:0:0:
200,172,51498,2,0,L|137:222,1,64.8,2|0,2:0|2:0,0:0:0:0:
248,260,51831,2,0,L|240:340,1,64.8,2|0,2:0|2:0,0:0:0:0:
344,304,52164,2,0,L|385:354,1,64.8,2|0,0:0|0:0,0:0:0:0:
208,168,52498,6,0,P|163:179|139:198,1,64.8,2|0,0:0|0:0,0:0:0:0:
284,106,52831,2,0,P|259:68|235:51,1,64.8,2|0,0:0|0:0,0:0:0:0:
371,152,53164,2,0,P|400:116|408:87,1,64.8,8|0,0:0|0:0,0:0:0:0:
347,247,53498,2,0,P|390:263|420:262,1,64.8,2|2,0:0|0:0,0:0:0:0:
248,260,53831,2,0,P|245:306|256:333,1,64.8,2|2,0:0|0:0,0:0:0:0:
208,168,54164,6,0,B|163:155|131:164|131:164|121:145|130:109|130:109|139:70|104:35|63:54,1,243,4|8,0:0|0:0,0:0:0:0:
24,168,55664,1,2,0:0:0:0:
84,268,56164,6,0,B|131:277|163:264|163:264|197:276|216:328|216:328|240:336|270:309|240:264,1,243,4|8,0:0|0:0,0:0:0:0:
196,152,57664,1,2,0:0:0:0:
328,180,58164,6,0,B|359:189|388:185|414:162|414:162|455:214|414:266|357:262,1,243,4|8,0:0|0:0,0:0:0:0:
228,240,59664,1,2,0:0:0:0:
256,192,60164,12,0,60998,0:0:0:0:
100,104,61164,6,0,L|164:100,1,56.6999982696534,0|0,0:0|0:0,0:0:0:0:
225,132,61498,2,0,L|281:135,1,56.6999982696534,0|0,0:0|0:0,0:0:0:0:
352,108,61831,2,0,L|439:102,1,85.0499974044801,0|0,0:0|0:0,0:0:0:0:
460,112,62164,6,0,P|476:160|460:212,1,89.1000027191163,6|0,0:0|0:0,0:0:0:0:
418,281,62497,1,8,0:0:0:0:
324,260,62664,2,0,B|236:244|236:244|196:328,1,178.200005438233,2|0,0:0|0:0,0:0:0:0:
44,297,63164,5,2,0:0:0:0:
70,204,63330,1,0,0:0:0:0:
136,264,63497,1,8,0:0:0:0:
136,264,63830,5,0,0:0:0:0:
113,261,63914,1,0,0:0:0:0:
91,258,63997,1,0,0:0:0:0:
69,255,64080,1,0,0:0:0:0:
47,252,64164,1,8,0:0:0:0:
8,160,64330,6,0,P|40:96|148:120,1,178.200005438233,2|0,0:0|0:0,0:0:0:0:
208,168,64830,5,0,0:0:0:0:
228,175,64914,1,0,0:0:0:0:
250,176,64997,1,2,0:0:0:0:
272,170,65080,1,0,0:0:0:0:
290,158,65164,1,8,0:0:0:0:
376,332,65497,6,0,P|396:280|424:256,1,89.1000027191163,0|0,0:0|0:0,0:0:0:0:
512,228,65830,1,8,0:0:0:0:
448,364,65997,2,0,L|256:360,1,178.200005438233,2|0,0:0|0:0,0:0:0:0:
312,264,66497,5,0,0:0:0:0:
260,180,66664,1,2,0:0:0:0:
316,100,66830,1,8,0:0:0:0:
256,20,66997,1,2,0:0:0:0:
256,20,67080,1,0,0:0:0:0:
256,20,67164,5,0,0:0:0:0:
233,20,67247,1,0,0:0:0:0:
211,21,67330,1,0,0:0:0:0:
189,22,67414,1,0,0:0:0:0:
166,23,67497,1,8,0:0:0:0:
260,180,67664,6,0,P|304:124|428:120,1,178.200005438233,2|0,0:0|0:0,0:0:0:0:
424,120,68080,1,0,0:0:0:0:
440,134,68164,5,8,0:0:0:0:
419,141,68247,1,0,0:0:0:0:
397,145,68330,1,2,0:0:0:0:
375,143,68414,1,0,0:0:0:0:
354,137,68497,2,0,P|334:128|317:114,6,30.3750011587143,8|0|0|0|2|0|0,0:0|0:0|0:0|0:0|0:0|0:0|0:0,0:0:0:0:
364,156,68830,6,0,B|379:206|379:206|369:242,1,89.1000027191163,0|0,0:0|0:0,0:0:0:0:
232,280,69164,1,8,0:0:0:0:
292,384,69330,2,0,L|476:376,1,178.200005438233,2|0,0:0|0:0,0:0:0:0:
232,280,69830,5,0,0:0:0:0:
332,197,69997,1,2,0:0:0:0:
239,187,70163,1,8,0:0:0:0:
322,289,70330,1,2,0:0:0:0:
120,352,70497,6,0,L|108:168,1,178.200005438233,0|8,0:0|0:0,0:0:0:0:
239,187,70997,2,0,L|243:87,1,89.1000027191163,2|0,0:0|0:0,0:0:0:0:
384,272,71330,6,0,L|373:126,1,145.799995550537,0|2,0:0|0:0,0:0:0:0:
373,126,71747,1,0,0:0:0:0:
373,126,71830,1,8,0:0:0:0:
373,126,71913,1,0,0:0:0:0:
373,126,71997,1,2,0:0:0:0:
496,364,72163,6,0,L|316:376,1,178.200005438233,0|8,0:0|0:0,0:0:0:0:
318,375,72663,1,2,0:0:0:0:
416,96,72997,5,0,0:0:0:0:
440,192,73163,2,0,L|340:188,1,89.1000027191163,0|2,0:0|0:0,0:0:0:0:
267,83,73497,2,0,L|308:161,1,89.1000027191163,8|2,0:0|0:0,0:0:0:0:
261,274,73830,6,0,L|308:198,1,89.1000027191163,2|0,0:0|0:0,0:0:0:0:
380,96,74163,1,0,0:0:0:0:
468,264,74330,6,0,P|423:268|378:260,1,89.1000027191163,2|0,0:0|0:0,0:0:0:0:
240,156,74663,1,0,0:0:0:0:
168,364,74830,6,0,L|316:352,1,145.799995550537,2|0,0:0|0:0,0:0:0:0:
203,262,75330,6,0,L|56:254,1,141.749995674133,2|0,0:0|0:0,0:0:0:0:
61,254,75830,6,0,P|100:210|107:156,1,97.1999970336915,4|0,0:0|0:0,0:0:0:0:
116,56,76163,1,8,0:0:0:0:
216,172,76330,1,2,0:0:0:0:
316,116,76496,6,0,L|321:9,1,97.1999970336915,0|2,0:0|0:0,0:0:0:0:
448,168,76830,2,0,L|443:266,1,97.1999970336915,0|2,0:0|0:0,0:0:0:0:
226,173,77163,5,8,0:0:0:0:
308,255,77330,1,2,0:0:0:0:
338,142,77496,5,0,0:0:0:0:
343,118,77580,1,0,0:0:0:0:
344,94,77663,1,0,0:0:0:0:
340,70,77746,1,0,0:0:0:0:
331,47,77830,1,2,0:0:0:0:
136,88,77996,5,10,0:0:0:0:
240,145,78163,2,0,L|344:141,1,97.1999970336915,2|2,0:0|0:0,0:0:0:0:
416,252,78496,5,0,0:0:0:0:
320,348,78663,1,2,0:0:0:0:
478,195,78830,1,8,0:0:0:0:
437,336,78996,1,2,0:0:0:0:
337,229,79163,5,0,0:0:0:0:
325,207,79246,1,0,0:0:0:0:
318,184,79330,1,0,0:0:0:0:
317,160,79413,1,0,0:0:0:0:
322,136,79496,1,2,0:0:0:0:
404,52,79663,1,8,0:0:0:0:
208,208,79830,6,0,P|160:224|104:216,1,97.1999970336915,2|2,0:0|0:0,0:0:0:0:
284,248,80163,2,0,P|284:298|259:349,1,97.1999970336915,0|2,0:0|0:0,0:0:0:0:
355,195,80496,2,0,P|403:210|443:249,1,97.1999970336915,8|2,0:0|0:0,0:0:0:0:
438,241,80746,1,0,0:0:0:0:
438,241,80830,1,0,0:0:0:0:
444,368,80996,5,0,0:0:0:0:
444,368,81080,1,0,0:0:0:0:
444,368,81163,1,2,0:0:0:0:
328,312,81330,1,10,0:0:0:0:
216,372,81496,1,2,0:0:0:0:
220,244,81663,1,2,0:0:0:0:
328,312,81830,6,0,P|417:302|456:240,1,145.799995550537,0|8,0:0|0:0,0:0:0:0:
449,262,82496,6,0,P|450:314|484:361,1,97.1999970336915,4|0,0:0|0:0,0:0:0:0:
376,120,82829,1,0,0:0:0:0:
304,208,82996,6,0,P|231:214|164:172,1,145.799995550537,0|0,0:0|0:0,0:0:0:0:
300,321,83496,6,0,P|340:294|388:288,1,97.1999970336915,8|0,0:0|0:0,0:0:0:0:
208,304,83829,1,0,0:0:0:0:
475,370,83996,6,0,P|504:305|494:234,1,145.799995550537,0|0,0:0|0:0,0:0:0:0:
364,84,84496,6,0,P|316:92|281:109,1,64.8,4|0,0:0|0:0,0:0:0:0:
190,55,84829,2,0,P|173:100|170:138,1,64.8,0|0,0:0|0:0,0:0:0:0:
73,180,85162,2,0,P|104:216|135:238,1,64.8,0|0,0:0|0:0,0:0:0:0:
236,344,85496,6,0,P|184:340|136:350,1,72.8999977752686,8|0,0:0|0:0,0:0:0:0:
288,264,85829,2,0,P|265:216|232:180,1,72.8999977752686,0|0,0:0|0:0,0:0:0:0:
384,268,86162,2,0,P|413:224|428:178,1,72.8999977752686,0|0,0:0|0:0,0:0:0:0:
500,356,86496,6,0,L|415:354,1,81,4|0,0:0|0:0,0:0:0:0:
340,176,86829,1,8,0:0:0:0:
128,312,86996,2,0,B|196:309|196:309|215:302|215:302|288:300,1,162,2|0,0:0|0:0,0:0:0:0:
152,180,87496,5,0,0:0:0:0:
248,200,87662,1,2,0:0:0:0:
224,104,87829,1,8,0:0:0:0:
316,132,87996,1,2,0:0:0:0:
223,289,88162,6,0,P|262:293|300:279,1,81,0|0,0:0|0:0,0:0:0:0:
380,220,88496,1,8,0:0:0:0:
512,360,88662,2,0,L|350:367,1,162,2|0,0:0|0:0,0:0:0:0:
80,292,89162,5,0,0:0:0:0:
74,264,89246,1,0,0:0:0:0:
71,236,89329,1,2,0:0:0:0:
73,207,89412,1,0,0:0:0:0:
77,179,89496,1,8,0:0:0:0:
85,189,89579,1,0,0:0:0:0:
92,199,89662,1,2,0:0:0:0:
96,210,89746,1,0,0:0:0:0:
100,222,89829,6,0,P|124:176|120:120,1,97.1999970336915,6|0,0:0|0:0,0:0:0:0:
232,168,90329,2,0,P|284:136|364:140,1,129.6,2|2,0:0|0:0,0:0:0:0:
424,180,90829,1,0,0:0:0:0:
216,320,90995,6,0,L|179:346,2,32.4,0|0|2,0:0|0:0|0:0,0:0:0:0:
296,264,91329,1,0,0:0:0:0:
380,312,91495,1,2,0:0:0:0:
380,312,91829,6,0,L|376:248,1,48.5999985168458,2|2,0:0|0:0,0:0:0:0:
392,188,92162,2,0,L|388:124,1,48.5999985168458,2|2,0:0|0:0,0:0:0:0:
404,64,92495,2,0,L|401:27,2,24.2999992584229,0|0|0,0:0|0:0|0:0,0:0:0:0:
240,148,92829,5,2,0:0:0:0:
222,139,92912,1,0,0:0:0:0:
225,119,92995,1,0,0:0:0:0:
244,116,93079,1,0,0:0:0:0:
253,134,93162,1,0,0:0:0:0:
304,264,93329,6,0,P|357:297|420:289,1,129.6,2|2,0:0|0:0,0:0:0:0:
496,228,93829,1,0,0:0:0:0:
377,205,93995,5,0,0:0:0:0:
371,189,94079,1,0,0:0:0:0:
367,174,94162,1,2,0:0:0:0:
365,158,94245,1,0,0:0:0:0:
364,141,94329,1,0,0:0:0:0:
364,125,94412,1,0,0:0:0:0:
367,109,94495,1,2,0:0:0:0:
392,16,94662,5,0,0:0:0:0:
392,16,94745,1,0,0:0:0:0:
392,16,94829,2,0,L|303:20,2,64.8,2|2|2,0:0|0:0|0:0,0:0:0:0:
120,96,95329,2,0,L|209:100,2,64.8,2|2|2,0:0|0:0|0:0,0:0:0:0:
48,152,95829,5,6,0:0:0:0:
92,232,95995,1,0,0:0:0:0:
44,308,96162,1,0,0:0:0:0:
100,380,96329,6,0,L|240:372,1,129.6,2|2,0:0|0:0,0:0:0:0:
229,372,96829,1,0,0:0:0:0:
168,228,96995,5,0,0:0:0:0:
168,228,97078,1,0,0:0:0:0:
168,228,97162,2,0,P|160:180|163:155,1,64.8,2|0,0:0|0:0,0:0:0:0:
180,76,97495,1,2,0:0:0:0:
256,136,97662,5,0,0:0:0:0:
208,80,97828,1,2,0:0:0:0:
265,157,97995,5,2,0:0:0:0:
234,93,98162,1,2,0:0:0:0:
269,182,98328,5,2,0:0:0:0:
259,110,98495,2,0,L|255:73,2,32.4,0|0|0,0:0|0:0|0:0,0:0:0:0:
335,133,98828,6,0,L|400:136,1,64.8,2|0,0:0|0:0,0:0:0:0:
490,142,99162,1,0,0:0:0:0:
432,236,99328,2,0,B|387:239|387:239|371:251|371:251|341:247|307:255,1,129.6,2|2,0:0|0:0,0:0:0:0:
208,288,99828,5,0,0:0:0:0:
324,320,99995,1,0,0:0:0:0:
325,303,100078,1,0,0:0:0:0:
326,287,100162,1,2,0:0:0:0:
327,271,100245,1,0,0:0:0:0:
328,255,100328,1,0,0:0:0:0:
329,239,100412,1,0,0:0:0:0:
330,223,100495,1,2,0:0:0:0:
120,264,100662,5,0,0:0:0:0:
120,264,100745,1,0,0:0:0:0:
120,264,100828,1,2,0:0:0:0:
180,120,100995,1,2,0:0:0:0:
180,120,101162,1,10,0:0:0:0:
256,192,101328,5,2,0:0:0:0:
316,48,101495,1,10,0:0:0:0:
316,48,101662,1,2,0:0:0:0:
392,120,101828,6,0,B|488:116|488:116|452:76,1,129.6,4|8,0:0|0:0,0:0:0:0:
400,208,102328,2,0,B|304:204|304:204|340:164,1,129.6,2|0,0:0|0:0,0:0:0:0:
392,296,102828,2,0,B|460:293,1,64.8,0|2,0:0|0:0,0:0:0:0:
464,280,103078,1,0,0:0:0:0:
472,267,103162,1,8,0:0:0:0:
300,300,103328,5,2,0:0:0:0:
300,300,103495,1,2,0:0:0:0:
128,160,103828,6,0,P|100:184|86:218,1,64.8,8|0,0:0|0:0,0:0:0:0:
156,83,104162,2,0,P|151:52|133:25,1,64.8,0|2,0:0|0:0,0:0:0:0:
212,144,104495,2,0,P|242:155|274:154,1,64.8,8|2,0:0|0:0,0:0:0:0:
216,328,104828,6,0,B|152:324|152:324|120:312|120:312|100:320|81:318,1,129.6,6|8,0:0|0:0,0:0:0:0:
104,216,105328,2,0,L|20:220,1,81,2|0,0:0|0:0,0:0:0:0:
204,240,105662,2,0,L|196:96,1,129.6,0|2,0:0|0:0,0:0:0:0:
197,111,106162,1,8,0:0:0:0:
368,164,106328,1,2,0:0:0:0:
368,164,106412,1,0,0:0:0:0:
368,164,106495,1,0,0:0:0:0:
196,280,106828,5,2,0:0:0:0:
183,279,106912,1,0,0:0:0:0:
168,272,106995,1,0,0:0:0:0:
155,271,107078,1,0,0:0:0:0:
140,278,107162,1,8,0:0:0:0:
127,277,107245,1,0,0:0:0:0:
112,270,107328,1,2,0:0:0:0:
99,269,107412,1,0,0:0:0:0:
80,264,107495,6,0,L|57:263,6,16.2,10|0|0|0|0|0|0,0:0|0:0|0:0|0:0|0:0|0:0|0:0,0:0:0:0:
80,264,107828,2,0,L|72:92,1,162,4|8,0:0|0:0,0:0:0:0:
184,112,108328,1,2,0:0:0:0:
72,102,108495,5,0,0:0:0:0:
184,112,108662,2,0,L|351:128,1,162,0|2,0:0|0:0,0:0:0:0:
333,116,109078,1,0,0:0:0:0:
321,104,109162,1,8,0:0:0:0:
276,188,109328,5,2,0:0:0:0:
364,232,109495,1,0,0:0:0:0:
409,148,109828,5,2,0:0:0:0:
425,304,109995,1,0,0:0:0:0:
279,239,110162,2,0,L|231:241,2,40.5,8|0|2,0:0|0:0|0:0,0:0:0:0:
364,232,110495,1,8,0:0:0:0:
128,292,110828,6,0,B|123:216|123:216|129:199|129:199|124:116,1,162,4|8,0:0|0:0,0:0:0:0:
264,88,111328,1,2,0:0:0:0:
156,44,111495,1,0,0:0:0:0:
236,176,111662,2,0,P|276:204|368:176,1,129.6,0|2,0:0|0:0,0:0:0:0:
404,112,112162,5,8,0:0:0:0:
448,356,112328,1,2,0:0:0:0:
448,356,112412,1,0,0:0:0:0:
448,356,112495,1,0,0:0:0:0:
448,356,112828,5,6,0:0:0:0:
427,352,112912,1,0,0:0:0:0:
407,349,112995,1,0,0:0:0:0:
387,346,113078,1,0,0:0:0:0:
367,344,113162,1,8,0:0:0:0:
349,352,113245,1,0,0:0:0:0:
331,361,113328,1,2,0:0:0:0:
311,357,113412,1,0,0:0:0:0:
291,353,113495,6,0,L|252:347,6,20.25,8|0|0|0|0|0|0,0:0|0:0|0:0|0:0|0:0|0:0|0:0,0:0:0:0:
291,353,113828,6,0,L|287:263,1,81,6|0,0:0|0:0,0:0:0:0:
284,176,114495,1,0,0:0:0:0:
453,233,114828,6,0,L|367:204,1,81,8|0,0:0|0:0,0:0:0:0:
284,176,115328,1,2,0:0:0:0:
284,176,115495,1,0,0:0:0:0:
418,59,115828,6,0,L|350:118,1,81,2|0,0:0|0:0,0:0:0:0:
284,176,116495,1,0,0:0:0:0:
250,2,116828,6,0,L|267:90,1,81,8|0,0:0|0:0,0:0:0:0:
284,176,117328,1,2,0:0:0:0:
284,176,117495,1,0,0:0:0:0:
192,268,117828,6,0,L|96:264,1,81,2|0,0:0|0:0,0:0:0:0:
60,188,118495,1,0,0:0:0:0:
232,196,118828,6,0,L|187:110,1,81,8|0,0:0|0:0,0:0:0:0:
235,41,119328,1,2,0:0:0:0:
235,41,119495,1,0,0:0:0:0:
324,200,119828,6,0,L|375:118,1,81,2|0,0:0|0:0,0:0:0:0:
459,125,120495,1,0,0:0:0:0:
360,284,120828,6,0,L|456:288,2,81,8|0|0,0:0|0:0|0:0,0:0:0:0:
158,122,121828,5,6,0:0:0:0:
192,248,122162,1,0,0:0:0:0:
67,213,122495,1,0,0:0:0:0:
176,129,122828,5,8,0:0:0:0:
176,259,123162,1,0,0:0:0:0:
64,193,123328,1,2,0:0:0:0:
64,193,123495,1,0,0:0:0:0:
191,141,123828,5,2,0:0:0:0:
158,267,124162,1,0,0:0:0:0:
67,174,124495,1,0,0:0:0:0:
203,156,124828,5,8,0:0:0:0:
138,269,125162,1,0,0:0:0:0:
74,156,125328,1,2,0:0:0:0:
74,156,125495,1,0,0:0:0:0:
207,177,125828,6,0,L|297:192,1,81,2|0,0:0|0:0,0:0:0:0:
392,148,126495,1,0,0:0:0:0:
340,292,126828,6,0,L|250:306,1,81,8|0,0:0|0:0,0:0:0:0:
155,262,127328,1,2,0:0:0:0:
155,262,127495,1,0,0:0:0:0:
280,96,127828,5,8,0:0:0:0:
280,96,127995,1,2,0:0:0:0:
312,273,128162,1,2,0:0:0:0:
312,273,128328,1,2,0:0:0:0:
168,296,128495,1,2,0:0:0:0:
168,296,128662,1,2,0:0:0:0:
208,192,128828,5,8,0:0:0:0:
208,192,128912,1,0,0:0:0:0:
64,215,129078,1,0,0:0:0:0:
64,215,129162,1,0,0:0:0:0:
112,56,129328,5,2,0:0:0:0:
132,57,129412,1,0,0:0:0:0:
152,58,129495,1,8,0:0:0:0:
172,60,129578,1,0,0:0:0:0:
192,68,129662,1,2,0:0:0:0:
212,69,129745,1,0,0:0:0:0:
232,70,129828,6,0,L|307:73,1,64.8,6|0,0:0|0:0,0:0:0:0:
372,48,130162,2,0,L|447:51,1,64.8,0|0,0:0|0:0,0:0:0:0:
508,84,130495,1,0,0:0:0:0:
372,312,130828,6,0,P|328:316|296:308,1,64.8,8|0,0:0|0:0,0:0:0:0:
220,328,131162,2,0,P|186:299|169:271,1,64.8,0|2,0:0|0:0,0:0:0:0:
104,228,131495,1,0,0:0:0:0:
176,24,131828,6,0,L|256:20,1,64.8,2|0,0:0|0:0,0:0:0:0:
272,148,132162,2,0,L|308:76,1,64.8,0|0,0:0|0:0,0:0:0:0:
428,136,132495,2,0,L|384:68,1,64.8,0|0,0:0|0:0,0:0:0:0:
396,220,132828,6,0,L|331:223,1,64.8,8|0,0:0|0:0,0:0:0:0:
329,361,133162,2,0,L|293:306,1,64.8,0|2,0:0|0:0,0:0:0:0:
175,374,133495,2,0,L|204:316,1,64.8,0|0,0:0|0:0,0:0:0:0:
89,245,133828,5,2,0:0:0:0:
25,189,133995,1,0,0:0:0:0:
44,108,134162,1,0,0:0:0:0:
108,164,134328,1,0,0:0:0:0:
89,245,134495,1,0,0:0:0:0:
348,320,134828,6,0,L|344:248,1,64.8,8|0,0:0|0:0,0:0:0:0:
368,172,135162,2,0,L|364:100,1,64.8,0|2,0:0|0:0,0:0:0:0:
388,24,135495,1,0,0:0:0:0:
425,201,135828,6,0,L|360:168,1,64.8,2|0,0:0|0:0,0:0:0:0:
306,109,136162,2,0,L|241:76,1,64.8,0|0,0:0|0:0,0:0:0:0:
188,18,136495,1,0,0:0:0:0:
128,100,136828,5,8,0:0:0:0:
196,180,137162,1,0,0:0:0:0:
136,264,137495,1,0,0:0:0:0:
204,340,137828,5,2,0:0:0:0:
286,325,137995,1,0,0:0:0:0:
360,364,138162,1,0,0:0:0:0:
442,349,138328,1,0,0:0:0:0:
360,364,138495,1,0,0:0:0:0:
444,192,138828,6,0,P|448:148|443:127,1,64.8,8|0,0:0|0:0,0:0:0:0:
352,164,139162,2,0,P|315:138|295:132,1,64.8,0|2,0:0|0:0,0:0:0:0:
272,228,139495,2,0,P|231:246|216:261,1,64.8,0|0,0:0|0:0,0:0:0:0:
132,216,139828,6,0,P|135:172|131:151,1,64.8,2|0,0:0|0:0,0:0:0:0:
217,260,140162,2,0,P|257:241|272:226,1,64.8,0|0,0:0|0:0,0:0:0:0:
220,352,140495,2,0,P|256:377|276:383,1,64.8,0|0,0:0|0:0,0:0:0:0:
132,312,140828,6,0,P|91:330|76:345,1,64.8,8|0,0:0|0:0,0:0:0:0:
128,216,141162,2,0,P|91:190|71:184,1,64.8,0|2,0:0|0:0,0:0:0:0:
204,148,141495,2,0,P|208:103|203:82,1,64.8,0|0,0:0|0:0,0:0:0:0:
308,172,141828,6,0,P|348:153|363:138,1,64.8,2|0,0:0|0:0,0:0:0:0:
240,244,142162,2,0,P|200:263|185:278,1,64.8,0|0,0:0|0:0,0:0:0:0:
328,260,142495,2,0,P|364:285|384:290,1,64.8,0|0,0:0|0:0,0:0:0:0:
216,160,142828,6,0,P|179:134|115:131,1,97.1999970336915,8|0,0:0|0:0,0:0:0:0:
145,220,143328,2,0,P|113:244|98:269,1,64.8,2|0,0:0|0:0,0:0:0:0:
80,348,143662,1,0,0:0:0:0:
392,280,143828,5,2,0:0:0:0:
392,280,143995,1,2,0:0:0:0:
232,232,144162,1,8,0:0:0:0:
232,232,144328,1,2,0:0:0:0:
380,176,144495,1,2,0:0:0:0:
380,176,144662,1,2,0:0:0:0:
246,103,144828,5,8,0:0:0:0:
246,103,144912,2,0,L|241:56,1,32.4,0|2,0:0|0:0,0:0:0:0:
354,41,145078,1,0,0:0:0:0:
354,41,145162,2,0,L|349:88,1,32.4,8|0,0:0|0:0,0:0:0:0:
308,184,145328,5,2,0:0:0:0:
289,182,145412,1,0,0:0:0:0:
270,181,145495,1,2,0:0:0:0:
250,180,145578,1,2,0:0:0:0:
231,179,145662,1,2,0:0:0:0:
211,178,145745,1,2,0:0:0:0:
192,176,145828,6,0,B|170:174|152:160|152:160|124:172|112:200|112:224|112:224|64:200|40:156|52:112,1,243,6|0,0:0|0:0,0:0:0:0:
49,130,147328,1,0,0:0:0:0:
206,282,147828,6,0,B|246:290|295:281|326:262|326:262|333:300|365:317|365:317|346:335|344:372,1,243,0|0,0:0|0:0,0:0:0:0:
345,360,149328,1,0,0:0:0:0:
408,196,149828,6,0,B|413:129|413:129|399:95|399:95|406:23|406:23|427:55|476:64,1,243,0|0,0:0|0:0,0:0:0:0:
459,60,151328,1,0,0:0:0:0:
272,148,151828,6,0,B|235:147|235:147|206:113|206:113|125:111|125:111|181:184,1,243,0|0,0:0|0:0,0:0:0:0:
196,252,153162,5,0,0:0:0:0:
164,324,153495,1,0,0:0:0:0:
92,356,153828,5,4,0:0:0:0:
116,256,154162,1,2,0:0:0:0:
192,328,154495,1,2,0:0:0:0:
82,301,154828,5,2,0:0:0:0:
158,218,155162,1,2,0:0:0:0:
192,328,155495,1,2,0:0:0:0:
103,241,155828,5,2,0:0:0:0:
221,205,156162,1,2,0:0:0:0:
192,328,156495,1,2,0:0:0:0:
156,199,156828,5,2,0:0:0:0:
285,230,157162,1,2,0:0:0:0:
192,328,157495,1,2,0:0:0:0:
229,188,157828,5,2,0:0:0:0:
333,287,158162,1,2,0:0:0:0:
192,328,158495,1,2,0:0:0:0:
301,217,158828,5,2,0:0:0:0:
344,364,159162,1,2,0:0:0:0:
192,328,159495,1,2,0:0:0:0:
392,252,159828,5,2,0:0:0:0:
392,252,159995,1,2,0:0:0:0:
376,120,160162,1,2,0:0:0:0:
392,252,160328,5,2,0:0:0:0:
392,252,160495,1,2,0:0:0:0:
268,204,160662,1,2,0:0:0:0:
288,340,160828,5,8,0:0:0:0:
288,340,160912,1,0,0:0:0:0:
376,120,161078,1,0,0:0:0:0:
376,120,161162,1,8,0:0:0:0:
392,252,161328,5,2,0:0:0:0:
393,268,161412,1,0,0:0:0:0:
395,284,161495,1,2,0:0:0:0:
397,300,161578,1,2,0:0:0:0:
399,316,161662,1,2,0:0:0:0:
401,332,161745,1,2,0:0:0:0:
402,348,161828,6,0,P|440:356|480:348,1,72.8999977752686,6|0,0:0|0:0,0:0:0:0:
336,288,162162,2,0,P|298:280|258:288,1,72.8999977752686,0|0,0:0|0:0,0:0:0:0:
128,354,162495,2,0,P|164:361|200:356,1,72.8999977752686,2|0,0:0|0:0,0:0:0:0:
264,285,162828,6,0,B|270:248|270:248|250:209|250:209|256:160,1,113.399996539307,8|2,0:0|0:0,0:0:0:0:
264,88,163328,1,0,0:0:0:0:
332,144,163495,2,0,P|360:160|408:160,1,72.8999977752686,0|0,0:0|0:0,0:0:0:0:
436,328,163828,6,0,L|460:300,3,36.4499988876343,2|0|0|0,0:0|0:0|0:0|0:0,0:0:0:0:
436,328,164162,2,0,L|356:324,1,72.8999977752686,0|0,0:0|0:0,0:0:0:0:
224,260,164495,2,0,L|296:263,1,72.8999977752686,0|0,0:0|0:0,0:0:0:0:
158,345,164828,6,0,P|126:309|117:276,1,72.8999977752686,8|2,0:0|0:0,0:0:0:0:
0,211,165162,2,0,P|34:202|70:207,1,72.8999977752686,2|0,0:0|0:0,0:0:0:0:
160,203,165495,2,0,P|182:175|192:140,1,72.8999977752686,0|0,0:0|0:0,0:0:0:0:
56,36,165828,6,0,L|9:40,3,36.4499988876343,6|0|0|0,0:0|0:0|0:0|0:0,0:0:0:0:
56,36,166162,2,0,B|72:68|72:68|64:128,1,72.8999977752686,0|0,0:0|0:0,0:0:0:0:
12,240,166495,2,0,B|-4:208|-4:208|4:148,1,72.8999977752686,2|0,0:0|0:0,0:0:0:0:
84,192,166828,6,0,B|136:190|136:190|154:179|154:179|175:189|175:189|234:187,1,145.799995550537,8|2,0:0|0:0,0:0:0:0:
264,328,167328,1,0,0:0:0:0:
344,228,167495,2,0,P|352:184|348:152,1,72.8999977752686,2|0,0:0|0:0,0:0:0:0:
452,336,167828,5,2,0:0:0:0:
440,256,167995,1,2,0:0:0:0:
324,312,168162,5,2,0:0:0:0:
340,232,168328,1,2,0:0:0:0:
212,252,168495,5,2,0:0:0:0:
254,182,168662,1,2,0:0:0:0:
156,328,168828,6,0,L|74:330,1,72.8999977752686,8|2,0:0|0:0,0:0:0:0:
132,208,169162,5,2,0:0:0:0:
20,264,169328,1,0,0:0:0:0:
132,208,169495,5,2,0:0:0:0:
20,264,169662,1,0,0:0:0:0:
132,208,169828,6,0,P|144:149|112:100,1,113.399996539307,6|0,0:0|0:0,0:0:0:0:
260,144,170328,1,0,0:0:0:0:
264,56,170495,1,0,0:0:0:0:
340,104,170662,1,2,0:0:0:0:
260,144,170828,6,0,P|224:148|189:139,1,72.8999977752686,8|2,0:0|0:0,0:0:0:0:
68,176,171162,2,0,P|90:204|99:239,1,72.8999977752686,2|0,0:0|0:0,0:0:0:0:
192,324,171495,2,0,P|205:290|231:265,1,72.8999977752686,2|0,0:0|0:0,0:0:0:0:
80,356,171828,6,0,L|22:358,3,36.4499988876343,2|0|0|0,0:0|0:0|0:0|0:0,0:0:0:0:
80,356,172162,2,0,B|112:288,1,72.8999977752686,2|0,0:0|0:0,0:0:0:0:
312,272,172495,2,0,B|280:340,1,72.8999977752686,2|0,0:0|0:0,0:0:0:0:
181,96,172828,5,8,0:0:0:0:
144,184,172995,1,2,0:0:0:0:
238,172,173162,1,2,0:0:0:0:
112,272,173328,5,0,0:0:0:0:
206,260,173495,1,2,0:0:0:0:
169,348,173662,1,0,0:0:0:0:
352,312,173828,5,6,0:0:0:0:
351,294,173912,1,0,0:0:0:0:
349,276,173995,1,0,0:0:0:0:
347,258,174078,1,0,0:0:0:0:
346,240,174162,6,0,P|384:216|426:217,1,72.8999977752686,2|0,0:0|0:0,0:0:0:0:
408,356,174495,2,0,P|370:380|328:379,1,72.8999977752686,0|2,0:0|0:0,0:0:0:0:
248,364,174828,2,0,P|213:335|201:295,1,72.8999977752686,8|2,0:0|0:0,0:0:0:0:
355,183,175162,6,0,P|366:226|352:266,1,72.8999977752686,2|0,0:0|0:0,0:0:0:0:
313,337,175495,2,0,P|274:361|232:360,1,72.8999977752686,2|0,0:0|0:0,0:0:0:0:
210,154,175828,6,0,P|253:166|280:198,1,72.8999977752686,2|0,0:0|0:0,0:0:0:0:
322,267,176162,2,0,P|323:311|301:347,1,72.8999977752686,2|2,0:0|0:0,0:0:0:0:
113,264,176495,6,0,P|145:232|186:224,1,72.8999977752686,2|2,0:0|0:0,0:0:0:0:
236,292,176828,1,12,0:0:0:0:
272,152,176995,5,2,0:0:0:0:
340,216,177162,1,8,0:0:0:0:
376,76,177328,5,2,0:0:0:0:
448,140,177495,1,2,0:0:0:0:
484,0,177662,5,2,0:0:0:0:
448,140,177828,1,6,0:0:0:0:
136,88,178828,5,8,0:0:0:0:
156,172,179328,1,2,0:0:0:0:
108,244,179828,1,6,0:0:0:0:
456,272,180828,5,8,0:0:0:0:
416,348,181328,1,2,0:0:0:0:
371,286,181828,2,0,B|348:272|317:274|293:286|293:286|250:306|203:285|192:228|225:210|262:219|265:247,1,243,6|8,0:0|0:0,0:0:0:0:
260,235,183328,5,2,0:0:0:0:
93,105,183828,5,2,0:0:0:0:
72,208,183995,1,2,0:0:0:0:
172,175,184162,1,2,0:0:0:0:
183,84,184328,5,2,0:0:0:0:
113,162,184495,1,2,0:0:0:0:
216,184,184662,1,2,0:0:0:0:
271,111,184828,5,8,0:0:0:0:
271,111,184912,1,0,0:0:0:0:
171,143,185078,1,0,0:0:0:0:
171,143,185162,1,8,0:0:0:0:
249,214,185328,5,2,0:0:0:0:
268,217,185412,1,0,0:0:0:0:
289,216,185495,1,2,0:0:0:0:
308,211,185578,1,2,0:0:0:0:
326,202,185662,1,2,0:0:0:0:
342,189,185745,1,2,0:0:0:0:
356,174,185828,5,6,0:0:0:0:
128,68,197494,5,12,0:0:0:0:
152,208,197660,1,2,0:0:0:0:
152,208,197827,1,0,0:0:0:0:
224,104,197994,5,8,0:0:0:0:
248,244,198160,1,2,0:0:0:0:
248,244,198327,1,0,0:0:0:0:
316,136,198494,5,8,0:0:0:0:
340,276,198660,1,2,0:0:0:0:
340,276,198827,1,0,0:0:0:0:
412,172,198994,5,8,0:0:0:0:
436,312,199160,1,2,0:0:0:0:
436,312,199327,1,0,0:0:0:0:
348,372,199494,6,0,P|305:377|260:368,1,81,6|0,0:0|0:0,0:0:0:0:
128,328,199827,1,0,0:0:0:0:
210,217,199994,2,0,B|175:219|175:219|167:212|167:212|103:216|103:216|95:225|95:225|56:228,1,162,8|0,0:0|0:0,0:0:0:0:
16,128,200494,6,0,P|12:88|26:45,1,81,0|2,0:0|0:0,0:0:0:0:
218,138,200827,2,0,P|222:178|208:221,1,81,8|2,0:0|0:0,0:0:0:0:
92,340,201160,5,2,0:0:0:0:
112,339,201244,1,0,0:0:0:0:
132,338,201327,1,0,0:0:0:0:
152,337,201410,1,0,0:0:0:0:
172,336,201494,1,2,0:0:0:0:
392,328,201660,5,8,0:0:0:0:
261,157,201827,2,0,P|227:182|207:229,1,81,2|0,0:0|0:0,0:0:0:0:
104,104,202160,6,0,B|102:53|102:53|117:18,1,81,0|2,0:0|0:0,0:0:0:0:
352,132,202494,2,0,B|354:183|354:183|339:218,1,81,8|2,0:0|0:0,0:0:0:0:
368,328,202827,5,6,0:0:0:0:
394,338,202910,1,0,0:0:0:0:
422,341,202994,1,0,0:0:0:0:
449,335,203077,1,0,0:0:0:0:
474,321,203160,1,8,0:0:0:0:
420,212,203327,1,2,0:0:0:0:
308,167,203494,6,0,L|216:135,1,81,2|0,0:0|0:0,0:0:0:0:
244,270,203827,2,0,L|262:365,1,81,0|2,0:0|0:0,0:0:0:0:
358,264,204160,2,0,L|431:200,1,81,8|2,0:0|0:0,0:0:0:0:
408,184,204410,1,0,0:0:0:0:
398,157,204494,5,2,0:0:0:0:
418,158,204577,1,0,0:0:0:0:
438,160,204660,1,0,0:0:0:0:
458,162,204744,1,0,0:0:0:0:
478,163,204827,1,2,0:0:0:0:
492,296,204994,1,8,0:0:0:0:
308,312,205160,6,0,L|228:316,1,64.8,2|0,0:0|0:0,0:0:0:0:
160,208,205494,2,0,L|95:211,1,64.8,2|0,0:0|0:0,0:0:0:0:
240,116,205827,1,8,0:0:0:0:
240,116,206160,6,0,P|284:116|324:88,1,81,6|0,0:0|0:0,0:0:0:0:
444,20,206493,1,0,0:0:0:0:
408,100,206660,2,0,P|393:175|416:240,1,129.6,2|0,0:0|0:0,0:0:0:0:
271,296,207160,6,0,P|219:280|179:288,1,81,8|0,0:0|0:0,0:0:0:0:
372,348,207493,1,0,0:0:0:0:
244,192,207660,2,0,P|180:190|120:214,1,129.6,2|0,0:0|0:0,0:0:0:0:
80,300,208160,6,0,P|76:344|85:370,1,64.8,6|0,0:0|0:0,0:0:0:0:
120,214,208493,2,0,P|83:188|56:183,1,64.8,0|0,0:0|0:0,0:0:0:0:
172,292,208826,2,0,P|212:273|230:252,1,64.8,0|0,0:0|0:0,0:0:0:0:
296,72,209160,6,0,L|262:7,1,72.8999977752686,8|0,0:0|0:0,0:0:0:0:
384,124,209493,2,0,L|456:127,1,72.8999977752686,0|0,0:0|0:0,0:0:0:0:
292,174,209826,2,0,L|246:244,1,72.8999977752686,0|0,0:0|0:0,0:0:0:0:
292,328,210160,6,0,L|376:332,1,81,6|0,0:0|0:0,0:0:0:0:
471,339,210493,1,8,0:0:0:0:
408,212,210660,2,0,B|328:216|328:216|304:232|304:232|249:235,1,162,2|0,0:0|0:0,0:0:0:0:
160,184,211160,5,0,0:0:0:0:
116,280,211326,1,2,0:0:0:0:
212,328,211493,2,0,L|308:324,1,81,8|2,0:0|0:0,0:0:0:0:
427,275,211826,5,2,0:0:0:0:
287,239,211993,1,2,0:0:0:0:
423,188,212160,5,8,0:0:0:0:
283,152,212326,1,2,0:0:0:0:
196,276,212493,5,0,0:0:0:0:
175,276,212576,1,0,0:0:0:0:
155,277,212660,1,2,0:0:0:0:
135,278,212743,1,0,0:0:0:0:
115,279,212826,5,8,0:0:0:0:
87,251,212910,1,0,0:0:0:0:
88,212,212993,1,2,0:0:0:0:
116,185,213076,1,0,0:0:0:0:
157,188,213160,1,8,0:0:0:0:
195,181,213243,1,0,0:0:0:0:
213,146,213326,1,2,0:0:0:0:
197,111,213410,1,0,0:0:0:0:
159,102,213493,6,0,L|49:106,1,97.1999970336915,6|0,0:0|0:0,0:0:0:0:
62,105,213826,1,8,0:0:0:0:
208,248,213993,2,0,B|271:246|271:246|287:235|287:235|365:231,1,145.799995550537,2|0,0:0|0:0,0:0:0:0:
72,360,214493,6,0,P|57:306|68:258,1,97.1999970336915,0|2,0:0|0:0,0:0:0:0:
272,360,214826,2,0,L|380:364,1,97.1999970336915,8|2,0:0|0:0,0:0:0:0:
488,260,215160,5,2,0:0:0:0:
508,239,215243,1,0,0:0:0:0:
495,212,215326,1,0,0:0:0:0:
466,215,215410,1,0,0:0:0:0:
461,245,215493,2,0,P|412:272|363:268,1,97.1999970336915,8|2,0:0|0:0,0:0:0:0:
280,168,215826,2,0,P|329:141|378:145,1,97.1999970336915,0|0,0:0|0:0,0:0:0:0:
268,272,216160,5,0,0:0:0:0:
268,296,216243,1,0,0:0:0:0:
269,320,216326,1,2,0:0:0:0:
270,344,216410,1,0,0:0:0:0:
271,369,216493,1,8,0:0:0:0:
88,152,216826,6,0,L|92:48,1,97.1999970336915,6|0,0:0|0:0,0:0:0:0:
208,140,217160,1,8,0:0:0:0:
176,228,217326,2,0,B|123:289|123:289|59:231,1,162,2|0,0:0|0:0,0:0:0:0:
232,300,217826,6,0,B|276:296|276:296|320:316,1,81,0|2,0:0|0:0,0:0:0:0:
404,368,218160,2,0,B|437:383|437:383|481:379,1,81,8|2,0:0|0:0,0:0:0:0:
491,354,218410,1,0,0:0:0:0:
500,328,218493,5,2,0:0:0:0:
498,307,218576,1,0,0:0:0:0:
496,287,218660,1,0,0:0:0:0:
494,267,218743,1,0,0:0:0:0:
492,247,218826,1,8,0:0:0:0:
404,204,218993,5,2,0:0:0:0:
376,296,219160,1,0,0:0:0:0:
284,260,219326,6,0,L|282:228,2,20.25,0|0|0,0:0|0:0|0:0,0:0:0:0:
273,299,219493,1,0,0:0:0:0:
238,319,219576,1,0,0:0:0:0:
198,317,219660,1,2,0:0:0:0:
165,294,219743,1,0,0:0:0:0:
150,257,219826,6,0,L|152:222,6,20.25,8|0|0|0|2|0|0,0:0|0:0|0:0|0:0|0:0|0:0|0:0,0:0:0:0:
150,257,220160,6,0,B|117:273|117:273|57:269,1,81,6|0,0:0|0:0,0:0:0:0:
80,84,220493,1,8,0:0:0:0:
136,164,220660,1,2,0:0:0:0:
264,36,220826,6,0,L|260:124,1,81,0|0,0:0|0:0,0:0:0:0:
400,192,221160,2,0,L|403:111,1,81,0|2,0:0|0:0,0:0:0:0:
220,256,221493,5,8,0:0:0:0:
288,176,221660,1,2,0:0:0:0:
326,273,221826,5,2,0:0:0:0:
333,291,221910,1,0,0:0:0:0:
341,310,221993,1,0,0:0:0:0:
348,329,222076,1,0,0:0:0:0:
356,348,222160,1,8,0:0:0:0:
424,268,222326,1,2,0:0:0:0:
372,176,222493,6,0,P|368:136|388:92,1,81,0|0,0:0|0:0,0:0:0:0:
264,224,222826,2,0,P|232:198|215:153,1,81,0|2,0:0|0:0,0:0:0:0:
232,336,223160,2,0,P|192:340|148:320,1,81,8|2,0:0|0:0,0:0:0:0:
48,172,223493,6,0,P|88:168|132:188,1,81,6|0,0:0|0:0,0:0:0:0:
208,252,223826,1,8,0:0:0:0:
328,156,223993,1,2,0:0:0:0:
312,260,224160,6,0,L|300:356,1,81,0|0,0:0|0:0,0:0:0:0:
172,152,224493,2,0,L|184:248,1,81,0|2,0:0|0:0,0:0:0:0:
338,75,224826,2,0,L|326:171,1,81,8|2,0:0|0:0,0:0:0:0:
200,328,225159,6,0,P|160:328|88:258,1,129.6,6|0,0:0|0:0,0:0:0:0:
112,192,225659,2,0,B|156:144|156:144|96:104,1,129.6,2|0,0:0|0:0,0:0:0:0:
144,28,226159,6,0,L|264:24,1,113.399996539307,2|0,0:0|0:0,0:0:0:0:
344,48,226659,6,0,P|372:66|334:64,1,101.25,2|0,0:0|0:0,0:0:0:0:
448,112,227159,6,0,P|379:164|280:138,1,194.399994067383,6|2,0:0|0:0,0:0:0:0:
208,60,227659,1,8,0:0:0:0:
104,148,227825,5,2,0:0:0:0:
88,112,227992,1,0,0:0:0:0:
256,192,228159,5,2,0:0:0:0:
240,156,228325,1,2,0:0:0:0:
408,232,228492,5,8,0:0:0:0:
392,196,228659,1,2,0:0:0:0:
368,333,228825,5,2,0:0:0:0:
349,348,228909,1,0,0:0:0:0:
329,361,228992,1,0,0:0:0:0:
306,352,229075,1,0,0:0:0:0:
284,344,229159,6,0,B|276:280|276:280|292:248,1,97.1999970336915,2|8,0:0|0:0,0:0:0:0:
472,160,229492,2,0,B|480:224|480:224|464:256,1,97.1999970336915,2|0,0:0|0:0,0:0:0:0:
328,152,229825,6,0,P|267:147|224:169,1,97.1999970336915,2|2,0:0|0:0,0:0:0:0:
376,364,230159,2,0,P|436:368|479:346,1,97.1999970336915,8|2,0:0|0:0,0:0:0:0:
240,292,230492,5,4,0:0:0:0:
232,304,230575,1,0,0:0:0:0:
241,316,230659,1,0,0:0:0:0:
233,328,230742,1,0,0:0:0:0:
242,340,230825,1,2,0:0:0:0:
340,256,230992,1,8,0:0:0:0:
140,272,231159,6,0,L|42:268,1,97.1999970336915,2|0,0:0|0:0,0:0:0:0:
192,168,231492,2,0,L|125:96,1,97.1999970336915,2|2,0:0|0:0,0:0:0:0:
300,108,231825,2,0,L|303:10,1,97.1999970336915,8|2,0:0|0:0,0:0:0:0:
303,10,232075,1,0,0:0:0:0:
303,10,232159,1,2,0:0:0:0:
452,120,232325,5,0,0:0:0:0:
452,120,232409,1,0,0:0:0:0:
452,120,232492,1,2,0:0:0:0:
296,216,232659,5,8,0:0:0:0:
132,116,232825,2,0,P|76:104|32:120,1,97.1999970336915,2|2,0:0|0:0,0:0:0:0:
23,112,233159,6,0,P|99:93|152:118,1,129.6,2|8,0:0|0:0,0:0:0:0:
144,111,233825,6,0,P|148:62|175:24,1,81,6|0,0:0|0:0,0:0:0:0:
232,228,234158,1,0,0:0:0:0:
296,152,234325,2,0,P|357:135|416:158,1,129.6,0|0,0:0|0:0,0:0:0:0:
512,148,234825,6,0,P|503:202|477:233,1,81,8|0,0:0|0:0,0:0:0:0:
319,315,235158,1,0,0:0:0:0:
355,224,235325,2,0,P|404:266|414:329,1,129.6,0|0,0:0|0:0,0:0:0:0:
156,336,235825,6,0,L|151:257,1,64.8,2|0,0:0|0:0,0:0:0:0:
180,192,236158,2,0,L|175:113,1,64.8,0|0,0:0|0:0,0:0:0:0:
204,48,236491,1,0,0:0:0:0:
360,88,236658,5,0,0:0:0:0:
180,192,236825,2,0,P|196:160|225:137,1,72.8999977752686,8|0,0:0|0:0,0:0:0:0:
290,76,237158,2,0,P|325:73|360:87,1,72.8999977752686,0|0,0:0|0:0,0:0:0:0:
440,116,237491,2,0,P|459:145|465:182,1,72.8999977752686,0|0,0:0|0:0,0:0:0:0:
431,269,237825,6,0,P|423:313|435:349,1,81,6|0,0:0|0:0,0:0:0:0:
512,304,238158,1,8,0:0:0:0:
464,188,238325,2,0,B|414:170|414:170|363:187|363:187|300:169,1,162,2|0,0:0|0:0,0:0:0:0:
72,244,238825,5,0,0:0:0:0:
216,234,238991,1,2,0:0:0:0:
106,327,239158,1,8,0:0:0:0:
194,320,239325,1,2,0:0:0:0:
140,187,239491,5,2,0:0:0:0:
131,98,239658,2,0,L|122:4,1,81,0|8,0:0|0:0,0:0:0:0:
272,32,239991,2,0,B|266:91|266:91|273:104|273:104|267:172,1,129.6,2|2,0:0|0:0,0:0:0:0:
372,260,240491,5,8,0:0:0:0:
387,254,240575,1,0,0:0:0:0:
401,246,240658,1,0,0:0:0:0:
413,235,240741,1,0,0:0:0:0:
422,222,240825,1,8,0:0:0:0:
424,260,240908,1,0,0:0:0:0:
426,299,240991,1,2,0:0:0:0:
429,338,241075,1,0,0:0:0:0:
431,377,241158,5,6,0:0:0:0:
