osu file format v14

[General]
AudioFilename: audio.mp3
AudioLeadIn: 0
PreviewTime: 61081
Countdown: 0
SampleSet: Soft
StackLeniency: 0.7
Mode: 0
LetterboxInBreaks: 1
WidescreenStoryboard: 1

[Editor]
Bookmarks: 165,12164,24164,36164,38164,54164,62164,89829,95829,101828,113828,129828,145828,153828,161828,177828,183828,185828,197494,199494,213493,241158,253158
DistanceSpacing: 1
BeatDivisor: 2
GridSize: 4
TimelineZoom: 1.9

[Metadata]
Title:GHOST OF LORELEY
TitleUnicode:GHOST OF LORELEY
Artist:lasah
ArtistUnicode:らさ
Creator:moph
Version:Normal
Source:
Tags:sasakure.uk I love you wa_ Ambient Fizz
BeatmapID:1058616
BeatmapSetID:486177

[Difficulty]
HPDrainRate:5
CircleSize:3.5
OverallDifficulty:5
ApproachRate:5.5
SliderMultiplier:0.899999999999999
SliderTickRate:1

[Events]
//Background and Video events
0,0,"bg.jpg",0,0
//Break Periods
2,90029,94704
2,146828,152703
2,186028,196369
//Storyboard Layer 0 (Background)
//Storyboard Layer 1 (Fail)
//Storyboard Layer 2 (Pass)
//Storyboard Layer 3 (Foreground)
//Storyboard Sound Samples

[TimingPoints]
165,333.333333333333,3,2,1,60,1,0
24164,-100,3,2,1,40,0,0
36164,-100,3,2,1,60,0,0
54164,-100,3,2,1,40,0,0
62164,333.333333333333,5,2,1,70,1,1
73830,333.333333333333,3,2,1,70,1,0
75830,333.333333333333,5,2,1,70,1,1
82496,333.333333333333,3,2,1,70,1,0
86496,333.333333333333,5,2,1,70,1,1
89829,333.333333333333,3,2,1,60,1,0
113828,-100,3,2,1,50,0,0
127828,-100,3,2,1,60,0,0
129828,-100,3,2,1,50,0,0
143828,-100,3,2,1,60,0,0
153828,-100,3,2,1,50,0,0
159828,-100,3,2,1,60,0,0
177828,-100,3,2,1,40,0,0
185828,333.333333333333,5,2,1,60,1,0
197494,333.333333333333,3,2,1,70,1,1
199494,333.333333333333,5,2,1,70,1,1
206160,333.333333333333,3,2,1,70,1,0
213493,333.333333333333,5,2,1,70,1,1
225159,333.333333333333,3,2,1,70,1,0
227159,333.333333333333,5,2,1,70,1,1
233825,333.333333333333,3,2,1,70,1,0
237825,333.333333333333,5,2,1,70,1,1
241158,333.333333333333,3,2,1,60,1,0

[Colours]
Combo1 : 179,125,189
Combo2 : 139,134,191
Combo3 : 196,111,157
Combo4 : 135,159,205

[HitObjects]
72,280,12164,6,0,P|108:264|172:280,1,89.9999999999999,6|0,0:0|0:0,0:0:0:0:
192,300,12664,2,0,L|296:300,1,89.9999999999999,2|2,0:0|0:0,0:0:0:0:
408,252,13498,6,0,P|420:300|404:352,2,89.9999999999999,2|2|2,0:0|0:0|0:0,0:0:0:0:
324,224,14498,1,2,0:0:0:0:
392,164,14831,1,0,0:0:0:0:
308,136,15164,6,0,P|296:88|312:36,1,89.9999999999999,6|0,0:0|0:0,0:0:0:0:
324,8,15664,2,0,L|228:8,1,89.9999999999999,2|2,0:0|0:0,0:0:0:0:
211,95,16331,2,0,B|150:94|150:94|140:101|140:101|58:99,1,135,2|2,0:0|0:0,0:0:0:0:
14,162,17164,6,0,P|4:217|18:257,1,89.9999999999999,2|0,0:0|0:0,0:0:0:0:
36,288,17664,2,0,L|136:288,1,89.9999999999999,2|0,0:0|0:0,0:0:0:0:
160,316,18164,5,6,0:0:0:0:
216,246,18498,1,0,0:0:0:0:
260,244,18664,2,0,L|356:244,1,89.9999999999999,2|2,0:0|0:0,0:0:0:0:
395,244,19164,1,0,0:0:0:0:
476,282,19498,6,0,P|485:239|463:178,1,89.9999999999999,2|2,0:0|0:0,0:0:0:0:
395,151,20164,2,0,L|421:56,2,89.9999999999999,2|2|0,0:0|0:0|0:0,0:0:0:0:
315,109,21164,6,0,P|269:99|221:113,1,89.9999999999999,6|0,0:0|0:0,0:0:0:0:
189,132,21664,1,2,0:0:0:0:
133,61,21998,1,2,0:0:0:0:
66,121,22331,2,0,B|56:182|56:182|62:190|62:190|51:262,1,135,2|2,0:0|0:0,0:0:0:0:
88,335,23164,6,0,B|132:324|132:324|180:338,1,89.9999999999999,6|10,0:0|0:0,0:0:0:0:
216,352,23664,2,0,L|304:338,1,89.9999999999999,2|2,0:0|0:0,0:0:0:0:
350,337,24164,6,0,P|444:309|341:254,1,270,6|8,0:0|0:0,0:0:0:0:
324,112,25664,2,0,P|396:96|468:116,1,135,2|2,0:0|0:0,0:0:0:0:
188,80,27164,2,0,L|96:56,2,89.9999999999999,10|0|0,0:0|0:0|0:0,0:0:0:0:
152,164,28164,6,0,B|72:144|72:144|28:176|16:228|52:268|84:280|124:268,1,270,6|8,0:0|0:0,0:0:0:0:
220,348,29664,2,0,B|288:324|288:324|356:352,1,135,2|2,0:0|0:0,0:0:0:0:
508,132,31164,2,0,L|472:284,1,135,8|2,0:0|0:0,0:0:0:0:
361,196,32164,6,0,B|401:20|401:20|317:62,1,270,6|8,0:0|0:0,0:0:0:0:
228,160,33664,2,0,P|184:88|188:32,1,135,2|2,0:0|0:0,0:0:0:0:
32,260,35164,2,0,L|32:164,2,89.9999999999999,10|0|0,0:0|0:0|0:0,0:0:0:0:
80,336,36164,5,2,0:0:0:0:
140,268,36498,1,2,0:0:0:0:
228,268,36831,1,2,0:0:0:0:
292,330,37164,2,0,P|340:342|396:326,1,89.9999999999999,2|8,0:0|0:0,0:0:0:0:
428,329,37664,1,2,0:0:0:0:
428,329,37831,1,0,0:0:0:0:
415,239,38164,6,0,P|399:195|415:143,1,89.9999999999999,6|2,0:0|0:0,0:0:0:0:
424,112,38664,2,0,L|452:68,1,45,0|2,0:0|0:0,0:0:0:0:
376,20,39164,2,0,L|324:112,1,89.9999999999999,8|0,0:0|0:0,0:0:0:0:
276,172,39831,1,2,0:0:0:0:
244,88,40164,6,0,P|196:80|148:96,1,89.9999999999999,2|0,0:0|0:0,0:0:0:0:
116,108,40664,2,0,L|56:108,1,45,0|2,0:0|0:0,0:0:0:0:
32,188,41164,2,0,P|20:248|36:288,1,89.9999999999999,8|0,0:0|0:0,0:0:0:0:
112,236,41831,1,2,0:0:0:0:
188,188,42164,6,0,P|200:248|184:288,1,89.9999999999999,6|0,0:0|0:0,0:0:0:0:
168,312,42664,2,0,L|224:328,1,45,0|2,0:0|0:0,0:0:0:0:
300,344,43164,2,0,B|352:332|352:332|400:348,1,89.9999999999999,8|0,0:0|0:0,0:0:0:0:
476,360,43831,1,2,0:0:0:0:
448,276,44164,6,0,L|460:180,1,89.9999999999999,2|2,0:0|0:0,0:0:0:0:
464,140,44664,2,0,B|416:144|416:144|364:124,1,89.9999999999999,2|2,0:0|0:0,0:0:0:0:
336,116,45164,2,0,L|348:24,2,89.9999999999999,8|0|2,0:0|0:0|0:0,0:0:0:0:
248,140,46164,6,0,L|234:228,1,89.9999999999999,6|2,0:0|0:0,0:0:0:0:
284,300,46831,1,2,0:0:0:0:
200,336,47164,2,0,B|156:320|156:320|100:344,1,89.9999999999999,8|2,0:0|0:0,0:0:0:0:
76,360,47664,1,0,0:0:0:0:
76,360,47831,1,2,0:0:0:0:
20,288,48164,6,0,L|24:188,1,89.9999999999999,2|2,0:0|0:0,0:0:0:0:
72,124,48831,1,2,0:0:0:0:
152,80,49164,2,0,P|164:124|152:168,2,89.9999999999999,8|2|2,0:0|0:0|0:0,0:0:0:0:
232,38,50164,6,0,L|340:18,1,89.9999999999999,6|2,0:0|0:0,0:0:0:0:
377,91,50831,1,2,0:0:0:0:
454,136,51164,2,0,P|466:88|450:36,2,89.9999999999999,10|2|2,0:0|2:0|2:0,0:0:0:0:
376,180,52164,5,2,0:0:0:0:
332,260,52498,1,2,0:0:0:0:
420,260,52831,1,2,0:0:0:0:
376,340,53164,2,0,P|336:348|280:336,1,89.9999999999999,8|2,0:0|0:0,0:0:0:0:
216,288,53831,1,2,0:0:0:0:
152,352,54164,6,0,B|56:376|56:376|-16:288|56:216,1,270,6|8,0:0|0:0,0:0:0:0:
184,216,55664,1,2,0:0:0:0:
152,84,56164,6,0,B|124:40|124:40|294:68|294:68|256:108,1,270,6|8,0:0|0:0,0:0:0:0:
184,216,57664,1,2,0:0:0:0:
263,323,58164,6,0,B|303:347|347:339|379:299|371:263|351:235|351:235|387:231|412:198|406:163,1,270,6|8,0:0|0:0,0:0:0:0:
333,61,59664,1,2,0:0:0:0:
256,192,60164,12,0,61164,0:0:0:0:
116,268,62164,6,0,L|215:288,1,89.9999999999999,6|10,0:0|0:0,0:0:0:0:
227,323,62664,1,2,0:0:0:0:
314,297,62997,1,0,0:0:0:0:
338,335,63164,2,0,L|438:352,1,89.9999999999999,2|8,0:0|0:0,0:0:0:0:
472,272,63830,6,0,P|484:228|468:176,1,89.9999999999999,2|8,0:0|0:0,0:0:0:0:
444,152,64330,1,2,0:0:0:0:
464,64,64664,1,0,0:0:0:0:
428,36,64830,2,0,L|328:36,1,89.9999999999999,2|10,0:0|0:0,0:0:0:0:
296,52,65330,1,2,0:0:0:0:
296,52,65497,6,0,P|248:64|204:52,1,89.9999999999999,2|8,0:0|0:0,0:0:0:0:
172,28,65997,1,2,0:0:0:0:
108,88,66330,2,0,L|60:88,2,45,0|2|0,0:0|0:0|0:0,0:0:0:0:
144,116,66830,1,10,0:0:0:0:
172,200,67164,6,0,P|184:248|168:296,1,89.9999999999999,2|8,0:0|0:0,0:0:0:0:
152,324,67664,1,2,0:0:0:0:
236,352,67997,1,0,0:0:0:0:
280,356,68164,2,0,L|380:368,1,89.9999999999999,10|10,0:0|0:0,0:0:0:0:
416,368,68664,1,0,0:0:0:0:
416,368,68830,6,0,B|404:320|404:320|420:268,1,89.9999999999999,2|8,0:0|0:0,0:0:0:0:
436,240,69330,1,2,0:0:0:0:
424,152,69663,1,0,0:0:0:0:
428,108,69830,2,0,L|440:12,1,89.9999999999999,2|10,0:0|0:0,0:0:0:0:
348,24,70497,6,0,L|336:120,1,89.9999999999999,2|8,0:0|0:0,0:0:0:0:
308,148,70997,1,2,0:0:0:0:
328,236,71330,1,0,0:0:0:0:
300,264,71497,2,0,L|244:264,1,45,2|0,0:0|0:0,0:0:0:0:
215,243,71830,1,8,0:0:0:0:
156,312,72163,6,0,P|104:324|56:308,1,89.9999999999999,2|8,0:0|0:0,0:0:0:0:
36,288,72663,1,2,0:0:0:0:
108,232,72997,1,0,0:0:0:0:
108,188,73163,2,0,L|108:128,2,45,2|0|10,0:0|0:0|0:0,0:0:0:0:
200,188,73830,6,0,P|252:200|300:188,1,89.9999999999999,2|2,0:0|0:0,0:0:0:0:
324,168,74330,2,0,L|316:64,1,89.9999999999999,2|2,0:0|0:0,0:0:0:0:
352,52,74830,2,0,P|404:40|452:52,1,89.9999999999999,2|2,0:0|0:0,0:0:0:0:
468,80,75330,2,0,L|461:169,1,89.9999999999999,2|2,0:0|0:0,0:0:0:0:
452,216,75830,5,6,0:0:0:0:
487,302,76163,1,8,0:0:0:0:
437,306,76330,2,0,P|415:301|391:284,1,45,2|0,0:0|0:0,0:0:0:0:
299,312,76830,2,0,L|211:355,1,89.9999999999999,2|10,0:0|0:0,0:0:0:0:
177,354,77330,1,0,0:0:0:0:
177,354,77496,6,0,L|96:314,1,89.9999999999999,2|0,0:0|0:0,0:0:0:0:
55,295,77996,1,10,0:0:0:0:
111,225,78330,1,0,0:0:0:0:
111,225,78496,2,0,L|99:125,1,89.9999999999999,2|10,0:0|2:0,0:0:0:0:
184,104,79163,6,0,L|195:194,1,89.9999999999999,2|0,0:0|0:0,0:0:0:0:
208,236,79663,1,10,0:0:0:0:
208,236,79830,1,0,0:0:0:0:
265,304,80163,2,0,L|341:296,1,45,2|0,0:0|0:0,0:0:0:0:
354,293,80496,2,0,L|430:285,1,45,10|0,0:0|0:0,0:0:0:0:
443,284,80830,6,0,B|455:332|455:332|439:384,2,89.9999999999999,2|0|0,0:0|0:0|0:0,0:0:0:0:
438,193,81830,2,0,L|444:136,1,45,2|0,0:0|0:0,0:0:0:0:
446,104,82163,1,8,0:0:0:0:
356,100,82496,6,0,L|216:84,1,135,6|2,0:0|0:0,0:0:0:0:
156,20,83329,1,0,0:0:0:0:
156,20,83496,2,0,P|132:84|160:156,1,135,8|2,0:0|0:0,0:0:0:0:
196,224,84329,1,0,0:0:0:0:
196,224,84496,6,0,P|152:236|100:220,1,89.9999999999999,6|0,0:0|0:0,0:0:0:0:
40,172,85162,1,2,0:0:0:0:
36,264,85496,2,0,L|20:364,2,89.9999999999999,8|0|2,0:0|0:0|0:0,0:0:0:0:
40,172,86496,6,0,L|56:72,1,89.9999999999999,6|8,0:0|0:0,0:0:0:0:
64,40,86996,1,0,0:0:0:0:
148,72,87329,1,0,0:0:0:0:
232,40,87662,2,0,L|280:40,1,45,0|8,0:0|0:0,0:0:0:0:
324,40,87996,1,0,0:0:0:0:
324,40,88162,6,0,L|320:144,1,89.9999999999999,2|8,0:0|0:0,0:0:0:0:
320,176,88662,1,2,0:0:0:0:
248,232,88996,1,0,0:0:0:0:
280,264,89162,2,0,L|324:264,1,45,2|2,0:0|0:0,0:0:0:0:
372,264,89496,2,0,L|416:264,1,45,8|2,0:0|0:0,0:0:0:0:
452,292,89829,1,6,0:0:0:0:
312,312,95829,6,0,L|208:304,1,89.9999999999999,6|0,0:0|0:0,0:0:0:0:
176,304,96329,1,2,0:0:0:0:
112,368,96662,1,2,0:0:0:0:
48,304,96995,1,0,0:0:0:0:
63,261,97162,6,0,L|79:157,1,89.9999999999999,2|2,0:0|0:0,0:0:0:0:
95,84,97828,2,0,P|46:88|6:118,2,89.9999999999999,2|2|0,0:0|0:0|0:0,0:0:0:0:
162,145,98828,6,0,L|230:61,1,89.9999999999999,2|0,0:0|0:0,0:0:0:0:
246,39,99328,1,2,0:0:0:0:
311,100,99662,1,2,0:0:0:0:
380,44,99995,5,2,0:0:0:0:
407,78,100162,2,0,L|463:147,1,89.9999999999999,2|2,0:0|0:0,0:0:0:0:
404,216,100828,2,0,P|392:260|408:320,1,89.9999999999999,2|10,0:0|0:0,0:0:0:0:
420,344,101328,2,0,L|320:344,1,89.9999999999999,2|2,0:0|0:0,0:0:0:0:
284,348,101828,5,6,0:0:0:0:
224,280,102162,1,8,0:0:0:0:
184,300,102328,2,0,P|140:308|92:296,1,89.9999999999999,2|0,0:0|0:0,0:0:0:0:
56,277,102828,2,0,L|56:369,2,89.9999999999999,2|8|2,0:0|0:0|0:0,0:0:0:0:
127,221,103828,2,0,P|139:173|123:125,1,89.9999999999999,8|2,0:0|0:0,0:0:0:0:
64,72,104495,1,10,0:0:0:0:
148,36,104828,6,0,L|244:60,1,89.9999999999999,6|8,0:0|0:0,0:0:0:0:
264,92,105328,2,0,P|320:104|364:84,1,89.9999999999999,2|0,0:0|0:0,0:0:0:0:
380,60,105828,1,0,0:0:0:0:
448,120,106162,2,0,L|432:224,1,89.9999999999999,8|2,0:0|0:0,0:0:0:0:
428,252,106662,1,0,0:0:0:0:
428,252,106828,2,0,L|412:356,1,89.9999999999999,2|8,0:0|0:0,0:0:0:0:
324,352,107495,2,0,L|336:292,1,45,8|0,0:0|0:0,0:0:0:0:
304,276,107828,6,0,L|204:280,1,89.9999999999999,6|8,0:0|0:0,0:0:0:0:
168,284,108328,1,2,0:0:0:0:
88,328,108662,1,0,0:0:0:0:
88,328,108828,2,0,P|76:288|88:240,1,89.9999999999999,2|8,0:0|0:0,0:0:0:0:
160,188,109495,1,0,0:0:0:0:
92,128,109828,2,0,L|-8:128,2,89.9999999999999,2|8|8,0:0|0:0|0:0,0:0:0:0:
176,96,110828,6,0,P|216:84|268:100,1,89.9999999999999,6|8,0:0|0:0,0:0:0:0:
296,128,111328,1,2,0:0:0:0:
344,52,111662,1,0,0:0:0:0:
432,80,111995,1,0,0:0:0:0:
432,80,112162,2,0,L|432:184,1,89.9999999999999,8|0,0:0|0:0,0:0:0:0:
392,248,112828,2,0,P|448:260|480:248,2,89.9999999999999,6|8|8,0:0|0:0|0:0,0:0:0:0:
312,292,113828,6,0,P|230:259|140:299,1,180,6|0,0:0|0:0,0:0:0:0:
117,375,114828,2,0,L|121:183,1,180,8|0,0:0|0:0,0:0:0:0:
113,105,115828,6,0,P|70:94|17:106,2,89.9999999999999,2|0|0,0:0|0:0|0:0,0:0:0:0:
189,57,116828,2,0,P|156:27|106:8,2,89.9999999999999,8|0|0,0:0|0:0|0:0,0:0:0:0:
252,125,117828,6,0,L|435:115,1,180,2|0,0:0|0:0,0:0:0:0:
388,35,118828,2,0,P|344:103|393:200,1,180,8|0,0:0|0:0,0:0:0:0:
444,249,119828,6,0,P|363:282|267:326,1,180,2|0,0:0|0:0,0:0:0:0:
189,306,120828,2,0,L|103:340,2,89.9999999999999,8|0|0,0:0|0:0|0:0,0:0:0:0:
131,236,121828,6,0,P|96:164|142:68,1,180,6|0,0:0|0:0,0:0:0:0:
208,32,122828,2,0,B|292:64|292:64|392:28,1,180,8|0,0:0|0:0,0:0:0:0:
416,116,123828,6,0,L|508:84,2,89.9999999999999,2|0|0,0:0|0:0|0:0,0:0:0:0:
420,208,124828,2,0,L|512:240,2,89.9999999999999,8|0|0,0:0|0:0|0:0,0:0:0:0:
328,208,125828,6,0,P|288:236|268:276,1,89.9999999999999,2|0,0:0|0:0,0:0:0:0:
240,356,126495,1,0,0:0:0:0:
180,288,126828,2,0,B|96:320|96:320|4:288,1,180,8|2,0:0|0:0,0:0:0:0:
56,212,127828,6,0,P|68:168|52:112,1,89.9999999999999,10|2,0:0|0:0,0:0:0:0:
8,52,128495,1,2,0:0:0:0:
96,44,128828,2,0,L|196:44,1,89.9999999999999,8|2,0:0|0:0,0:0:0:0:
220,72,129328,1,2,0:0:0:0:
220,72,129495,2,0,L|276:72,1,45,8|2,0:0|0:0,0:0:0:0:
304,48,129828,6,0,L|404:48,1,89.9999999999999,6|0,0:0|0:0,0:0:0:0:
452,120,130495,1,0,0:0:0:0:
372,160,130828,2,0,P|340:240|372:328,1,180,8|0,0:0|0:0,0:0:0:0:
284,360,131828,6,0,L|188:376,1,89.9999999999999,2|0,0:0|0:0,0:0:0:0:
108,360,132495,1,0,0:0:0:0:
100,272,132828,2,0,L|4:288,2,89.9999999999999,8|0|0,0:0|0:0|0:0,0:0:0:0:
179,314,133828,6,0,P|191:266|163:210,1,89.9999999999999,2|0,0:0|0:0,0:0:0:0:
148,143,134495,1,0,0:0:0:0:
192,64,134828,2,0,P|264:48|356:116,1,180,8|0,0:0|0:0,0:0:0:0:
440,100,135828,6,0,B|416:188|416:188|440:296,1,180,2|0,0:0|0:0,0:0:0:0:
456,364,136828,1,8,0:0:0:0:
368,336,137162,2,0,L|276:352,1,89.9999999999999,0|0,0:0|0:0,0:0:0:0:
223,280,137828,6,0,L|116:296,1,89.9999999999999,2|0,0:0|0:0,0:0:0:0:
74,361,138495,1,0,0:0:0:0:
51,274,138828,2,0,B|31:139|31:139|79:166,1,180,8|0,0:0|0:0,0:0:0:0:
152,125,139828,6,0,P|158:169|142:210,2,89.9999999999999,2|0|0,0:0|0:0|0:0,0:0:0:0:
118,41,140828,2,0,B|163:25|229:46|185:64|246:82|300:53,1,180,8|0,0:0|0:0,0:0:0:0:
326,140,141828,6,0,P|369:152|426:133,1,89.9999999999999,2|0,0:0|0:0,0:0:0:0:
452,61,142495,1,0,0:0:0:0:
501,136,142828,2,0,B|496:319,1,180,8|2,0:0|0:0,0:0:0:0:
411,284,143828,5,2,0:0:0:0:
355,352,144162,1,10,0:0:0:0:
267,340,144495,1,2,0:0:0:0:
215,264,144828,2,0,P|167:276|115:260,1,89.9999999999999,8|8,0:0|0:0,0:0:0:0:
83,260,145328,1,0,0:0:0:0:
83,260,145495,2,0,L|79:203,1,45,2|2,0:0|0:0,0:0:0:0:
75,172,145828,5,6,0:0:0:0:
328,72,153828,6,0,B|380:84|380:84|448:64,2,89.9999999999999,6|2|2,0:0|0:0|0:0,0:0:0:0:
264,136,154828,2,0,P|252:188|276:240,1,89.9999999999999,2|0,0:0|0:0,0:0:0:0:
328,284,155495,1,2,0:0:0:0:
240,308,155828,6,0,B|160:348|160:348|76:312,1,180,2|2,0:0|0:0,0:0:0:0:
132,244,156828,2,0,P|144:200|120:136,1,89.9999999999999,2|0,0:0|0:0,0:0:0:0:
100,76,157495,2,0,L|160:76,1,45,2|0,0:0|0:0,0:0:0:0:
180,48,157828,6,0,P|228:36|276:52,1,89.9999999999999,2|0,0:0|0:0,0:0:0:0:
300,76,158328,2,0,L|364:76,1,45,2|0,0:0|0:0,0:0:0:0:
432,56,158828,2,0,B|424:104|424:104|436:156,1,89.9999999999999,2|2,0:0|0:0,0:0:0:0:
452,232,159495,1,2,0:0:0:0:
368,200,159828,5,2,0:0:0:0:
380,288,160162,1,2,0:0:0:0:
296,260,160495,1,2,0:0:0:0:
304,348,160828,2,0,L|208:348,1,89.9999999999999,8|10,0:0|0:0,0:0:0:0:
172,364,161328,1,0,0:0:0:0:
172,364,161495,2,0,L|92:364,1,45,2|2,0:0|0:0,0:0:0:0:
92,336,161828,6,0,P|84:284|100:232,1,89.9999999999999,6|2,0:0|0:0,0:0:0:0:
148,176,162495,1,2,0:0:0:0:
100,100,162828,2,0,L|32:100,2,45,8|0|2,0:0|0:0|0:0,0:0:0:0:
180,56,163495,1,2,0:0:0:0:
260,100,163828,6,0,L|376:100,1,89.9999999999999,2|2,0:0|0:0,0:0:0:0:
436,76,164495,2,0,P|440:108|420:152,1,45,2|0,0:0|0:0,0:0:0:0:
420,160,164828,2,0,L|436:276,1,89.9999999999999,8|2,0:0|0:0,0:0:0:0:
456,336,165495,2,0,P|412:340|384:328,1,45,2|0,0:0|0:0,0:0:0:0:
368,324,165828,6,0,L|280:344,1,89.9999999999999,6|2,0:0|0:0,0:0:0:0:
236,356,166328,1,0,0:0:0:0:
236,356,166495,1,2,0:0:0:0:
148,364,166828,2,0,L|92:364,2,45,8|0|2,0:0|0:0|0:0,0:0:0:0:
176,280,167495,1,2,0:0:0:0:
88,276,167828,6,0,P|77:233|89:190,1,89.9999999999999,2|2,0:0|0:0,0:0:0:0:
124,160,168328,2,0,P|136:117|124:74,1,89.9999999999999,2|2,0:0|0:0,0:0:0:0:
96,40,168828,2,0,L|52:40,2,45,8|0|2,0:0|0:0|0:0,0:0:0:0:
184,16,169495,1,2,0:0:0:0:
252,72,169828,6,0,P|304:80|372:56,1,89.9999999999999,6|2,0:0|0:0,0:0:0:0:
376,48,170328,1,0,0:0:0:0:
376,48,170495,1,2,0:0:0:0:
431,116,170828,2,0,B|443:168|443:168|427:220,1,89.9999999999999,10|2,0:0|0:0,0:0:0:0:
364,260,171495,2,0,L|376:316,1,45,2|0,0:0|0:0,0:0:0:0:
388,348,171828,6,0,L|284:348,1,89.9999999999999,2|2,0:0|0:0,0:0:0:0:
252,352,172328,1,0,0:0:0:0:
252,352,172495,1,2,0:0:0:0:
228,264,172828,2,0,L|208:164,1,89.9999999999999,10|2,0:0|0:0,0:0:0:0:
268,108,173495,1,2,0:0:0:0:
196,52,173828,6,0,L|124:52,1,45,6|0,0:0|0:0,0:0:0:0:
104,56,174162,2,0,L|24:56,1,45,2|0,0:0|0:0,0:0:0:0:
32,140,174662,1,2,0:0:0:0:
64,172,174828,2,0,L|168:172,2,89.9999999999999,10|2|2,0:0|0:0|0:0,0:0:0:0:
12,244,175828,5,2,0:0:0:0:
60,320,176162,1,2,0:0:0:0:
148,320,176495,1,2,0:0:0:0:
200,248,176828,2,0,L|256:248,1,45,12|2,0:0|0:0,0:0:0:0:
280,280,177162,1,8,0:0:0:0:
352,332,177495,2,0,L|400:332,1,45,2|2,0:0|0:0,0:0:0:0:
440,348,177828,6,0,B|408:288|428:192|468:256|492:124|432:76,1,270,6|8,0:0|0:0,0:0:0:0:
328,156,179328,1,2,0:0:0:0:
236,72,179828,6,0,B|156:12|72:76|72:76|128:96|140:140,1,270,6|8,0:0|0:0,0:0:0:0:
24,204,181328,1,2,0:0:0:0:
56,336,181828,6,0,B|108:332|132:288|132:288|152:348|196:380|252:372|292:356,1,270,6|8,0:0|0:0,0:0:0:0:
376,280,183328,1,2,0:0:0:0:
256,192,183828,12,6,185828,0:0:0:0:
356,264,197494,6,0,B|441:293|441:293|503:263,2,135,14|14|10,0:0|0:0|0:0,0:0:0:0:
319,288,198660,2,0,L|306:344,1,45,2|2,0:0|0:0,0:0:0:0:
266,348,198994,2,0,L|161:315,1,89.9999999999999,10|2,0:0|0:0,0:0:0:0:
153,283,199494,6,0,B|161:239|161:239|141:163,1,89.9999999999999,6|0,0:0|0:0,0:0:0:0:
138,151,199994,1,8,0:0:0:0:
51,176,200327,1,0,0:0:0:0:
39,132,200494,2,0,B|31:88|31:88|51:12,1,89.9999999999999,2|8,0:0|0:0,0:0:0:0:
132,45,201160,6,0,L|232:45,1,89.9999999999999,2|0,0:0|0:0,0:0:0:0:
268,49,201660,1,8,0:0:0:0:
268,49,201827,1,0,0:0:0:0:
296,134,202160,2,0,P|344:150|388:138,1,89.9999999999999,2|8,0:0|0:0,0:0:0:0:
420,116,202660,1,0,0:0:0:0:
420,116,202827,6,0,L|420:228,1,89.9999999999999,6|8,0:0|0:0,0:0:0:0:
418,251,203327,2,0,L|474:251,1,45,2|0,0:0|0:0,0:0:0:0:
489,337,203827,2,0,P|449:349|389:329,1,89.9999999999999,2|8,0:0|0:0,0:0:0:0:
363,331,204327,1,0,0:0:0:0:
363,331,204494,6,0,L|251:371,1,89.9999999999999,2|0,0:0|0:0,0:0:0:0:
241,335,204994,2,0,P|201:323|141:343,1,89.9999999999999,8|0,0:0|0:0,0:0:0:0:
114,354,205494,1,2,0:0:0:0:
58,283,205827,1,8,0:0:0:0:
84,196,206160,6,0,P|92:152|76:96,1,89.9999999999999,6|0,0:0|0:0,0:0:0:0:
56,72,206660,1,2,0:0:0:0:
128,20,206993,1,0,0:0:0:0:
168,44,207160,2,0,L|280:44,1,89.9999999999999,10|0,0:0|0:0,0:0:0:0:
300,24,207660,1,2,0:0:0:0:
368,84,207993,1,0,0:0:0:0:
412,100,208160,6,0,P|460:112|520:88,2,89.9999999999999,6|0|2,0:0|0:0|0:0,0:0:0:0:
360,172,209160,2,0,P|348:220|368:272,1,89.9999999999999,10|0,0:0|0:0,0:0:0:0:
440,296,209826,1,2,0:0:0:0:
368,348,210160,6,0,B|324:340|324:340|256:356,1,89.9999999999999,6|8,0:0|0:0,0:0:0:0:
236,364,210660,1,2,0:0:0:0:
160,312,210993,1,0,0:0:0:0:
76,340,211326,2,0,P|72:304|80:280,1,45,2|8,0:0|0:0,0:0:0:0:
92,256,211660,1,2,0:0:0:0:
92,256,211826,6,0,L|88:144,1,89.9999999999999,2|8,0:0|0:0,0:0:0:0:
84,120,212326,1,2,0:0:0:0:
164,80,212660,1,2,0:0:0:0:
168,126,212827,2,0,L|171:215,1,89.9999999999999,8|8,0:0|0:0,0:0:0:0:
208,244,213326,1,2,0:0:0:0:
208,244,213493,6,0,B|256:252|256:252|312:236,1,89.9999999999999,6|10,0:0|0:0,0:0:0:0:
336,216,213993,2,0,L|336:156,1,45,0|2,0:0|0:0,0:0:0:0:
292,92,214493,2,0,P|344:80|396:104,1,89.9999999999999,2|8,0:0|0:0,0:0:0:0:
420,108,214993,1,0,0:0:0:0:
420,108,215160,6,0,L|424:220,1,89.9999999999999,2|10,0:0|0:0,0:0:0:0:
424,244,215660,1,0,0:0:0:0:
424,244,215826,1,2,0:0:0:0:
464,324,216160,2,0,P|404:332|356:308,1,89.9999999999999,2|8,0:0|0:0,0:0:0:0:
336,308,216660,1,0,0:0:0:0:
336,308,216826,6,0,L|212:332,1,89.9999999999999,6|10,0:0|0:0,0:0:0:0:
212,300,217326,1,0,0:0:0:0:
156,372,217660,1,0,0:0:0:0:
124,340,217826,2,0,P|116:288|140:228,1,89.9999999999999,2|8,0:0|0:0,0:0:0:0:
140,164,218493,6,0,L|16:188,1,89.9999999999999,2|10,0:0|0:0,0:0:0:0:
8,192,218993,1,0,0:0:0:0:
8,104,219326,1,0,0:0:0:0:
51,93,219493,2,0,L|139:75,1,89.9999999999999,2|8,0:0|0:0,0:0:0:0:
180,92,219993,1,0,0:0:0:0:
180,92,220160,6,0,L|268:74,1,89.9999999999999,6|10,0:0|0:0,0:0:0:0:
308,100,220660,1,0,0:0:0:0:
352,20,220993,1,0,0:0:0:0:
384,52,221160,2,0,P|396:108|376:160,1,89.9999999999999,2|10,0:0|0:0,0:0:0:0:
364,176,221660,1,0,0:0:0:0:
364,176,221826,6,0,P|352:232|372:284,1,89.9999999999999,2|10,0:0|0:0,0:0:0:0:
388,300,222326,1,0,0:0:0:0:
312,348,222660,1,0,0:0:0:0:
284,312,222826,2,0,L|180:312,1,89.9999999999999,2|8,0:0|0:0,0:0:0:0:
154,334,223326,1,0,0:0:0:0:
154,334,223493,2,0,L|38:334,1,89.9999999999999,6|8,0:0|0:0,0:0:0:0:
24,312,223993,2,0,P|20:281|27:248,1,45,0|2,0:0|0:0,0:0:0:0:
85,198,224493,2,0,L|83:133,1,45,2|0,0:0|0:0,0:0:0:0:
53,119,224826,2,0,L|51:54,1,45,10|0,0:0|0:0,0:0:0:0:
87,46,225159,6,0,L|195:58,1,89.9999999999999,6|2,0:0|0:0,0:0:0:0:
207,88,225659,2,0,P|195:144|211:184,1,89.9999999999999,2|2,0:0|0:0,0:0:0:0:
231,210,226159,1,2,0:0:0:0:
281,135,226492,1,2,0:0:0:0:
311,168,226659,2,0,L|411:168,1,89.9999999999999,2|2,0:0|0:0,0:0:0:0:
437,194,227159,6,0,P|453:250|437:302,1,89.9999999999999,6|2,0:0|0:0,0:0:0:0:
433,322,227659,1,8,0:0:0:0:
433,322,227825,1,2,0:0:0:0:
348,352,228159,2,0,L|248:352,1,89.9999999999999,2|8,0:0|0:0,0:0:0:0:
224,320,228659,1,0,0:0:0:0:
224,320,228825,6,0,L|124:320,1,89.9999999999999,2|2,0:0|0:0,0:0:0:0:
103,352,229325,1,8,0:0:0:0:
40,287,229659,1,0,0:0:0:0:
69,253,229825,2,0,P|77:205|57:145,1,89.9999999999999,2|8,0:0|0:0,0:0:0:0:
39,79,230492,6,0,L|144:79,1,89.9999999999999,6|2,0:0|0:0,0:0:0:0:
161,48,230992,1,8,0:0:0:0:
161,48,231159,1,2,0:0:0:0:
194,131,231492,2,0,P|258:143|298:127,1,89.9999999999999,2|8,0:0|0:0,0:0:0:0:
311,103,231992,1,0,0:0:0:0:
311,103,232159,6,0,L|407:103,1,89.9999999999999,2|2,0:0|0:0,0:0:0:0:
439,127,232659,1,8,0:0:0:0:
376,192,232992,1,0,0:0:0:0:
416,216,233159,2,0,P|444:220|480:208,1,45,2|0,0:0|0:0,0:0:0:0:
500,196,233492,1,8,0:0:0:0:
493,285,233825,6,0,P|505:329|489:377,1,89.9999999999999,6|0,0:0|0:0,0:0:0:0:
448,375,234325,2,0,L|348:375,1,89.9999999999999,2|0,0:0|0:0,0:0:0:0:
312,372,234825,1,8,0:0:0:0:
256,300,235158,1,0,0:0:0:0:
228,336,235325,2,0,L|116:336,1,89.9999999999999,2|0,0:0|0:0,0:0:0:0:
92,332,235825,5,2,0:0:0:0:
9,295,236158,1,0,0:0:0:0:
79,238,236491,1,2,0:0:0:0:
34,159,236825,2,0,P|22:107|38:63,2,89.9999999999999,8|0|2,0:0|0:0|0:0,0:0:0:0:
112,116,237825,6,0,L|216:116,1,89.9999999999999,6|8,0:0|0:0,0:0:0:0:
228,80,238325,1,2,0:0:0:0:
292,144,238658,1,0,0:0:0:0:
318,108,238825,2,0,L|392:108,1,45,0|2,0:0|0:0,0:0:0:0:
396,140,239158,2,0,L|470:140,1,45,10|2,0:0|0:0,0:0:0:0:
480,164,239491,6,0,B|468:212|468:212|480:260,1,89.9999999999999,2|8,0:0|0:0,0:0:0:0:
496,292,239991,1,2,0:0:0:0:
424,344,240325,1,2,0:0:0:0:
400,308,240491,2,0,L|300:320,1,89.9999999999999,8|10,0:0|0:0,0:0:0:0:
268,332,240991,1,0,0:0:0:0:
268,332,241158,5,6,0:0:0:0:
