osu file format v14

[General]
AudioFilename: audio.mp3
AudioLeadIn: 0
PreviewTime: 61081
Countdown: 0
SampleSet: Soft
StackLeniency: 0.7
Mode: 0
LetterboxInBreaks: 1
WidescreenStoryboard: 1

[Editor]
Bookmarks: 165,12164,24164,36164,38164,54164,62164,89829,95829,101828,113828,129828,145828,153828,161828,177828,183828,185828,197494,199494,213493,241158,253158
DistanceSpacing: 1.3
BeatDivisor: 2
GridSize: 4
TimelineZoom: 1.9

[Metadata]
Title:GHOST OF LORELEY
TitleUnicode:GHOST OF LORELEY
Artist:lasah
ArtistUnicode:らさ
Creator:moph
Version:Easy
Source:
Tags:sasakure.uk I love you wa_ Ambient Fizz
BeatmapID:1081374
BeatmapSetID:486177

[Difficulty]
HPDrainRate:4
CircleSize:3
OverallDifficulty:4
ApproachRate:4
SliderMultiplier:0.699999999999999
SliderTickRate:1

[Events]
//Background and Video events
0,0,"bg.jpg",0,0
//Break Periods
2,90029,94509
2,146028,152508
2,186028,196174
//Storyboard Layer 0 (Background)
//Storyboard Layer 1 (Fail)
//Storyboard Layer 2 (Pass)
//Storyboard Layer 3 (Foreground)
//Storyboard Sound Samples

[TimingPoints]
165,333.333333333333,3,2,1,60,1,0
24164,-100,3,2,1,40,0,0
36164,-100,3,2,1,60,0,0
54164,-100,3,2,1,40,0,0
62164,333.333333333333,5,2,1,70,1,1
73830,333.333333333333,3,2,1,70,1,0
75830,333.333333333333,5,2,1,70,1,1
82496,333.333333333333,3,2,1,70,1,0
86496,333.333333333333,5,2,1,70,1,1
89829,333.333333333333,3,2,1,60,1,0
113828,-100,3,2,1,50,0,0
127828,-100,3,2,1,60,0,0
129828,-100,3,2,1,50,0,0
143828,-100,3,2,1,60,0,0
153828,-100,3,2,1,50,0,0
159828,-100,3,2,1,60,0,0
177828,-100,3,2,1,40,0,0
185828,333.333333333333,5,2,1,60,1,0
197494,333.333333333333,3,2,1,70,1,1
199494,333.333333333333,5,2,1,70,1,1
206160,333.333333333333,3,2,1,70,1,0
213493,333.333333333333,5,2,1,70,1,1
225159,333.333333333333,3,2,1,70,1,0
227159,333.333333333333,5,2,1,70,1,1
233825,333.333333333333,3,2,1,70,1,0
237825,333.333333333333,5,2,1,70,1,1
241158,333.333333333333,3,2,1,60,1,0

[Colours]
Combo1 : 179,125,189
Combo2 : 139,134,191
Combo3 : 196,111,157
Combo4 : 135,159,205

[HitObjects]
164,336,12164,6,0,P|184:296|148:168,1,175,6|2,0:0|0:0,0:0:0:0:
52,88,13498,2,0,L|220:60,1,140,2|2,0:0|0:0,0:0:0:0:
368,32,14831,1,0,0:0:0:0:
436,92,15164,6,0,P|460:176|428:272,1,175,6|2,0:0|0:0,0:0:0:0:
320,328,16498,2,0,L|224:320,1,69.9999999999999,2|2,0:0|0:0,0:0:0:0:
172,368,17164,2,0,P|160:316|192:248,1,105,2|2,0:0|0:0,0:0:0:0:
264,164,18164,6,0,L|76:148,1,175,6|2,0:0|0:0,0:0:0:0:
16,264,19498,2,0,P|6:297|12:332,2,69.9999999999999,2|2|2,0:0|0:0|0:0,0:0:0:0:
96,220,20498,2,0,L|88:135,1,69.9999999999999,2|0,0:0|0:0,0:0:0:0:
80,60,21164,6,0,L|254:74,1,175,6|2,0:0|0:0,0:0:0:0:
388,40,22498,2,0,P|396:88|384:128,1,69.9999999999999,2|2,0:0|0:0,0:0:0:0:
360,192,23164,2,0,L|388:312,1,105,6|2,0:0|0:0,0:0:0:0:
264,360,24164,6,0,B|171:320|171:320|53:364,1,210,6|8,0:0|0:0,0:0:0:0:
1,239,25664,1,2,0:0:0:0:
74,124,26164,1,2,0:0:0:0:
316,250,27164,2,0,L|442:250,1,105,10|0,0:0|0:0,0:0:0:0:
461,119,28164,6,0,B|364:78|364:78|266:122,1,210,6|8,0:0|0:0,0:0:0:0:
146,181,29664,1,2,0:0:0:0:
144,44,30164,1,2,0:0:0:0:
87,311,31164,2,0,P|140:322|206:307,1,105,8|2,0:0|0:0,0:0:0:0:
319,355,32164,6,0,B|287:255|287:255|331:143,1,210,6|8,0:0|0:0,0:0:0:0:
364,26,33664,1,2,0:0:0:0:
446,134,34164,1,2,0:0:0:0:
181,67,35164,6,0,L|85:45,2,69.9999999999999,10|0|0,0:0|0:0|0:0,0:0:0:0:
234,141,36164,2,0,P|254:205|226:289,1,140,2|2,0:0|0:0,0:0:0:0:
197,356,37164,2,0,L|337:356,1,140,2|0,0:0|0:0,0:0:0:0:
428,348,38164,5,6,0:0:0:0:
378,271,38498,2,0,P|370:227|386:179,1,69.9999999999999,2|2,0:0|0:0,0:0:0:0:
441,141,39164,2,0,B|377:169|377:169|305:141,1,140,8|2,0:0|0:0,0:0:0:0:
248,77,40164,6,0,P|221:140|245:205,1,140,2|2,0:0|0:0,0:0:0:0:
331,233,41164,1,8,0:0:0:0:
149,241,41831,1,2,0:0:0:0:
65,278,42164,6,0,P|57:242|69:194,2,69.9999999999999,6|0|2,0:0|0:0|0:0,0:0:0:0:
140,332,43164,2,0,L|304:340,1,140,8|2,0:0|0:0,0:0:0:0:
372,344,44164,6,0,B|384:276|384:276|360:208|360:208|388:112,1,210,2|8,0:0|0:0,0:0:0:0:
420,60,45498,2,0,P|380:48|340:60,1,69.9999999999999,0|2,0:0|0:0,0:0:0:0:
284,112,46164,6,0,L|128:104,1,140,6|2,0:0|0:0,0:0:0:0:
60,68,47164,2,0,P|52:108|60:144,1,69.9999999999999,8|2,0:0|0:0,0:0:0:0:
116,204,47831,1,2,0:0:0:0:
76,284,48164,6,0,L|-12:284,2,69.9999999999999,2|2|2,0:0|0:0|0:0,0:0:0:0:
152,332,49164,2,0,B|220:316|220:316|296:336,1,140,8|2,0:0|0:0,0:0:0:0:
372,304,50164,6,0,L|464:320,1,69.9999999999999,6|2,0:0|0:0,0:0:0:0:
452,136,51164,2,0,P|456:92|440:48,2,69.9999999999999,10|2|2,0:0|2:0|2:0,0:0:0:0:
368,104,52164,2,0,L|220:104,1,140,2|2,0:0|0:0,0:0:0:0:
144,64,53164,2,0,L|56:64,2,69.9999999999999,8|2|2,0:0|0:0|0:0,0:0:0:0:
134,154,54164,6,0,B|148:222|148:222|126:289|126:289|143:359,1,210,6|8,0:0|0:0,0:0:0:0:
264,296,55664,1,2,0:0:0:0:
299,164,56164,6,0,B|392:211|392:211|505:157,1,210,6|8,0:0|0:0,0:0:0:0:
394,65,57664,1,2,0:0:0:0:
258,51,58164,6,0,B|214:67|133:56|176:28|100:16|38:53,1,210,6|8,0:0|0:0,0:0:0:0:
110,169,59664,2,0,L|105:289,1,105,2|0,0:0|0:0,0:0:0:0:
151,129,62164,6,0,P|162:179|149:230,1,105,6|2,0:0|0:0,0:0:0:0:
71,342,63164,2,0,L|141:342,1,69.9999999999999,2|8,0:0|0:0,0:0:0:0:
217,292,63830,2,0,B|286:292|286:292|331:316,1,105,2|2,0:0|0:0,0:0:0:0:
446,355,64830,2,0,P|453:320|447:284,1,69.9999999999999,2|10,0:0|0:0,0:0:0:0:
384,220,65497,6,0,B|315:220|315:220|283:203,2,105,2|2|2,0:0|0:0|0:0,0:0:0:0:
473,202,66830,1,10,0:0:0:0:
409,136,67164,2,0,P|401:78|421:27,1,105,2|2,0:0|0:0,0:0:0:0:
290,89,68164,2,0,L|202:89,1,69.9999999999999,10|10,0:0|0:0,0:0:0:0:
145,37,68830,6,0,P|130:92|156:157,1,105,2|2,0:0|0:0,0:0:0:0:
204,260,69830,2,0,L|124:260,1,69.9999999999999,2|10,0:0|0:0,0:0:0:0:
56,304,70497,2,0,P|44:256|72:192,2,105,2|2|2,0:0|0:0|0:0,0:0:0:0:
136,348,71830,1,8,0:0:0:0:
134,260,72163,6,0,L|242:260,1,105,2|2,0:0|0:0,0:0:0:0:
344,348,73163,2,0,L|420:348,1,69.9999999999999,2|10,0:0|0:0,0:0:0:0:
480,284,73830,2,0,B|492:232|492:232|464:156,2,105,2|2|2,0:0|0:0|0:0,0:0:0:0:
352,240,75330,1,2,0:0:0:0:
336,104,75830,6,0,B|224:104,1,105,6|2,0:0|0:0,0:0:0:0:
100,68,76830,2,0,P|93:102|98:136,1,69.9999999999999,2|10,0:0|0:0,0:0:0:0:
48,212,77496,2,0,P|32:268|52:328,2,105,2|10|2,0:0|0:0|0:0,0:0:0:0:
124,264,78830,1,10,2:0:0:0:
184,332,79163,6,0,B|252:332|252:332|308:308,1,105,2|10,0:0|0:0,0:0:0:0:
424,320,80163,2,0,P|416:268|432:232,1,69.9999999999999,2|10,0:0|0:0,0:0:0:0:
456,168,80830,2,0,B|385:168|385:168|348:148,1,105,2|10,0:0|0:0,0:0:0:0:
277,39,81830,2,0,P|287:79|273:123,1,69.9999999999999,2|8,0:0|0:0,0:0:0:0:
212,160,82496,6,0,B|144:144|144:144|104:164,1,105,6|2,0:0|0:0,0:0:0:0:
36,272,83496,2,0,B|104:288|104:288|144:268,1,105,8|2,0:0|0:0,0:0:0:0:
272,272,84496,2,0,P|264:308|276:352,2,69.9999999999999,6|0|2,0:0|0:0|0:0,0:0:0:0:
356,308,85496,2,0,L|440:308,1,69.9999999999999,8|0,0:0|0:0,0:0:0:0:
476,232,86162,1,2,0:0:0:0:
416,164,86496,6,0,L|416:60,1,105,6|0,0:0|0:0,0:0:0:0:
328,44,87329,1,0,0:0:0:0:
328,180,87829,1,8,0:0:0:0:
248,140,88162,2,0,P|196:128|140:148,1,105,2|2,0:0|0:0,0:0:0:0:
68,184,88996,1,0,0:0:0:0:
200,220,89496,2,0,L|200:316,1,69.9999999999999,8|6,0:0|0:0,0:0:0:0:
408,308,95829,6,0,P|356:324|304:308,1,105,6|2,0:0|0:0,0:0:0:0:
248,240,96662,1,2,0:0:0:0:
356,156,97162,2,0,L|356:248,2,69.9999999999999,2|2|2,0:0|0:0|0:0,0:0:0:0:
388,72,98162,2,0,P|356:64|308:80,1,69.9999999999999,2|0,0:0|0:0,0:0:0:0:
240,116,98828,6,0,L|116:100,1,105,2|2,0:0|0:0,0:0:0:0:
44,88,99662,1,2,0:0:0:0:
80,172,99995,2,0,B|92:228|92:228|76:288,1,105,2|2,0:0|0:0,0:0:0:0:
152,328,100828,2,0,L|184:220,1,105,2|2,0:0|0:0,0:0:0:0:
296,304,101828,6,0,B|345:320|345:320|400:300,2,105,6|2|2,0:0|0:0|0:0,0:0:0:0:
344,224,103162,2,0,P|336:184|344:148,1,69.9999999999999,8|2,0:0|0:0,0:0:0:0:
400,88,103828,1,8,0:0:0:0:
312,72,104162,2,0,L|237:71,1,69.9999999999999,2|10,0:0|0:0,0:0:0:0:
156,100,104828,6,0,B|84:100|84:100|52:80,2,105,6|2|0,0:0|0:0|0:0,0:0:0:0:
176,188,106162,2,0,L|100:188,1,69.9999999999999,8|2,0:0|0:0,0:0:0:0:
44,256,106828,1,2,0:0:0:0:
104,324,107162,2,0,L|174:324,1,69.9999999999999,8|8,0:0|0:0,0:0:0:0:
264,308,107828,6,0,B|252:256|252:256|268:196,2,105,6|2|2,0:0|0:0|0:0,0:0:0:0:
348,344,109162,2,0,P|384:352|436:336,1,69.9999999999999,8|0,0:0|0:0,0:0:0:0:
384,260,109828,1,2,0:0:0:0:
456,204,110162,2,0,L|456:108,1,69.9999999999999,8|8,0:0|0:0,0:0:0:0:
378,86,110828,6,0,P|417:53|474:45,2,105,6|2|2,0:0|0:0|0:0,0:0:0:0:
286,86,112162,2,0,L|200:72,1,69.9999999999999,8|0,0:0|0:0,0:0:0:0:
133,110,112828,2,0,P|127:72|143:24,2,69.9999999999999,6|8|8,0:0|0:0|0:0,0:0:0:0:
120,200,113828,6,0,L|75:362,1,140,6|0,0:0|0:0,0:0:0:0:
172,348,114828,2,0,L|204:244,1,105,8|2,0:0|0:0,0:0:0:0:
336,216,115828,2,0,P|312:288|340:356,1,140,2|0,0:0|0:0,0:0:0:0:
424,340,116828,2,0,P|438:288|420:232,1,105,8|2,0:0|0:0,0:0:0:0:
452,104,117828,6,0,B|408:88|408:88|360:104|360:104|316:92,1,140,2|0,0:0|0:0,0:0:0:0:
228,108,118828,2,0,B|156:84|156:84|112:92,1,105,8|2,0:0|0:0,0:0:0:0:
60,208,119828,2,0,B|8:244|16:300|48:328|48:328|76:304|128:292,1,210,2|8,0:0|0:0,0:0:0:0:
200,296,121162,2,0,P|236:308|272:352,1,69.9999999999999,0|0,0:0|0:0,0:0:0:0:
348,344,121828,6,0,L|484:296,1,140,6|0,0:0|0:0,0:0:0:0:
432,220,122828,2,0,L|324:256,1,105,8|2,0:0|0:0,0:0:0:0:
228,168,123828,2,0,B|204:104|204:104|232:32,1,140,2|0,0:0|0:0,0:0:0:0:
320,56,124828,2,0,B|332:104|332:104|316:164,1,105,8|2,0:0|0:0,0:0:0:0:
254,278,125828,6,0,B|206:250|140:271|170:286|105:314|52:283,1,210,2|8,0:0|0:0,0:0:0:0:
100,208,127162,2,0,B|108:172|108:172|96:116,1,69.9999999999999,0|2,0:0|0:0,0:0:0:0:
68,56,127828,2,0,P|104:48|152:64,1,69.9999999999999,10|2,0:0|0:0,0:0:0:0:
208,108,128495,1,2,0:0:0:0:
288,64,128828,2,0,B|356:44|356:44|432:68,1,140,8|8,0:0|0:0,0:0:0:0:
388,148,129828,6,0,P|364:216|396:296,1,140,6|0,0:0|0:0,0:0:0:0:
440,352,130828,2,0,P|380:368|328:352,1,105,8|2,0:0|0:0,0:0:0:0:
228,280,131828,6,0,B|156:288|156:288|96:344,1,140,2|0,0:0|0:0,0:0:0:0:
28,288,132828,2,0,B|80:240|80:240|92:200,1,105,8|2,0:0|0:0,0:0:0:0:
48,76,133828,6,0,P|120:100|180:80,1,140,2|0,0:0|0:0,0:0:0:0:
264,112,134828,2,0,P|320:96|376:120,1,105,8|2,0:0|0:0,0:0:0:0:
484,44,135828,6,0,B|464:112|464:112|488:176|488:176|464:264,1,210,2|8,0:0|0:0,0:0:0:0:
384,280,137162,2,0,L|360:376,1,69.9999999999999,0|0,0:0|0:0,0:0:0:0:
280,320,137828,6,0,B|212:308|212:308|112:328,1,140,2|0,0:0|0:0,0:0:0:0:
64,368,138828,2,0,P|52:316|76:256,1,105,8|2,0:0|0:0,0:0:0:0:
144,156,139828,6,0,P|152:196|136:244,2,69.9999999999999,2|0|0,0:0|0:0|0:0,0:0:0:0:
92,80,140828,2,0,P|132:64|204:88,1,105,8|2,0:0|0:0,0:0:0:0:
320,32,141828,2,0,B|300:100|300:100|320:176,1,140,2|0,0:0|0:0,0:0:0:0:
387,224,142828,2,0,L|344:363,1,140,8|2,0:0|0:0,0:0:0:0:
263,318,143828,6,0,L|288:237,2,69.9999999999999,2|10|2,0:0|0:0|0:0,0:0:0:0:
173,337,144828,2,0,L|94:337,1,69.9999999999999,8|8,0:0|0:0,0:0:0:0:
76,249,145495,2,0,L|156:249,1,69.9999999999999,2|6,0:0|0:0,0:0:0:0:
344,268,153828,6,0,L|432:276,2,69.9999999999999,6|2|2,0:0|0:0|0:0,0:0:0:0:
277,330,154828,2,0,P|257:286|293:190,1,140,2|2,0:0|0:0,0:0:0:0:
360,156,155828,6,0,L|360:76,1,69.9999999999999,2|0,0:0|0:0,0:0:0:0:
284,36,156495,1,2,0:0:0:0:
220,100,156828,2,0,B|152:120|152:120|56:96,1,140,2|2,0:0|0:0,0:0:0:0:
44,184,157828,6,0,P|16:244|45:323,1,140,2|0,0:0|0:0,0:0:0:0:
105,253,158828,2,0,P|141:245|177:253,2,69.9999999999999,2|2|2,0:0|0:0|0:0,0:0:0:0:
140,336,159828,6,0,P|176:344|212:336,1,69.9999999999999,2|2,0:0|0:0,0:0:0:0:
259,262,160495,1,2,0:0:0:0:
318,331,160828,2,0,L|462:354,1,140,8|2,0:0|0:0,0:0:0:0:
442,262,161828,6,0,L|350:248,1,69.9999999999999,6|2,0:0|0:0,0:0:0:0:
318,178,162495,1,2,0:0:0:0:
384,116,162828,2,0,P|392:82|371:26,1,69.9999999999999,8|2,0:0|0:0,0:0:0:0:
300,82,163495,1,2,0:0:0:0:
209,84,163828,6,0,B|96:84|96:84|46:57,1,140,2|2,0:0|0:0,0:0:0:0:
39,156,164828,2,0,P|11:220|40:293,1,140,8|2,0:0|0:0,0:0:0:0:
117,313,165828,6,0,L|200:313,2,69.9999999999999,6|2|2,0:0|0:0|0:0,0:0:0:0:
101,223,166828,2,0,B|197:223|197:223|243:197,1,140,8|2,0:0|0:0,0:0:0:0:
322,226,167828,6,0,P|310:288|329:335,1,105,2|2,0:0|0:0,0:0:0:0:
458,340,168828,2,0,P|475:274|442:191,1,140,8|2,0:0|0:0,0:0:0:0:
415,124,169828,6,0,P|453:115|502:132,2,69.9999999999999,6|2|2,0:0|0:0|0:0,0:0:0:0:
339,73,170828,2,0,B|273:52|273:52|192:74,1,140,10|2,0:0|0:0,0:0:0:0:
124,116,171828,6,0,L|32:80,1,69.9999999999999,2|2,0:0|0:0,0:0:0:0:
4,164,172495,1,2,0:0:0:0:
84,208,172828,2,0,P|108:272|80:348,1,140,10|2,0:0|0:0,0:0:0:0:
176,360,173828,6,0,L|276:360,1,69.9999999999999,6|2,0:0|0:0,0:0:0:0:
420,312,174828,2,0,L|500:312,2,69.9999999999999,10|2|2,0:0|0:0|0:0,0:0:0:0:
356,376,175828,2,0,P|332:320|372:232,1,140,2|2,0:0|0:0,0:0:0:0:
406,172,176828,2,0,P|413:138|391:84,2,69.9999999999999,12|8|2,0:0|0:0|0:0,0:0:0:0:
320,139,177828,6,0,B|261:114|188:126|245:151|168:165|110:145,1,210,6|8,0:0|0:0,0:0:0:0:
157,17,179328,1,2,0:0:0:0:
36,80,179828,6,0,B|18:147|18:147|38:218|38:218|21:285,1,210,6|8,0:0|0:0,0:0:0:0:
145,341,181328,1,2,0:0:0:0:
277,306,181828,6,0,B|414:339|414:339|382:267,1,210,6|8,0:0|0:0,0:0:0:0:
335,148,183328,1,2,0:0:0:0:
256,192,183828,12,6,185828,0:0:0:0:
136,179,197494,6,0,L|81:65,2,105,14|14|10,0:0|0:0|0:0,0:0:0:0:
76,302,198994,1,10,0:0:0:0:
212,303,199494,6,0,P|266:292|322:311,1,105,6|8,0:0|0:0,0:0:0:0:
444,341,200494,2,0,P|430:291|438:253,1,69.9999999999999,2|8,0:0|0:0,0:0:0:0:
461,187,201160,2,0,L|451:70,1,105,2|8,0:0|0:0,0:0:0:0:
320,44,202160,2,0,L|327:132,1,69.9999999999999,2|8,0:0|0:0,0:0:0:0:
271,186,202827,6,0,B|220:202|220:202|167:182,1,105,6|2,0:0|0:0,0:0:0:0:
83,79,203827,2,0,P|91:124|74:168,1,69.9999999999999,2|8,0:0|0:0,0:0:0:0:
49,230,204494,2,0,P|32:286|61:356,2,105,2|8|2,0:0|0:0|0:0,0:0:0:0:
122,283,205827,1,8,0:0:0:0:
210,303,206160,6,0,L|328:331,1,105,6|2,0:0|0:0,0:0:0:0:
427,254,207160,2,0,L|309:226,1,105,10|2,0:0|0:0,0:0:0:0:
242,120,208160,2,0,P|251:154|235:207,2,69.9999999999999,6|0|2,0:0|0:0|0:0,0:0:0:0:
157,154,209160,2,0,P|148:120|164:67,1,69.9999999999999,10|0,0:0|0:0,0:0:0:0:
224,28,209826,1,2,0:0:0:0:
307,63,210160,6,0,L|425:63,1,105,6|2,0:0|0:0,0:0:0:0:
462,138,210993,2,0,P|475:205|455:258,1,105,0|8,0:0|0:0,0:0:0:0:
422,319,211826,2,0,L|304:319,1,105,2|2,0:0|0:0,0:0:0:0:
232,352,212660,2,0,B|181:340|181:340|127:352,1,105,2|8,0:0|0:0,0:0:0:0:
53,301,213493,6,0,P|37:253|66:187,1,105,6|0,0:0|0:0,0:0:0:0:
172,137,214493,2,0,L|108:84,1,69.9999999999999,2|8,0:0|0:0,0:0:0:0:
160,11,215160,2,0,L|259:92,1,105,2|0,0:0|0:0,0:0:0:0:
344,166,216160,2,0,L|434:165,1,69.9999999999999,2|8,0:0|0:0,0:0:0:0:
489,215,216826,6,0,P|500:149|477:104,2,105,6|0|2,0:0|0:0|0:0,0:0:0:0:
411,264,218160,1,8,0:0:0:0:
380,349,218493,2,0,B|310:356|310:356|269:338,1,105,2|0,0:0|0:0,0:0:0:0:
172,256,219493,2,0,P|179:297|162:349,1,69.9999999999999,2|8,0:0|0:0,0:0:0:0:
84,343,220160,6,0,P|71:293|94:230,1,105,6|0,0:0|0:0,0:0:0:0:
51,110,221160,2,0,P|84:104|126:112,1,69.9999999999999,2|10,0:0|0:0,0:0:0:0:
193,56,221826,2,0,B|252:73|252:73|316:52,1,105,2|0,0:0|0:0,0:0:0:0:
425,24,222826,2,0,P|432:57|425:92,1,69.9999999999999,2|8,0:0|0:0,0:0:0:0:
351,144,223493,6,0,P|337:199|363:273,1,105,6|0,0:0|0:0,0:0:0:0:
440,344,224493,2,0,L|351:346,1,69.9999999999999,2|10,0:0|0:0,0:0:0:0:
285,313,225159,2,0,L|162:313,1,105,6|2,0:0|0:0,0:0:0:0:
54,366,226159,2,0,P|40:311|60:257,1,105,2|2,0:0|0:0,0:0:0:0:
20,133,227159,6,0,B|90:126|90:126|139:146,1,105,6|8,0:0|0:0,0:0:0:0:
237,66,228159,2,0,B|244:109|244:109|236:141,1,69.9999999999999,2|8,0:0|0:0,0:0:0:0:
186,209,228825,2,0,P|241:225|298:202,1,105,2|8,0:0|0:0,0:0:0:0:
376,109,229825,2,0,L|455:109,1,69.9999999999999,2|8,0:0|0:0,0:0:0:0:
493,187,230492,6,0,B|505:257|505:257|489:302,1,105,6|8,0:0|0:0,0:0:0:0:
369,346,231492,2,0,L|297:347,1,69.9999999999999,2|8,0:0|0:0,0:0:0:0:
208,333,232159,2,0,B|144:361|144:361|97:357,2,105,2|8|2,0:0|0:0|0:0,0:0:0:0:
265,262,233492,1,8,0:0:0:0:
191,208,233825,6,0,L|76:209,1,105,6|2,0:0|0:0,0:0:0:0:
88,72,234825,2,0,B|136:59|136:59|200:72,1,105,8|2,0:0|0:0,0:0:0:0:
324,95,235825,2,0,P|331:56|313:9,2,69.9999999999999,2|0|2,0:0|0:0|0:0,0:0:0:0:
294,181,236825,2,0,B|331:188|331:188|382:174,1,69.9999999999999,8|0,0:0|0:0,0:0:0:0:
437,129,237491,1,2,0:0:0:0:
443,219,237825,6,0,B|434:289|434:289|448:341,1,105,6|2,0:0|0:0,0:0:0:0:
352,332,238658,2,0,L|223:333,1,105,0|10,0:0|0:0,0:0:0:0:
169,380,239491,2,0,P|157:329|174:280,1,105,2|2,0:0|0:0,0:0:0:0:
203,193,240325,2,0,B|132:195|132:195|88:173,1,105,2|0,0:0|0:0,0:0:0:0:
27,126,241158,1,6,0:0:0:0:
