osu file format v14

[General]
AudioFilename: audio.mp3
AudioLeadIn: 0
PreviewTime: 61081
Countdown: 0
SampleSet: Soft
StackLeniency: 0.6
Mode: 0
LetterboxInBreaks: 1
WidescreenStoryboard: 1

[Editor]
Bookmarks: 165,12164,24164,36164,38164,54164,62164,89829,95829,101828,110495,113828,129828,145828,153828,161828,177828,183828,185828,197494,199494,213493,241158,253158
DistanceSpacing: 1.2
BeatDivisor: 4
GridSize: 4
TimelineZoom: 1.9

[Metadata]
Title:GHOST OF LORELEY
TitleUnicode:GHOST OF LORELEY
Artist:lasah
ArtistUnicode:らさ
Creator:moph
Version:Ambient's Insane
Source:
Tags:sasakure.uk I love you wa_ Ambient Fizz
BeatmapID:1058615
BeatmapSetID:486177

[Difficulty]
HPDrainRate:7
CircleSize:4
OverallDifficulty:7
ApproachRate:8.5
SliderMultiplier:1.8
SliderTickRate:1

[Events]
//Background and Video events
0,0,"bg.jpg",0,0
//Break Periods
2,90029,95154
2,146028,153153
2,186028,196819
//Storyboard Layer 0 (Background)
//Storyboard Layer 1 (Fail)
//Storyboard Layer 2 (Pass)
//Storyboard Layer 3 (Foreground)
//Storyboard Sound Samples

[TimingPoints]
165,333.333333333333,3,2,1,60,1,0
12164,-133.333333333333,3,2,1,60,0,0
24164,-333.333333333333,3,2,1,40,0,0
36164,-133.333333333333,3,2,1,60,0,0
44081,-133.333333333333,3,2,1,5,0,0
44164,-133.333333333333,3,2,1,60,0,0
54164,-333.333333333333,3,2,1,40,0,0
61081,-333.333333333333,3,2,1,5,0,0
61164,-333.333333333333,3,2,1,40,0,0
61248,-333.333333333333,3,2,1,5,0,0
61498,-333.333333333333,3,2,1,40,0,0
61581,-333.333333333333,3,2,1,5,0,0
61831,-333.333333333333,3,2,1,40,0,0
61914,-333.333333333333,3,2,1,5,0,0
62164,333.333333333333,5,2,1,60,1,1
73830,333.333333333333,3,2,1,60,1,0
73830,-166.666666666667,3,2,1,60,0,0
75830,333.333333333333,5,2,1,60,1,1
82496,333.333333333333,3,2,1,60,1,0
82496,-200,3,2,1,60,0,0
84496,-133.333333333333,3,2,1,60,0,0
86496,333.333333333333,5,2,1,60,1,1
89829,333.333333333333,3,2,1,60,1,0
89829,-133.333333333333,3,2,1,60,0,0
95829,-133.333333333333,3,2,1,50,0,0
101828,-133.333333333333,3,2,1,60,0,0
113828,-200,3,2,1,60,0,0
128828,-133.333333333333,3,2,1,60,0,0
145828,-400,3,2,1,60,0,0
145912,-400,3,2,1,5,0,0
146828,-400,3,2,1,40,0,0
153828,-133.333333333333,3,2,1,60,0,0
177828,-333.333333333333,3,2,1,40,0,0
183828,-133.333333333333,3,2,1,60,0,0
185828,333.333333333333,5,2,1,60,1,0
185828,-200,5,2,1,40,0,0
197494,333.333333333333,3,2,1,60,1,1
199494,333.333333333333,5,2,1,60,1,1
206160,333.333333333333,3,2,1,60,1,0
206160,-200,3,2,1,60,0,0
208160,-133.333333333333,3,2,1,60,0,0
210160,-100,3,2,1,60,0,0
213493,333.333333333333,5,2,1,60,1,1
225159,333.333333333333,3,2,1,60,1,0
225159,-166.666666666667,3,2,1,60,0,0
227159,333.333333333333,5,2,1,60,1,1
233825,333.333333333333,3,2,1,60,1,0
233825,-200,3,2,1,60,0,0
235825,-133.333333333333,3,2,1,60,0,0
237825,333.333333333333,5,2,1,60,1,1
241158,333.333333333333,3,2,1,60,1,0
241158,-133.333333333333,3,2,1,60,0,0

[Colours]
Combo1 : 179,125,189
Combo2 : 139,134,191
Combo3 : 196,111,157
Combo4 : 135,159,205

[HitObjects]
48,88,12164,6,0,L|32:40,4,33.7500012874604,6|0|0|0|0,0:0|0:0|0:0|0:0|0:0,0:0:0:0:
116,164,12664,2,0,P|152:168|204:160,1,67.5000025749208,2|0,0:0|0:0,0:0:0:0:
224,96,12998,2,0,L|220:232,1,135.000005149842,2|0,0:0|0:0,0:0:0:0:
219,251,13414,1,0,0:0:0:0:
219,271,13498,1,2,0:0:0:0:
60,308,13664,1,0,0:0:0:0:
184,348,13831,6,0,P|224:352|268:344,1,67.5000025749208,2|0,0:0|0:0,0:0:0:0:
412,284,14164,2,0,P|372:288|328:280,1,67.5000025749208,2|2,0:0|0:0,0:0:0:0:
132,264,14498,1,2,0:0:0:0:
216,244,14664,1,2,0:0:0:0:
156,180,14831,2,0,L|144:132,2,33.7500012874604,0|0|0,0:0|0:0|0:0,0:0:0:0:
292,204,15164,6,0,L|388:200,1,67.5000025749208,6|0,0:0|0:0,0:0:0:0:
484,96,15498,1,0,0:0:0:0:
484,96,15664,2,0,L|336:100,1,135.000005149842,2|2,0:0|0:0,0:0:0:0:
152,36,16331,2,0,P|136:96|164:176,1,135.000005149842,2|0,0:0|0:0,0:0:0:0:
56,256,16998,5,0,0:0:0:0:
56,256,17081,1,0,0:0:0:0:
56,256,17164,2,0,L|128:256,1,67.5000025749208,2|0,0:0|0:0,0:0:0:0:
220,308,17498,1,0,0:0:0:0:
280,164,17664,2,0,L|280:248,1,67.5000025749208,2|0,0:0|0:0,0:0:0:0:
200,120,17998,1,0,0:0:0:0:
344,80,18164,6,0,L|380:92,4,33.7500012874604,6|0|0|0|0,0:0|0:0|0:0|0:0|0:0,0:0:0:0:
200,120,18664,2,0,L|204:196,1,67.5000025749208,2|0,0:0|0:0,0:0:0:0:
280,231,18998,2,0,P|216:215|152:256,1,135.000005149842,2|0,0:0|0:0,0:0:0:0:
148,264,19414,1,0,0:0:0:0:
144,284,19498,1,2,0:0:0:0:
272,320,19664,1,0,0:0:0:0:
144,364,19831,6,0,L|60:360,1,67.5000025749208,2|0,0:0|0:0,0:0:0:0:
12,236,20164,2,0,L|96:240,1,67.5000025749208,2|2,0:0|0:0,0:0:0:0:
284,308,20498,1,2,0:0:0:0:
216,252,20664,1,2,0:0:0:0:
299,211,20831,2,0,L|326:247,2,33.7500012874604,0|0|0,0:0|0:0|0:0,0:0:0:0:
200,126,21164,6,0,P|164:122|124:130,1,67.5000025749208,6|0,0:0|0:0,0:0:0:0:
96,284,21498,1,0,0:0:0:0:
96,284,21664,2,0,P|164:296|240:280,1,135.000005149842,2|2,0:0|0:0,0:0:0:0:
380,132,22331,2,0,L|376:276,1,135.000005149842,2|0,0:0|0:0,0:0:0:0:
217,344,22998,1,0,0:0:0:0:
225,352,23081,1,0,0:0:0:0:
225,352,23164,6,0,L|229:260,1,67.5000025749208,6|2,0:0|0:0,0:0:0:0:
252,152,23498,1,10,0:0:0:0:
304,312,23664,2,0,L|308:240,1,67.5000025749208,2|10,0:0|0:0,0:0:0:0:
176,188,23998,1,2,0:0:0:0:
80,348,24164,6,0,B|68:271|68:271|96:184,1,161.999995056153,6|8,0:0|0:0,0:0:0:0:
180,76,25664,1,2,0:0:0:0:
180,76,26164,1,2,0:0:0:0:
264,232,27164,2,0,L|272:176,2,53.9999983520508,10|0|0,0:0|0:0|0:0,0:0:0:0:
176,336,28164,6,0,P|252:304|316:348,1,161.999995056153,6|8,0:0|0:0,0:0:0:0:
452,260,29664,1,2,0:0:0:0:
452,260,30164,1,2,0:0:0:0:
368,76,31164,6,0,L|364:168,1,80.9999975280763,8|2,0:0|0:0,0:0:0:0:
284,248,32164,6,0,L|292:76,1,161.999995056153,6|8,0:0|0:0,0:0:0:0:
148,96,33664,1,2,0:0:0:0:
148,96,34164,1,2,0:0:0:0:
240,148,35164,2,0,B|244:179|239:206,1,53.9999983520508,10|0,0:0|0:0,0:0:0:0:
136,176,35831,1,0,0:0:0:0:
368,312,36164,6,0,P|332:316|288:308,1,67.5000025749208,2|2,0:0|0:0,0:0:0:0:
176,252,36498,1,2,0:0:0:0:
332,236,36664,1,2,0:0:0:0:
136,176,36831,2,0,P|188:168|216:176,1,67.5000025749208,2|2,0:0|0:0,0:0:0:0:
332,236,37164,6,0,L|380:240,3,33.7500012874604,2|0|0|0,0:0|0:0|0:0|0:0,0:0:0:0:
391,251,37498,2,0,L|387:179,1,67.5000025749208,8|2,0:0|0:0,0:0:0:0:
448,64,37831,2,0,L|464:108,3,33.7500012874604,0|0|8|0,0:0|0:0|0:0|0:0,0:0:0:0:
416,76,38164,6,0,P|384:80|332:72,1,67.5000025749208,6|0,0:0|0:0,0:0:0:0:
248,33,38498,1,2,0:0:0:0:
294,130,38664,2,0,P|238:124|196:129,1,67.5000025749208,0|2,0:0|0:0,0:0:0:0:
125,164,38998,1,0,0:0:0:0:
223,207,39164,2,0,P|239:275|215:343,1,135.000005149842,8|0,0:0|0:0,0:0:0:0:
84,268,39664,2,0,L|168:268,1,67.5000025749208,0|2,0:0|0:0,0:0:0:0:
278,347,39998,1,0,0:0:0:0:
278,347,40164,6,0,P|270:307|282:275,1,67.5000025749208,2|0,0:0|0:0,0:0:0:0:
380,317,40498,1,0,0:0:0:0:
481,352,40664,2,0,P|489:312|477:280,1,67.5000025749208,0|2,0:0|0:0,0:0:0:0:
395,220,40998,1,0,0:0:0:0:
453,130,41164,6,0,P|393:138|313:130,1,135.000005149842,8|0,0:0|0:0,0:0:0:0:
174,67,41664,1,0,0:0:0:0:
174,67,41831,2,0,L|178:147,1,67.5000025749208,2|0,0:0|0:0,0:0:0:0:
56,268,42164,6,0,L|48:128,1,135.000005149842,6|0,0:0|0:0,0:0:0:0:
126,207,42664,2,0,P|162:211|218:203,1,67.5000025749208,2|0,0:0|0:0,0:0:0:0:
342,196,42998,1,0,0:0:0:0:
273,109,43164,6,0,L|265:243,1,135.000005149842,8|0,0:0|0:0,0:0:0:0:
224,344,43664,1,0,0:0:0:0:
228,348,43831,2,0,P|288:352|336:348,1,101.250003862381,2|0,0:0|0:0,0:0:0:0:
356,344,44164,5,2,0:0:0:0:
476,288,44331,1,2,0:0:0:0:
347,235,44498,1,2,0:0:0:0:
428,100,44664,1,2,0:0:0:0:
428,100,44831,2,0,L|424:188,1,67.5000025749208,2|2,0:0|0:0,0:0:0:0:
280,231,45164,6,0,P|320:236|356:235,1,67.5000025749208,8|0,0:0|0:0,0:0:0:0:
288,112,45498,2,0,P|248:107|212:108,1,67.5000025749208,0|0,0:0|0:0,0:0:0:0:
120,196,45831,2,0,P|125:156|124:120,1,67.5000025749208,2|0,0:0|0:0,0:0:0:0:
171,291,46164,5,6,0:0:0:0:
280,231,46331,1,0,0:0:0:0:
280,231,46498,2,0,P|284:267|280:298,1,67.5000025749208,2|0,0:0|0:0,0:0:0:0:
376,352,46831,2,0,P|372:316|376:284,1,67.5000025749208,2|0,0:0|0:0,0:0:0:0:
428,140,47164,6,0,P|388:128|280:140,1,135.000005149842,8|2,0:0|0:0,0:0:0:0:
264,251,47664,1,0,0:0:0:0:
357,197,47831,1,2,0:0:0:0:
204,97,47998,1,0,0:0:0:0:
204,97,48164,6,0,L|208:185,1,67.5000025749208,2|0,0:0|0:0,0:0:0:0:
76,237,48498,2,0,L|164:233,1,67.5000025749208,2|0,0:0|0:0,0:0:0:0:
276,232,48831,1,2,0:0:0:0:
208,324,48998,1,0,0:0:0:0:
208,324,49164,6,0,P|280:336|352:312,1,135.000005149842,8|2,0:0|0:0,0:0:0:0:
496,240,49664,1,0,0:0:0:0:
420,352,49831,2,0,P|424:308|420:276,1,67.5000025749208,2|0,0:0|0:0,0:0:0:0:
345,118,50164,5,6,0:0:0:0:
466,113,50331,1,0,0:0:0:0:
379,198,50498,2,0,B|343:210|343:210|227:206,1,135.000005149842,2|2,0:0|0:0,0:0:0:0:
172,109,50998,1,0,0:0:0:0:
174,251,51164,6,0,P|138:259|98:251,1,67.5000025749208,10|0,0:0|0:0,0:0:0:0:
36,166,51498,2,0,P|72:158|112:166,1,67.5000025749208,2|0,2:0|2:0,0:0:0:0:
246,206,51831,2,0,P|254:242|246:282,1,67.5000025749208,2|0,2:0|2:0,0:0:0:0:
332,346,52164,6,0,L|416:342,1,67.5000025749208,2|0,0:0|0:0,0:0:0:0:
467,240,52498,2,0,L|391:244,1,67.5000025749208,2|0,0:0|0:0,0:0:0:0:
308,162,52831,2,0,L|392:158,1,67.5000025749208,2|0,0:0|0:0,0:0:0:0:
433,51,53164,6,0,P|441:91|433:127,1,67.5000025749208,8|0,0:0|0:0,0:0:0:0:
308,162,53498,2,0,P|304:195|312:228,1,67.5000025749208,2|0,0:0|0:0,0:0:0:0:
417,288,53831,2,0,P|421:321|414:354,1,67.5000025749208,2|2,0:0|0:0,0:0:0:0:
214,360,54164,6,0,P|186:280|218:208,1,161.999995056153,6|8,0:0|0:0,0:0:0:0:
302,128,55664,1,2,0:0:0:0:
392,41,56164,6,0,P|412:125|388:201,1,161.999995056153,6|8,0:0|0:0,0:0:0:0:
261,262,57664,1,2,0:0:0:0:
383,355,58164,6,0,L|391:187,1,161.999995056153,6|8,0:0|0:0,0:0:0:0:
318,66,59664,1,2,0:0:0:0:
296,169,61164,6,0,L|284:113,2,53.9999983520508,0|0|0,0:0|0:0|0:0,0:0:0:0:
352,288,62164,6,0,P|308:296|252:284,1,90,6|0,0:0|0:0,0:0:0:0:
172,352,62497,1,10,0:0:0:0:
172,352,62664,2,0,P|179:307|171:263,1,90,2|0,0:0|0:0,0:0:0:0:
296,169,62997,2,0,P|250:162|182:174,1,90,0|2,0:0|0:0,0:0:0:0:
96,244,63330,1,0,0:0:0:0:
100,224,63414,1,0,0:0:0:0:
104,204,63497,1,8,0:0:0:0:
48,128,63664,1,0,0:0:0:0:
192,60,63830,6,0,B|304:64,1,90,2|0,0:0|0:0,0:0:0:0:
468,140,64164,1,8,0:0:0:0:
468,140,64330,2,0,L|352:136,1,90,2|0,0:0|0:0,0:0:0:0:
208,248,64664,1,0,0:0:0:0:
260,144,64830,2,0,L|208:132,3,45,2|0|0|0,0:0|0:0|0:0|0:0,0:0:0:0:
291,131,65164,2,0,P|279:183|295:227,1,90,10|2,0:0|0:0,0:0:0:0:
421,292,65497,6,0,L|473:287,4,45,2|0|0|0|8,0:0|0:0|0:0|0:0|0:0,0:0:0:0:
300,336,65997,2,0,B|309:295|309:295|292:232|292:232|316:148,1,180,2|0,0:0|0:0,0:0:0:0:
432,80,66497,2,0,P|384:88|328:76,1,90,2|0,0:0|0:0,0:0:0:0:
208,36,66830,2,0,P|216:84|204:140,1,90,10|0,0:0|0:0,0:0:0:0:
128,88,67080,1,0,0:0:0:0:
128,88,67164,2,0,P|120:136|132:192,1,90,2|0,0:0|0:0,0:0:0:0:
243,288,67497,1,8,0:0:0:0:
381,204,67664,2,0,B|285:229|288:179|196:202,1,180,2|0,0:0|0:0,0:0:0:0:
28,113,68164,2,0,L|48:61,3,45,10|0|0|0,0:0|0:0|0:0|0:0,0:0:0:0:
120,117,68497,2,0,L|134:159,3,45,10|0|0|0,0:0|0:0|0:0|0:0,0:0:0:0:
203,200,68830,6,0,L|107:196,1,90,2|0,0:0|0:0,0:0:0:0:
168,322,69164,1,8,0:0:0:0:
168,322,69330,2,0,L|276:326,1,90,2|0,0:0|0:0,0:0:0:0:
311,178,69663,2,0,P|303:227|316:278,1,90,0|2,0:0|0:0,0:0:0:0:
437,337,69997,1,0,0:0:0:0:
432,315,70080,1,0,0:0:0:0:
426,292,70163,1,10,0:0:0:0:
459,170,70330,1,0,0:0:0:0:
321,83,70497,6,0,P|273:95|209:79,1,90,2|0,0:0|0:0,0:0:0:0:
80,145,70830,1,8,0:0:0:0:
80,145,70997,2,0,L|84:249,1,90,2|0,0:0|0:0,0:0:0:0:
177,350,71330,2,0,L|173:254,1,90,0|2,0:0|0:0,0:0:0:0:
276,172,71663,1,0,0:0:0:0:
276,172,71747,1,0,0:0:0:0:
276,172,71830,2,0,P|231:167|186:170,1,90,8|0,0:0|0:0,0:0:0:0:
368,323,72163,6,0,L|412:335,3,45,2|0|0|0,0:0|0:0|0:0|0:0,0:0:0:0:
344,332,72497,2,0,P|348:280|344:232,1,90,8|2,0:0|0:0,0:0:0:0:
334,116,72830,1,0,0:0:0:0:
270,245,72997,1,0,0:0:0:0:
409,164,73163,2,0,P|415:113|404:60,1,90,2|0,0:0|0:0,0:0:0:0:
253,26,73497,2,0,P|246:70|253:114,1,90,10|0,0:0|0:0,0:0:0:0:
317,194,73747,1,0,0:0:0:0:
317,194,73830,6,0,L|197:198,1,107.999996704102,2|2,0:0|0:0,0:0:0:0:
289,270,74330,2,0,L|181:273,1,107.999996704102,2|2,0:0|0:0,0:0:0:0:
109,338,74830,6,0,P|93:286|105:218,1,107.999996704102,2|2,0:0|0:0,0:0:0:0:
181,272,75330,2,0,P|186:218|170:167,1,107.999996704102,2|2,0:0|0:0,0:0:0:0:
20,104,75830,6,0,L|120:104,1,90,6|0,0:0|0:0,0:0:0:0:
296,176,76163,1,8,0:0:0:0:
193,57,76330,2,0,P|201:109|185:165,1,90,2|0,0:0|0:0,0:0:0:0:
116,268,76663,2,0,B|96:300|96:300|176:276|264:288,1,180
256,288,77080,1,0,0:0:0:0:
272,292,77163,1,10,0:0:0:0:
444,232,77330,1,0,0:0:0:0:
388,328,77496,6,0,L|432:356,3,45,2|0|0|0,0:0|0:0|0:0|0:0,0:0:0:0:
363,338,77830,1,0,0:0:0:0:
204,253,77996,2,0,L|311:255,1,90,10|0,0:0|0:0,0:0:0:0:
344,76,78330,2,0,P|348:132|236:144,1,180,0|0,0:0|2:0,0:0:0:0:
236,140,78746,1,0,2:0:0:0:
232,124,78830,1,10,2:0:0:0:
324,248,78996,1,0,0:0:0:0:
204,332,79163,5,2,0:0:0:0:
184,336,79246,1,0,0:0:0:0:
160,336,79330,1,0,0:0:0:0:
136,332,79413,1,0,0:0:0:0:
115,323,79496,1,0,0:0:0:0:
225,229,79663,2,0,L|123:224,1,90,10|0,0:0|0:0,0:0:0:0:
57,102,79996,1,0,0:0:0:0:
57,102,80163,2,0,L|157:106,1,90,2|0,0:0|0:0,0:0:0:0:
295,40,80496,2,0,L|291:136,1,90,10|0,0:0|0:0,0:0:0:0:
254,202,80746,1,0,0:0:0:0:
254,202,80830,6,0,P|306:207|342:190,1,90,2|0,0:0|0:0,0:0:0:0:
397,59,81163,2,0,P|414:99|450:126,1,90,0|10,0:0|0:0,0:0:0:0:
488,265,81496,2,0,P|436:270|400:253,1,90,0|0,0:0|0:0,0:0:0:0:
271,158,81830,1,2,0:0:0:0:
335,322,81996,1,0,0:0:0:0:
335,322,82163,2,0,P|323:274|351:170,1,135,8|0,0:0|0:0,0:0:0:0:
360,171,82496,6,0,L|420:183,2,45,6|0|0,0:0|0:0|0:0,0:0:0:0:
284,70,82996,2,0,P|284:122|268:162,1,90,2|0,0:0|0:0,0:0:0:0:
200,319,83496,2,0,L|192:375,2,45,8|0|0,0:0|0:0|0:0,0:0:0:0:
291,238,83996,2,0,L|202:242,1,90,2|0,0:0|0:0,0:0:0:0:
24,328,84496,6,0,L|92:324,1,67.5000025749208,6|0,0:0|0:0,0:0:0:0:
201,242,84829,1,0,0:0:0:0:
301,342,84996,2,0,B|273:290|329:262|289:190,1,135.000005149842,0|0,0:0|0:0,0:0:0:0:
420,100,85496,2,0,P|368:108|344:100,1,67.5000025749208,8|0,0:0|0:0,0:0:0:0:
232,214,85829,2,0,P|284:206|308:214,1,67.5000025749208,0|0,0:0|0:0,0:0:0:0:
432,296,86162,2,0,P|380:304|356:296,1,67.5000025749208,2|0,0:0|0:0,0:0:0:0:
184,288,86496,5,6,0:0:0:0:
272,332,86662,1,0,0:0:0:0:
366,300,86829,1,8,0:0:0:0:
272,136,86996,2,0,L|270:237,1,90,0|0,0:0|0:0,0:0:0:0:
184,288,87329,2,0,L|188:148,1,135,0|0,0:0|0:0,0:0:0:0:
188,136,87662,5,0,0:0:0:0:
116,80,87829,1,8,0:0:0:0:
32,120,87996,1,0,0:0:0:0:
56,248,88162,6,0,P|104:252|180:232,1,90,2|0,0:0|0:0,0:0:0:0:
264,152,88496,1,8,0:0:0:0:
172,328,88662,2,0,P|208:296|248:229,1,90,2|0,0:0|0:0,0:0:0:0:
360,84,88996,2,0,P|344:136|368:216,1,135,0|0,0:0|0:0,0:0:0:0:
376,224,89329,5,2,0:0:0:0:
388,240,89412,1,0,0:0:0:0:
396,256,89496,1,8,0:0:0:0:
400,272,89579,1,0,0:0:0:0:
400,288,89662,1,2,0:0:0:0:
396,304,89746,1,0,0:0:0:0:
388,316,89829,1,6,0:0:0:0:
100,264,95829,6,0,L|68:312,4,33.7500012874604,6|0|0|0|0,0:0|0:0|0:0|0:0|0:0,0:0:0:0:
196,300,96329,2,0,P|236:304|284:296,1,67.5000025749208,2|0,0:0|0:0,0:0:0:0:
316,364,96662,2,0,P|304:320|316:228,1,135.000005149842,2|0,0:0|0:0,0:0:0:0:
324,216,97078,1,0,0:0:0:0:
340,200,97162,1,2,0:0:0:0:
404,276,97328,1,0,0:0:0:0:
412,92,97495,6,0,P|408:128|420:180,1,67.5000025749208,2|0,0:0|0:0,0:0:0:0:
314,232,97828,2,0,P|318:196|306:144,1,67.5000025749208,2|2,0:0|0:0,0:0:0:0:
224,64,98162,1,2,0:0:0:0:
136,36,98328,1,2,0:0:0:0:
76,108,98495,2,0,L|48:88,2,33.7500012874604,0|0|0,0:0|0:0|0:0,0:0:0:0:
220,188,98828,6,0,L|228:284,1,67.5000025749208,2|0,0:0|0:0,0:0:0:0:
144,344,99162,1,0,0:0:0:0:
144,344,99328,2,0,L|129:196,1,135.000005149842,2|2,0:0|0:0,0:0:0:0:
304,40,99995,2,0,P|292:84|320:184,1,135.000005149842,2|0,0:0|0:0,0:0:0:0:
484,300,100662,5,0,0:0:0:0:
484,300,100745,1,0,0:0:0:0:
484,300,100828,2,0,P|432:304|388:296,1,67.5000025749208,2|2,0:0|0:0,0:0:0:0:
296,328,101162,1,10,0:0:0:0:
440,228,101328,2,0,P|404:224|368:232,1,67.5000025749208,2|10,0:0|0:0,0:0:0:0:
256,256,101662,1,2,0:0:0:0:
136,340,101828,6,0,B|124:288|124:288|132:188,1,135.000005149842,6|8,0:0|0:0,0:0:0:0:
40,108,102328,2,0,P|80:104|116:120,1,67.5000025749208,2|0,0:0|0:0,0:0:0:0:
224,44,102662,2,0,P|216:76|236:196,1,135.000005149842,0|0,0:0|0:0,0:0:0:0:
226,176,103078,1,0,0:0:0:0:
226,176,103162,1,8,0:0:0:0:
112,216,103328,1,0,0:0:0:0:
252,268,103495,6,0,L|184:265,1,67.5000025749208,2|0,0:0|0:0,0:0:0:0:
300,336,103828,2,0,L|368:333,1,67.5000025749208,8|0,0:0|0:0,0:0:0:0:
464,284,104162,2,0,L|480:332,2,33.7500012874604,2|0|0,0:0|0:0|0:0,0:0:0:0:
384,212,104495,2,0,L|368:260,2,33.7500012874604,10|0|0,0:0|0:0|0:0,0:0:0:0:
432,116,104828,6,0,L|332:112,1,67.5000025749208,6|0,0:0|0:0,0:0:0:0:
264,44,105162,1,8,0:0:0:0:
264,44,105328,2,0,P|276:108|256:180,1,135.000005149842,2|0,0:0|0:0,0:0:0:0:
176,308,105995,1,0,0:0:0:0:
272,264,106162,1,8,0:0:0:0:
272,264,106245,1,0,0:0:0:0:
272,264,106328,1,0,0:0:0:0:
272,264,106412,2,0,L|268:304,1,33.7500012874604,0|2,0:0|0:0,0:0:0:0:
96,344,106662,1,0,0:0:0:0:
96,344,106745,1,0,0:0:0:0:
96,344,106828,6,0,L|88:280,3,33.7500012874604,2|0|0|0,0:0|0:0|0:0|0:0,0:0:0:0:
156,260,107162,2,0,L|164:196,3,33.7500012874604,8|0|0|0,0:0|0:0|0:0|0:0,0:0:0:0:
120,156,107495,2,0,P|156:148|208:156,1,67.5000025749208,8|0,0:0|0:0,0:0:0:0:
264,224,107828,6,0,B|308:236|308:236|404:228,1,135.000005149842,6|8,0:0|0:0,0:0:0:0:
492,132,108328,2,0,P|444:136|404:132,1,67.5000025749208,2|0,0:0|0:0,0:0:0:0:
336,32,108662,2,0,L|328:168,1,135.000005149842,0|0,0:0|0:0,0:0:0:0:
328,166,109078,1,0,0:0:0:0:
328,166,109162,1,8,0:0:0:0:
384,288,109328,1,0,0:0:0:0:
240,252,109495,6,0,P|272:256|312:252,1,67.5000025749208,0|0,0:0|0:0,0:0:0:0:
180,172,109828,2,0,P|148:168|108:172,1,67.5000025749208,2|0,0:0|0:0,0:0:0:0:
64,312,110162,2,0,L|44:356,2,33.7500012874604,8|0|0,0:0|0:0|0:0,0:0:0:0:
148,244,110495,2,0,L|168:288,2,33.7500012874604,8|0|0,0:0|0:0|0:0,0:0:0:0:
60,92,110828,6,0,P|92:96|148:88,1,67.5000025749208,6|0,0:0|0:0,0:0:0:0:
280,36,111162,1,8,0:0:0:0:
280,36,111328,2,0,L|276:176,1,135.000005149842,2|0,0:0|0:0,0:0:0:0:
176,308,111995,1,0,0:0:0:0:
280,284,112162,1,8,0:0:0:0:
280,284,112245,1,0,0:0:0:0:
280,284,112328,1,0,0:0:0:0:
280,284,112412,2,0,L|276:328,1,33.7500012874604,0|0,0:0|0:0,0:0:0:0:
436,328,112662,1,0,0:0:0:0:
444,336,112745,1,0,0:0:0:0:
444,336,112828,6,0,L|436:276,3,33.7500012874604,6|0|0|0,0:0|0:0|0:0|0:0,0:0:0:0:
388,240,113162,2,0,L|396:180,3,33.7500012874604,8|0|0|0,0:0|0:0|0:0|0:0,0:0:0:0:
424,132,113495,2,0,L|336:136,1,67.5000025749208,8|0,0:0|0:0,0:0:0:0:
130,140,113828,6,0,L|134:200,1,45,6|0,0:0|0:0,0:0:0:0:
138,344,114162,1,0,0:0:0:0:
138,344,114495,1,0,0:0:0:0:
58,256,114828,6,0,L|14:260,2,45,8|0|0,0:0|0:0|0:0,0:0:0:0:
203,253,115328,2,0,L|247:256,2,45,2|0|0,0:0|0:0|0:0,0:0:0:0:
319,197,115828,2,0,L|315:142,1,45,2|0,0:0|0:0,0:0:0:0:
206,70,116162,1,0,0:0:0:0:
206,70,116495,1,0,0:0:0:0:
319,197,116828,2,0,L|255:193,2,45,8|0|0,0:0|0:0|0:0,0:0:0:0:
454,197,117328,2,0,L|518:193,2,45,2|0|0,0:0|0:0|0:0,0:0:0:0:
384,80,117828,5,2,0:0:0:0:
384,80,118162,1,0,0:0:0:0:
384,80,118495,1,0,0:0:0:0:
384,241,118828,2,0,L|388:293,2,45,8|0|0,0:0|0:0|0:0,0:0:0:0:
248,238,119328,2,0,L|244:290,2,45,2|0|0,0:0|0:0|0:0,0:0:0:0:
134,164,119828,2,0,L|189:162,1,45,2|0,0:0|0:0,0:0:0:0:
306,114,120162,1,0,0:0:0:0:
306,114,120495,1,0,0:0:0:0:
484,164,120828,6,0,P|455:166|424:160,1,45,8|0,0:0|0:0,0:0:0:0:
338,264,121162,2,0,P|362:239|377:218,1,45,0|2,0:0|0:0,0:0:0:0:
306,114,121495,2,0,P|330:138|351:153,1,45,0|0,0:0|0:0,0:0:0:0:
232,228,121828,6,0,L|229:171,1,45,6|0,0:0|0:0,0:0:0:0:
166,62,122162,1,0,0:0:0:0:
166,62,122495,1,0,0:0:0:0:
63,228,122828,2,0,L|60:184,2,45,8|0|0,0:0|0:0|0:0,0:0:0:0:
142,290,123328,2,0,L|139:334,2,45,2|0|0,0:0|0:0|0:0,0:0:0:0:
236,258,123828,6,0,L|280:261,1,45,2|0,0:0|0:0,0:0:0:0:
383,171,124162,1,0,0:0:0:0:
383,171,124495,1,0,0:0:0:0:
467,309,124828,6,0,L|471:245,2,45,8|0|0,0:0|0:0|0:0,0:0:0:0:
383,171,125328,2,0,L|439:175,2,45,2|0|0,0:0|0:0|0:0,0:0:0:0:
263,323,125828,6,0,P|259:295|267:263,1,45,2|0,0:0|0:0,0:0:0:0:
214,164,126162,2,0,P|236:180|253:209,1,45,0|0,0:0|0:0,0:0:0:0:
150,286,126495,2,0,P|166:263|195:246,1,45,0|0,0:0|0:0,0:0:0:0:
350,313,126828,2,0,P|358:271|347:209,1,90,8|0,0:0|0:0,0:0:0:0:
300,129,127328,1,0,0:0:0:0:
243,221,127495,1,2,0:0:0:0:
180,133,127662,1,2,0:0:0:0:
286,117,127828,6,0,L|290:73,1,45,10|2,0:0|0:0,0:0:0:0:
175,188,128162,2,0,L|171:143,1,45,2|2,0:0|0:0,0:0:0:0:
257,280,128495,2,0,L|260:235,1,45,2|2,0:0|0:0,0:0:0:0:
416,92,128828,6,0,L|436:64,3,33.7500012874604,8|0|0|0,0:0|0:0|0:0|0:0,0:0:0:0:
388,96,129162,2,0,P|384:136|392:176,1,67.5000025749208,2|2,0:0|0:0,0:0:0:0:
484,300,129495,2,0,L|524:324,3,33.7500012874604,8|0|2|0,0:0|0:0|0:0|0:0,0:0:0:0:
456,300,129828,6,0,P|404:304|360:292,1,67.5000025749208,6|0,0:0|0:0,0:0:0:0:
304,216,130162,2,0,P|270:212|237:217,1,67.5000025749208,0|0,0:0|0:0,0:0:0:0:
152,324,130495,2,0,L|148:240,1,67.5000025749208,0|0,0:0|0:0,0:0:0:0:
68,148,130828,1,8,0:0:0:0:
68,148,131162,1,0,0:0:0:0:
143,224,131328,1,2,0:0:0:0:
219,147,131495,2,0,L|132:148,1,67.5000025749208,0|0,0:0|0:0,0:0:0:0:
51,56,131828,6,0,L|118:56,1,67.5000025749208,2|0,0:0|0:0,0:0:0:0:
219,147,132162,2,0,P|225:180|219:214,1,67.5000025749208,0|0,0:0|0:0,0:0:0:0:
309,315,132495,2,0,P|303:281|310:249,1,67.5000025749208,0|0,0:0|0:0,0:0:0:0:
403,151,132828,2,0,L|470:154,2,67.5000025749208,8|0|0,0:0|0:0|0:0,0:0:0:0:
213,144,133328,2,0,L|145:147,2,67.5000025749208,2|0|0,0:0|0:0|0:0,0:0:0:0:
312,324,133828,6,0,P|364:328|396:320,1,67.5000025749208,2|0,0:0|0:0,0:0:0:0:
450,229,134162,2,0,P|398:225|366:233,1,67.5000025749208,0|0,0:0|0:0,0:0:0:0:
320,124,134495,2,0,L|412:128,1,67.5000025749208,0|0,0:0|0:0,0:0:0:0:
260,48,134828,5,8,0:0:0:0:
260,48,135162,1,0,0:0:0:0:
217,161,135328,1,2,0:0:0:0:
118,89,135495,2,0,L|212:92,1,67.5000025749208,0|0,0:0|0:0,0:0:0:0:
67,156,135828,6,0,P|63:196|71:232,1,67.5000025749208,2|0,0:0|0:0,0:0:0:0:
150,336,136162,1,0,0:0:0:0:
150,336,136495,1,0,0:0:0:0:
270,272,136828,2,0,P|274:232|266:196,1,67.5000025749208,8|0,0:0|0:0,0:0:0:0:
297,114,137162,2,0,P|263:108|230:113,1,67.5000025749208,0|2,0:0|0:0,0:0:0:0:
169,210,137495,1,0,0:0:0:0:
270,272,137662,1,0,0:0:0:0:
363,205,137828,6,0,L|371:285,1,67.5000025749208,2|0,0:0|0:0,0:0:0:0:
468,142,138162,2,0,L|460:222,1,67.5000025749208,0|0,0:0|0:0,0:0:0:0:
452,352,138495,2,0,P|416:360|372:348,1,67.5000025749208,0|0,0:0|0:0,0:0:0:0:
292,260,138828,5,8,0:0:0:0:
292,260,139162,1,0,0:0:0:0:
225,360,139328,1,2,0:0:0:0:
138,274,139495,2,0,L|215:273,1,67.5000025749208,0|0,0:0|0:0,0:0:0:0:
378,303,139828,6,0,L|382:227,1,67.5000025749208,2|0,0:0|0:0,0:0:0:0:
349,103,140162,1,0,0:0:0:0:
349,103,140495,1,0,0:0:0:0:
207,66,140828,6,0,P|203:110|215:154,1,67.5000025749208,8|0,0:0|0:0,0:0:0:0:
272,276,141162,1,0,0:0:0:0:
172,206,141328,1,2,0:0:0:0:
284,159,141495,2,0,L|360:158,1,67.5000025749208,0|0,0:0|0:0,0:0:0:0:
405,308,141828,6,0,P|409:268|397:224,1,67.5000025749208,2|0,0:0|0:0,0:0:0:0:
481,216,142162,2,0,P|455:184|415:162,1,67.5000025749208,0|0,0:0|0:0,0:0:0:0:
465,96,142495,2,0,P|425:92|381:104,1,67.5000025749208,0|0,0:0|0:0,0:0:0:0:
333,48,142828,6,0,P|357:96|329:184,1,135.000005149842,8|0,0:0|0:0,0:0:0:0:
232,112,143328,1,2,0:0:0:0:
232,112,143495,2,0,L|152:108,1,67.5000025749208,2|2,0:0|0:0,0:0:0:0:
48,40,143828,6,0,B|56:84|56:84|44:180,1,135.000005149842,2|10,0:0|0:0,0:0:0:0:
20,292,144328,1,2,0:0:0:0:
112,212,144495,2,0,P|152:208|188:216,1,67.5000025749208,2|2,0:0|0:0,0:0:0:0:
276,304,144828,6,0,L|256:344,3,33.7500012874604,8|0|0|0,0:0|0:0|0:0|0:0,0:0:0:0:
292,280,145162,2,0,P|288:232|292:188,1,67.5000025749208,8|0,0:0|0:0,0:0:0:0:
360,116,145495,2,0,L|316:100,1,33.7500012874604,2|0,0:0|0:0,0:0:0:0:
232,108,145662,2,0,L|200:119,1,33.7500012874604,2|2,0:0|0:0,0:0:0:0:
148,220,145828,5,6,0:0:0:0:
88,308,153828,5,6,0:0:0:0:
116,304,154162,1,0,0:0:0:0:
144,300,154495,1,0,0:0:0:0:
292,232,154828,5,2,0:0:0:0:
264,228,155161,1,0,0:0:0:0:
236,224,155495,1,0,0:0:0:0:
116,116,155828,5,2,0:0:0:0:
144,112,156162,1,0,0:0:0:0:
172,108,156495,1,0,0:0:0:0:
328,60,156828,5,2,0:0:0:0:
324,88,157162,1,0,0:0:0:0:
320,116,157495,1,0,0:0:0:0:
408,252,157828,5,2,0:0:0:0:
412,224,158162,1,0,0:0:0:0:
416,196,158495,1,0,0:0:0:0:
296,304,158828,5,2,0:0:0:0:
268,300,159162,1,0,0:0:0:0:
240,296,159495,1,0,0:0:0:0:
88,240,159828,6,0,L|164:236,1,67.5000025749208,2|2,0:0|0:0,0:0:0:0:
264,156,160162,2,0,L|188:160,1,67.5000025749208,2|2,0:0|0:0,0:0:0:0:
100,84,160495,2,0,L|176:80,1,67.5000025749208,2|2,0:0|0:0,0:0:0:0:
300,52,160828,6,0,L|308:8,2,33.7500012874604,8|0|0,0:0|0:0|0:0,0:0:0:0:
384,140,161162,2,0,L|376:96,2,33.7500012874604,10|0|0,0:0|0:0|0:0,0:0:0:0:
304,232,161495,2,0,L|312:188,3,33.7500012874604,2|0|2|2,0:0|0:0|0:0|0:0,0:0:0:0:
300,256,161828,6,0,P|240:260|212:252,1,67.5000025749208,6|0,0:0|0:0,0:0:0:0:
88,220,162162,1,2,0:0:0:0:
164,348,162328,2,0,P|160:288|168:260,1,67.5000025749208,0|2,0:0|0:0,0:0:0:0:
240,168,162662,1,0,0:0:0:0:
84,76,162828,6,0,P|140:100|224:76,1,135.000005149842,8|2,0:0|0:0,0:0:0:0:
312,24,163328,2,0,L|304:116,1,67.5000025749208,0|2,0:0|0:0,0:0:0:0:
240,168,163662,1,0,0:0:0:0:
368,144,163828,2,0,L|380:304,1,135.000005149842,2|2,0:0|0:0,0:0:0:0:
264,344,164328,2,0,P|300:352|336:344,1,67.5000025749208,0|2,0:0|0:0,0:0:0:0:
452,308,164662,1,0,0:0:0:0:
296,264,164828,6,0,P|240:256|164:268,1,135.000005149842,8|2,0:0|0:0,0:0:0:0:
88,344,165328,1,0,0:0:0:0:
24,256,165495,1,2,0:0:0:0:
108,188,165662,1,0,0:0:0:0:
108,188,165745,1,0,0:0:0:0:
108,188,165828,6,0,B|148:196|148:196|248:184,1,135.000005149842,6|2,0:0|0:0,0:0:0:0:
304,264,166328,2,0,P|280:212|308:116,1,135.000005149842,2|2,0:0|0:0,0:0:0:0:
376,48,166828,2,0,L|224:44,1,135.000005149842,8|2,0:0|0:0,0:0:0:0:
136,64,167328,1,0,0:0:0:0:
225,134,167495,2,0,L|356:136,1,101.250003862381,2|0,0:0|0:0,0:0:0:0:
352,136,167828,5,2,0:0:0:0:
476,172,167995,1,0,0:0:0:0:
476,172,168162,1,2,0:0:0:0:
356,216,168328,1,2,0:0:0:0:
460,292,168495,2,0,L|372:296,1,67.5000025749208,0|2,0:0|0:0,0:0:0:0:
240,348,168828,6,0,P|248:308|244:272,1,67.5000025749208,8|0,0:0|0:0,0:0:0:0:
215,175,169162,1,2,0:0:0:0:
114,263,169328,1,0,0:0:0:0:
45,146,169495,1,2,0:0:0:0:
146,56,169662,1,0,0:0:0:0:
283,179,169828,6,0,L|215:175,1,67.5000025749208,6|0,0:0|0:0,0:0:0:0:
368,132,170162,2,0,L|360:220,1,67.5000025749208,2|0,0:0|0:0,0:0:0:0:
428,292,170495,2,0,L|436:204,1,67.5000025749208,2|0,0:0|0:0,0:0:0:0:
328,284,170828,2,0,B|288:292|288:292|180:284,1,135.000005149842,10|2,0:0|0:0,0:0:0:0:
88,344,171328,2,0,L|92:272,1,67.5000025749208,0|2,0:0|0:0,0:0:0:0:
124,164,171662,1,0,0:0:0:0:
24,232,171828,6,0,P|12:164|36:92,1,135.000005149842,2|2,0:0|0:0,0:0:0:0:
140,36,172328,2,0,L|207:39,1,67.5000025749208,0|2,0:0|0:0,0:0:0:0:
308,108,172662,1,0,0:0:0:0:
176,116,172828,2,0,L|184:272,1,135.000005149842,10|2,0:0|0:0,0:0:0:0:
248,328,173328,1,0,0:0:0:0:
320,264,173495,1,2,0:0:0:0:
388,328,173662,1,0,0:0:0:0:
456,264,173828,6,0,P|460:216|448:176,1,67.5000025749208,6|0,0:0|0:0,0:0:0:0:
504,100,174162,2,0,P|456:112|368:104,1,135.000005149842,2|2,0:0|0:0,0:0:0:0:
256,64,174662,1,2,0:0:0:0:
320,164,174828,2,0,L|328:260,1,67.5000025749208,10|0,0:0|0:0,0:0:0:0:
240,320,175162,2,0,L|232:224,1,67.5000025749208,2|0,0:0|0:0,0:0:0:0:
224,144,175495,1,2,0:0:0:0:
136,208,175662,1,0,0:0:0:0:
68,92,175828,6,0,P|112:96|152:88,1,67.5000025749208,2|0,0:0|0:0,0:0:0:0:
212,16,176162,2,0,P|240:49|274:72,1,67.5000025749208,2|0,0:0|0:0,0:0:0:0:
368,52,176495,2,0,P|363:96|372:136,1,67.5000025749208,2|0,0:0|0:0,0:0:0:0:
432,220,176828,6,0,L|348:216,2,67.5000025749208,12|2|8,0:0|0:0|0:0,0:0:0:0:
360,304,177328,1,2,0:0:0:0:
268,328,177495,1,2,0:0:0:0:
184,284,177662,1,2,0:0:0:0:
268,192,177828,6,0,P|192:164|108:192,1,161.999995056153,6|8,0:0|0:0,0:0:0:0:
40,280,179328,1,2,0:0:0:0:
192,356,179828,6,0,L|200:192,1,161.999995056153,6|8,0:0|0:0,0:0:0:0:
208,72,181328,1,2,0:0:0:0:
368,36,181828,6,0,P|352:120|368:196,1,161.999995056153,6|8,0:0|0:0,0:0:0:0:
428,300,183328,1,2,0:0:0:0:
228,340,183828,6,0,L|232:272,1,67.5000025749208,2|2,0:0|0:0,0:0:0:0:
160,172,184162,2,0,L|156:240,1,67.5000025749208,2|2,0:0|0:0,0:0:0:0:
60,316,184495,2,0,L|64:248,1,67.5000025749208,2|2,0:0|0:0,0:0:0:0:
48,128,184828,6,0,L|24:92,2,33.7500012874604,8|0|0,0:0|0:0|0:0,0:0:0:0:
160,172,185162,2,0,L|184:136,2,33.7500012874604,8|0|0,0:0|0:0|0:0,0:0:0:0:
260,80,185495,2,0,P|264:120|260:160,1,67.5000025749208,2|2,0:0|0:0,0:0:0:0:
260,168,185745,1,2,0:0:0:0:
256,184,185828,1,6,0:0:0:0:
320,48,197494,6,0,L|204:52,1,90,14|2,0:0|0:0,0:0:0:0:
96,56,197827,1,2,0:0:0:0:
208,128,197994,2,0,L|297:124,1,90,14|2,0:0|0:0,0:0:0:0:
440,100,198327,1,2,0:0:0:0:
344,196,198494,2,0,L|236:200,1,90,10|2,0:0|0:0,0:0:0:0:
148,180,198827,1,2,0:0:0:0:
208,272,198994,1,10,0:0:0:0:
104,244,199160,1,2,0:0:0:0:
156,340,199327,1,2,0:0:0:0:
308,180,199494,6,0,P|304:232|308:284,1,90,6|0,0:0|0:0,0:0:0:0:
452,340,199827,1,0,0:0:0:0:
264,340,199994,2,0,P|308:348|360:336,1,90,8|0,0:0|0:0,0:0:0:0:
492,224,200327,2,0,P|448:216|396:228,1,90,0|2,0:0|0:0,0:0:0:0:
312,112,200660,1,0,0:0:0:0:
308,132,200744,1,0,0:0:0:0:
304,148,200827,1,8,0:0:0:0:
416,104,200994,1,0,0:0:0:0:
300,240,201160,6,0,L|320:288,3,45,2|0|0|0,0:0|0:0|0:0|0:0,0:0:0:0:
268,240,201494,2,0,P|224:244|172:240,1,90,0|8,0:0|0:0,0:0:0:0:
40,152,201827,1,0,0:0:0:0:
100,308,201994,2,0,L|104:200,1,90,0|2,0:0|0:0,0:0:0:0:
156,84,202327,1,0,0:0:0:0:
156,84,202410,1,0,0:0:0:0:
156,84,202494,1,8,0:0:0:0:
40,152,202660,1,0,0:0:0:0:
220,144,202827,6,0,L|208:192,3,45,6|0|0|0,0:0|0:0|0:0|0:0,0:0:0:0:
256,168,203160,2,0,B|304:160|352:172,1,90,8|2,0:0|0:0,0:0:0:0:
496,296,203494,1,0,0:0:0:0:
324,248,203660,1,0,0:0:0:0:
484,312,203827,2,0,L|392:316,1,90,2|0,0:0|0:0,0:0:0:0:
266,219,204160,2,0,L|370:215,1,90,8|0,0:0|0:0,0:0:0:0:
376,216,204410,1,0,0:0:0:0:
396,216,204494,5,2,0:0:0:0:
384,108,204660,1,0,0:0:0:0:
480,160,204827,1,0,0:0:0:0:
380,204,204994,1,8,0:0:0:0:
404,100,205160,1,0,0:0:0:0:
480,176,205327,1,0,0:0:0:0:
368,216,205494,2,0,B|272:188|292:256|184:212,1,180,2|8,0:0|0:0,0:0:0:0:
76,100,206160,6,0,L|68:40,2,45,6|0|0,0:0|0:0|0:0,0:0:0:0:
48,204,206660,2,0,L|152:192,1,90,2|0,0:0|0:0,0:0:0:0:
244,276,207160,6,0,L|240:320,2,45,10|0|0,0:0|0:0|0:0,0:0:0:0:
300,184,207660,2,0,P|260:172|200:180,1,90,2|0,0:0|0:0,0:0:0:0:
140,261,208160,6,0,L|136:173,1,67.5000025749208,6|0,0:0|0:0,0:0:0:0:
76,88,208493,1,0,0:0:0:0:
76,88,208660,2,0,B|120:108|120:108|232:100,1,135.000005149842,0|0,0:0|0:0,0:0:0:0:
332,56,209160,6,0,P|336:96|328:144,1,67.5000025749208,10|0,0:0|0:0,0:0:0:0:
420,160,209493,2,0,P|394:191|354:219,1,67.5000025749208,0|0,0:0|0:0,0:0:0:0:
412,296,209826,2,0,P|372:300|324:292,1,67.5000025749208,2|0,0:0|0:0,0:0:0:0:
168,264,210160,5,6,0:0:0:0:
296,200,210326,1,0,0:0:0:0:
220,344,210493,1,8,0:0:0:0:
220,344,210660,2,0,L|124:340,1,90,2|0,0:0|0:0,0:0:0:0:
36,232,210993,2,0,L|152:236,1,90,0|0,0:0|0:0,0:0:0:0:
296,200,211326,5,2,0:0:0:0:
212,216,211493,1,8,0:0:0:0:
272,280,211660,1,2,0:0:0:0:
380,312,211826,6,0,L|386:222,1,90,2|0,0:0|0:0,0:0:0:0:
476,108,212160,2,0,L|469:197,1,90,8|2,0:0|0:0,0:0:0:0:
456,324,212493,1,0,0:0:0:0:
288,260,212660,2,0,P|348:264|400:244,1,90,2|8,0:0|0:0,0:0:0:0:
336,120,212993,1,2,0:0:0:0:
320,116,213076,1,0,0:0:0:0:
300,112,213160,1,8,0:0:0:0:
284,112,213243,1,0,0:0:0:0:
268,116,213326,1,2,0:0:0:0:
252,124,213410,1,2,0:0:0:0:
236,136,213493,6,0,P|184:148|132:136,1,90,6|0,0:0|0:0,0:0:0:0:
20,44,213826,1,10,0:0:0:0:
64,204,213993,2,0,L|74:114,1,90,0|2,0:0|0:0,0:0:0:0:
132,248,214326,2,0,B|171:259|171:259|219:251,1,90,0|2,0:0|0:0,0:0:0:0:
344,180,214660,1,0,0:0:0:0:
340,196,214743,1,0,0:0:0:0:
336,212,214826,1,8,0:0:0:0:
236,172,214993,1,0,0:0:0:0:
376,300,215160,6,0,L|324:292,3,45,2|0|0|0,0:0|0:0|0:0|0:0,0:0:0:0:
401,313,215493,1,10,0:0:0:0:
260,339,215659,2,0,B|250:287|250:287|268:222,1,90,0|2,0:0|0:0,0:0:0:0:
452,164,215993,2,0,B|408:156|408:156|344:172,1,90,0|2,0:0|0:0,0:0:0:0:
256,104,216326,2,0,L|220:56,2,45,0|0|8,0:0|0:0|0:0,0:0:0:0:
292,208,216660,1,0,0:0:0:0:
180,144,216826,6,0,P|188:192|180:236,1,90,6|0,0:0|0:0,0:0:0:0:
128,360,217160,1,10,0:0:0:0:
284,312,217326,2,0,P|240:320|172:292,1,90,0|2,0:0|0:0,0:0:0:0:
116,264,217660,1,0,0:0:0:0:
80,180,217826,1,2,0:0:0:0:
112,96,217993,1,0,0:0:0:0:
208,176,218160,2,0,L|300:172,1,90,8|0,0:0|0:0,0:0:0:0:
316,172,218410,1,0,0:0:0:0:
332,172,218493,5,2,0:0:0:0:
452,248,218660,1,0,0:0:0:0:
460,104,218826,1,10,0:0:0:0:
372,260,218993,2,0,B|276:232|296:300|188:256,1,180,0|0,0:0|0:0,0:0:0:0:
52,332,219493,2,0,L|44:268,3,45,2|0|0|0,0:0|0:0|0:0|0:0,0:0:0:0:
111,235,219826,2,0,L|119:171,3,45,8|0|0|0,0:0|0:0|0:0|0:0,0:0:0:0:
61,140,220160,6,0,P|105:148|169:136,1,90,6|0,0:0|0:0,0:0:0:0:
312,124,220493,1,10,0:0:0:0:
225,264,220660,2,0,L|229:160,1,90,0|2,0:0|0:0,0:0:0:0:
315,34,220993,2,0,L|311:134,1,90,0|2,0:0|0:0,0:0:0:0:
416,224,221326,1,0,0:0:0:0:
396,224,221410,1,0,0:0:0:0:
380,224,221493,1,10,0:0:0:0:
448,140,221660,1,0,0:0:0:0:
304,256,221826,6,0,L|332:300,3,45,2|0|0|0,0:0|0:0|0:0|0:0,0:0:0:0:
273,247,222159,1,10,0:0:0:0:
206,119,222326,2,0,B|213:159|213:159|205:207,1,90,0|2,0:0|0:0,0:0:0:0:
112,300,222660,2,0,B|104:252|104:252|112:208,1,90,0|2,0:0|0:0,0:0:0:0:
222,115,222993,1,0,0:0:0:0:
206,119,223076,1,0,0:0:0:0:
190,123,223160,1,8,0:0:0:0:
96,64,223326,1,0,0:0:0:0:
205,207,223493,6,0,L|317:203,1,90,6|0,0:0|0:0,0:0:0:0:
439,130,223826,1,8,0:0:0:0:
398,287,223993,2,0,B|286:291,1,90,0|2,0:0|0:0,0:0:0:0:
163,329,224326,1,0,0:0:0:0:
163,329,224493,2,0,P|159:265|161:215,1,90,2|0,0:0|0:0,0:0:0:0:
250,183,224826,1,10,0:0:0:0:
154,135,224993,1,0,0:0:0:0:
154,135,225076,1,0,0:0:0:0:
154,135,225159,6,0,P|168:193|156:249,1,107.999996704102,6|2,0:0|0:0,0:0:0:0:
256,288,225659,2,0,P|242:230|254:174,1,107.999996704102,2|2,0:0|0:0,0:0:0:0:
216,92,226159,6,0,L|328:96,1,107.999996704102,2|2,0:0|0:0,0:0:0:0:
358,179,226659,2,0,L|246:183,1,107.999996704102,2|2,0:0|0:0,0:0:0:0:
436,332,227159,6,0,L|438:262,3,45,6|0|0|0,0:0|0:0|0:0|0:0,0:0:0:0:
427,262,227492,1,2,0:0:0:0:
490,124,227659,2,0,P|446:116|382:132,1,90,8|2,0:0|0:0,0:0:0:0:
280,228,227992,2,0,P|310:151|212:148,1,180,0|0,0:0|0:0,0:0:0:0:
220,136,228409,1,0,0:0:0:0:
212,152,228492,1,8,0:0:0:0:
232,296,228659,1,0,0:0:0:0:
94,142,228825,6,0,L|80:184,3,45,2|0|0|0,0:0|0:0|0:0|0:0,0:0:0:0:
122,170,229159,1,2,0:0:0:0:
232,296,229325,2,0,P|301:296|338:280,1,90,8|2,0:0|0:0,0:0:0:0:
336,83,229659,2,0,B|304:63|304:63|348:139|296:211,1,180,0|0,0:0|0:0,0:0:0:0:
292,211,230075,1,0,0:0:0:0:
276,219,230159,1,8,0:0:0:0:
435,262,230325,1,0,0:0:0:0:
285,326,230492,5,6,0:0:0:0:
265,322,230575,1,0,0:0:0:0:
241,322,230659,1,0,0:0:0:0:
217,326,230742,1,0,0:0:0:0:
196,335,230825,1,2,0:0:0:0:
35,358,230992,2,0,P|72:332|103:284,1,90,8|2,0:0|0:0,0:0:0:0:
99,119,231325,1,0,0:0:0:0:
188,255,231492,2,0,P|151:229|120:181,1,90,2|0,0:0|0:0,0:0:0:0:
127,30,231825,2,0,P|164:56|195:104,1,90,8|0,0:0|0:0,0:0:0:0:
226,164,232075,1,0,0:0:0:0:
226,164,232159,6,0,P|282:168|330:160,1,90,2|0,0:0|0:0,0:0:0:0:
453,78,232492,1,2,0:0:0:0:
478,238,232659,1,8,0:0:0:0:
372,115,232825,1,2,0:0:0:0:
384,276,232992,1,0,0:0:0:0:
384,276,233075,1,0,0:0:0:0:
384,276,233159,2,0,L|335:279,3,45,2|0|0|0,0:0|0:0|0:0|0:0,0:0:0:0:
275,343,233492,2,0,P|250:276|276:207,1,135,8|0,0:0|0:0,0:0:0:0:
294,199,233825,6,0,L|298:151,2,45,6|0|0,0:0|0:0|0:0,0:0:0:0:
174,272,234325,2,0,L|183:163,1,90,2|0,0:0|0:0,0:0:0:0:
216,39,234825,6,0,L|264:35,2,45,8|0|0,0:0|0:0|0:0,0:0:0:0:
136,107,235325,2,0,P|95:111|40:99,1,90,2|0,0:0|0:0,0:0:0:0:
82,254,235825,6,0,P|114:262|147:258,1,67.5000025749208,2|0,0:0|0:0,0:0:0:0:
260,317,236158,1,0,0:0:0:0:
260,317,236325,2,0,B|232:265|288:237|248:165,1,135.000005149842,0|0,0:0|0:0,0:0:0:0:
324,56,236825,2,0,P|319:89|327:121,1,67.5000025749208,8|0,0:0|0:0,0:0:0:0:
468,144,237158,2,0,P|434:139|402:147,1,67.5000025749208,0|0,0:0|0:0,0:0:0:0:
344,264,237491,2,0,P|336:228|352:176,1,67.5000025749208,2|0,0:0|0:0,0:0:0:0:
216,92,237825,5,6,0:0:0:0:
256,172,237991,1,0,0:0:0:0:
228,256,238158,1,8,0:0:0:0:
84,176,238325,2,0,P|132:184|196:176,1,90,2|0,0:0|0:0,0:0:0:0:
317,261,238658,2,0,P|269:253|176:272,1,135,0|0,0:0|0:0,0:0:0:0:
168,276,238991,5,2,0:0:0:0:
252,344,239158,1,10,0:0:0:0:
364,324,239325,1,2,0:0:0:0:
256,172,239491,6,0,L|260:272,1,90,2|0,0:0|0:0,0:0:0:0:
364,324,239825,1,8,0:0:0:0:
332,148,239991,2,0,L|336:248,1,90,2|0,0:0|0:0,0:0:0:0:
252,344,240325,2,0,P|200:352|136:300,1,135,2|0,0:0|0:0,0:0:0:0:
132,288,240658,5,0,0:0:0:0:
132,272,240741,1,0,0:0:0:0:
136,256,240825,1,10,0:0:0:0:
144,240,240908,1,0,0:0:0:0:
156,228,240991,1,0,0:0:0:0:
172,220,241075,1,0,0:0:0:0:
188,220,241158,1,6,0:0:0:0:
