osu file format v14

[General]
AudioFilename: audio.mp3
AudioLeadIn: 0
PreviewTime: 61081
Countdown: 0
SampleSet: Soft
StackLeniency: 0.2
Mode: 0
LetterboxInBreaks: 1
WidescreenStoryboard: 0

[Editor]
Bookmarks: 165,12164,24164,36164,38164,54164,62164,89829,95829,101828,113828,129828,145828,153828,161828,177828,183828,185828,197494,199494,213493,241158,253158
DistanceSpacing: 1.7
BeatDivisor: 4
GridSize: 4
TimelineZoom: 1.9

[Metadata]
Title:GHOST OF LORELEY
TitleUnicode:GHOST OF LORELEY
Artist:lasah
ArtistUnicode:らさ
Creator:moph
Version:Expert
Source:
Tags:sasakure.uk I love you wa_ Ambient Fizz
BeatmapID:1036735
BeatmapSetID:486177

[Difficulty]
HPDrainRate:7
CircleSize:4.5
OverallDifficulty:8.5
ApproachRate:9
SliderMultiplier:1.8
SliderTickRate:1

[Events]
//Background and Video events
0,0,"bg.jpg",0,0
//Break Periods
2,147828,152828
//Storyboard Layer 0 (Background)
//Storyboard Layer 1 (Fail)
//Storyboard Layer 2 (Pass)
//Storyboard Layer 3 (Foreground)
//Storyboard Sound Samples

[TimingPoints]
165,333.333333333333,3,2,1,60,1,0
12164,-133.333333333333,3,2,1,60,0,0
23164,-133.333333333333,3,2,1,70,0,0
24164,-400,3,2,1,40,0,0
36164,-133.333333333333,3,2,1,60,0,0
39081,-133.333333333333,3,2,1,5,0,0
39164,-133.333333333333,3,2,1,60,0,0
54164,-400,3,2,1,40,0,0
61081,-400,3,2,1,5,0,0
61164,-400,3,2,1,40,0,0
61248,-400,3,2,1,5,0,0
61498,-400,3,2,1,40,0,0
61581,-400,3,2,1,5,0,0
61831,-400,3,2,1,40,0,0
61914,-400,3,2,1,5,0,0
62164,333.333333333333,5,2,1,60,1,1
62914,-100,5,2,1,5,0,1
62997,-100,5,2,1,60,0,1
66247,-100,5,2,1,5,0,1
66330,-100,5,2,1,60,0,1
67914,-100,5,2,1,5,0,1
67997,-100,5,2,1,60,0,1
69580,-100,5,2,1,5,0,1
69663,-100,5,2,1,60,0,1
71247,-100,5,2,1,5,0,1
71330,-100,5,2,1,60,0,1
72997,-100,5,2,1,60,0,1
73830,333.333333333333,3,2,1,60,1,0
75830,333.333333333333,5,2,1,60,1,1
76080,-100,5,2,1,5,0,1
76163,-100,5,2,1,60,0,1
82496,333.333333333333,3,2,1,60,1,0
82496,-133.333333333333,3,2,1,60,0,0
86412,-133.333333333333,3,2,1,5,0,0
86496,333.333333333333,5,2,1,60,1,1
87579,-100,5,2,1,5,0,1
87662,-100,5,2,1,60,0,1
89829,333.333333333333,3,2,1,60,1,0
89829,-133.333333333333,3,2,1,40,0,0
95829,-133.333333333333,3,2,1,50,0,0
102578,-133.333333333333,3,2,1,5,0,0
102662,-133.333333333333,3,2,1,60,0,0
105912,-133.333333333333,3,2,1,5,0,0
105995,-133.333333333333,3,2,1,60,0,0
108578,-133.333333333333,3,2,1,5,0,0
108662,-133.333333333333,3,2,1,60,0,0
111578,-133.333333333333,3,2,1,5,0,0
111662,-133.333333333333,3,2,1,60,0,0
113828,-200,3,2,1,50,0,0
128828,-133.333333333333,3,2,1,60,0,0
129828,-133.333333333333,3,2,1,50,0,0
143828,-133.333333333333,3,2,1,60,0,0
145828,-400,3,2,1,60,0,0
145912,-400,3,2,1,5,0,0
146828,-400,3,2,1,40,0,0
153828,-133.333333333333,3,2,1,50,0,0
177828,-400,3,2,1,40,0,0
183828,-133.333333333333,3,2,1,60,0,0
185828,333.333333333333,5,2,1,40,1,0
185828,-200,5,2,1,40,0,0
197494,333.333333333333,3,2,1,70,1,1
199494,333.333333333333,5,2,1,70,1,1
206160,333.333333333333,3,2,1,70,1,0
206160,-133.333333333333,3,2,1,70,0,0
210076,-133.333333333333,3,2,1,5,0,0
210160,-100,3,2,1,70,0,0
211243,-100,3,2,1,5,0,0
211326,-100,3,2,1,70,0,0
213493,333.333333333333,5,2,1,70,1,1
225159,333.333333333333,3,2,1,70,1,0
227159,333.333333333333,5,2,1,70,1,1
233825,333.333333333333,3,2,1,70,1,0
233825,-133.333333333333,3,2,1,70,0,0
237825,333.333333333333,5,2,1,70,1,1
241158,333.333333333333,3,2,1,60,1,0
241158,-133.333333333333,3,2,1,60,0,0

[Colours]
Combo1 : 179,125,189
Combo2 : 139,134,191
Combo3 : 196,111,157
Combo4 : 135,159,205

[HitObjects]
188,300,12164,5,6,0:0:0:0:
208,292,12248,1,0,0:0:0:0:
228,284,12331,1,0,0:0:0:0:
248,276,12414,1,0,0:0:0:0:
268,268,12498,2,0,L|232:244,1,33.7500012874604
113,271,12664,2,0,B|105:307|105:307|117:359,1,67.5000025749208,2|0,0:0|0:0,0:0:0:0:
343,308,12998,2,0,B|351:272|351:272|339:220,1,67.5000025749208,2|0,0:0|0:0,0:0:0:0:
216,119,13331,1,0,0:0:0:0:
216,119,13414,1,0,0:0:0:0:
216,119,13498,5,2,0:0:0:0:
232,224,13664,1,0,0:0:0:0:
112,72,13831,1,2,0:0:0:0:
302,44,13997,1,0,0:0:0:0:
228,202,14164,5,2,0:0:0:0:
132,80,14330,1,2,0:0:0:0:
284,58,14497,1,2,0:0:0:0:
215,118,14663,1,2,0:0:0:0:
297,149,14831,1,0,0:0:0:0:
305,152,14914,1,0,0:0:0:0:
312,155,14998,1,0,0:0:0:0:
424,368,15164,5,6,0:0:0:0:
428,348,15248,1,0,0:0:0:0:
432,328,15331,1,0,0:0:0:0:
436,308,15414,1,0,0:0:0:0:
440,288,15498,2,0,L|424:240,1,33.7500012874604
312,155,15664,2,0,B|304:191|304:191|312:227,1,67.5000025749208,2|0,0:0|0:0,0:0:0:0:
336,372,15998,2,0,B|344:336|344:336|336:300,1,67.5000025749208,2|0,0:0|0:0,0:0:0:0:
168,320,16331,1,2,0:0:0:0:
168,320,16414,1,0,0:0:0:0:
168,320,16498,2,0,L|172:376,4,33.7500012874604,2|0|0|0|2,0:0|0:0|0:0|0:0|0:0,0:0:0:0:
155,154,16998,1,0,0:0:0:0:
156,163,17081,1,0,0:0:0:0:
157,171,17164,5,2,0:0:0:0:
121,251,17331,1,0,0:0:0:0:
208,242,17498,1,0,0:0:0:0:
155,154,17664,5,2,0:0:0:0:
106,260,17831,1,0,0:0:0:0:
223,248,17998,1,0,0:0:0:0:
75,36,18164,5,6,0:0:0:0:
94,39,18248,1,0,0:0:0:0:
114,41,18331,1,0,0:0:0:0:
133,46,18414,1,0,0:0:0:0:
153,49,18498,2,0,L|205:58,1,33.7500012874604
275,27,18664,2,0,B|286:57|286:57|276:92,1,67.5000025749208,2|0,0:0|0:0,0:0:0:0:
85,185,18998,2,0,B|75:156|75:156|85:121,1,67.5000025749208,2|0,0:0|0:0,0:0:0:0:
366,92,19331,1,0,0:0:0:0:
366,92,19414,1,0,0:0:0:0:
366,92,19498,5,2,0:0:0:0:
361,199,19664,1,0,0:0:0:0:
468,36,19831,1,2,0:0:0:0:
275,27,19998,1,0,0:0:0:0:
362,176,20164,5,2,0:0:0:0:
447,46,20331,1,2,0:0:0:0:
293,39,20498,1,2,0:0:0:0:
366,91,20664,1,2,0:0:0:0:
290,128,20831,1,0,0:0:0:0:
282,133,20914,1,0,0:0:0:0:
274,138,20998,1,0,0:0:0:0:
312,370,21164,5,6,0:0:0:0:
317,350,21248,1,0,0:0:0:0:
323,330,21331,1,0,0:0:0:0:
328,310,21414,1,0,0:0:0:0:
332,292,21498,2,0,L|296:308,1,33.7500012874604
419,349,21664,2,0,B|427:313|427:313|415:277,1,67.5000025749208,2|0,0:0|0:0,0:0:0:0:
212,277,21998,2,0,B|204:313|204:313|216:349,1,67.5000025749208,2|0,0:0|0:0,0:0:0:0:
228,184,22331,1,2,0:0:0:0:
228,184,22414,1,0,0:0:0:0:
228,184,22498,2,0,L|228:136,4,33.7500012874604,2|0|0|0|2,0:0|0:0|0:0|0:0|0:0,0:0:0:0:
52,344,22998,1,0,0:0:0:0:
56,336,23081,1,0,0:0:0:0:
60,328,23164,5,6,0:0:0:0:
124,256,23331,1,2,0:0:0:0:
48,200,23498,1,10,0:0:0:0:
104,12,23664,5,2,0:0:0:0:
40,84,23831,1,10,0:0:0:0:
116,140,23998,1,2,0:0:0:0:
228,80,24164,6,0,L|368:88,1,135,6|8,0:0|0:0,0:0:0:0:
362,87,25664,1,2,0:0:0:0:
456,96,26164,1,2,0:0:0:0:
396,276,27164,2,0,P|392:252|400:224,2,45,10|0|0,0:0|0:0|0:0,0:0:0:0:
314,329,28164,6,0,B|282:313|234:325|262:341|206:353|178:337,1,135,6|8,0:0|0:0,0:0:0:0:
185,340,29664,1,2,0:0:0:0:
204,248,30164,1,2,0:0:0:0:
224,183,31164,2,0,L|204:247,1,67.5,8|2,0:0|0:0,0:0:0:0:
40,32,32164,6,0,L|48:168,1,135,6|8,0:0|0:0,0:0:0:0:
47,166,33664,1,2,0:0:0:0:
56,260,34164,1,2,0:0:0:0:
248,120,35164,2,0,L|268:163,2,45,10|0|0,0:0|0:0|0:0,0:0:0:0:
248,120,36164,5,2,0:0:0:0:
213,40,36331,1,2,0:0:0:0:
329,169,36498,1,2,0:0:0:0:
318,62,36664,1,2,0:0:0:0:
232,212,36831,1,2,0:0:0:0:
158,133,36998,1,2,0:0:0:0:
64,312,37164,5,2,0:0:0:0:
98,323,37248,1,0,0:0:0:0:
128,333,37331,1,0,0:0:0:0:
159,342,37414,1,0,0:0:0:0:
193,354,37498,2,0,L|229:344,1,33.7500012874604,8|0,0:0|0:0,0:0:0:0:
388,360,37664,5,2,0:0:0:0:
364,320,37748,1,0,0:0:0:0:
352,276,37831,1,0,0:0:0:0:
364,232,37914,1,0,0:0:0:0:
400,200,37998,1,8,0:0:0:0:
400,200,38081,1,0,0:0:0:0:
400,200,38164,6,0,L|472:212,1,67.5000025749208,6|0,0:0|0:0,0:0:0:0:
293,330,38498,2,0,L|221:318,1,67.5000025749208,2|0,0:0|0:0,0:0:0:0:
268,116,38831,2,0,P|280:172|264:220,1,101.250003862381,2|0,0:0|0:0,0:0:0:0:
248,224,39164,2,0,L|180:232,1,67.5000025749208,8|0,0:0|0:0,0:0:0:0:
36,300,39498,1,0,0:0:0:0:
24,212,39664,1,0,0:0:0:0:
128,316,39831,2,0,L|120:408,1,67.5000025749208,2|0,0:0|0:0,0:0:0:0:
108,164,40164,6,0,B|120:12,1,135.000005149842,2|0,0:0|0:0,0:0:0:0:
118,29,40664,1,0,0:0:0:0:
224,108,40831,2,0,P|264:96|296:64,1,67.5000025749208,2|0,0:0|0:0,0:0:0:0:
468,108,41164,2,0,P|392:104|340:140,1,135.000005149842,8|0,0:0|0:0,0:0:0:0:
344,134,41664,1,0,0:0:0:0:
432,288,41831,2,0,B|440:252|440:252|428:216,1,67.5000025749208,2|0,0:0|0:0,0:0:0:0:
340,264,42081,1,0,0:0:0:0:
340,264,42164,6,0,L|192:284,1,135.000005149842,6|0,0:0|0:0,0:0:0:0:
206,282,42664,1,0,0:0:0:0:
15,311,42831,2,0,L|92:301,1,67.5000025749208,2|0,0:0|0:0,0:0:0:0:
241,359,43164,1,8,0:0:0:0:
206,282,43331,1,0,0:0:0:0:
171,204,43498,2,0,B|191:116,1,67.5000025749208
60,34,43831,2,0,B|40:122,1,67.5000025749208,2|0,0:0|0:0,0:0:0:0:
30,174,44164,5,2,0:0:0:0:
115,119,44331,1,2,0:0:0:0:
200,63,44498,1,2,0:0:0:0:
60,34,44664,1,2,0:0:0:0:
115,119,44831,1,2,0:0:0:0:
171,204,44998,1,2,0:0:0:0:
320,148,45164,2,0,B|300:212|300:212|320:284,1,135.000005149842,8|0,0:0|0:0,0:0:0:0:
344,368,45664,1,0,0:0:0:0:
472,296,45831,2,0,P|436:292|380:316,1,67.5000025749208,2|0,0:0|0:0,0:0:0:0:
224,352,46164,6,0,L|140:332,1,67.5000025749208,6|0,0:0|0:0,0:0:0:0:
36,248,46498,1,2,0:0:0:0:
56,336,46664,1,0,0:0:0:0:
178,248,46831,1,2,0:0:0:0:
158,336,46997,1,0,0:0:0:0:
107,187,47164,2,0,L|107:115,1,67.5000025749208,8|0,0:0|0:0,0:0:0:0:
13,156,47498,1,2,0:0:0:0:
205,156,47665,1,0,0:0:0:0:
106,51,47832,2,0,L|106:119,1,67.5000025749208,2|0,0:0|0:0,0:0:0:0:
304,45,48164,5,2,0:0:0:0:
348,120,48331,1,0,0:0:0:0:
347,207,48498,1,2,0:0:0:0:
303,282,48665,1,0,0:0:0:0:
456,303,48831,2,0,L|388:284,1,67.5000025749208,2|0,0:0|0:0,0:0:0:0:
176,348,49164,2,0,L|43:311,1,135.000005149842,8|2,0:0|0:0,0:0:0:0:
188,192,49664,1,0,0:0:0:0:
188,192,49831,2,0,P|192:244|180:272,1,67.5000025749208,2|0,0:0|0:0,0:0:0:0:
28,220,50164,6,0,L|109:221,1,67.5000025749208,6|0,0:0|0:0,0:0:0:0:
76,72,50498,2,0,P|69:104|75:137,1,67.5000025749208,2|0,0:0|0:0,0:0:0:0:
95,220,50831,1,2,0:0:0:0:
252,128,50998,1,0,0:0:0:0:
252,128,51164,2,0,L|332:128,1,67.5000025749208,10|0,0:0|0:0,0:0:0:0:
428,240,51498,2,0,L|388:170,1,67.5000025749208,2|0,2:0|2:0,2:0:0:0:
432,32,51831,2,0,L|392:101,1,67.5000025749208,2|0,2:0|2:0,2:0:0:0:
320,212,52164,5,2,0:0:0:0:
320,212,52331,1,0,0:0:0:0:
464,144,52498,1,2,0:0:0:0:
464,144,52665,1,0,0:0:0:0:
328,48,52831,1,2,0:0:0:0:
328,48,52998,1,0,0:0:0:0:
252,212,53164,2,0,L|319:212,1,67.5000025749208,8|0,0:0|0:0,0:0:0:0:
204,360,53498,1,2,0:0:0:0:
199,353,53581,1,0,0:0:0:0:
193,345,53664,1,0,0:0:0:0:
188,338,53748,1,0,0:0:0:0:
182,331,53831,1,2,0:0:0:0:
144,312,53914,1,0,0:0:0:0:
100,308,53998,1,2,0:0:0:0:
60,328,54081,1,0,0:0:0:0:
32,364,54164,6,0,L|28:224,1,135,6|8,0:0|0:0,0:0:0:0:
28,229,55664,1,2,0:0:0:0:
120,28,56164,6,0,L|124:168,1,135,6|8,0:0|0:0,0:0:0:0:
124,163,57664,1,2,0:0:0:0:
228,364,58164,6,0,L|224:224,1,135,6|8,0:0|0:0,0:0:0:0:
224,229,59664,1,2,0:0:0:0:
256,192,60164,12,0,61081,0:0:0:0:
196,192,61164,6,0,B|208:180|208:180|201:160,1,33.75
96,192,61498,6,0,B|100:208|100:208|120:212,1,33.75
136,100,61831,6,0,B|119:95|119:95|106:111,1,33.75
72,320,62164,5,6,0:0:0:0:
160,336,62330,1,0,0:0:0:0:
248,352,62497,1,10,0:0:0:0:
368,196,62664,2,0,B|348:268|348:268|368:328,1,135,2|0,0:0|0:0,0:0:0:0:
376,348,62997,1,0,0:0:0:0:
456,272,63164,1,2,0:0:0:0:
224,232,63330,1,0,0:0:0:0:
220,220,63414,1,0,0:0:0:0:
216,208,63497,1,8,0:0:0:0:
296,132,63664,1,0,0:0:0:0:
406,60,63830,5,2,0:0:0:0:
430,92,63914,1,0,0:0:0:0:
439,131,63997,1,0,0:0:0:0:
431,170,64080,1,0,0:0:0:0:
409,204,64164,2,0,L|360:176,1,45,8|0,0:0|0:0,0:0:0:0:
296,132,64330,1,2,0:0:0:0:
160,287,64664,1,0,0:0:0:0:
152,291,64747,1,0,0:0:0:0:
144,295,64830,1,2,0:0:0:0:
113,267,64914,1,0,0:0:0:0:
103,227,64997,1,0,0:0:0:0:
112,187,65080,1,0,0:0:0:0:
135,153,65164,2,0,L|79:117,1,45,10|0,0:0|0:0,0:0:0:0:
20,76,65330,1,2,0:0:0:0:
224,24,65497,5,2,0:0:0:0:
236,64,65580,1,0,0:0:0:0:
248,104,65664,1,0,0:0:0:0:
260,144,65747,1,0,0:0:0:0:
272,184,65830,2,0,L|288:136,1,45,8|0,0:0|0:0,0:0:0:0:
408,32,65997,2,0,B|392:104|392:104|412:172,1,135,2|0,0:0|0:0,0:0:0:0:
420,192,66330,1,0,0:0:0:0:
264,348,66497,2,0,L|228:240,1,90,2|0,0:0|0:0,0:0:0:0:
140,72,66830,2,0,L|128:28,1,45,10|0,0:0|0:0,0:0:0:0:
212,136,66997,1,0,0:0:0:0:
212,136,67080,1,0,0:0:0:0:
212,136,67164,5,2,0:0:0:0:
172,152,67247,1,0,0:0:0:0:
132,168,67330,1,0,0:0:0:0:
88,184,67414,1,0,0:0:0:0:
44,204,67497,2,0,L|36:252,1,45,8|0,0:0|0:0,0:0:0:0:
92,360,67664,2,0,B|108:260|108:260|144:312,1,135,2|0,0:0|0:0,0:0:0:0:
176,352,67997,1,0,0:0:0:0:
176,352,68080,1,0,0:0:0:0:
176,352,68164,1,10,0:0:0:0:
212,332,68247,1,0,0:0:0:0:
252,328,68330,1,0,0:0:0:0:
292,332,68414,1,0,0:0:0:0:
328,352,68497,2,0,L|368:352,6,22.5,10|0|0|0|0|0|0,0:0|0:0|0:0|0:0|0:0|0:0|0:0,0:0:0:0:
448,352,68830,5,2,0:0:0:0:
425,318,68914,1,0,0:0:0:0:
415,277,68997,1,0,0:0:0:0:
425,237,69080,1,0,0:0:0:0:
452,207,69164,2,0,L|500:239,1,45,8|0,0:0|0:0,0:0:0:0:
316,196,69330,2,0,P|296:144|328:56,1,135,2|0,0:0|0:0,0:0:0:0:
332,51,69663,1,0,0:0:0:0:
420,132,69830,1,2,0:0:0:0:
208,124,69997,1,0,0:0:0:0:
200,116,70080,1,0,0:0:0:0:
192,108,70163,2,0,L|236:88,1,45,10|0,0:0|0:0,0:0:0:0:
332,51,70330,1,0,0:0:0:0:
316,196,70497,5,2,0:0:0:0:
276,208,70580,1,0,0:0:0:0:
236,220,70663,1,0,0:0:0:0:
196,232,70747,1,0,0:0:0:0:
156,244,70830,2,0,L|140:292,1,45,8|0,0:0|0:0,0:0:0:0:
64,24,70997,2,0,B|96:88|96:88|64:172,1,135,2|0,0:0|0:0,0:0:0:0:
64,172,71330,1,0,0:0:0:0:
100,324,71497,1,2,0:0:0:0:
200,192,71663,1,0,0:0:0:0:
204,208,71747,1,0,0:0:0:0:
208,224,71830,2,0,L|152:240,1,45,8|0,0:0|0:0,0:0:0:0:
56,336,71997,2,0,L|112:320,1,45,0|0,0:0|0:0,0:0:0:0:
228,340,72163,5,2,0:0:0:0:
268,328,72247,1,0,0:0:0:0:
304,316,72330,1,0,0:0:0:0:
344,304,72413,1,0,0:0:0:0:
384,292,72497,2,0,L|376:344,1,45,8|0,0:0|0:0,0:0:0:0:
308,196,72663,2,0,P|288:144|312:52,1,135,2|0,0:0|0:0,0:0:0:0:
312,44,72997,1,0,0:0:0:0:
420,128,73163,1,2,0:0:0:0:
204,144,73330,1,0,0:0:0:0:
308,241,73497,2,0,L|308:181,1,45,10|0,0:0|0:0,0:0:0:0:
312,44,73663,1,0,0:0:0:0:
308,56,73747,1,0,0:0:0:0:
304,68,73830,5,2,0:0:0:0:
196,28,73996,1,0,0:0:0:0:
204,144,74163,1,2,0:0:0:0:
0,172,74330,5,2,0:0:0:0:
108,212,74496,1,0,0:0:0:0:
100,96,74663,1,2,0:0:0:0:
8,300,74830,5,2,0:0:0:0:
80,292,74996,1,0,0:0:0:0:
152,284,75163,1,2,0:0:0:0:
48,372,75330,5,2,0:0:0:0:
120,364,75496,1,0,0:0:0:0:
192,356,75663,1,2,0:0:0:0:
268,348,75830,6,0,B|376:368|376:368|348:344,1,135,6|0,0:0|0:0,0:0:0:0:
336,324,76163,1,8,0:0:0:0:
495,252,76330,2,0,P|507:304|495:340,1,90,2|0,0:0|0:0,0:0:0:0:
417,293,76663,1,0,0:0:0:0:
436,92,76830,1,2,0:0:0:0:
411,178,76996,1,0,0:0:0:0:
425,179,77079,1,0,0:0:0:0:
440,180,77163,1,10,0:0:0:0:
495,252,77330,1,0,0:0:0:0:
332,234,77496,5,2,0:0:0:0:
316,194,77580,1,0,0:0:0:0:
296,154,77663,1,0,0:0:0:0:
280,114,77746,1,0,0:0:0:0:
264,74,77830,2,0,L|336:90,1,45,0|0,0:0|0:0,0:0:0:0:
395,101,77996,1,10,0:0:0:0:
367,15,78163,1,0,0:0:0:0:
307,83,78330,1,0,0:0:0:0:
161,43,78496,1,2,0:0:0:0:
68,111,78663,1,0,2:0:0:0:
80,103,78746,1,0,2:0:0:0:
92,95,78830,1,10,2:0:0:0:
0,160,78996,1,0,0:0:0:0:
168,356,79163,5,2,0:0:0:0:
188,316,79246,1,0,0:0:0:0:
196,272,79330,1,0,0:0:0:0:
188,228,79413,1,0,0:0:0:0:
172,188,79496,2,0,L|136:216,1,45,0|0,0:0|0:0,0:0:0:0:
45,230,79663,1,10,0:0:0:0:
102,299,79830,1,0,0:0:0:0:
136,215,79996,1,0,0:0:0:0:
282,325,80163,1,2,0:0:0:0:
356,269,80329,1,0,0:0:0:0:
366,359,80496,1,10,0:0:0:0:
392,152,80662,1,0,0:0:0:0:
388,164,80746,1,0,0:0:0:0:
384,176,80830,5,2,0:0:0:0:
352,144,80913,1,0,0:0:0:0:
340,100,80996,1,0,0:0:0:0:
352,56,81080,1,0,0:0:0:0:
376,20,81163,2,0,L|416:48,1,45,0|0,0:0|0:0,0:0:0:0:
483,93,81330,1,10,0:0:0:0:
254,125,81496,1,0,0:0:0:0:
452,260,81663,1,0,0:0:0:0:
236,365,81830,2,0,L|262:328,1,45,2|0,0:0|0:0,0:0:0:0:
306,259,81996,1,0,0:0:0:0:
108,124,82163,1,8,0:0:0:0:
108,124,82496,6,0,B|104:88|104:88|116:36,1,67.5000025749208,6|0,0:0|0:0,0:0:0:0:
184,96,82829,1,0,0:0:0:0:
44,156,82996,2,0,B|32:88|32:88|52:4,1,135.000005149842,2|0,0:0|0:0,0:0:0:0:
144,256,83496,6,0,B|148:292|148:292|136:344,1,67.5000025749208,8|0,0:0|0:0,0:0:0:0:
68,284,83829,1,0,0:0:0:0:
208,224,83996,2,0,B|220:292|220:292|200:376,1,135.000005149842,2|0,0:0|0:0,0:0:0:0:
204,356,84496,6,0,L|272:348,1,67.5000025749208,6|0,0:0|0:0,0:0:0:0:
360,343,84829,2,0,L|428:352,1,67.5000025749208
384,176,85162,2,0,P|372:224|376:268,1,67.5000025749208,2|0,0:0|0:0,0:0:0:0:
380,256,85412,1,0,0:0:0:0:
388,268,85496,2,0,L|455:276,1,67.5000025749208,8|0,0:0|0:0,0:0:0:0:
280,232,85829,2,0,L|212:223,1,67.5000025749208
280,40,86162,2,0,P|296:108|284:152,1,101.250003862381,2|0,0:0|0:0,0:0:0:0:
280,160,86496,6,0,L|184:144,1,90,6|0,0:0|0:0,0:0:0:0:
40,128,86829,1,8,0:0:0:0:
100,352,86996,1,0,0:0:0:0:
100,352,87329,2,0,B|84:280|84:280|104:212,1,135
112,200,87662,1,0,0:0:0:0:
200,268,87829,1,8,0:0:0:0:
4,264,87996,1,0,0:0:0:0:
116,87,88162,5,2,0:0:0:0:
112,200,88329,1,0,0:0:0:0:
280,344,88496,1,8,0:0:0:0:
284,231,88663,1,2,0:0:0:0:
284,231,88996,1,0,0:0:0:0:
372,288,89162,1,2,0:0:0:0:
376,300,89246,1,0,0:0:0:0:
380,312,89329,5,2,0:0:0:0:
400,272,89412,1,0,0:0:0:0:
396,228,89496,1,8,0:0:0:0:
372,188,89579,1,0,0:0:0:0:
360,144,89662,1,2,0:0:0:0:
368,100,89746,1,0,0:0:0:0:
388,60,89829,6,0,L|320:60,1,67.5000025749208,6|0,0:0|0:0,0:0:0:0:
264,136,90162,1,0,0:0:0:0:
168,24,90329,2,0,B|184:92|184:92|164:172,1,135.000005149842,2|2,0:0|0:0,0:0:0:0:
140,244,90829,1,0,0:0:0:0:
100,87,90995,1,0,0:0:0:0:
100,87,91079,1,0,0:0:0:0:
100,87,91162,5,2,0:0:0:0:
168,155,91329,1,0,0:0:0:0:
208,312,91495,1,2,0:0:0:0:
140,244,91662,1,0,0:0:0:0:
284,248,91829,1,2,0:0:0:0:
264,156,91995,1,2,0:0:0:0:
168,155,92162,1,2,0:0:0:0:
140,244,92329,1,2,0:0:0:0:
192,64,92495,1,0,0:0:0:0:
192,64,92579,1,0,0:0:0:0:
192,64,92662,1,0,0:0:0:0:
16,124,92829,5,2,0:0:0:0:
16,124,92912,1,0,0:0:0:0:
16,124,92995,1,0,0:0:0:0:
16,124,93079,1,0,0:0:0:0:
16,124,93162,2,0,L|4:176,1,33.7500012874604
52,244,93329,2,0,B|44:280|44:280|60:332,1,67.5000025749208,2|0,0:0|0:0,0:0:0:0:
224,380,93662,2,0,B|232:344|232:344|216:292,1,67.5000025749208,2|0,0:0|0:0,0:0:0:0:
152,352,93995,1,2,0:0:0:0:
152,352,94079,1,0,0:0:0:0:
152,352,94162,2,0,L|112:352,4,33.7500012874604,2|0|0|0|2,0:0|0:0|0:0|0:0|0:0,0:0:0:0:
304,304,94662,1,0,0:0:0:0:
304,304,94745,1,0,0:0:0:0:
304,304,94829,5,2,0:0:0:0:
384,356,94995,1,0,0:0:0:0:
388,260,95162,1,0,0:0:0:0:
512,132,95329,5,2,0:0:0:0:
432,80,95495,1,0,0:0:0:0:
428,176,95662,1,0,0:0:0:0:
428,176,95829,5,6,0:0:0:0:
408,172,95912,1,0,0:0:0:0:
388,168,95995,1,0,0:0:0:0:
368,164,96079,1,0,0:0:0:0:
348,160,96162,2,0,L|292:188,1,33.7500012874604
248,288,96329,2,0,B|240:252|240:252|248:212,1,67.5000025749208,2|0,0:0|0:0,0:0:0:0:
244,72,96662,2,0,B|252:108|252:108|244:148,1,67.5000025749208,2|0,0:0|0:0,0:0:0:0:
176,348,96995,1,0,0:0:0:0:
176,348,97078,1,0,0:0:0:0:
176,348,97162,5,2,0:0:0:0:
248,288,97328,1,0,0:0:0:0:
220,104,97495,1,2,0:0:0:0:
235,196,97661,1,0,0:0:0:0:
412,268,97828,1,2,0:0:0:0:
324,234,97994,1,2,0:0:0:0:
248,288,98162,1,2,0:0:0:0:
332,328,98328,1,2,0:0:0:0:
392,176,98495,1,0,0:0:0:0:
396,168,98578,1,0,0:0:0:0:
400,160,98662,1,0,0:0:0:0:
360,16,98828,5,2,0:0:0:0:
352,32,98911,1,0,0:0:0:0:
344,48,98994,1,0,0:0:0:0:
336,64,99078,1,0,0:0:0:0:
328,80,99162,2,0,L|384:80,1,33.7500012874604
472,112,99328,2,0,B|480:76|480:76|468:36,1,67.5000025749208,2|0,0:0|0:0,0:0:0:0:
256,128,99662,2,0,B|248:164|248:164|260:204,1,67.5000025749208,2|0,0:0|0:0,0:0:0:0:
264,48,99995,1,2,0:0:0:0:
264,48,100078,1,0,0:0:0:0:
264,48,100162,2,0,L|276:16,4,33.7500012874604,2|0|0|0|2,0:0|0:0|0:0|0:0|0:0,0:0:0:0:
208,284,100662,1,0,0:0:0:0:
212,272,100745,1,0,0:0:0:0:
216,260,100828,5,2,0:0:0:0:
140,336,100995,1,2,0:0:0:0:
244,364,101162,1,10,0:0:0:0:
368,224,101328,5,2,0:0:0:0:
470,255,101495,1,10,0:0:0:0:
392,328,101662,1,2,0:0:0:0:
436,180,101828,5,6,0:0:0:0:
448,156,101912,1,0,0:0:0:0:
452,128,101995,1,0,0:0:0:0:
448,100,102078,1,0,0:0:0:0:
436,76,102162,1,8,0:0:0:0:
248,132,102328,2,0,B|300:148|300:148|356:132,1,101.250003862381,2|0,0:0|0:0,0:0:0:0:
364,128,102662,1,0,0:0:0:0:
304,44,102828,1,2,0:0:0:0:
256,220,102995,1,0,0:0:0:0:
264,228,103078,1,0,0:0:0:0:
272,236,103162,1,8,0:0:0:0:
340,300,103328,1,0,0:0:0:0:
188,276,103495,5,2,0:0:0:0:
256,352,103662,1,0,0:0:0:0:
280,168,103828,2,0,L|269:264,1,67.5000025749208,8|0,0:0|0:0,0:0:0:0:
120,332,104162,5,2,0:0:0:0:
116,304,104245,1,0,0:0:0:0:
112,276,104328,1,0,0:0:0:0:
108,248,104412,1,0,0:0:0:0:
104,220,104495,1,10,0:0:0:0:
96,212,104578,1,0,0:0:0:0:
88,204,104662,1,0,0:0:0:0:
152,16,104828,5,6,0:0:0:0:
156,44,104911,1,0,0:0:0:0:
160,72,104994,1,0,0:0:0:0:
164,100,105078,1,0,0:0:0:0:
168,128,105162,2,0,L|120:116,1,33.7500012874604,8|0,0:0|0:0,0:0:0:0:
32,80,105328,2,0,P|24:124|40:172,1,67.5000025749208,2|0,0:0|0:0,0:0:0:0:
292,248,105662,2,0,B|302:195|302:195|283:132,1,101.250003862381
279,128,105995,1,0,0:0:0:0:
188,200,106162,2,0,L|240:200,1,33.7500012874604,8|0,0:0|0:0,0:0:0:0:
384,204,106328,1,0,0:0:0:0:
384,204,106412,1,0,0:0:0:0:
384,204,106495,5,2,0:0:0:0:
312,344,106662,1,0,0:0:0:0:
304,348,106745,1,0,0:0:0:0:
296,352,106828,1,2,0:0:0:0:
256,332,106912,1,0,0:0:0:0:
212,328,106995,1,0,0:0:0:0:
172,340,107078,1,0,0:0:0:0:
132,364,107162,1,8,0:0:0:0:
88,364,107245,1,0,0:0:0:0:
52,340,107328,1,0,0:0:0:0:
36,300,107412,1,0,0:0:0:0:
44,256,107495,2,0,L|44:228,6,16.8750006437302,8|0|0|0|0|0|0,0:0|0:0|0:0|0:0|0:0|0:0|0:0,0:0:0:0:
132,208,107828,5,6,0:0:0:0:
128,180,107912,1,0,0:0:0:0:
124,152,107995,1,0,0:0:0:0:
120,124,108078,1,0,0:0:0:0:
116,96,108162,1,8,0:0:0:0:
272,40,108328,2,0,L|256:168,1,101.250003862381,2|0,0:0|0:0,0:0:0:0:
256,164,108662,1,0,0:0:0:0:
192,92,108828,1,2,0:0:0:0:
340,112,108995,1,0,0:0:0:0:
348,108,109078,1,0,0:0:0:0:
356,104,109162,1,8,0:0:0:0:
420,172,109328,1,0,0:0:0:0:
404,24,109495,5,0,0:0:0:0:
468,92,109661,1,0,0:0:0:0:
484,240,109828,1,2,0:0:0:0:
420,172,109994,1,0,0:0:0:0:
435,318,110162,1,8,0:0:0:0:
411,330,110245,1,0,0:0:0:0:
387,342,110328,1,0,0:0:0:0:
363,354,110412,1,0,0:0:0:0:
339,366,110495,1,8,0:0:0:0:
331,358,110578,1,0,0:0:0:0:
323,350,110662,1,0,0:0:0:0:
116,340,110828,5,6,0:0:0:0:
140,328,110911,1,0,0:0:0:0:
164,316,110994,1,0,0:0:0:0:
188,304,111078,1,0,0:0:0:0:
212,292,111161,1,8,0:0:0:0:
100,232,111328,2,0,B|88:176|88:176|108:116,1,101.250003862381,2|0,0:0|0:0,0:0:0:0:
112,112,111662,1,0,0:0:0:0:
180,176,111828,1,2,0:0:0:0:
16,132,111995,1,0,0:0:0:0:
136,20,112162,2,0,L|180:36,1,33.7500012874604,8|0,0:0|0:0,0:0:0:0:
256,76,112328,1,0,0:0:0:0:
260,84,112411,1,0,0:0:0:0:
264,92,112494,1,0,0:0:0:0:
432,92,112662,1,0,0:0:0:0:
428,84,112745,1,0,0:0:0:0:
424,76,112828,5,6,0:0:0:0:
396,108,112912,1,0,0:0:0:0:
384,148,112995,1,0,0:0:0:0:
392,192,113078,1,0,0:0:0:0:
420,228,113162,1,8,0:0:0:0:
444,264,113245,1,0,0:0:0:0:
448,308,113328,1,0,0:0:0:0:
440,352,113412,1,0,0:0:0:0:
408,384,113495,2,0,L|384:384,6,16.8750006437302,8|0|0|0|0|0|0,0:0|0:0|0:0|0:0|0:0|0:0|0:0,0:0:0:0:
340,300,113828,6,0,L|236:300,1,90,6|0,0:0|0:0,0:0:0:0:
250,300,114495,1,0,0:0:0:0:
40,332,114828,2,0,L|144:332,1,90,8|0,0:0|0:0,0:0:0:0:
130,332,115328,1,2,0:0:0:0:
130,332,115495,1,0,0:0:0:0:
160,220,115828,5,2,0:0:0:0:
128,156,116162,1,0,0:0:0:0:
164,92,116495,1,0,0:0:0:0:
60,24,116828,5,8,0:0:0:0:
92,88,117162,1,0,0:0:0:0:
92,88,117328,1,2,0:0:0:0:
56,152,117495,1,0,0:0:0:0:
211,163,117828,6,0,P|255:151|303:163,1,90,2|0,0:0|0:0,0:0:0:0:
297,160,118495,1,0,0:0:0:0:
424,228,118828,2,0,P|380:240|332:228,1,90,8|0,0:0|0:0,0:0:0:0:
337,230,119328,1,2,0:0:0:0:
337,230,119495,1,0,0:0:0:0:
456,60,119828,6,0,P|468:100|456:152,1,90,2|0,0:0|0:0,0:0:0:0:
458,146,120495,1,0,0:0:0:0:
424,228,120828,2,0,P|414:271|426:314,1,90,8|0,0:0|0:0,0:0:0:0:
426,314,121328,1,2,0:0:0:0:
426,314,121495,1,0,0:0:0:0:
272,288,121828,5,6,0:0:0:0:
205,318,122162,1,0,0:0:0:0:
141,346,122495,1,0,0:0:0:0:
4,316,122828,5,8,0:0:0:0:
71,286,123162,1,0,0:0:0:0:
71,286,123328,1,2,0:0:0:0:
135,258,123495,1,0,0:0:0:0:
83,131,123828,6,0,P|70:178|90:234,1,90,2|0,0:0|0:0,0:0:0:0:
80,218,124495,1,0,0:0:0:0:
200,304,124828,2,0,P|213:257|193:201,1,90,8|0,0:0|0:0,0:0:0:0:
203,217,125328,1,2,0:0:0:0:
203,217,125495,1,0,0:0:0:0:
207,54,125828,6,0,P|215:82|231:106,1,45,2|0,0:0|0:0,0:0:0:0:
203,217,126162,2,0,P|223:196|236:170,1,45
344,148,126495,2,0,P|315:140|286:142,1,45
68,144,126828,2,0,B|112:156|112:156|164:144,1,90,8|0,0:0|0:0,0:0:0:0:
155,146,127328,1,0,0:0:0:0:
112,68,127495,1,2,0:0:0:0:
112,68,127662,1,2,0:0:0:0:
108,224,127828,5,10,0:0:0:0:
151,302,127995,1,2,0:0:0:0:
240,144,128162,5,2,0:0:0:0:
197,222,128329,1,2,0:0:0:0:
324,304,128495,5,2,0:0:0:0:
281,226,128662,1,2,0:0:0:0:
368,224,128828,5,8,0:0:0:0:
396,220,128912,1,0,0:0:0:0:
424,216,128995,1,0,0:0:0:0:
452,212,129078,1,0,0:0:0:0:
480,208,129162,2,0,L|452:176,1,33.7500012874604,2|0,0:0|0:0,0:0:0:0:
416,96,129328,1,2,0:0:0:0:
416,96,129412,1,0,0:0:0:0:
416,96,129495,1,8,0:0:0:0:
460,96,129578,1,0,0:0:0:0:
472,52,129662,1,2,0:0:0:0:
436,28,129745,1,0,0:0:0:0:
400,52,129828,6,0,L|320:56,1,67.5000025749208,6|0,0:0|0:0,0:0:0:0:
276,124,130162,1,0,0:0:0:0:
216,60,130328,1,0,0:0:0:0:
164,132,130495,2,0,L|84:136,1,67.5000025749208
223,324,130828,2,0,P|248:262|225:200,1,135.000005149842,8|0,0:0|0:0,0:0:0:0:
160,260,131328,1,2,0:0:0:0:
225,200,131495,1,0,0:0:0:0:
332,340,131828,6,0,L|480:320,1,135.000005149842,2|0,0:0|0:0,0:0:0:0:
465,321,132495,1,0,0:0:0:0:
412,124,132828,2,0,P|387:185|410:247,1,135.000005149842,8|0,0:0|0:0,0:0:0:0:
475,188,133328,1,2,0:0:0:0:
410,248,133495,1,0,0:0:0:0:
284,116,133828,5,2,0:0:0:0:
350,60,133995,1,0,0:0:0:0:
412,124,134162,1,0,0:0:0:0:
346,179,134329,1,0,0:0:0:0:
346,179,134495,1,0,0:0:0:0:
28,92,134828,2,0,B|92:68|92:68|180:100,1,135.000005149842,8|0,0:0|0:0,0:0:0:0:
92,152,135328,1,2,0:0:0:0:
154,90,135495,1,0,0:0:0:0:
196,364,135828,6,0,L|204:228,1,135.000005149842,2|0,0:0|0:0,0:0:0:0:
203,229,136495,1,0,0:0:0:0:
116,364,136828,2,0,L|128:224,1,135.000005149842,8|0,0:0|0:0,0:0:0:0:
127,229,137328,1,2,0:0:0:0:
180,160,137495,1,0,0:0:0:0:
92,152,137662,1,0,0:0:0:0:
148,16,137828,6,0,L|140:96,1,67.5000025749208,2|0,0:0|0:0,0:0:0:0:
212,236,138162,1,0,0:0:0:0:
236,88,138328,1,0,0:0:0:0:
92,152,138495,1,0,0:0:0:0:
268,168,138828,2,0,B|416:176,1,135.000005149842,8|0,0:0|0:0,0:0:0:0:
456,104,139328,1,2,0:0:0:0:
402,175,139495,1,0,0:0:0:0:
459,353,139828,6,0,P|479:289|439:209,1,135.000005149842,2|0,0:0|0:0,0:0:0:0:
457,228,140495,1,0,0:0:0:0:
260,292,140828,2,0,L|400:292,1,135.000005149842,8|0,0:0|0:0,0:0:0:0:
459,353,141328,1,2,0:0:0:0:
395,292,141495,1,0,0:0:0:0:
188,328,141828,6,0,P|180:288|188:260,1,67.5000025749208,2|0,0:0|0:0,0:0:0:0:
204,156,142162,2,0,P|173:182|145:190,1,67.5000025749208
44,224,142495,2,0,P|82:237|102:258,1,67.5000025749208
36,308,142828,1,8,0:0:0:0:
136,108,143162,1,0,0:0:0:0:
60,60,143328,1,2,0:0:0:0:
136,20,143495,1,2,0:0:0:0:
136,20,143662,1,2,0:0:0:0:
208,156,143828,5,2,0:0:0:0:
216,68,143995,1,2,0:0:0:0:
276,204,144162,1,10,0:0:0:0:
296,28,144328,1,2,0:0:0:0:
136,108,144495,1,2,0:0:0:0:
360,128,144662,1,2,0:0:0:0:
200,236,144828,5,8,0:0:0:0:
184,260,144912,1,0,0:0:0:0:
180,288,144995,1,0,0:0:0:0:
188,312,145078,1,0,0:0:0:0:
204,336,145162,2,0,L|248:320,1,33.7500012874604,8|0,0:0|0:0,0:0:0:0:
420,360,145328,1,0,0:0:0:0:
420,360,145412,1,0,0:0:0:0:
420,360,145495,1,2,0:0:0:0:
444,324,145578,1,0,0:0:0:0:
452,280,145662,1,2,0:0:0:0:
440,236,145745,1,2,0:0:0:0:
416,200,145828,6,0,P|424:152|444:200,1,135,6|0,0:0|0:0,0:0:0:0:
300,220,153828,6,0,L|288:140,1,67.5000025749208,6|0,0:0|0:0,0:0:0:0:
384,136,154162,2,0,L|396:212,1,67.5000025749208,2|0,0:0|0:0,0:0:0:0:
360,292,154495,1,2,0:0:0:0:
320,64,154828,2,0,B|384:40|384:40|456:64,1,135.000005149842,2|0,0:0|0:0,0:0:0:0:
447,61,155328,1,0,0:0:0:0:
289,153,155495,2,0,L|205:153,1,67.5000025749208,2|0,0:0|0:0,0:0:0:0:
120,36,155828,6,0,P|144:104|112:176,1,135.000005149842,2|0,0:0|0:0,0:0:0:0:
48,220,156328,1,0,0:0:0:0:
124,336,156495,2,0,P|132:296|116:252,1,67.5000025749208,2|0,0:0|0:0,0:0:0:0:
200,364,156828,2,0,P|212:296|188:220,1,135.000005149842,2|0,0:0|0:0,0:0:0:0:
195,233,157328,1,0,0:0:0:0:
296,324,157495,2,0,L|360:292,1,67.5000025749208,2|0,0:0|0:0,0:0:0:0:
280,96,157828,6,0,P|268:164|292:240,1,135.000005149842,2|0,0:0|0:0,0:0:0:0:
284,226,158328,1,2,0:0:0:0:
356,293,158495,2,0,L|420:261,1,67.5000025749208
500,312,158828,1,2,0:0:0:0:
284,226,159162,1,2,0:0:0:0:
468,88,159495,2,2,L|436:160,1,67.5000025749208,2|0,0:0|0:0,0:0:0:0:
356,293,159828,5,2,0:0:0:0:
356,160,159995,1,2,0:0:0:0:
200,232,160162,1,2,0:0:0:0:
200,99,160329,1,2,0:0:0:0:
284,226,160495,1,2,0:0:0:0:
200,356,160662,1,2,0:0:0:0:
104,228,160828,5,8,0:0:0:0:
96,216,160912,1,0,0:0:0:0:
88,204,160995,1,0,0:0:0:0:
80,192,161078,1,0,0:0:0:0:
72,180,161162,2,0,L|112:176,1,33.7500012874604,10|0,0:0|0:0,0:0:0:0:
72,52,161328,2,0,L|112:56,1,33.7500012874604,0|0,0:0|0:0,0:0:0:0:
280,116,161495,1,2,0:0:0:0:
320,104,161579,1,0,0:0:0:0:
360,92,161662,1,2,0:0:0:0:
400,80,161745,1,2,0:0:0:0:
440,68,161828,6,0,L|520:112,1,67.5000025749208,6|0,0:0|0:0,0:0:0:0:
488,192,162078,1,0,0:0:0:0:
488,192,162162,2,0,L|408:148,1,67.5000025749208,2|0,0:0|0:0,0:0:0:0:
328,264,162495,2,0,P|320:312|336:352,1,67.5000025749208,2|0,0:0|0:0,0:0:0:0:
400,304,162828,1,8,0:0:0:0:
256,216,162995,1,0,0:0:0:0:
156,352,163162,2,0,L|76:352,1,67.5000025749208,2|0,0:0|0:0,0:0:0:0:
104,208,163495,2,0,P|112:260|96:300,1,67.5000025749208,2|0,0:0|0:0,0:0:0:0:
184,152,163828,6,0,P|168:116|192:20,1,135.000005149842,2|2,0:0|0:0,0:0:0:0:
187,25,164328,1,0,0:0:0:0:
84,80,164495,2,0,L|16:72,1,67.5000025749208,2|0,0:0|0:0,0:0:0:0:
264,92,164828,2,0,L|332:100,1,67.5000025749208,8|0,0:0|0:0,0:0:0:0:
412,48,165162,1,2,0:0:0:0:
412,48,165495,1,2,0:0:0:0:
448,172,165662,1,0,0:0:0:0:
456,168,165745,1,0,0:0:0:0:
464,164,165828,6,0,B|448:232|448:232|468:312,1,135.000005149842,6|2,0:0|0:0,0:0:0:0:
384,368,166328,1,0,0:0:0:0:
384,368,166495,2,0,L|364:292,1,67.5000025749208,2|0,0:0|0:0,0:0:0:0:
244,184,166828,2,0,L|264:260,1,67.5000025749208,8|0,0:0|0:0,0:0:0:0:
284,328,167162,1,2,0:0:0:0:
340,212,167328,1,0,0:0:0:0:
176,268,167495,2,0,L|196:344,1,67.5000025749208,2|0,0:0|0:0,0:0:0:0:
261,249,167828,5,2,0:0:0:0:
148,156,167995,1,0,0:0:0:0:
88,288,168162,1,2,0:0:0:0:
148,156,168328,1,2,0:0:0:0:
193,333,168495,1,0,0:0:0:0:
20,300,168662,1,2,0:0:0:0:
163,90,168828,2,0,L|147:158,1,67.5000025749208,8|0,0:0|0:0,0:0:0:0:
80,204,169162,1,2,0:0:0:0:
112,28,169328,1,0,0:0:0:0:
228,172,169495,2,0,P|260:179|296:176,1,67.5000025749208,2|0,0:0|0:0,0:0:0:0:
372,36,169828,6,0,B|348:98|348:98|371:163,1,135.000005149842,6|2,0:0|0:0,0:0:0:0:
404,244,170328,1,0,0:0:0:0:
504,104,170495,2,0,L|432:104,1,67.5000025749208,2|0,0:0|0:0,0:0:0:0:
268,100,170828,1,10,0:0:0:0:
268,100,170995,1,0,0:0:0:0:
371,163,171162,1,2,0:0:0:0:
372,36,171328,1,0,0:0:0:0:
294,176,171495,2,0,L|252:248,1,67.5000025749208,2|0,0:0|0:0,0:0:0:0:
320,360,171828,6,0,P|324:320|312:280,1,67.5000025749208,2|0,0:0|0:0,0:0:0:0:
168,296,172162,2,0,P|164:336|176:376,1,67.5000025749208,2|0,0:0|0:0,0:0:0:0:
244,328,172495,1,2,0:0:0:0:
244,328,172662,1,0,0:0:0:0:
72,324,172828,1,10,0:0:0:0:
100,232,172995,1,0,0:0:0:0:
194,211,173162,1,2,0:0:0:0:
100,232,173329,1,0,0:0:0:0:
35,162,173495,1,2,0:0:0:0:
100,232,173662,1,0,0:0:0:0:
144,88,173828,6,0,L|124:156,1,67.5000025749208,6|0,0:0|0:0,0:0:0:0:
84,12,174162,2,0,L|64:80,1,67.5000025749208,2|0,0:0|0:0,0:0:0:0:
35,162,174495,1,2,0:0:0:0:
220,124,174662,1,2,0:0:0:0:
174,275,174828,2,0,L|194:207,1,67.5000025749208,10|0,0:0|0:0,0:0:0:0:
200,356,175162,1,2,0:0:0:0:
112,336,175328,1,0,0:0:0:0:
276,224,175495,2,0,L|256:292,1,67.5000025749208,2|0,0:0|0:0,0:0:0:0:
92,248,175828,5,2,0:0:0:0:
96,231,175911,1,0,0:0:0:0:
101,215,175994,1,0,0:0:0:0:
106,199,176078,1,0,0:0:0:0:
111,183,176161,1,2,0:0:0:0:
184,236,176328,1,0,0:0:0:0:
280,112,176495,1,2,0:0:0:0:
210,59,176661,1,0,0:0:0:0:
296,16,176828,6,0,L|280:36,1,16.8750006437302,12|0,0:0|0:0,0:0:0:0:
192,152,176995,2,0,L|208:132,1,16.8750006437302,2|0,0:0|0:0,0:0:0:0:
312,134,177162,2,0,L|292:119,1,16.8750006437302,8|0,0:0|0:0,0:0:0:0:
175,33,177328,2,0,L|195:48,1,16.8750006437302,2|0,0:0|0:0,0:0:0:0:
448,32,177495,1,2,0:0:0:0:
456,29,177578,1,0,0:0:0:0:
464,26,177662,1,2,0:0:0:0:
473,23,177745,1,2,0:0:0:0:
480,20,177828,6,0,L|483:154,1,135,6|8,0:0|0:0,0:0:0:0:
484,155,179328,1,2,0:0:0:0:
392,356,179828,6,0,L|388:221,1,135,6|8,0:0|0:0,0:0:0:0:
388,221,181328,1,2,0:0:0:0:
284,20,181828,6,0,L|287:154,1,135,6|8,0:0|0:0,0:0:0:0:
288,155,183328,1,2,0:0:0:0:
288,155,183828,5,2,0:0:0:0:
229,237,183995,1,2,0:0:0:0:
108,89,184162,5,2,0:0:0:0:
190,147,184329,1,2,0:0:0:0:
44,268,184495,5,2,0:0:0:0:
102,185,184662,1,2,0:0:0:0:
230,340,184828,5,8,0:0:0:0:
207,325,184912,1,0,0:0:0:0:
186,311,184995,1,0,0:0:0:0:
164,296,185078,1,0,0:0:0:0:
144,280,185162,2,0,L|144:332,1,33.7500012874604,8|0,0:0|0:0,0:0:0:0:
102,185,185328,1,0,0:0:0:0:
92,192,185412,1,0,0:0:0:0:
80,196,185495,1,2,0:0:0:0:
52,168,185578,1,0,0:0:0:0:
44,128,185662,1,2,0:0:0:0:
52,88,185745,1,2,0:0:0:0:
76,56,185828,5,6,0:0:0:0:
156,72,185994,1,0,0:0:0:0:
236,92,186161,1,0,0:0:0:0:
388,68,186328,2,0,L|292:36,1,90,0|0,0:0|0:0,0:0:0:0:
236,92,186828,1,0,0:0:0:0:
276,192,186994,1,0,0:0:0:0:
280,180,187078,1,0,0:0:0:0:
284,168,187161,1,0,0:0:0:0:
200,228,187328,1,0,0:0:0:0:
364,188,187494,5,2,0:0:0:0:
356,268,187661,1,0,0:0:0:0:
348,348,187828,1,0,0:0:0:0:
512,320,187994,2,0,L|412:316,1,90,0|0,0:0|0:0,0:0:0:0:
348,348,188494,1,0,0:0:0:0:
256,332,188661,1,0,0:0:0:0:
264,324,188744,1,0,0:0:0:0:
272,316,188828,1,0,0:0:0:0:
188,284,188994,1,0,0:0:0:0:
12,324,189161,5,2,0:0:0:0:
36,248,189328,1,0,0:0:0:0:
60,172,189494,1,0,0:0:0:0:
188,284,189661,2,0,L|112:216,1,90,0|0,0:0|0:0,0:0:0:0:
60,172,190161,1,0,0:0:0:0:
136,144,190328,1,0,0:0:0:0:
44,12,190494,1,0,0:0:0:0:
76,92,190661,1,0,0:0:0:0:
76,92,190744,1,0,0:0:0:0:
76,92,190828,5,2,0:0:0:0:
128,28,190994,1,0,0:0:0:0:
136,144,191161,1,0,0:0:0:0:
232,84,191328,2,0,L|328:80,1,90,0|0,0:0|0:0,0:0:0:0:
404,80,191828,1,0,0:0:0:0:
368,204,191994,1,0,0:0:0:0:
355,207,192077,1,0,0:0:0:0:
344,200,192160,1,0,0:0:0:0:
342,187,192244,1,0,0:0:0:0:
351,177,192328,1,0,0:0:0:0:
363,178,192410,1,0,0:0:0:0:
375,185,192494,6,0,L|284:200,1,90,2|0,0:0|0:0,0:0:0:0:
200,216,192994,1,0,0:0:0:0:
460,168,193328,1,0,0:0:0:0:
432,244,193494,1,0,0:0:0:0:
400,108,193661,1,0,0:0:0:0:
400,108,193744,1,0,0:0:0:0:
400,108,193828,1,0,0:0:0:0:
496,88,193994,1,0,0:0:0:0:
308,124,194161,6,0,L|208:140,1,90,2|0,0:0|0:0,0:0:0:0:
248,48,194661,1,0,0:0:0:0:
284,296,194994,1,0,0:0:0:0:
272,216,195161,1,0,0:0:0:0:
372,324,195328,1,0,0:0:0:0:
372,324,195411,1,0,0:0:0:0:
372,324,195494,1,0,0:0:0:0:
216,348,195661,1,0,0:0:0:0:
192,176,195828,6,0,L|204:276,1,90,2|0,0:0|0:0,0:0:0:0:
272,216,196328,1,0,0:0:0:0:
0,220,196661,1,0,0:0:0:0:
80,220,196828,1,0,0:0:0:0:
40,88,196994,1,0,0:0:0:0:
40,292,197161,1,0,0:0:0:0:
230,201,197328,1,0,0:0:0:0:
230,201,197411,1,0,0:0:0:0:
230,201,197494,5,14,0:0:0:0:
0,220,197660,1,2,0:0:0:0:
201,124,197827,1,2,0:0:0:0:
40,292,197994,5,14,0:0:0:0:
270,273,198160,1,2,0:0:0:0:
69,369,198327,1,2,0:0:0:0:
230,201,198494,5,10,0:0:0:0:
119,305,198660,1,2,0:0:0:0:
270,273,198827,1,2,0:0:0:0:
90,228,198994,5,10,0:0:0:0:
201,124,199160,1,2,0:0:0:0:
50,156,199327,1,2,0:0:0:0:
312,173,199494,5,6,0:0:0:0:
351,178,199577,1,0,0:0:0:0:
390,183,199660,1,0,0:0:0:0:
430,193,199744,1,0,0:0:0:0:
469,198,199827,1,0,0:0:0:0:
469,186,199910,1,0,0:0:0:0:
470,173,199994,1,8,0:0:0:0:
420,100,200160,1,0,0:0:0:0:
390,183,200327,1,0,0:0:0:0:
441,364,200494,1,2,0:0:0:0:
475,279,200661,1,0,0:0:0:0:
463,279,200744,1,0,0:0:0:0:
450,278,200827,1,8,0:0:0:0:
369,314,200994,1,0,0:0:0:0:
208,200,201160,5,2,0:0:0:0:
228,236,201244,1,0,0:0:0:0:
236,276,201327,1,0,0:0:0:0:
228,316,201410,1,0,0:0:0:0:
204,360,201494,2,0,L|160:344,1,45,0|0,0:0|0:0,0:0:0:0:
76,308,201660,1,8,0:0:0:0:
42,224,201827,1,0,0:0:0:0:
130,236,201994,1,0,0:0:0:0:
108,50,202160,1,2,0:0:0:0:
93,155,202327,1,0,0:0:0:0:
95,143,202410,1,0,0:0:0:0:
97,131,202494,1,8,0:0:0:0:
23,31,202660,1,0,0:0:0:0:
196,64,202827,5,6,0:0:0:0:
236,72,202910,1,0,0:0:0:0:
276,80,202994,1,0,0:0:0:0:
316,88,203077,1,0,0:0:0:0:
356,96,203160,2,0,L|304:148,1,45,8|0,0:0|0:0,0:0:0:0:
259,190,203327,1,2,0:0:0:0:
346,209,203494,1,0,0:0:0:0:
433,225,203660,1,0,0:0:0:0:
306,383,203827,2,0,B|329:287,1,90,2|0,0:0|0:0,0:0:0:0:
413,338,204160,1,8,0:0:0:0:
220,336,204327,1,0,0:0:0:0:
224,324,204410,1,0,0:0:0:0:
228,312,204494,5,2,0:0:0:0:
196,280,204577,1,0,0:0:0:0:
152,272,204660,1,0,0:0:0:0:
108,280,204744,1,0,0:0:0:0:
68,304,204827,2,0,L|80:256,1,45,0|0,0:0|0:0,0:0:0:0:
96,176,204994,1,8,0:0:0:0:
152,272,205160,1,0,0:0:0:0:
3,231,205327,1,0,0:0:0:0:
57,347,205494,2,0,L|69:299,1,45,2|0,0:0|0:0,0:0:0:0:
115,85,205660,1,0,0:0:0:0:
313,280,205827,1,8,0:0:0:0:
313,280,206160,6,0,B|385:280,2,67.5000025749208,6|0|0,0:0|0:0|0:0,0:0:0:0:
441,212,206660,2,0,B|469:280|469:280|441:348,1,135.000005149842,2|0,0:0|0:0,0:0:0:0:
466,121,207160,2,0,B|394:121,2,67.5000025749208,10|0|0,0:0|0:0|0:0,0:0:0:0:
332,61,207660,2,0,B|308:117|308:117|336:185,1,135.000005149842,2|0,0:0|0:0,0:0:0:0:
240,344,208160,6,0,P|205:322|184:292,1,67.5000025749208,6|0,0:0|0:0,0:0:0:0:
200,128,208493,2,0,P|198:168|182:202,1,67.5000025749208
36,268,208826,2,0,P|71:248|108:245,1,67.5000025749208,2|0,0:0|0:0,0:0:0:0:
108,248,209076,1,0,0:0:0:0:
120,256,209160,2,0,L|112:332,1,67.5000025749208,10|0,0:0|0:0,0:0:0:0:
28,120,209493,2,0,L|40:216,1,67.5000025749208
152,32,209826,2,0,L|136:148,1,101.250003862381,2|0,0:0|0:0,0:0:0:0:
136,156,210160,5,6,0:0:0:0:
28,120,210326,1,0,0:0:0:0:
248,152,210493,1,8,0:0:0:0:
112,323,210660,1,2,0:0:0:0:
112,323,210993,2,0,B|136:163,1,135
136,156,211326,1,2,0:0:0:0:
40,192,211493,1,8,0:0:0:0:
216,216,211660,1,2,0:0:0:0:
152,32,211826,5,2,0:0:0:0:
124,240,211993,1,0,0:0:0:0:
264,96,212160,2,0,L|216:120,1,45,8|0,0:0|0:0,0:0:0:0:
136,156,212326,1,2,0:0:0:0:
252,356,212493,1,0,0:0:0:0:
252,356,212576,1,0,0:0:0:0:
252,356,212660,1,2,0:0:0:0:
296,344,212743,1,0,0:0:0:0:
340,332,212826,1,8,0:0:0:0:
384,320,212910,1,0,0:0:0:0:
420,348,212993,5,2,0:0:0:0:
440,308,213076,1,0,0:0:0:0:
436,263,213160,1,8,0:0:0:0:
408,228,213243,1,0,0:0:0:0:
387,187,213326,1,2,0:0:0:0:
389,141,213410,1,2,0:0:0:0:
415,104,213493,6,0,L|362:88,2,45,6|0|0,0:0|0:0|0:0,0:0:0:0:
475,170,213826,1,10,0:0:0:0:
502,84,213993,1,0,0:0:0:0:
415,104,214160,1,2,0:0:0:0:
509,323,214326,1,0,0:0:0:0:
422,346,214493,1,2,0:0:0:0:
340,320,214660,1,0,0:0:0:0:
340,320,214743,1,0,0:0:0:0:
340,320,214826,2,0,L|271:290,1,45,8|0,0:0|0:0,0:0:0:0:
212,252,214993,1,0,0:0:0:0:
83,353,215160,5,2,0:0:0:0:
55,317,215243,1,0,0:0:0:0:
46,272,215326,1,0,0:0:0:0:
55,229,215410,1,0,0:0:0:0:
82,193,215493,2,0,L|151:223,1,45,10|0,0:0|0:0,0:0:0:0:
212,252,215660,1,0,0:0:0:0:
259,327,215826,1,2,0:0:0:0:
304,249,215993,1,0,0:0:0:0:
288,80,216160,1,2,0:0:0:0:
244,72,216243,1,0,0:0:0:0:
200,64,216326,1,0,0:0:0:0:
156,56,216410,1,0,0:0:0:0:
112,48,216493,2,0,L|156:104,1,45,8|0,0:0|0:0,0:0:0:0:
196,164,216660,1,0,0:0:0:0:
380,32,216826,5,6,0:0:0:0:
352,68,216910,1,0,0:0:0:0:
344,112,216993,1,0,0:0:0:0:
356,156,217076,1,0,0:0:0:0:
384,192,217160,2,0,L|430:184,1,45,10|0,0:0|0:0,0:0:0:0:
486,251,217326,1,0,0:0:0:0:
512,165,217493,1,2,0:0:0:0:
452,97,217660,1,0,0:0:0:0:
294,204,217826,1,2,0:0:0:0:
328,358,217993,1,0,0:0:0:0:
269,291,218160,2,0,L|220:303,1,45,8|0,0:0|0:0,0:0:0:0:
140,332,218326,1,0,0:0:0:0:
132,344,218410,1,0,0:0:0:0:
124,356,218493,5,2,0:0:0:0:
88,328,218576,1,0,0:0:0:0:
76,284,218660,1,0,0:0:0:0:
84,240,218743,1,0,0:0:0:0:
112,204,218826,2,0,L|88:156,1,45,10|0,0:0|0:0,0:0:0:0:
56,80,218993,1,0,0:0:0:0:
12,156,219160,1,2,0:0:0:0:
152,108,219326,1,0,0:0:0:0:
160,116,219410,1,0,0:0:0:0:
168,124,219493,1,2,0:0:0:0:
212,116,219576,1,0,0:0:0:0:
256,108,219660,1,0,0:0:0:0:
300,100,219743,1,0,0:0:0:0:
344,92,219826,2,0,L|368:112,6,22.5,8|0|0|0|0|0|0,0:0|0:0|0:0|0:0|0:0|0:0|0:0,0:0:0:0:
228,28,220160,5,6,0:0:0:0:
220,72,220243,1,0,0:0:0:0:
212,116,220326,1,0,0:0:0:0:
204,160,220410,1,0,0:0:0:0:
196,204,220493,2,0,L|252:204,1,45,10|0,0:0|0:0,0:0:0:0:
332,204,220660,1,0,0:0:0:0:
284,280,220826,1,2,0:0:0:0:
336,353,220993,1,0,0:0:0:0:
512,278,221159,1,2,0:0:0:0:
366,278,221326,1,0,0:0:0:0:
375,278,221410,1,0,0:0:0:0:
385,277,221493,2,0,L|437:277,1,45,10|0,0:0|0:0,0:0:0:0:
470,204,221660,1,0,0:0:0:0:
241,204,221826,5,2,0:0:0:0:
216,242,221910,1,0,0:0:0:0:
208,286,221993,1,0,0:0:0:0:
222,328,222076,1,0,0:0:0:0:
251,362,222160,2,0,L|183:365,1,45,10|0,0:0|0:0,0:0:0:0:
111,365,222326,1,0,0:0:0:0:
35,316,222493,1,2,0:0:0:0:
112,270,222660,1,0,0:0:0:0:
32,104,222826,2,0,P|20:148|44:208,1,90,2|0,0:0|0:0,0:0:0:0:
40,196,223076,1,0,0:0:0:0:
52,204,223160,2,0,L|92:176,1,45,8|0,0:0|0:0,0:0:0:0:
156,120,223326,1,0,0:0:0:0:
308,36,223493,5,6,0:0:0:0:
332,76,223576,1,0,0:0:0:0:
360,112,223660,1,0,0:0:0:0:
388,148,223743,1,0,0:0:0:0:
416,184,223826,2,2,L|429:113,1,45,8|0,0:0|0:0,0:0:0:0:
436,58,223993,1,0,0:0:0:0:
360,112,224159,1,2,0:0:0:0:
286,162,224326,1,0,0:0:0:0:
512,226,224493,1,2,0:0:0:0:
476,143,224659,1,0,0:0:0:0:
384,287,224826,2,0,L|372:335,1,45,10|0,0:0|0:0,0:0:0:0:
272,352,224993,1,0,0:0:0:0:
272,352,225076,1,0,0:0:0:0:
272,352,225159,5,6,0:0:0:0:
152,316,225325,1,0,0:0:0:0:
240,224,225492,1,2,0:0:0:0:
244,229,225659,5,2,0:0:0:0:
156,321,225826,1,0,0:0:0:0:
276,357,225992,1,2,0:0:0:0:
280,361,226159,5,2,0:0:0:0:
160,325,226325,1,0,0:0:0:0:
248,233,226492,1,2,0:0:0:0:
252,237,226659,5,2,0:0:0:0:
164,329,226826,1,0,0:0:0:0:
284,365,226992,1,2,0:0:0:0:
140,228,227159,5,6,0:0:0:0:
108,196,227242,1,0,0:0:0:0:
100,152,227325,1,0,0:0:0:0:
108,108,227409,1,0,0:0:0:0:
140,76,227492,2,0,L|200:88,1,45,2|0,0:0|0:0,0:0:0:0:
276,104,227659,1,8,0:0:0:0:
362,79,227825,1,2,0:0:0:0:
337,166,227992,1,0,0:0:0:0:
497,163,228159,1,2,0:0:0:0:
476,250,228325,1,0,0:0:0:0:
464,254,228408,1,0,0:0:0:0:
452,258,228492,1,8,0:0:0:0:
436,346,228659,1,0,0:0:0:0:
248,280,228825,5,2,0:0:0:0:
204,292,228909,1,0,0:0:0:0:
160,304,228992,1,0,0:0:0:0:
116,316,229075,1,0,0:0:0:0:
72,328,229159,2,0,L|121:351,1,45,2|0,0:0|0:0,0:0:0:0:
196,382,229325,1,8,0:0:0:0:
204,292,229492,1,2,0:0:0:0:
154,216,229659,1,0,0:0:0:0:
316,262,229826,1,2,0:0:0:0:
408,205,229992,1,0,0:0:0:0:
401,216,230075,1,0,0:0:0:0:
395,227,230159,1,8,0:0:0:0:
399,312,230325,1,0,0:0:0:0:
460,108,230492,5,6,0:0:0:0:
412,104,230575,1,0,0:0:0:0:
368,100,230659,1,0,0:0:0:0:
324,96,230742,1,0,0:0:0:0:
280,92,230825,2,0,L|324:60,1,45,2|0,0:0|0:0,0:0:0:0:
392,8,230992,1,8,0:0:0:0:
412,104,231159,1,2,0:0:0:0:
380,188,231325,1,0,0:0:0:0:
280,92,231492,1,2,0:0:0:0:
212,32,231659,1,0,0:0:0:0:
238,251,231825,1,8,0:0:0:0:
170,191,231992,1,0,0:0:0:0:
164,199,232075,1,0,0:0:0:0:
158,206,232159,5,2,0:0:0:0:
125,177,232242,1,0,0:0:0:0:
80,165,232325,1,0,0:0:0:0:
36,177,232409,1,0,0:0:0:0:
0,205,232492,2,0,L|28:257,1,45,2|0,0:0|0:0,0:0:0:0:
59,323,232659,1,8,0:0:0:0:
125,177,232825,1,2,0:0:0:0:
235,296,232992,1,0,0:0:0:0:
230,308,233075,1,0,0:0:0:0:
225,319,233159,5,2,0:0:0:0:
258,348,233242,1,0,0:0:0:0:
303,360,233325,1,0,0:0:0:0:
347,348,233409,1,0,0:0:0:0:
383,320,233492,2,0,L|363:284,6,22.5,8|0|0|0|0|0|0,0:0|0:0|0:0|0:0|0:0|0:0|0:0,0:0:0:0:
464,248,233825,6,0,B|472:216|472:216|456:160,1,67.5000025749208,6|0,0:0|0:0,0:0:0:0:
388,151,234158,1,0,0:0:0:0:
384,24,234325,2,0,B|364:88|364:88|392:160,1,135.000005149842,2|0,0:0|0:0,0:0:0:0:
279,144,234825,6,0,B|271:176|271:176|287:232,1,67.5000025749208,8|0,0:0|0:0,0:0:0:0:
354,240,235158,1,0,0:0:0:0:
359,368,235325,2,0,B|379:304|379:304|351:232,1,135.000005149842,2|0,0:0|0:0,0:0:0:0:
190,351,235825,6,0,L|266:351,1,67.5000025749208,2|0,0:0|0:0,0:0:0:0:
102,271,236158,2,0,L|169:271,1,67.5000025749208
19,352,236491,2,0,L|86:352,1,67.5000025749208,2|0,0:0|0:0,0:0:0:0:
87,117,236825,2,0,P|53:111|20:115,1,67.5000025749208,8|0,0:0|0:0,0:0:0:0:
168,193,237158,2,0,P|134:199|101:195,1,67.5000025749208
255,118,237491,2,0,P|221:112|188:116,1,67.5000025749208,2|0,0:0|0:0,0:0:0:0:
340,76,237825,5,6,0:0:0:0:
340,164,237991,1,0,0:0:0:0:
420,32,238158,1,8,0:0:0:0:
264,212,238325,1,2,0:0:0:0:
264,212,238658,1,0,0:0:0:0:
344,256,238825,1,0,0:0:0:0:
340,164,238991,1,2,0:0:0:0:
248,344,239158,1,10,0:0:0:0:
436,344,239325,1,2,0:0:0:0:
508,196,239491,6,0,L|412:208,1,90,2|0,0:0|0:0,0:0:0:0:
344,256,239825,1,8,0:0:0:0:
192,248,239991,1,2,0:0:0:0:
192,248,240325,1,2,0:0:0:0:
51,102,240491,1,8,0:0:0:0:
75,65,240574,1,0,0:0:0:0:
118,60,240657,1,0,0:0:0:0:
150,89,240741,1,0,0:0:0:0:
153,133,240824,1,10,0:0:0:0:
130,171,240907,1,0,0:0:0:0:
105,208,240991,1,0,0:0:0:0:
99,252,241074,1,0,0:0:0:0:
112,296,241157,5,6,0:0:0:0:
100,292,241241,1,0,0:0:0:0:
88,288,241324,1,0,0:0:0:0:
76,284,241408,1,0,0:0:0:0:
64,280,241491,2,0,L|68:316,1,33.7500012874604
188,336,241658,2,0,B|196:304|196:304|188:260,1,67.5000025749208,2|0,0:0|0:0,0:0:0:0:
272,144,241991,2,0,B|264:176|264:176|272:220,1,67.5000025749208,2|0,0:0|0:0,0:0:0:0:
407,280,242324,1,0,0:0:0:0:
407,280,242407,1,0,0:0:0:0:
407,280,242491,5,2,0:0:0:0:
391,175,242657,1,0,0:0:0:0:
511,327,242824,1,2,0:0:0:0:
321,355,242990,1,0,0:0:0:0:
395,197,243158,5,2,0:0:0:0:
491,319,243323,1,2,0:0:0:0:
339,341,243490,1,2,0:0:0:0:
408,281,243658,1,2,0:0:0:0:
326,250,243824,1,0,0:0:0:0:
318,247,243907,1,0,0:0:0:0:
311,244,243991,1,0,0:0:0:0:
372,100,244158,5,6,0:0:0:0:
364,80,244241,1,0,0:0:0:0:
356,60,244324,1,0,0:0:0:0:
348,40,244408,1,0,0:0:0:0:
340,20,244491,2,0,L|320:64,1,33.7500012874604
200,112,244658,2,0,B|236:120|236:120|268:116,1,67.5000025749208,2|0,0:0|0:0,0:0:0:0:
504,52,244991,2,0,B|468:44|468:44|436:48,1,67.5000025749208,2|0,0:0|0:0,0:0:0:0:
352,176,245324,1,2,0:0:0:0:
352,176,245408,1,0,0:0:0:0:
352,176,245491,2,0,L|344:220,4,33.7500012874604,2|0|0|0|2,0:0|0:0|0:0|0:0|0:0,0:0:0:0:
320,332,245991,1,0,0:0:0:0:
316,344,246074,1,0,0:0:0:0:
312,356,246158,5,2,0:0:0:0:
288,264,246324,1,0,0:0:0:0:
380,284,246491,1,2,0:0:0:0:
308,368,246658,5,2,0:0:0:0:
400,276,246824,1,2,0:0:0:0:
276,248,246991,1,2,0:0:0:0:
120,344,247158,5,6,0:0:0:0:
140,340,247241,1,0,0:0:0:0:
160,336,247324,1,0,0:0:0:0:
180,332,247408,1,0,0:0:0:0:
200,328,247491,2,0,L|160:304,1,33.7500012874604
36,308,247658,2,0,B|28:344|28:344|40:392,1,67.5000025749208,2|0,0:0|0:0,0:0:0:0:
276,248,247991,2,0,B|284:212|284:212|272:164,1,67.5000025749208,2|0,0:0|0:0,0:0:0:0:
109,111,248324,1,0,0:0:0:0:
109,111,248407,1,0,0:0:0:0:
109,111,248491,5,2,0:0:0:0:
125,216,248657,1,0,0:0:0:0:
5,64,248824,1,2,0:0:0:0:
195,36,248990,1,0,0:0:0:0:
121,194,249157,5,2,0:0:0:0:
25,72,249323,1,2,0:0:0:0:
177,50,249490,1,2,0:0:0:0:
108,110,249658,1,0,0:0:0:0:
190,141,249824,1,0,0:0:0:0:
198,144,249907,1,0,0:0:0:0:
205,147,249991,1,0,0:0:0:0:
268,320,250158,5,6,0:0:0:0:
276,300,250241,1,0,0:0:0:0:
284,280,250324,1,0,0:0:0:0:
292,260,250408,1,0,0:0:0:0:
300,240,250491,2,0,L|252:256,1,33.7500012874604
168,288,250658,2,0,B|160:252|160:252|172:212,1,67.5000025749208,2|0,0:0|0:0,0:0:0:0:
384,276,250991,2,0,B|392:312|392:312|380:352,1,67.5000025749208,2|0,0:0|0:0,0:0:0:0:
372,184,251324,1,2,0:0:0:0:
376,176,251408,1,0,0:0:0:0:
380,168,251491,2,0,L|436:168,4,33.7500012874604,2|0|0|0|2,0:0|0:0|0:0|0:0|0:0,0:0:0:0:
200,48,251991,1,0,0:0:0:0:
196,56,252075,1,0,0:0:0:0:
192,64,252158,5,2,0:0:0:0:
104,100,252324,1,2,0:0:0:0:
180,160,252491,1,8,0:0:0:0:
32,268,252658,1,2,0:0:0:0:
44,172,252824,1,2,0:0:0:0:
120,232,252991,1,8,0:0:0:0:
136,368,253158,5,4,0:0:0:0:
