osu file format v14

[General]
AudioFilename: audio.mp3
AudioLeadIn: 0
PreviewTime: 103045
Countdown: 1
SampleSet: Soft
StackLeniency: 0.7
Mode: 0
LetterboxInBreaks: 0
WidescreenStoryboard: 1

[Editor]
DistanceSpacing: 1
BeatDivisor: 4
GridSize: 8
TimelineZoom: 2.6

[Metadata]
Title:Future Maker
TitleUnicode:Future Maker
Artist:lapix VS DJ Genki
ArtistUnicode:lapix VS DJ Genki
Creator:My Angel Kouko
Version:A Future Together
Source:REALIZE
Tags:
BeatmapID:1137942
BeatmapSetID:536913

[Difficulty]
HPDrainRate:5
CircleSize:4
OverallDifficulty:8.8
ApproachRate:9.5
SliderMultiplier:1.90000000596046
SliderTickRate:1

[Events]
//Background and Video events
0,0,"__original_drawn_by_chitose_rin__ab26a93fe7bc33fd26ab4c99c5194676.jpg",0,0
//Break Periods
2,24188,34933
2,125833,135696
//Storyboard Layer 0 (Background)
//Storyboard Layer 1 (Fail)
//Storyboard Layer 2 (Pass)
//Storyboard Layer 3 (Foreground)
//Storyboard Sound Samples

[TimingPoints]
1399,352.941176470588,4,2,0,100,1,0
3517,-66.6666666666667,4,2,0,100,0,0
3870,-100,4,2,0,100,0,0
8988,-66.6666666666667,4,2,0,100,0,0
9517,-100,4,2,0,100,0,0
35988,-125,4,2,0,100,0,0
45870,-100,4,2,0,100,0,0
46576,-66.6666666666667,4,2,0,100,0,0
46929,-100,4,2,0,100,0,0
49399,-66.6666666666667,4,2,0,100,0,0
49752,-100,4,2,0,100,0,0
50282,-66.6666666666667,4,2,0,100,0,0
50811,-100,4,2,0,100,0,0
51870,-76.9230769230769,4,2,0,100,0,0
52399,-100,4,2,0,100,0,0
53105,-66.6666666666667,4,2,0,100,0,0
53811,-100,4,2,0,100,0,0
55046,-66.6666666666667,4,2,0,100,0,0
55752,-100,4,2,0,100,0,0
55929,-66.6666666666667,4,2,0,100,0,0
56282,-100,4,2,0,100,0,0
62811,-142.857142857143,4,2,0,100,0,0
63693,-100,4,2,0,100,0,0
64929,-83.3333333333333,4,2,0,100,0,0
65282,-100,4,2,0,100,0,0
80105,-66.6666666666667,4,2,0,100,0,0
80458,-100,4,2,0,100,0,0
83282,-181.818181818181,4,2,0,100,0,0
83723,-100,4,2,0,100,0,0
83988,-76.9230769230769,4,2,0,100,0,0
84252,-100,4,2,0,100,0,0
84517,-66.6666666666667,4,2,0,100,0,0
85223,-100,4,2,0,100,0,0
85399,-133.333333333333,4,2,0,100,0,0
85752,-79.9999999999999,4,2,0,100,0,0
86282,-100,4,2,0,100,0,0
86635,-66.6666666666667,4,2,0,100,0,0
87341,-100,4,2,0,100,0,0
88576,-76.9230769230769,4,2,0,100,0,0
88929,-133.333333333333,4,2,0,100,0,0
89458,-100,4,2,0,100,0,0
91046,-142.857142857143,4,2,0,100,0,0
91752,705.882352941176,4,2,0,100,1,0
91752,-200,4,2,0,100,0,0
92457,352.941176470588,4,2,0,100,1,0
94574,-76.9230769230769,4,2,0,100,0,0
95104,-100,4,2,0,100,0,0
95280,-66.6666666666667,4,2,0,100,0,0
95633,-100,4,2,0,100,0,0
95809,-66.6666666666667,4,2,0,100,0,0
96515,-100,4,2,0,100,0,0
96692,-133.333333333333,4,2,0,100,0,0
97045,-79.9999999999999,4,2,0,100,0,0
97486,-100,4,2,0,100,0,0
99515,-76.9230769230769,4,2,0,100,0,0
99868,-66.6666666666667,4,2,0,100,0,0
100221,-76.9230769230769,4,2,0,100,0,0
101633,-76.9230769230769,4,2,0,100,0,0
103045,-100,4,2,0,100,0,1
125633,-100,4,2,0,100,0,0
136927,-200,4,2,0,100,0,0
146104,-100,4,2,0,100,0,0
152456,-66.6666666666667,4,2,0,100,0,0
153868,-100,4,2,0,100,0,0
154221,-50,4,2,0,100,0,0
154574,-66.6666666666667,4,2,0,100,0,0
155280,-100,4,2,0,100,0,0
155633,-142.857142857143,4,2,0,100,0,0
155986,-100,4,2,0,100,0,0
159515,-200,4,2,0,100,0,0
159868,-66.6666666666667,4,2,0,100,0,0
160221,-100,4,2,0,100,0,0
160486,-66.6666666666667,4,2,0,100,0,0
160751,-100,4,2,0,100,0,0
163751,-83.3333333333333,4,2,0,100,0,0
165162,-100,4,2,0,100,0,0
166221,-66.6666666666667,4,2,0,100,0,0
166574,-100,4,2,0,100,0,0
166927,-66.6666666666667,4,2,0,100,0,0
167280,-100,4,2,0,100,0,0
167986,-83.3333333333333,4,2,0,100,0,0
169398,-100,4,2,0,100,0,0
176456,-200,4,2,0,100,0,0
181398,-100,4,2,0,100,0,0
215633,-83.3333333333333,4,2,0,100,0,0
215986,-100,4,2,0,100,0,1
220045,-125,4,2,0,100,0,1
221809,-100,4,2,0,100,0,1
225692,-125,4,2,0,100,0,1
227280,-100,4,2,0,100,0,1
238574,-100,4,2,0,100,0,0

[HitObjects]
208,192,1399,5,0,0:0:0:0:
120,120,1576,1,0,0:0:0:0:
294,265,1752,2,0,L|384:344,1,95.000000298023
56,224,2458,2,0,B|80:256|80:256|152:248,1,95.000000298023
136,340,2811,1,0,0:0:0:0:
136,340,2899,1,0,0:0:0:0:
136,340,2988,1,0,0:0:0:0:
248,232,3341,2,0,P|272:264|280:288,1,47.5
256,352,3517,2,0,B|312:368|344:320|344:320|368:296|416:296,1,142.500005435944
440,192,3870,6,0,L|408:128,1,47.5
296,96,4046,2,0,L|328:160,1,47.5
344,200,4223,1,0,0:0:0:0:
248,232,4399,6,0,P|216:184|168:176,1,95.000000298023
144,88,5282,2,0,B|176:48|192:120|256:56,1,95.000000298023
416,48,5635,2,0,L|400:184,1,95.000000298023
248,288,6164,2,0,L|264:152,1,95.000000298023
64,192,6693,1,0,0:0:0:0:
176,88,6870,1,0,0:0:0:0:
64,192,7046,2,0,L|112:312,1,95.000000298023
208,192,8105,6,0,L|312:136,1,95.000000298023
352,48,8458,2,0,P|352:96|376:152,1,95.000000298023
456,216,8988,2,0,P|464:136|432:64,1,142.500005882978
256,272,9517,1,0,0:0:0:0:
210,284,9605,1,0,0:0:0:0:
164,296,9693,1,0,0:0:0:0:
118,309,9781,1,0,0:0:0:0:
72,321,9869,1,0,0:0:0:0:
104,216,10046,6,0,L|216:184,1,95.000000298023
232,40,10929,2,0,L|264:152,1,95.000000298023
352,192,11282,2,0,L|320:80,1,95.000000298023
280,208,11635,1,0,0:0:0:0:
392,56,11811,2,0,L|400:88,8,23.7500000745057
248,343,12693,5,0,0:0:0:0:
96,191,13046,1,0,0:0:0:0:
248,40,13399,1,0,0:0:0:0:
399,192,13752,1,0,0:0:0:0:
172,322,14105,5,0,0:0:0:0:
117,116,14458,1,0,0:0:0:0:
323,61,14811,1,0,0:0:0:0:
378,267,15164,1,0,0:0:0:0:
117,267,15517,5,0,0:0:0:0:
172,61,15870,1,0,0:0:0:0:
378,116,16223,1,0,0:0:0:0:
323,322,16576,1,0,0:0:0:0:
248,192,16752,1,0,0:0:0:0:
344,224,16929,6,0,P|344:160|320:128,1,95.000000298023
152,160,17458,2,0,P|152:224|176:256,1,95.000000298023
192,264,17723,1,0,0:0:0:0:
224,272,17811,2,0,P|256:272|296:296,1,47.5000001490115
352,232,17988,2,0,P|342:201|352:156,1,47.5000001490115
296,104,18164,2,0,P|321:85|368:81,1,47.5000001490115
408,104,18341,5,0,0:0:0:0:
224,32,18517,1,0,0:0:0:0:
176,113,18693,1,0,0:0:0:0:
103,173,18869,1,0,0:0:0:0:
23,123,19046,1,0,0:0:0:0:
103,173,19222,1,0,0:0:0:0:
196,194,19400,2,0,B|248:208|248:208|224:272,1,95.000000298023
120,288,19752,5,0,0:0:0:0:
120,288,19841,1,0,0:0:0:0:
120,288,19929,1,0,0:0:0:0:
168,112,20105,1,0,0:0:0:0:
200,336,20282,1,0,0:0:0:0:
248,208,20458,1,0,0:0:0:0:
32,256,20635,1,0,0:0:0:0:
56,136,20811,5,0,0:0:0:0:
70,155,20899,1,0,0:0:0:0:
84,174,20988,1,0,0:0:0:0:
98,193,21076,1,0,0:0:0:0:
113,212,21164,1,0,0:0:0:0:
127,231,21252,5,0,0:0:0:0:
144,248,21341,1,0,0:0:0:0:
163,227,21429,1,0,0:0:0:0:
185,209,21517,1,0,0:0:0:0:
209,194,21605,1,0,0:0:0:0:
236,183,21693,1,0,0:0:0:0:
263,175,21782,1,0,0:0:0:0:
291,172,21870,1,0,0:0:0:0:
288,200,21958,1,0,0:0:0:0:
283,232,22046,1,0,0:0:0:0:
284,266,22135,1,0,0:0:0:0:
290,298,22223,5,0,0:0:0:0:
302,329,22311,1,0,0:0:0:0:
318,358,22399,1,0,0:0:0:0:
296,336,22488,1,0,0:0:0:0:
270,308,22576,1,0,0:0:0:0:
239,285,22664,1,0,0:0:0:0:
205,269,22752,1,0,0:0:0:0:
168,259,22841,1,0,0:0:0:0:
130,256,22929,1,0,0:0:0:0:
96,272,23017,5,0,0:0:0:0:
117,308,23105,1,0,0:0:0:0:
155,327,23193,1,0,0:0:0:0:
197,323,23282,1,0,0:0:0:0:
230,297,23370,1,0,0:0:0:0:
245,258,23458,1,0,0:0:0:0:
237,216,23546,1,0,0:0:0:0:
208,186,23635,1,0,0:0:0:0:
168,176,23723,1,0,0:0:0:0:
125,156,23811,5,0,0:0:0:0:
100,117,23899,1,0,0:0:0:0:
103,70,23988,1,0,0:0:0:0:
48,192,35458,5,0,0:0:0:0:
115,125,35635,1,0,0:0:0:0:
203,93,35811,1,0,0:0:0:0:
298,97,35988,2,0,B|336:120|336:120|352:152,1,76
192,200,36341,1,0,0:0:0:0:
432,120,36517,1,0,0:0:0:0:
251,180,36693,1,0,0:0:0:0:
484,171,36870,2,0,B|446:148|446:148|430:116,1,76
376,256,37223,5,0,0:0:0:0:
352,144,37399,1,0,0:0:0:0:
248,320,37576,1,0,0:0:0:0:
248,320,37664,2,0,B|208:296|176:256|176:256|120:304|72:328,1,190
8,264,38282,2,0,P|32:234|62:212,1,76
168,360,38635,1,0,0:0:0:0:
56,144,38811,1,0,0:0:0:0:
296,128,38988,1,0,0:0:0:0:
296,128,39076,2,0,L|392:88,1,76
360,80,39341,6,0,P|304:64|264:40,1,76
160,104,39693,1,0,0:0:0:0:
384,240,39870,1,0,0:0:0:0:
80,136,40046,1,0,0:0:0:0:
304,272,40223,2,0,B|208:304|168:216|176:104|304:176|280:56,1,304
336,176,41105,5,0,0:0:0:0:
112,296,41282,1,0,0:0:0:0:
272,208,41458,1,0,0:0:0:0:
144,176,41635,2,0,L|88:104,1,76.0000002384184
16,136,41988,2,0,P|24:64|120:40,1,152.000000476837
32,240,42517,1,0,0:0:0:0:
208,72,42693,1,0,0:0:0:0:
136,272,42870,1,0,0:0:0:0:
304,104,43046,2,0,L|352:136,1,38.0000001192092
304,208,43223,2,0,P|392:192|384:56,1,228.000000715255
408,272,43929,5,0,0:0:0:0:
256,192,44105,1,0,0:0:0:0:
256,336,44282,1,0,0:0:0:0:
256,192,44458,2,0,B|256:136|256:136|224:136,1,76.0000002384184
152,120,44723,2,0,L|88:200,1,76.0000002384184
32,136,44988,2,0,P|72:32|232:128,1,342.000001072883
304,112,45870,6,0,L|344:176,1,47.5
440,200,46046,2,0,L|391:257,1,47.5
384,352,46223,2,0,L|352:344,4,23.75
280,296,46488,2,0,L|285:220,1,47.5
400,112,46752,1,0,0:0:0:0:
144,192,46929,1,0,0:0:0:0:
409,236,47105,1,0,0:0:0:0:
240,64,47282,1,0,0:0:0:0:
88,48,47458,6,0,L|184:128,1,95.000000298023
176,360,47811,2,0,L|80:280,1,95.000000298023
160,208,48164,1,0,0:0:0:0:
264,168,48341,1,0,0:0:0:0:
288,64,48517,1,0,0:0:0:0:
384,40,48693,2,0,L|416:152,1,95
424,176,48958,1,0,0:0:0:0:
448,216,49046,1,0,0:0:0:0:
448,264,49135,1,0,0:0:0:0:
480,304,49223,5,0,0:0:0:0:
368,344,49399,2,0,B|344:264|344:264|328:296|296:320,1,142.500005435944
160,160,49752,1,0,0:0:0:0:
344,264,49929,1,0,0:0:0:0:
144,320,50105,1,0,0:0:0:0:
288,144,50282,2,0,B|264:72|264:72|200:48,1,142.500005435944
145,51,50635,6,0,B|174:28|174:28|206:52,1,71.2500027179719
160,160,50811,2,0,L|112:280,1,95
372,160,51164,1,0,0:0:0:0:
124,248,51341,1,0,0:0:0:0:
312,32,51517,1,0,0:0:0:0:
298,77,51605,1,0,0:0:0:0:
285,123,51693,1,0,0:0:0:0:
272,168,51782,1,0,0:0:0:0:
258,214,51870,6,0,P|240:296|312:224,1,246.999988693238
160,160,52399,1,0,0:0:0:0:
272,312,52576,1,0,0:0:0:0:
120,104,52752,1,0,0:0:0:0:
140,291,52929,1,0,0:0:0:0:
80,48,53105,2,0,B|136:0|136:0|208:48,1,142.500005435944
306,28,53458,2,0,B|250:76|250:76|178:28,1,142.500005435944
336,144,53811,6,0,L|392:248,1,95
408,64,54164,1,0,0:0:0:0:
448,264,54341,2,0,P|416:296|360:304,1,95
240,264,54693,1,0,0:0:0:0:
224,240,54782,1,0,0:0:0:0:
208,216,54870,1,0,0:0:0:0:
24,184,55046,2,0,B|23:150|23:150|86:165|88:226,1,142.500005435944
40,352,55399,1,0,0:0:0:0:
128,128,55576,1,0,0:0:0:0:
344,192,55752,6,0,L|392:216,1,47.5
456,128,55929,2,0,L|328:64,1,142.500005435944
128,128,56282,2,0,B|120:165|82:190|82:190|97:234|87:281|87:281|142:292|157:336|157:336|201:321|252:349|252:349|272:295|332:284|332:284|318:232|344:188|344:188|292:161|277:117|280:124,1,665
208,200,57870,2,0,L|200:80,1,95
328,280,58223,1,0,0:0:0:0:
128,128,58399,1,0,0:0:0:0:
312,176,58576,2,0,P|376:184|408:208,1,95
256,48,58929,5,0,0:0:0:0:
400,200,59105,1,0,0:0:0:0:
152,40,59282,1,0,0:0:0:0:
200,240,59458,1,0,0:0:0:0:
256,48,59635,1,0,0:0:0:0:
200,240,59811,1,0,0:0:0:0:
440,48,59988,1,0,0:0:0:0:
440,48,60076,6,0,B|480:80|480:80|432:120|488:128|432:184,1,142.5
488,248,60517,2,0,P|427:250|392:232,1,95
352,112,60870,1,0,0:0:0:0:
352,352,61046,2,0,L|280:248,1,95.000000298023
233,257,61399,2,0,L|288:336,1,95.000000298023
256,192,61752,1,0,0:0:0:0:
224,320,61929,2,0,L|152:216,1,95.000000298023
192,152,62281,1,0,0:0:0:0:
72,328,62458,1,0,0:0:0:0:
312,232,62635,1,0,0:0:0:0:
48,192,62811,6,0,P|88:104|88:208,1,265.999992716789
104,32,63693,1,0,0:0:0:0:
256,192,63870,1,0,0:0:0:0:
200,24,64046,1,0,0:0:0:0:
314,144,64223,2,0,L|408:240,1,95.000000298023
384,104,64576,2,0,P|336:64|272:72,1,95.000000298023
304,256,64929,2,0,P|360:296|440:280,1,113.999996878624
192,192,65282,1,0,0:0:0:0:
384,192,65458,1,0,0:0:0:0:
200,312,65635,2,0,B|160:280|160:280|96:296,1,95.000000298023
40,192,65988,5,0,0:0:0:0:
272,192,66164,1,0,0:0:0:0:
104,48,66341,1,0,0:0:0:0:
272,192,66517,1,0,0:0:0:0:
256,32,66693,1,0,0:0:0:0:
272,192,66870,1,0,0:0:0:0:
472,48,67046,1,0,0:0:0:0:
240,112,67223,1,0,0:0:0:0:
424,176,67399,1,0,0:0:0:0:
328,24,67576,1,0,0:0:0:0:
312,200,67752,5,0,0:0:0:0:
284,238,67840,1,0,0:0:0:0:
256,277,67928,1,0,0:0:0:0:
229,315,68016,1,0,0:0:0:0:
201,354,68104,5,0,0:0:0:0:
192,304,68193,1,0,0:0:0:0:
183,257,68281,1,0,0:0:0:0:
149,225,68369,1,0,0:0:0:0:
102,221,68457,1,0,0:0:0:0:
63,246,68545,1,0,0:0:0:0:
47,289,68634,1,0,0:0:0:0:
60,334,68722,1,0,0:0:0:0:
99,361,68810,1,0,0:0:0:0:
72,192,69164,6,0,L|192:128,1,95
424,192,69517,2,0,L|304:256,1,95
171,236,69870,2,0,L|207:178,1,47.5
324,147,70046,2,0,L|288:205,1,47.5
144,136,70223,2,0,L|232:138,1,47.5
341,250,70399,2,0,L|252:247,1,47.5
293,248,70576,5,0,0:0:0:0:
240,56,70752,1,0,0:0:0:0:
240,56,70929,1,0,0:0:0:0:
24,192,71105,2,0,B|40:240|40:240|24:288,1,95
160,336,71458,1,0,0:0:0:0:
160,336,71546,1,0,0:0:0:0:
160,336,71635,5,0,0:0:0:0:
96,72,71811,1,0,0:0:0:0:
264,344,71988,2,0,B|312:360|312:360|376:336,1,95.000000298023
352,272,72341,2,0,B|304:256|304:256|240:280,1,95
440,192,72693,2,0,L|472:128,1,47.5
408,40,72870,2,0,L|376:104,1,47.5
272,112,73046,2,0,L|304:48,1,47.5
293,69,73223,5,0,0:0:0:0:
160,112,73399,2,0,P|168:168|208:208,1,95
64,32,73752,1,0,0:0:0:0:
191,197,73929,2,0,P|183:253|143:293,1,95
176,120,74282,1,0,0:0:0:0:
88,216,74458,1,0,0:0:0:0:
304,160,74635,1,0,0:0:0:0:
88,216,74811,1,0,0:0:0:0:
360,272,74988,1,0,0:0:0:0:
192,328,75164,5,0,0:0:0:0:
188,280,75252,1,0,0:0:0:0:
184,233,75341,1,0,0:0:0:0:
180,185,75429,1,0,0:0:0:0:
176,138,75517,1,0,0:0:0:0:
408,184,75693,1,0,0:0:0:0:
168,64,75870,1,0,0:0:0:0:
191,59,75958,1,0,0:0:0:0:
214,54,76046,1,0,0:0:0:0:
237,49,76135,5,0,0:0:0:0:
260,44,76223,1,0,0:0:0:0:
284,39,76311,1,0,0:0:0:0:
304,38,76399,1,0,0:0:0:0:
301,71,76488,1,0,0:0:0:0:
306,103,76576,1,0,0:0:0:0:
320,134,76664,1,0,0:0:0:0:
340,160,76752,1,0,0:0:0:0:
366,181,76841,1,0,0:0:0:0:
400,190,76929,5,0,0:0:0:0:
412,149,77017,1,0,0:0:0:0:
402,108,77105,1,0,0:0:0:0:
372,79,77193,1,0,0:0:0:0:
331,70,77282,1,0,0:0:0:0:
291,84,77370,1,0,0:0:0:0:
265,116,77458,1,0,0:0:0:0:
259,158,77546,1,0,0:0:0:0:
272,198,77635,1,0,0:0:0:0:
288,246,77723,5,0,0:0:0:0:
275,296,77811,1,0,0:0:0:0:
236,330,77899,1,0,0:0:0:0:
185,336,77988,1,0,0:0:0:0:
139,313,78076,1,0,0:0:0:0:
114,269,78164,1,0,0:0:0:0:
118,217,78252,1,0,0:0:0:0:
152,176,78341,1,0,0:0:0:0:
203,145,78429,1,0,0:0:0:0:
210,86,78517,5,0,0:0:0:0:
168,44,78605,1,0,0:0:0:0:
109,52,78693,1,0,0:0:0:0:
72,104,78782,1,0,0:0:0:0:
80,168,78870,1,0,0:0:0:0:
135,210,78958,1,0,0:0:0:0:
200,184,79046,1,0,0:0:0:0:
80,192,80105,6,0,B|120:136|120:136|160:160|200:152,1,142.500005435944
184,56,80458,2,0,P|216:56|264:80,1,47.5
312,328,80635,2,0,P|280:328|232:304,1,47.5
200,304,80811,1,0,0:0:0:0:
264,168,80988,2,0,L|312:120,1,47.5
344,24,81164,2,0,L|392:72,1,47.5
480,120,81341,2,0,L|432:168,1,47.5
392,248,81517,2,0,L|344:200,1,47.5
272,288,81693,5,0,0:0:0:0:
238,321,81782,2,0,L|192:368,1,47.5
56,264,81958,1,0,0:0:0:0:
89,230,82046,2,0,L|136:184,1,47.5
112,32,82223,1,0,0:0:0:0:
112,32,82311,2,0,L|66:79,1,47.5
176,120,82488,2,0,P|200:128|232:128,1,47.5
264,112,82664,1,0,0:0:0:0:
299,75,82752,5,0,0:0:0:0:
320,32,82841,1,0,0:0:0:0:
365,47,82929,2,0,L|384:112,1,47.5000001490115
456,128,83105,2,0,L|440:176,1,47.5
328,296,83282,2,0,B|304:256|304:256|272:280|232:264,1,104.500003189087
80,248,83723,2,0,P|56:216|48:176,1,47.5
120,176,83899,1,0,0:0:0:0:
184,232,83988,2,0,B|200:176|200:176|216:160|216:160|200:136|216:112,1,123.499994346619
264,72,84252,2,0,B|280:96|280:96|280:128,1,47.5
352,96,84429,5,0,0:0:0:0:
400,192,84517,2,0,B|384:256|384:256|376:232|376:232|360:288|264:304,1,213.750008153916
261,375,84870,2,0,P|208:291|280:224,1,213.750008153916
232,152,85223,2,0,L|168:176,1,47.5
64,272,85399,2,0,B|96:240|96:240|72:216|72:160,1,106.875004076958
8,144,85752,2,0,B|-8:88|16:40|96:40|96:40|104:112,1,237.5
184,80,86193,5,0,0:0:0:0:
272,80,86282,2,0,L|320:104,1,47.5
368,56,86458,2,0,L|397:100,1,47.5
464,96,86635,2,0,L|464:176,1,71.2500027179719
416,216,86811,1,0,0:0:0:0:
416,248,86899,1,0,0:0:0:0:
352,272,86988,2,0,L|336:304,4,35.625001358986
272,336,87252,1,0,0:0:0:0:
240,336,87341,6,0,L|208:288,1,47.5
224,152,87517,1,0,0:0:0:0:
240,136,87605,1,0,0:0:0:0:
264,128,87693,2,0,L|296:176,1,47.5
72,288,87870,1,0,0:0:0:0:
56,304,87958,1,0,0:0:0:0:
32,312,88046,6,0,L|5:272,1,47.5
72,120,88223,1,0,0:0:0:0:
56,104,88311,1,0,0:0:0:0:
48,80,88399,2,0,L|87:53,1,47.5
200,64,88576,2,0,B|256:32|256:32|328:56,1,123.499994346619
424,104,88929,2,0,B|392:136|392:136|416:144|416:144|368:176|368:224,1,142.500005882978
464,224,89458,5,0,0:0:0:0:
248,192,89635,2,0,L|272:176,4,23.75
288,64,89988,1,0,0:0:0:0:
336,312,90164,1,0,0:0:0:0:
112,248,90341,2,0,L|104:200,1,47.5000001490115
24,112,90517,2,0,L|67:89,1,47.5000001490115
160,16,90693,2,0,L|194:50,1,47.5000001490115
312,88,90870,2,0,L|290:131,1,47.5000001490115
296,216,91046,6,0,P|264:240|216:240,1,66.4999981791972
160,272,91311,2,0,P|192:248|240:248,1,66.4999981791972
272,312,91576,2,0,L|328:288,1,33.2499990895986
352,192,91752,2,0,L|304:216,1,47.5000001490115
312,72,92281,5,0,0:0:0:0:
224,296,92457,1,0,0:0:0:0:
64,192,92633,2,0,L|136:224,1,47.5000001490115
184,80,92809,2,0,L|112:112,1,47.5000001490115
264,176,92986,2,0,L|283:132,1,47.5000001490115
392,40,93162,1,0,0:0:0:0:
392,64,93251,1,0,0:0:0:0:
393,91,93339,2,0,L|423:127,1,47.5000001490115
360,208,93515,2,0,L|368:272,1,47.5000001490115
248,296,93692,5,0,0:0:0:0:
248,296,93780,1,0,0:0:0:0:
248,296,93868,2,0,L|216:352,1,47.5000001490115
152,224,94045,5,0,0:0:0:0:
149,224,94133,2,0,L|85:211,1,47.5000001490115
186,107,94309,1,0,0:0:0:0:
186,107,94398,6,0,L|179:43,1,47.5000001490115
320,120,94574,2,0,B|347:101|347:101|379:133|379:133|443:117|443:117|419:165|443:229,1,246.999989468098
328,232,95104,1,0,0:0:0:0:
408,32,95280,2,0,B|376:40|336:16|336:16|312:40|240:40,1,142.500005882978
392,288,95633,1,0,0:0:0:0:
208,160,95809,2,0,B|152:208|96:184|96:184|128:248|80:280,1,213.750008824467
24,248,96162,2,0,P|66:336|160:296,1,213.750008824467
216,256,96515,2,0,L|256:288,1,47.5000001490115
312,240,96692,6,0,B|360:224|360:224|416:264,1,106.875004412234
360,328,97045,2,0,B|440:360|488:280|488:280|480:240|488:192,1,237.500000745057
432,136,97486,1,0,0:0:0:0:
408,144,97574,2,0,L|360:160,1,47.5000001490115
248,32,97751,2,0,L|296:16,1,47.5000001490115
256,136,97927,2,0,L|208:152,1,47.5000001490115
88,32,98104,2,0,L|136:16,1,47.5000001490115
64,176,98280,2,0,P|88:224|136:280,1,95.000000298023
208,248,98545,1,0,0:0:0:0:
208,248,98633,6,0,L|248:280,1,47.5000001490115
392,248,98809,1,0,0:0:0:0:
424,216,98898,1,0,0:0:0:0:
448,176,98986,2,0,B|432:152|432:152|413:154,1,47.5000001490115
344,64,99162,1,0,0:0:0:0:
312,96,99251,1,0,0:0:0:0:
288,136,99339,2,0,B|304:160|304:160|322:157,1,47.5000001490115
136,32,99515,2,0,B|158:68|158:68|130:107|147:179,1,123.499994734049
163,261,99868,2,0,B|96:248|96:248|48:192,1,142.500005882978
240,32,100221,6,0,P|240:96|320:24,1,246.999989468098
280,200,100751,1,0,0:0:0:0:
440,220,100927,2,0,P|440:156|364:208,1,185.249992101073
304,320,101280,2,0,B|248:288|191:326|191:326|135:286,1,185.249992101073
40,304,101633,6,0,B|80:256|80:256|136:312|208:264|208:264|200:240|160:192,1,246.999989468098
152,176,102074,1,0,0:0:0:0:
119,126,102162,1,0,0:0:0:0:
144,73,102251,1,0,0:0:0:0:
202,66,102339,1,0,0:0:0:0:
239,112,102427,1,0,0:0:0:0:
240,176,102515,1,0,0:0:0:0:
261,231,102604,1,0,0:0:0:0:
319,243,102692,2,0,P|360:192|336:136,1,123.499994734049
152,145,103045,6,0,P|108:161|72:192,1,95.000000298023
56,56,103398,1,0,0:0:0:0:
256,240,103574,1,0,0:0:0:0:
160,224,103751,2,0,L|208:192,1,47.5000001490115
232,96,103927,2,0,L|277:131,1,47.5000001490115
384,120,104104,2,0,L|360:200,1,47.5000001490115
432,248,104280,2,0,L|328:312,1,95.000000298023
312,48,104633,5,0,0:0:0:0:
288,224,104809,1,0,0:0:0:0:
464,48,104986,1,0,0:0:0:0:
200,128,105162,2,0,L|112:160,1,47.5000001490115
200,208,105339,6,0,P|184:264|160:312,1,95.000000298023
56,216,105692,1,0,0:0:0:0:
336,240,105868,1,0,0:0:0:0:
200,32,106045,1,0,0:0:0:0:
168,296,106221,1,0,0:0:0:0:
80,88,106398,2,0,L|136:128,1,47.5000001490115
304,104,106574,2,0,B|328:64|328:64|392:48,1,95.000000298023
384,136,106839,6,0,L|440:176,1,47.5000001490115
448,320,107104,2,0,B|480:360|480:360|344:336,1,190.000000596046
216,184,107633,1,0,0:0:0:0:
72,304,107809,1,0,0:0:0:0:
280,128,107986,2,0,P|376:64|288:160,1,380.000001192092
72,152,108868,1,0,0:0:0:0:
208,336,109045,1,0,0:0:0:0:
168,64,109221,1,0,0:0:0:0:
280,128,109398,2,0,L|248:208,1,47.5000001490115
232,272,109574,5,0,0:0:0:0:
256,32,109751,1,0,0:0:0:0:
416,216,109927,2,0,L|392:320,1,95.000000298023
392,72,110280,1,0,0:0:0:0:
392,312,110456,1,0,0:0:0:0:
264,176,110633,1,0,0:0:0:0:
136,296,110809,2,0,L|80:328,1,47.5000001490115
32,288,110986,6,0,B|64:248|64:248|48:184,1,95.000000298023
72,128,111339,1,0,0:0:0:0:
328,104,111515,1,0,0:0:0:0:
144,120,111692,1,0,0:0:0:0:
248,280,111868,1,0,0:0:0:0:
168,56,112045,2,0,B|192:40|192:40|216:48,1,47.5000001490115
262,162,112221,2,0,B|280:168|280:168|304:152,1,47.5000001490115
384,168,112398,2,0,P|376:112|336:80,1,95.000000298023
262,162,112751,2,0,B|302:202|358:226|358:226|222:290|206:170|150:146|94:186|46:202|14:266|48:344|86:370|158:354|174:330|174:330|150:306|142:266,1,665.000002086161
416,96,114339,6,0,L|312:64,1,95.000000298023
304,160,114692,2,0,L|408:192,1,95.000000298023
376,280,115045,2,0,L|272:248,1,95.000000298023
80,96,115398,6,0,L|184:64,1,95.000000298023
192,160,115751,2,0,L|88:192,1,95.000000298023
120,280,116104,2,0,L|224:248,1,95.000000298023
248,112,116456,1,0,0:0:0:0:
168,72,116633,2,0,P|232:24|264:24,1,95.000000298023
392,80,116986,1,0,0:0:0:0:
368,121,117074,1,0,0:0:0:0:
344,162,117162,5,0,0:0:0:0:
64,200,117339,1,0,0:0:0:0:
264,96,117515,1,0,0:0:0:0:
176,352,117692,1,0,0:0:0:0:
271,357,117868,2,0,B|264:256|184:280|192:192,1,190.000000596046
109,196,118398,2,0,P|150:116|240:120,1,190.000000596046
104,48,118927,1,0,0:0:0:0:
272,200,119104,1,0,0:0:0:0:
264,56,119280,1,0,0:0:0:0:
264,56,119368,1,0,0:0:0:0:
264,56,119456,5,0,0:0:0:0:
448,216,119633,1,0,0:0:0:0:
416,64,119809,2,0,P|424:112|415:151,1,47.5000001490115
368,168,119986,1,0,0:0:0:0:
456,312,120162,1,0,0:0:0:0:
248,192,120339,1,0,0:0:0:0:
304,328,120515,1,0,0:0:0:0:
296,112,120692,1,0,0:0:0:0:
80,192,120868,2,0,L|152:168,1,47.5000001490115
112,104,121045,5,0,0:0:0:0:
158,109,121133,1,0,0:0:0:0:
192,140,121221,1,0,0:0:0:0:
201,186,121309,1,0,0:0:0:0:
181,228,121398,1,0,0:0:0:0:
217,332,121574,1,0,0:0:0:0:
264,250,121751,1,0,0:0:0:0:
312,167,121927,1,0,0:0:0:0:
264,56,122104,2,0,B|312:48|312:48|368:96|448:56,1,190.000000596046
416,160,122633,1,0,0:0:0:0:
320,136,122809,5,0,0:0:0:0:
327,182,122897,1,0,0:0:0:0:
307,224,122985,1,0,0:0:0:0:
266,246,123073,1,0,0:0:0:0:
220,241,123161,1,0,0:0:0:0:
185,209,123250,1,0,0:0:0:0:
176,163,123338,1,0,0:0:0:0:
194,121,123426,1,0,0:0:0:0:
182,75,123515,1,0,0:0:0:0:
150,41,123603,1,0,0:0:0:0:
105,27,123691,1,0,0:0:0:0:
59,36,123779,1,0,0:0:0:0:
23,67,123868,1,0,0:0:0:0:
6,110,123956,1,0,0:0:0:0:
13,157,124044,1,0,0:0:0:0:
41,195,124132,1,0,0:0:0:0:
88,216,124221,5,0,0:0:0:0:
119,180,124309,1,0,0:0:0:0:
157,152,124397,1,0,0:0:0:0:
201,134,124485,1,0,0:0:0:0:
248,127,124573,1,0,0:0:0:0:
295,131,124662,1,0,0:0:0:0:
340,145,124750,1,0,0:0:0:0:
381,169,124838,1,0,0:0:0:0:
416,208,124927,1,0,0:0:0:0:
439,258,125015,1,0,0:0:0:0:
427,313,125103,1,0,0:0:0:0:
385,350,125191,1,0,0:0:0:0:
330,354,125279,1,0,0:0:0:0:
282,325,125368,1,0,0:0:0:0:
262,272,125456,1,0,0:0:0:0:
277,219,125544,1,0,0:0:0:0:
320,184,125633,1,0,0:0:0:0:
112,192,136221,6,0,L|168:152,1,47.5000001490115
328,40,136398,2,0,L|272:80,1,47.5000001490115
320,232,136574,2,0,L|336:256,4,23.7500000745057
200,296,136927,2,0,P|112:320|200:216,1,356.250001117586
112,112,138339,2,0,B|176:104|224:128|224:128|240:48|240:48|168:24|72:32,1,356.250001117586
224,128,139751,2,0,B|256:136|256:136|288:112|288:112|320:120|320:120|360:80|448:128|456:184|400:256|336:232,1,356.250001117586
280,208,141162,2,0,B|216:304|216:200|144:288|144:288|104:240|56:216|56:216|56:264|16:296,1,356.250001117586
8,152,142574,2,0,B|80:136|128:88|128:88|184:128|280:136|280:136|272:96|288:72,1,356.250001117586
216,32,143986,2,0,B|280:-40|376:16|360:72|368:96|368:96|392:80|392:80|408:168|448:208,1,380.000001192092
456,216,145486,1,0,0:0:0:0:
442,235,145574,1,0,0:0:0:0:
425,251,145662,1,0,0:0:0:0:
405,265,145750,1,0,0:0:0:0:
384,274,145838,1,0,0:0:0:0:
360,280,145927,1,0,0:0:0:0:
337,281,146015,1,0,0:0:0:0:
312,280,146104,6,0,L|288:232,7,47.5000001490115
328,176,146809,6,0,L|352:136,7,47.5000001490115
336,64,147515,6,0,L|320:40,14,23.7500000745057
144,120,148221,6,0,L|168:184,1,47.5000001490115
384,216,148574,2,0,L|368:168,1,47.5000001490115
152,304,148927,2,0,L|200:288,1,47.5000001490115
168,24,149192,2,0,L|168:80,1,47.5000001490115
416,112,149456,2,0,L|384:160,1,47.5000001490115
360,184,149633,5,0,0:0:0:0:
320,210,149721,1,0,0:0:0:0:
276,228,149809,1,0,0:0:0:0:
230,237,149898,1,0,0:0:0:0:
182,238,149986,2,0,L|144:176,1,47.5000001490115
48,112,150162,5,0,0:0:0:0:
48,112,150251,2,0,L|104:96,1,47.5000001490115
224,40,150427,1,0,0:0:0:0:
224,40,150515,2,0,L|208:96,1,47.5000001490115
328,168,150692,1,0,0:0:0:0:
328,168,150780,2,0,L|269:170,1,47.5000001490115
168,256,150956,1,0,0:0:0:0:
168,256,151045,2,0,L|148:201,1,47.5000001490115
136,168,151221,5,0,0:0:0:0:
89,159,151309,1,0,0:0:0:0:
47,179,151398,1,0,0:0:0:0:
25,220,151486,1,0,0:0:0:0:
30,267,151574,1,0,0:0:0:0:
61,301,151662,1,0,0:0:0:0:
104,312,151751,5,0,0:0:0:0:
141,269,151839,1,0,0:0:0:0:
192,245,151927,1,0,0:0:0:0:
249,246,152015,1,0,0:0:0:0:
300,270,152104,2,0,L|376:304,1,47.5000001490115
456,248,152280,2,0,L|380:214,1,47.5000001490115
376,120,152456,2,0,B|448:152|448:152|432:112|432:80|432:80|344:40,1,213.750008824467
288,88,152809,2,0,B|264:120|264:120|232:96|232:96|200:184|168:80|120:184,1,213.750008824467
72,120,153162,2,0,P|88:224|184:216,1,213.750008824467
170,324,153515,2,0,L|240:200,1,142.500005882978
320,56,153868,5,0,0:0:0:0:
342,98,153956,1,0,0:0:0:0:
364,140,154045,1,0,0:0:0:0:
386,182,154133,1,0,0:0:0:0:
408,224,154221,2,0,L|464:320,1,95.000000298023
392,336,154398,2,0,L|336:240,1,95.000000298023
280,288,154574,2,0,B|328:368|328:368|280:336,1,142.500005882978
208,168,154839,2,0,B|160:88|160:88|208:120,1,142.500005882978
136,184,155104,2,0,L|171:245,1,71.2500029414892
296,192,155280,2,0,L|312:168,6,23.7500000745057
384,112,155633,6,0,B|337:79|337:79|273:82,1,99.7499972687958
184,112,155986,2,0,P|168:136|136:152,1,47.5000001490115
48,104,156251,2,0,P|64:80|96:64,1,47.5000001490115
128,264,156515,2,0,P|112:288|80:304,1,47.5000001490115
48,296,156692,1,0,0:0:0:0:
48,104,156868,1,0,0:0:0:0:
80,136,156956,2,0,P|97:153|140:180,1,47.5000001490115
160,184,157133,1,0,0:0:0:0:
160,184,157221,1,0,0:0:0:0:
280,128,157398,1,0,0:0:0:0:
320,104,157486,1,0,0:0:0:0:
360,128,157574,2,0,L|424:224,1,95.000000298023
248,296,158104,5,0,0:0:0:0:
248,48,158456,2,0,L|248:80,6,23.7500000745057
328,96,158809,2,0,L|312:128,4,35.6250001117586
232,144,159162,1,0,0:0:0:0:
440,88,159339,1,0,0:0:0:0:
128,80,159515,2,0,B|128:120|80:80|80:144,1,71.2500002235172
8,104,159868,2,0,P|40:192|152:160,1,213.750008824467
224,160,160221,2,0,L|184:256,1,95.000000298023
248,312,160486,2,0,L|312:152,1,142.500005882978
376,192,160751,2,0,P|368:144|344:120,1,47.5000001490115
344,104,160927,5,0,0:0:0:0:
296,108,161015,1,0,0:0:0:0:
251,96,161103,1,0,0:0:0:0:
215,66,161191,1,0,0:0:0:0:
192,24,161280,2,0,L|128:120,1,95.000000298023
24,192,161633,6,0,P|40:224|56:232,1,47.5000001490115
200,264,161897,2,0,P|174:289|171:306,1,47.5000001490115
360,264,162162,2,0,P|328:247|310:250,1,47.5000001490115
264,192,162339,6,0,L|392:96,1,142.500000447034
400,184,162692,2,0,P|328:136|304:80,1,142.500000447034
248,40,163045,2,0,L|229:83,1,47.5000001490115
176,152,163309,2,0,L|160:106,1,47.5000001490115
160,106,163486,1,0,0:0:0:0:
160,106,163574,1,0,0:0:0:0:
72,176,163751,2,0,B|120:304|120:304|144:224,1,170.999995317936
192,368,164104,2,0,B|144:240|144:240|120:320,1,170.999995317936
232,272,164456,6,0,B|256:256|272:224|272:224|304:248|352:256,1,113.999996878624
316,247,164721,1,0,0:0:0:0:
316,247,164809,1,0,0:0:0:0:
256,128,164986,1,0,0:0:0:0:
144,96,165162,1,0,0:0:0:0:
170,56,165250,1,0,0:0:0:0:
207,28,165338,1,0,0:0:0:0:
252,13,165426,1,0,0:0:0:0:
299,15,165516,6,0,L|344:56,1,47.5000001490115
408,56,165692,2,0,L|425:113,1,47.5000001490115
480,152,165868,2,0,B|472:216|448:248|448:248|432:200,1,142.500000447034
360,216,166221,2,0,L|408:376,1,142.500005882978
304,304,166574,2,0,L|296:272,4,23.7500000745057
208,256,166927,2,0,B|160:192|160:192|208:152,1,142.500005882978
144,112,167280,2,0,L|104:144,1,47.5000001490115
224,40,167545,2,0,L|276:73,1,47.5000001490115
344,144,167809,2,0,L|355:97,1,47.5000001490115
288,72,167986,6,0,P|328:32|416:56,1,113.999996878624
440,104,168251,2,0,L|456:184,1,56.9999984393119
451,159,168427,1,0,0:0:0:0:
451,159,168515,1,0,0:0:0:0:
368,261,168692,2,0,L|256:280,1,113.999996878624
184,192,169045,1,0,0:0:0:0:
312,352,169221,1,0,0:0:0:0:
288,192,169398,2,0,L|248:304,1,95.000000298023
80,176,169751,2,0,B|104:128|104:128|72:88,1,95.000000298023
152,48,170104,2,0,L|176:72,12,23.7500000745057
48,192,170809,6,0,L|96:176,5,47.5000001490115
144,232,171339,2,0,L|208:216,3,47.5000001490115
216,152,171692,2,0,L|240:104,1,47.5000001490115
304,144,171868,2,0,L|328:192,1,47.5000001490115
400,192,172045,2,0,L|432:144,1,47.5000001490115
464,232,172221,2,0,L|432:280,5,47.5000001490115
296,256,172750,2,0,L|264:304,3,47.5000001490115
144,280,173104,6,0,P|144:240|128:200,1,47.5000001490115
128,80,173280,2,0,P|128:120|144:160,1,47.5000001490115
232,168,173456,2,0,P|272:168|312:152,1,47.5000001490115
240,64,173633,2,0,L|200:32,5,47.5000001490115
344,40,174162,2,0,L|392:80,5,47.5000001490115
448,144,174692,2,0,L|416:200,1,47.5000001490115
253,182,174868,2,0,L|276:140,1,47.5000001490115
320,255,175045,2,0,L|356:285,5,47.5000001490115
192,255,175574,2,0,L|156:285,5,47.5000001490115
80,192,176104,2,0,L|128:192,3,47.5000001490115
208,256,176456,6,0,B|231:177|200:128|200:128|288:136|288:136|304:208|288:272,1,356.250001117586
368,280,177868,2,0,B|392:256|376:216|376:216|408:184|384:144|384:144|408:112|384:56|384:56|312:72|264:32,1,356.250001117586
160,24,179280,2,0,B|176:128|304:144|304:144|232:144|192:248,1,356.250001117586
272,280,180692,2,0,P|192:320|128:280,1,166.25000052154
56,224,181398,2,0,L|104:184,1,47.5000001490115
184,48,181574,2,0,L|166:92,1,47.5000001490115
263,208,181751,2,0,L|232:200,6,23.7500000745057
304,288,182104,5,0,0:0:0:0:
335,253,182192,1,0,0:0:0:0:
347,207,182280,1,0,0:0:0:0:
336,161,182368,1,0,0:0:0:0:
312,128,182456,1,0,0:0:0:0:
355,144,182544,1,0,0:0:0:0:
399,129,182632,1,0,0:0:0:0:
425,90,182720,1,0,0:0:0:0:
420,43,182808,1,0,0:0:0:0:
387,10,182897,1,0,0:0:0:0:
341,5,182985,1,0,0:0:0:0:
301,30,183073,1,0,0:0:0:0:
286,74,183161,1,0,0:0:0:0:
296,120,183251,1,0,0:0:0:0:
264,154,183339,1,0,0:0:0:0:
220,173,183427,1,0,0:0:0:0:
173,174,183515,5,0,0:0:0:0:
130,156,183603,1,0,0:0:0:0:
109,125,183691,1,0,0:0:0:0:
92,91,183779,1,0,0:0:0:0:
79,56,183867,1,0,0:0:0:0:
74,94,183955,1,0,0:0:0:0:
70,132,184044,1,0,0:0:0:0:
65,169,184132,1,0,0:0:0:0:
60,207,184220,1,0,0:0:0:0:
56,248,184309,1,0,0:0:0:0:
48,288,184398,6,0,L|112:280,1,47.5000001490115
160,192,184574,2,0,L|219:217,1,47.5000001490115
312,240,184751,2,0,L|350:291,1,47.5000001490115
368,312,184927,1,0,0:0:0:0:
373,289,185015,1,0,0:0:0:0:
379,266,185103,1,0,0:0:0:0:
385,243,185191,1,0,0:0:0:0:
391,220,185279,1,0,0:0:0:0:
397,197,185368,1,0,0:0:0:0:
403,174,185456,1,0,0:0:0:0:
409,151,185544,1,0,0:0:0:0:
415,128,185632,1,0,0:0:0:0:
424,104,185721,5,0,0:0:0:0:
414,149,185809,1,0,0:0:0:0:
376,175,185897,1,0,0:0:0:0:
330,169,185985,1,0,0:0:0:0:
301,133,186073,1,0,0:0:0:0:
304,86,186162,1,0,0:0:0:0:
338,55,186250,1,0,0:0:0:0:
384,55,186338,1,0,0:0:0:0:
424,80,186427,5,0,0:0:0:0:
390,113,186515,1,0,0:0:0:0:
349,136,186603,1,0,0:0:0:0:
302,145,186691,1,0,0:0:0:0:
255,141,186779,1,0,0:0:0:0:
211,124,186868,1,0,0:0:0:0:
174,94,186956,1,0,0:0:0:0:
147,55,187044,1,0,0:0:0:0:
168,104,187133,1,0,0:0:0:0:
180,149,187221,1,0,0:0:0:0:
180,197,187309,1,0,0:0:0:0:
169,243,187397,1,0,0:0:0:0:
147,284,187485,1,0,0:0:0:0:
115,319,187574,2,0,L|80:256,1,47.5000001490115
16,264,187751,6,0,L|17:191,1,47.5000001490115
16,168,187927,1,0,0:0:0:0:
22,121,188015,1,0,0:0:0:0:
52,85,188103,1,0,0:0:0:0:
97,71,188191,1,0,0:0:0:0:
142,82,188279,1,0,0:0:0:0:
175,116,188368,1,0,0:0:0:0:
184,162,188456,1,0,0:0:0:0:
176,208,188545,1,0,0:0:0:0:
185,253,188633,1,0,0:0:0:0:
217,287,188721,1,0,0:0:0:0:
263,299,188809,1,0,0:0:0:0:
307,284,188897,1,0,0:0:0:0:
338,248,188986,1,0,0:0:0:0:
344,202,189074,1,0,0:0:0:0:
336,160,189162,5,0,0:0:0:0:
346,105,189250,1,0,0:0:0:0:
389,68,189338,1,0,0:0:0:0:
445,67,189426,1,0,0:0:0:0:
490,100,189514,1,0,0:0:0:0:
504,154,189603,1,0,0:0:0:0:
496,200,189692,1,0,0:0:0:0:
466,236,189780,1,0,0:0:0:0:
421,250,189868,1,0,0:0:0:0:
376,238,189956,1,0,0:0:0:0:
344,202,190045,6,0,L|312:144,1,47.5000001490115
240,192,190221,2,0,L|182:157,1,47.5000001490115
136,240,190398,2,0,L|69:238,1,47.5000001490115
72,312,190574,5,0,0:0:0:0:
32,287,190662,1,0,0:0:0:0:
15,243,190750,1,0,0:0:0:0:
28,198,190838,1,0,0:0:0:0:
66,171,190926,1,0,0:0:0:0:
112,176,191015,1,0,0:0:0:0:
147,219,191103,1,0,0:0:0:0:
201,235,191191,1,0,0:0:0:0:
254,217,191279,1,0,0:0:0:0:
289,172,191367,1,0,0:0:0:0:
292,116,191456,1,0,0:0:0:0:
263,68,191544,1,0,0:0:0:0:
211,45,191632,1,0,0:0:0:0:
224,104,191721,1,0,0:0:0:0:
231,150,191809,1,0,0:0:0:0:
227,198,191897,1,0,0:0:0:0:
201,235,191986,5,0,0:0:0:0:
250,207,192074,1,0,0:0:0:0:
305,190,192163,1,0,0:0:0:0:
361,183,192251,1,0,0:0:0:0:
418,186,192339,1,0,0:0:0:0:
368,160,192427,1,0,0:0:0:0:
327,119,192515,1,0,0:0:0:0:
311,63,192604,1,0,0:0:0:0:
328,8,192692,6,0,L|264:40,1,47.5000001490115
64,136,192868,2,0,L|128:104,1,47.5000001490115
152,8,193045,2,0,L|168:32,4,23.7500000745057
168,256,193398,2,0,L|184:200,5,47.5000001490115
192,168,193927,1,0,0:0:0:0:
161,133,194015,1,0,0:0:0:0:
161,86,194103,1,0,0:0:0:0:
192,52,194191,1,0,0:0:0:0:
238,47,194279,1,0,0:0:0:0:
276,74,194368,1,0,0:0:0:0:
304,112,194456,1,0,0:0:0:0:
341,138,194545,1,0,0:0:0:0:
387,133,194633,1,0,0:0:0:0:
418,99,194721,1,0,0:0:0:0:
419,52,194809,5,0,0:0:0:0:
370,27,194897,1,0,0:0:0:0:
325,57,194985,1,0,0:0:0:0:
330,112,195073,1,0,0:0:0:0:
387,133,195163,1,0,0:0:0:0:
440,104,195251,1,0,0:0:0:0:
468,151,195339,1,0,0:0:0:0:
461,207,195427,1,0,0:0:0:0:
420,245,195515,1,0,0:0:0:0:
364,249,195604,1,0,0:0:0:0:
320,208,195692,6,0,L|288:152,1,47.5000001490115
256,80,195868,2,0,L|232:121,1,47.5000001490115
208,224,196045,2,0,L|184:182,1,47.5000001490115
160,144,196221,1,0,0:0:0:0:
143,101,196309,1,0,0:0:0:0:
99,86,196397,1,0,0:0:0:0:
61,111,196485,1,0,0:0:0:0:
56,157,196573,1,0,0:0:0:0:
89,190,196662,1,0,0:0:0:0:
128,192,196751,1,0,0:0:0:0:
145,169,196839,1,0,0:0:0:0:
166,149,196927,1,0,0:0:0:0:
190,135,197015,1,0,0:0:0:0:
217,125,197103,1,0,0:0:0:0:
245,120,197192,1,0,0:0:0:0:
273,121,197280,1,0,0:0:0:0:
301,127,197368,1,0,0:0:0:0:
327,139,197456,1,0,0:0:0:0:
350,155,197545,1,0,0:0:0:0:
376,184,197633,5,0,0:0:0:0:
392,227,197721,1,0,0:0:0:0:
380,273,197809,1,0,0:0:0:0:
344,303,197897,1,0,0:0:0:0:
297,307,197985,1,0,0:0:0:0:
257,283,198074,1,0,0:0:0:0:
237,241,198162,1,0,0:0:0:0:
246,195,198250,1,0,0:0:0:0:
264,152,198339,1,0,0:0:0:0:
280,108,198427,1,0,0:0:0:0:
268,62,198515,1,0,0:0:0:0:
232,32,198603,1,0,0:0:0:0:
185,28,198691,1,0,0:0:0:0:
145,52,198780,1,0,0:0:0:0:
128,96,198868,2,0,L|112:168,1,47.5000001490115
48,184,199045,6,0,L|70:254,1,47.5000001490115
80,272,199221,1,0,0:0:0:0:
123,288,199309,1,0,0:0:0:0:
168,275,199397,1,0,0:0:0:0:
196,237,199485,1,0,0:0:0:0:
195,191,199573,1,0,0:0:0:0:
167,154,199662,1,0,0:0:0:0:
128,136,199751,1,0,0:0:0:0:
99,99,199840,1,0,0:0:0:0:
99,52,199928,1,0,0:0:0:0:
126,14,200016,1,0,0:0:0:0:
171,1,200104,1,0,0:0:0:0:
215,18,200192,1,0,0:0:0:0:
232,64,200280,1,0,0:0:0:0:
226,110,200368,1,0,0:0:0:0:
241,155,200457,5,0,0:0:0:0:
258,178,200545,1,0,0:0:0:0:
280,195,200633,1,0,0:0:0:0:
307,205,200721,1,0,0:0:0:0:
335,208,200809,1,0,0:0:0:0:
363,203,200898,1,0,0:0:0:0:
388,190,200986,1,0,0:0:0:0:
410,171,201074,1,0,0:0:0:0:
424,147,201162,1,0,0:0:0:0:
432,120,201251,1,0,0:0:0:0:
432,91,201339,6,0,L|408:40,1,47.5000001490115
328,80,201515,2,0,L|280:47,1,47.5000001490115
232,120,201692,2,0,L|174:115,1,47.5000001490115
136,112,201868,5,0,0:0:0:0:
89,118,201956,1,0,0:0:0:0:
52,146,202044,1,0,0:0:0:0:
33,189,202132,1,0,0:0:0:0:
38,236,202220,1,0,0:0:0:0:
66,274,202309,1,0,0:0:0:0:
109,293,202397,1,0,0:0:0:0:
156,289,202485,1,0,0:0:0:0:
194,262,202574,1,0,0:0:0:0:
152,240,202662,1,0,0:0:0:0:
119,205,202750,1,0,0:0:0:0:
103,161,202839,1,0,0:0:0:0:
107,114,202927,1,0,0:0:0:0:
129,72,203015,1,0,0:0:0:0:
166,43,203103,1,0,0:0:0:0:
212,31,203192,1,0,0:0:0:0:
258,38,203280,5,0,0:0:0:0:
292,54,203368,1,0,0:0:0:0:
319,80,203456,1,0,0:0:0:0:
336,114,203544,1,0,0:0:0:0:
342,151,203632,1,0,0:0:0:0:
336,189,203721,1,0,0:0:0:0:
319,222,203809,1,0,0:0:0:0:
297,264,203897,1,0,0:0:0:0:
297,311,203985,1,0,0:0:0:0:
320,352,204073,1,0,0:0:0:0:
359,378,204161,1,0,0:0:0:0:
406,381,204250,1,0,0:0:0:0:
449,363,204338,1,0,0:0:0:0:
478,326,204426,1,0,0:0:0:0:
486,279,204514,1,0,0:0:0:0:
472,235,204603,1,0,0:0:0:0:
437,203,204692,5,0,0:0:0:0:
400,233,204780,1,0,0:0:0:0:
358,253,204868,1,0,0:0:0:0:
311,261,204957,1,0,0:0:0:0:
264,256,205045,1,0,0:0:0:0:
220,238,205133,1,0,0:0:0:0:
182,209,205221,1,0,0:0:0:0:
154,171,205310,1,0,0:0:0:0:
137,127,205398,1,0,0:0:0:0:
152,80,205486,1,0,0:0:0:0:
182,44,205574,1,0,0:0:0:0:
228,31,205662,1,0,0:0:0:0:
273,44,205750,1,0,0:0:0:0:
305,78,205838,1,0,0:0:0:0:
312,125,205927,1,0,0:0:0:0:
295,168,206015,1,0,0:0:0:0:
261,200,206104,5,0,0:0:0:0:
237,215,206192,1,0,0:0:0:0:
220,238,206280,1,0,0:0:0:0:
211,265,206368,1,0,0:0:0:0:
211,293,206456,1,0,0:0:0:0:
221,320,206545,1,0,0:0:0:0:
239,342,206633,1,0,0:0:0:0:
263,357,206721,1,0,0:0:0:0:
290,363,206809,1,0,0:0:0:0:
319,360,206898,1,0,0:0:0:0:
344,348,206986,6,0,L|396:271,1,47.5000001490115
445,288,207162,2,0,L|452:195,1,47.5000001490115
501,184,207339,2,0,L|460:100,1,47.5000001490115
461,96,207515,5,0,0:0:0:0:
433,58,207603,1,0,0:0:0:0:
388,48,207691,1,0,0:0:0:0:
347,69,207779,1,0,0:0:0:0:
330,113,207867,1,0,0:0:0:0:
345,157,207956,1,0,0:0:0:0:
381,184,208045,1,0,0:0:0:0:
409,221,208133,1,0,0:0:0:0:
415,268,208221,1,0,0:0:0:0:
397,311,208309,1,0,0:0:0:0:
360,340,208397,1,0,0:0:0:0:
314,346,208486,1,0,0:0:0:0:
270,328,208574,1,0,0:0:0:0:
241,292,208662,1,0,0:0:0:0:
234,245,208750,1,0,0:0:0:0:
252,201,208839,1,0,0:0:0:0:
288,168,208927,5,0,0:0:0:0:
311,151,209015,1,0,0:0:0:0:
327,128,209103,1,0,0:0:0:0:
334,101,209191,1,0,0:0:0:0:
331,73,209279,1,0,0:0:0:0:
318,47,209368,1,0,0:0:0:0:
298,28,209456,1,0,0:0:0:0:
271,17,209544,1,0,0:0:0:0:
243,16,209632,1,0,0:0:0:0:
216,26,209721,1,0,0:0:0:0:
194,44,209809,1,0,0:0:0:0:
180,68,209897,1,0,0:0:0:0:
176,96,209986,2,0,L|168:160,1,47.5000001490115
96,184,210162,2,0,L|107:204,2,23.7500000745057
80,232,210339,5,0,0:0:0:0:
116,261,210427,1,0,0:0:0:0:
153,291,210515,1,0,0:0:0:0:
190,321,210603,1,0,0:0:0:0:
227,351,210691,1,0,0:0:0:0:
200,312,210780,1,0,0:0:0:0:
175,272,210868,1,0,0:0:0:0:
179,225,210956,1,0,0:0:0:0:
209,190,211044,1,0,0:0:0:0:
255,179,211132,1,0,0:0:0:0:
298,197,211221,1,0,0:0:0:0:
322,237,211309,1,0,0:0:0:0:
336,280,211398,1,0,0:0:0:0:
390,293,211486,1,0,0:0:0:0:
443,275,211574,1,0,0:0:0:0:
478,230,211662,1,0,0:0:0:0:
483,174,211750,5,0,0:0:0:0:
460,134,211839,1,0,0:0:0:0:
420,108,211927,1,0,0:0:0:0:
373,104,212015,1,0,0:0:0:0:
330,121,212103,1,0,0:0:0:0:
299,157,212192,1,0,0:0:0:0:
287,202,212280,1,0,0:0:0:0:
296,248,212368,1,0,0:0:0:0:
293,294,212456,1,0,0:0:0:0:
259,324,212544,1,0,0:0:0:0:
213,321,212633,6,0,L|144:272,1,47.5000001490115
104,296,212809,2,0,L|68:218,1,47.5000001490115
24,216,212986,2,0,L|32:131,1,47.5000001490115
32,120,213162,5,0,0:0:0:0:
56,69,213250,1,0,0:0:0:0:
107,46,213338,1,0,0:0:0:0:
161,59,213426,1,0,0:0:0:0:
194,104,213514,1,0,0:0:0:0:
192,160,213603,1,0,0:0:0:0:
192,216,213692,1,0,0:0:0:0:
187,262,213780,1,0,0:0:0:0:
203,306,213868,1,0,0:0:0:0:
237,338,213956,1,0,0:0:0:0:
283,353,214044,1,0,0:0:0:0:
329,346,214133,1,0,0:0:0:0:
368,318,214221,1,0,0:0:0:0:
392,278,214309,1,0,0:0:0:0:
394,231,214397,1,0,0:0:0:0:
377,187,214486,1,0,0:0:0:0:
342,156,214574,5,0,0:0:0:0:
277,156,214662,1,0,0:0:0:0:
231,110,214750,1,0,0:0:0:0:
232,46,214838,1,0,0:0:0:0:
279,1,214926,1,0,0:0:0:0:
343,3,215015,1,0,0:0:0:0:
399,39,215103,1,0,0:0:0:0:
432,96,215191,1,0,0:0:0:0:
435,162,215279,1,0,0:0:0:0:
407,222,215367,1,0,0:0:0:0:
355,262,215456,1,0,0:0:0:0:
290,274,215544,1,0,0:0:0:0:
227,255,215633,2,0,P|192:200|112:184,1,113.999996878624
120,296,215986,6,0,L|184:224,1,95.000000298023
112,112,216339,1,0,0:0:0:0:
312,144,216515,1,0,0:0:0:0:
136,24,216692,2,0,L|208:96,1,95.000000298023
280,72,216956,2,0,P|264:136|216:168,1,95.000000298023
272,320,217221,2,0,P|280:256|328:224,1,95.000000298023
200,216,217574,1,0,0:0:0:0:
368,304,217751,1,0,0:0:0:0:
360,96,217927,1,0,0:0:0:0:
472,184,218104,2,0,L|384:208,1,47.5000001490115
384,272,218280,2,0,L|328:176,1,95.000000298023
128,112,218633,2,0,L|184:208,1,95.000000298023
248,128,218986,5,0,0:0:0:0:
72,208,219162,1,0,0:0:0:0:
192,48,219339,1,0,0:0:0:0:
136,288,219515,2,0,L|184:256,1,47.5000001490115
336,168,219692,2,0,L|373:197,1,47.5000001490115
280,272,219868,2,0,L|263:316,1,47.5000001490115
392,280,220045,2,0,B|448:248|448:248|456:168,1,114.000000357628
456,128,220398,5,0,0:0:0:0:
488,328,220574,1,0,0:0:0:0:
336,168,220751,1,0,0:0:0:0:
336,168,220927,2,0,P|328:120|328:184,1,304.000000953674
160,144,221809,5,0,0:0:0:0:
93,212,221986,1,0,0:0:0:0:
25,144,222162,1,0,0:0:0:0:
96,80,222339,2,0,P|168:56|208:72,1,95.000000298023
240,104,222604,2,0,P|312:128|352:112,1,95.000000298023
384,80,222868,2,0,L|440:192,1,95.000000298023
272,216,223221,5,0,0:0:0:0:
304,24,223398,1,0,0:0:0:0:
176,264,223574,1,0,0:0:0:0:
344,136,223751,2,0,B|368:184|368:184|344:232,1,95.000000298023
355,305,224015,2,0,B|331:257|331:257|355:209,1,95.000000298023
440,216,224280,2,0,L|432:336,1,95.000000298023
256,192,224633,5,0,0:0:0:0:
456,144,224809,1,0,0:0:0:0:
272,120,224986,1,0,0:0:0:0:
376,40,225162,2,0,L|360:152,1,95.000000298023
437,259,225427,2,0,L|326:278,1,95.000000298023
248,376,225692,2,0,B|208:312|224:216|224:216|152:296|56:288|56:288|88:200|56:104,1,532.000001668929
256,64,227280,6,0,L|296:160,1,95.000000298023
256,320,227633,2,0,L|216:224,1,95.000000298023
344,32,227986,2,0,L|384:128,1,95.000000298023
168,352,228339,2,0,L|128:256,1,95.000000298023
376,192,228692,2,0,L|339:279,1,95.000000298023
136,192,229045,2,0,L|172:104,1,95.000000298023
464,224,229398,2,0,L|424:320,1,95.000000298023
48,168,229751,2,0,L|96:64,1,95.000000298023
87,81,230015,1,0,0:0:0:0:
87,81,230104,1,0,0:0:0:0:
192,152,230280,6,0,B|176:112|176:112|272:112,1,95.000000298023
176,256,230633,1,0,0:0:0:0:
288,128,230809,2,0,L|352:232,1,95.000000298023
456,144,231163,2,0,L|406:63,1,95.000000298023
320,96,231515,2,0,L|384:200,1,95.000000298023
424,176,231868,2,0,L|374:95,1,95.000000298023
256,40,232221,5,0,0:0:0:0:
239,68,232309,1,0,0:0:0:0:
223,97,232398,2,0,L|232:168,1,47.5000001490115
312,144,232574,1,0,0:0:0:0:
328,172,232662,1,0,0:0:0:0:
344,201,232751,2,0,L|335:271,1,47.5000001490115
256,248,232927,1,0,0:0:0:0:
64,192,233104,5,0,0:0:0:0:
120,328,233280,1,0,0:0:0:0:
192,144,233456,1,0,0:0:0:0:
120,328,233633,2,0,L|240:264,1,95.000000298023
288,336,233986,1,0,0:0:0:0:
304,291,234074,1,0,0:0:0:0:
321,247,234162,1,0,0:0:0:0:
338,202,234250,1,0,0:0:0:0:
354,158,234338,1,0,0:0:0:0:
432,328,234515,5,0,0:0:0:0:
200,192,234692,1,0,0:0:0:0:
464,264,234868,5,0,0:0:0:0:
197,107,235045,1,0,0:0:0:0:
496,200,235221,5,0,0:0:0:0:
362,121,235398,2,0,L|288:80,1,47.5000001490115
280,72,235574,1,0,0:0:0:0:
246,38,235662,1,0,0:0:0:0:
201,24,235750,1,0,0:0:0:0:
155,31,235838,1,0,0:0:0:0:
116,58,235926,1,0,0:0:0:0:
93,99,236015,1,0,0:0:0:0:
92,146,236103,1,0,0:0:0:0:
111,189,236191,1,0,0:0:0:0:
148,219,236279,1,0,0:0:0:0:
194,229,236368,1,0,0:0:0:0:
239,218,236456,5,0,0:0:0:0:
271,183,236544,1,0,0:0:0:0:
315,167,236632,1,0,0:0:0:0:
362,173,236720,1,0,0:0:0:0:
401,200,236808,1,0,0:0:0:0:
423,242,236897,1,0,0:0:0:0:
423,289,236985,1,0,0:0:0:0:
401,331,237073,1,0,0:0:0:0:
363,358,237162,5,0,0:0:0:0:
307,361,237250,1,0,0:0:0:0:
253,343,237338,1,0,0:0:0:0:
210,305,237426,1,0,0:0:0:0:
185,255,237514,1,0,0:0:0:0:
181,198,237603,1,0,0:0:0:0:
198,144,237691,1,0,0:0:0:0:
234,101,237779,1,0,0:0:0:0:
284,75,237867,1,0,0:0:0:0:
341,69,237956,1,0,0:0:0:0:
304,104,238045,5,0,0:0:0:0:
276,141,238133,1,0,0:0:0:0:
274,188,238221,1,0,0:0:0:0:
300,227,238309,1,0,0:0:0:0:
343,245,238397,1,0,0:0:0:0:
389,236,238486,1,0,0:0:0:0:
421,202,238574,1,0,0:0:0:0:
256,64,238751,6,0,L|323:131,1,95.000000298023
464,104,239104,6,0,L|420:188,1,95.000000298023
392,328,239456,6,0,L|298:313,1,95.000000298023
168,368,239809,6,0,L|153:274,1,95.000000298023
72,152,240162,6,0,L|156:108,1,95.000000298023
256,80,240515,2,0,L|336:184,1,95.000000298023
256,304,240868,2,0,L|176:200,1,95.000000298023
256,136,241221,2,0,L|328:224,1,95.000000298023
256,248,241574,2,0,L|192:168,1,95.000000298023
315,173,241927,6,0,L|256:248,1,95.000000298023
195,209,242280,2,0,L|256:136,1,95.000000298023
345,164,242633,2,0,L|272:264,1,95.000000298023
165,218,242986,2,0,L|248:112,1,95.000000298023
434,138,243339,2,0,L|376:224,1,95.000000298023
76,245,243692,2,0,L|136:160,1,95.000000298023
73,148,244045,6,0,L|168:104,1,95.000000298023
120,63,244398,2,0,L|223:72,1,95.000000298023
202,12,244751,2,0,L|288:72,1,95.000000298023
299,9,245104,2,0,L|343:104,1,95.000000298023
438,235,245456,6,0,L|343:279,1,95.000000298023
391,320,245809,2,0,L|288:311,1,95.000000298023
309,371,246162,2,0,L|224:312,1,95.000000298023
212,374,246515,2,0,L|168:279,1,95.000000298023
256,136,246868,2,0,P|312:144|368:128,1,95.000000298023
312,191,247221,2,0,P|304:248|320:304,1,95.000000298023
256,248,247574,2,0,P|200:240|144:256,1,95.000000298023
200,192,247927,2,0,P|208:136|192:80,1,95.000000298023
296,64,248280,6,0,P|344:56|389:64,1,95.000000298023
384,232,248633,2,0,P|391:278|383:325,1,95.000000298023
216,320,248986,2,0,P|169:327|122:319,1,95.000000298023
128,152,249339,2,0,P|120:105|128:58,1,95.000000298023
256,192,249692,2,0,B|288:152|288:152|336:144,1,95.000000298023
256,192,250045,2,0,B|296:224|296:224|304:272,1,95.000000298023
256,192,250398,2,0,B|224:232|224:232|176:240,1,95.000000298023
256,192,250751,2,0,B|216:160|216:160|208:112,1,95.000000298023
331,144,251104,6,0,B|371:176|371:176|379:224,1,95.000000298023
304,267,251456,2,0,B|272:307|272:307|224:315,1,95.000000298023
181,240,251809,2,0,B|141:208|141:208|133:160,1,95.000000298023
208,117,252162,2,0,B|240:77|240:77|288:69,1,95.000000298023
378,219,252515,5,0,0:0:0:0:
378,219,252603,1,0,0:0:0:0:
378,219,252691,1,0,0:0:0:0:
228,314,252868,2,0,B|196:354|196:354|148:362,1,95.000000298023
134,164,253221,2,0,B|94:132|94:132|86:84,1,95.000000298023
284,70,253574,2,0,B|316:30|316:30|363:22,1,95.000000298023
134,164,253927,6,0,B|141:207|141:207|181:239,1,95.000000298023
228,314,254280,2,0,B|271:306|271:306|303:266,1,95.000000298023
378,220,254633,2,0,B|370:176|370:176|330:144,1,95.000000298023
330,144,254898,1,0,0:0:0:0:
330,144,254986,1,0,0:0:0:0:
330,144,255074,1,0,0:0:0:0:
344,160,255162,2,0,L|408:48,1,95.000000298023
391,77,255427,1,0,0:0:0:0:
391,77,255515,5,0,0:0:0:0:
256,64,255692,1,0,0:0:0:0:
152,144,255868,1,0,0:0:0:0:
216,272,256045,1,0,0:0:0:0:
229,136,256222,1,0,0:0:0:0:
149,32,256398,1,0,0:0:0:0:
80,136,256574,5,0,0:0:0:0:
72,182,256662,1,0,0:0:0:0:
64,229,256750,1,0,0:0:0:0:
56,276,256838,1,0,0:0:0:0:
48,323,256926,1,0,0:0:0:0:
160,200,257104,1,0,0:0:0:0:
256,336,257280,1,0,0:0:0:0:
160,200,257456,1,0,0:0:0:0:
144,336,257633,1,0,0:0:0:0:
256,232,257809,1,0,0:0:0:0:
368,320,257986,5,0,0:0:0:0:
377,292,258074,1,0,0:0:0:0:
386,265,258162,1,0,0:0:0:0:
395,238,258250,1,0,0:0:0:0:
404,211,258338,1,0,0:0:0:0:
413,184,258427,1,0,0:0:0:0:
422,157,258515,1,0,0:0:0:0:
432,128,258604,5,0,0:0:0:0:
408,87,258692,1,0,0:0:0:0:
367,63,258780,1,0,0:0:0:0:
320,63,258868,1,0,0:0:0:0:
279,87,258956,1,0,0:0:0:0:
256,127,259045,1,0,0:0:0:0:
255,174,259133,1,0,0:0:0:0:
278,215,259221,1,0,0:0:0:0:
318,239,259309,1,0,0:0:0:0:
368,232,259398,1,0,0:0:0:0:
414,226,259486,1,0,0:0:0:0:
452,253,259574,1,0,0:0:0:0:
462,298,259662,1,0,0:0:0:0:
441,339,259750,5,0,0:0:0:0:
397,355,259839,1,0,0:0:0:0:
354,339,259927,1,0,0:0:0:0:
336,296,260015,1,0,0:0:0:0:
299,265,260103,1,0,0:0:0:0:
257,244,260191,1,0,0:0:0:0:
211,233,260279,1,0,0:0:0:0:
163,233,260367,1,0,0:0:0:0:
117,244,260456,1,0,0:0:0:0:
75,265,260544,1,0,0:0:0:0:
38,295,260632,5,0,0:0:0:0:
72,256,260721,1,0,0:0:0:0:
99,217,260809,1,0,0:0:0:0:
118,173,260897,1,0,0:0:0:0:
128,127,260985,1,0,0:0:0:0:
130,80,261073,1,0,0:0:0:0:
122,33,261162,1,0,0:0:0:0:
