osu file format v14

[General]
AudioFilename: audio.mp3
AudioLeadIn: 0
PreviewTime: 48605
Countdown: 0
SampleSet: Normal
StackLeniency: 0.7
Mode: 1
LetterboxInBreaks: 0
WidescreenStoryboard: 0

[Editor]
Bookmarks: 6972,13928,20885,34798,48711,55668,62624,69581,76537,83494,90450,97407,104363,111320,114689
DistanceSpacing: 1.2
BeatDivisor: 3
GridSize: 4
TimelineZoom: 1.3

[Metadata]
Title:Cranberry City
TitleUnicode:Cranberry City
Artist:lapix feat. Luschel
ArtistUnicode:lapix feat. Luschel
Creator:Charlotte
Version:Muzukashii
Source:beatmania IIDX 26 Rootage
Tags:English GARAGE POP Video Rhythm Game ORIGINAL SOUNDTRACK SELECTION Rizing Destruction komasy Cychloryn Genjuro
BeatmapID:2388992
BeatmapSetID:1133066

[Difficulty]
HPDrainRate:5
CircleSize:5
OverallDifficulty:5
ApproachRate:10
SliderMultiplier:1.4
SliderTickRate:1

[Events]
//Background and Video events
0,0,"BG.jpg",0,90
//Break Periods
//Storyboard Layer 0 (Background)
//Storyboard Layer 1 (Fail)
//Storyboard Layer 2 (Pass)
//Storyboard Layer 3 (Foreground)
//Storyboard Layer 4 (Overlay)
//Storyboard Sound Samples

[TimingPoints]
1755,434.782608695652,4,1,0,80,1,0
3439,-100,4,1,0,40,0,0
3874,-100,4,1,0,50,0,0
4309,-100,4,1,0,60,0,0
4526,-100,4,1,0,70,0,0
4744,-100,4,1,0,75,0,0
4852,-100,4,1,0,80,0,0
4961,-100,4,1,0,90,0,0
6265,-100,4,1,0,80,0,0
48711,-100,4,1,0,80,0,1
62624,-100,4,1,0,80,0,0
66537,-100,4,1,0,80,0,1
76537,-100,4,1,0,80,0,0

[HitObjects]
351,142,1755,5,4,0:0:0:0:
417,194,2081,1,4,0:0:0:0:
444,222,2407,1,4,0:0:0:0:
444,222,2733,1,4,0:0:0:0:
444,222,3059,1,12,0:0:0:0:
256,192,3494,12,0,4798,0:0:0:0:
256,192,5015,5,8,0:0:0:0:
256,192,5124,1,8,0:0:0:0:
259,191,5233,1,8,0:0:0:0:
256,192,5668,1,0,0:0:0:0:
256,192,5885,1,8,0:0:0:0:
256,192,6102,1,0,0:0:0:0:
256,192,6537,1,12,0:0:0:0:
256,192,6972,1,4,0:0:0:0:
256,192,7407,1,8,0:0:0:0:
256,192,8059,1,0,0:0:0:0:
256,192,8276,1,8,0:0:0:0:
256,192,8711,1,0,0:0:0:0:
256,192,8928,1,0,0:0:0:0:
256,192,9146,1,8,0:0:0:0:
256,192,9472,1,0,0:0:0:0:
256,192,9798,1,0,0:0:0:0:
256,192,10015,1,8,0:0:0:0:
257,185,10233,1,0,0:0:0:0:
256,192,10450,1,0,0:0:0:0:
256,192,10885,1,8,0:0:0:0:
256,192,11537,1,0,0:0:0:0:
256,192,11754,1,8,0:0:0:0:
256,192,12189,1,0,0:0:0:0:
256,192,12407,1,0,0:0:0:0:
256,192,12624,1,8,0:0:0:0:
256,192,12950,1,0,0:0:0:0:
256,192,13168,1,0,0:0:0:0:
256,192,13276,1,0,0:0:0:0:
255,200,13494,1,8,0:0:0:0:
256,192,13928,1,4,0:0:0:0:
256,192,14363,1,8,0:0:0:0:
256,192,15015,1,0,0:0:0:0:
256,192,15233,1,8,0:0:0:0:
256,192,15668,1,0,0:0:0:0:
256,192,15885,1,0,0:0:0:0:
256,192,16102,1,8,0:0:0:0:
256,192,16428,1,0,0:0:0:0:
256,192,16754,1,0,0:0:0:0:
256,192,16972,1,8,0:0:0:0:
259,187,17189,1,0,0:0:0:0:
256,192,17407,1,0,0:0:0:0:
256,192,17841,1,8,0:0:0:0:
256,192,18494,1,0,0:0:0:0:
256,192,18711,1,8,0:0:0:0:
256,192,19146,1,0,0:0:0:0:
256,192,19363,1,0,0:0:0:0:
296,192,19472,1,0,0:0:0:0:
297,186,19689,1,0,0:0:0:0:
256,192,19907,1,0,0:0:0:0:
256,192,20124,1,8,0:0:0:0:
255,161,20233,1,8,0:0:0:0:
256,192,20450,5,8,0:0:0:0:
252,198,20885,1,4,0:0:0:0:
335,58,21754,1,4,0:0:0:0:
254,197,22189,1,8,0:0:0:0:
257,198,22624,1,4,0:0:0:0:
256,196,22841,1,8,0:0:0:0:
259,189,22950,1,8,0:0:0:0:
254,197,23059,1,8,0:0:0:0:
246,191,23276,1,8,0:0:0:0:
250,200,23494,1,0,0:0:0:0:
247,202,23602,1,0,0:0:0:0:
250,200,23711,1,0,0:0:0:0:
257,195,23928,1,8,0:0:0:0:
255,190,24363,1,4,0:0:0:0:
266,206,24581,1,0,0:0:0:0:
263,193,24798,1,8,0:0:0:0:
254,182,25233,1,0,0:0:0:0:
261,193,25450,1,0,0:0:0:0:
263,193,25668,1,8,0:0:0:0:
263,189,25885,1,8,0:0:0:0:
263,189,26102,1,0,0:0:0:0:
263,194,26537,1,8,0:0:0:0:
270,195,26754,1,8,0:0:0:0:
255,194,26972,1,0,0:0:0:0:
270,180,27081,1,0,0:0:0:0:
268,193,27189,1,0,0:0:0:0:
268,193,27407,1,8,0:0:0:0:
335,151,27624,1,0,0:0:0:0:
335,151,27841,1,8,0:0:0:0:
270,195,28494,1,0,0:0:0:0:
252,148,28602,1,0,0:0:0:0:
258,196,28711,1,0,0:0:0:0:
254,117,28928,1,0,0:0:0:0:
261,195,29146,1,8,0:0:0:0:
243,121,29581,1,8,0:0:0:0:
260,203,29798,1,0,0:0:0:0:
261,195,30015,1,8,0:0:0:0:
268,196,30233,1,8,0:0:0:0:
265,197,30341,1,8,0:0:0:0:
346,184,30559,1,0,0:0:0:0:
299,204,30668,1,0,0:0:0:0:
257,194,30885,1,8,0:0:0:0:
261,200,31320,1,0,0:0:0:0:
257,201,31537,1,8,0:0:0:0:
257,201,31754,1,8,0:0:0:0:
263,212,32081,1,0,0:0:0:0:
267,200,32189,1,0,0:0:0:0:
266,203,32407,1,8,0:0:0:0:
264,201,32624,1,8,0:0:0:0:
263,212,32950,1,0,0:0:0:0:
265,206,33059,1,0,0:0:0:0:
249,197,33276,1,8,0:0:0:0:
237,199,33494,1,8,0:0:0:0:
240,200,33711,1,0,0:0:0:0:
238,202,33820,1,0,0:0:0:0:
243,198,34037,1,8,0:0:0:0:
239,207,34146,1,8,0:0:0:0:
239,211,34363,1,8,0:0:0:0:
239,206,34798,1,4,0:0:0:0:
236,206,35668,1,0,0:0:0:0:
241,201,35885,1,0,0:0:0:0:
243,211,36102,1,8,0:0:0:0:
257,200,36537,1,4,0:0:0:0:
255,198,36972,1,12,0:0:0:0:
257,200,37407,1,4,0:0:0:0:
255,198,37841,1,8,0:0:0:0:
257,200,38059,1,8,0:0:0:0:
257,200,38276,1,0,0:0:0:0:
262,197,39146,1,0,0:0:0:0:
255,197,39363,1,0,0:0:0:0:
260,197,39581,1,8,0:0:0:0:
265,197,39798,1,8,0:0:0:0:
254,191,40015,1,4,0:0:0:0:
260,197,40450,1,12,0:0:0:0:
265,195,40885,1,4,0:0:0:0:
265,180,41211,1,8,0:0:0:0:
263,198,41320,1,8,0:0:0:0:
262,164,41537,1,8,0:0:0:0:
255,199,41754,1,0,0:0:0:0:
260,197,42189,1,0,0:0:0:0:
257,194,42407,1,0,0:0:0:0:
257,194,42624,1,8,0:0:0:0:
260,197,42950,1,8,0:0:0:0:
263,197,43276,1,8,0:0:0:0:
264,197,43494,1,0,0:0:0:0:
257,194,43928,1,0,0:0:0:0:
257,194,44146,1,0,0:0:0:0:
258,194,44363,1,8,0:0:0:0:
263,197,44689,1,8,0:0:0:0:
257,194,45015,1,8,0:0:0:0:
256,192,45233,12,0,46537,0:0:0:0:
260,201,46972,5,0,0:0:0:0:
263,206,47117,1,0,0:0:0:0:
269,200,47262,1,0,0:0:0:0:
308,229,47407,1,8,0:0:0:0:
305,218,47697,1,0,0:0:0:0:
305,218,47841,1,8,0:0:0:0:
268,186,48276,1,12,0:0:0:0:
268,180,48711,1,4,0:0:0:0:
336,185,48928,1,0,0:0:0:0:
261,177,49146,1,8,0:0:0:0:
285,192,49472,1,8,0:0:0:0:
282,188,49689,1,0,0:0:0:0:
284,198,49907,1,0,0:0:0:0:
296,206,50015,1,0,0:0:0:0:
265,199,50450,1,0,0:0:0:0:
267,204,50668,1,0,0:0:0:0:
275,210,50885,1,8,0:0:0:0:
274,202,51211,1,8,0:0:0:0:
308,198,51428,1,0,0:0:0:0:
290,206,51646,1,8,0:0:0:0:
299,199,51754,1,8,0:0:0:0:
292,198,52189,1,8,0:0:0:0:
292,198,52407,1,0,0:0:0:0:
278,194,52624,1,8,0:0:0:0:
275,202,52950,1,8,0:0:0:0:
268,192,53168,1,0,0:0:0:0:
278,194,53385,1,0,0:0:0:0:
267,190,53494,1,0,0:0:0:0:
266,188,53711,1,8,0:0:0:0:
266,188,53928,1,0,0:0:0:0:
259,186,54363,1,8,0:0:0:0:
266,188,54581,1,0,0:0:0:0:
259,188,54798,1,0,0:0:0:0:
274,187,54907,1,0,0:0:0:0:
269,186,55015,1,0,0:0:0:0:
268,180,55668,1,4,0:0:0:0:
336,185,55885,1,0,0:0:0:0:
261,177,56102,1,8,0:0:0:0:
271,191,56428,1,8,0:0:0:0:
282,188,56646,1,0,0:0:0:0:
268,200,56863,1,0,0:0:0:0:
296,206,56972,1,0,0:0:0:0:
351,202,57189,1,8,0:0:0:0:
265,199,57407,1,0,0:0:0:0:
276,209,57841,1,8,0:0:0:0:
277,203,58059,1,0,0:0:0:0:
318,235,58168,1,0,0:0:0:0:
310,241,58276,1,0,0:0:0:0:
290,178,58494,1,0,0:0:0:0:
299,199,58711,1,8,0:0:0:0:
273,198,58928,1,8,0:0:0:0:
292,198,59146,1,0,0:0:0:0:
278,194,59581,1,8,0:0:0:0:
275,202,59798,1,0,0:0:0:0:
275,202,60015,1,8,0:0:0:0:
263,189,60124,1,8,0:0:0:0:
278,194,60233,1,8,0:0:0:0:
265,188,60450,1,8,0:0:0:0:
266,188,60885,1,0,0:0:0:0:
261,184,61102,1,0,0:0:0:0:
263,187,61211,1,0,0:0:0:0:
266,188,61537,1,0,0:0:0:0:
259,188,61754,1,8,0:0:0:0:
262,192,61863,1,8,0:0:0:0:
262,192,61972,1,8,0:0:0:0:
250,190,62189,5,8,0:0:0:0:
252,189,62624,1,4,0:0:0:0:
246,192,63494,1,0,0:0:0:0:
245,200,63928,1,8,0:0:0:0:
245,200,64363,1,0,0:0:0:0:
248,195,64581,1,0,0:0:0:0:
250,191,64798,1,8,0:0:0:0:
243,195,65233,1,0,0:0:0:0:
258,198,65450,1,8,0:0:0:0:
256,188,65559,1,8,0:0:0:0:
248,196,65668,1,8,0:0:0:0:
252,192,65885,1,0,0:0:0:0:
248,180,66102,1,0,0:0:0:0:
248,180,66537,1,12,0:0:0:0:
248,180,66863,1,8,0:0:0:0:
252,176,67081,1,0,0:0:0:0:
248,180,67298,1,0,0:0:0:0:
268,180,67407,1,0,0:0:0:0:
264,184,67624,1,8,0:0:0:0:
264,184,67841,1,0,0:0:0:0:
256,184,68276,1,8,0:0:0:0:
252,184,68494,1,0,0:0:0:0:
256,184,68711,1,8,0:0:0:0:
252,184,68820,1,8,0:0:0:0:
256,184,68928,1,8,0:0:0:0:
268,180,69581,1,4,0:0:0:0:
336,185,69798,1,0,0:0:0:0:
261,177,70015,1,8,0:0:0:0:
271,191,70341,1,8,0:0:0:0:
282,188,70559,1,0,0:0:0:0:
268,200,70776,1,0,0:0:0:0:
296,206,70885,1,0,0:0:0:0:
351,202,71102,1,8,0:0:0:0:
265,199,71320,1,0,0:0:0:0:
269,201,71537,1,0,0:0:0:0:
275,210,71754,1,8,0:0:0:0:
277,203,71972,1,0,0:0:0:0:
308,188,72081,1,0,0:0:0:0:
327,220,72189,1,0,0:0:0:0:
308,198,72407,1,0,0:0:0:0:
299,199,72624,1,8,0:0:0:0:
292,198,72841,1,8,0:0:0:0:
292,198,73059,1,0,0:0:0:0:
278,194,73494,1,8,0:0:0:0:
275,202,73711,1,0,0:0:0:0:
275,202,73928,1,8,0:0:0:0:
268,192,74037,1,8,0:0:0:0:
278,194,74146,1,8,0:0:0:0:
274,209,74363,1,8,0:0:0:0:
266,188,74798,1,0,0:0:0:0:
263,187,75015,1,0,0:0:0:0:
259,186,75124,1,0,0:0:0:0:
268,202,75450,1,0,0:0:0:0:
259,188,75668,1,8,0:0:0:0:
267,195,75776,1,8,0:0:0:0:
265,195,75885,1,8,0:0:0:0:
250,190,76102,5,8,0:0:0:0:
252,189,76537,1,4,0:0:0:0:
256,188,77189,1,0,0:0:0:0:
264,192,77407,1,8,0:0:0:0:
276,188,77733,1,8,0:0:0:0:
276,188,77841,1,8,0:0:0:0:
260,192,78059,1,0,0:0:0:0:
264,192,78276,1,8,0:0:0:0:
264,192,78602,1,8,0:0:0:0:
264,192,78711,1,8,0:0:0:0:
272,200,78928,1,0,0:0:0:0:
264,192,79146,1,8,0:0:0:0:
264,192,79472,1,0,0:0:0:0:
264,192,79581,1,0,0:0:0:0:
260,192,79798,1,8,0:0:0:0:
264,192,80015,1,0,0:0:0:0:
264,192,80450,1,0,0:0:0:0:
245,201,80668,1,0,0:0:0:0:
260,192,80776,1,0,0:0:0:0:
245,201,80885,1,0,0:0:0:0:
268,184,81102,1,0,0:0:0:0:
256,196,81320,1,8,0:0:0:0:
276,196,81537,1,8,0:0:0:0:
288,196,81754,1,0,0:0:0:0:
272,208,82081,1,0,0:0:0:0:
252,180,82407,1,0,0:0:0:0:
264,188,82624,1,8,0:0:0:0:
252,192,83059,1,0,0:0:0:0:
256,196,83168,1,0,0:0:0:0:
256,196,83276,1,0,0:0:0:0:
256,196,83494,1,4,0:0:0:0:
248,196,84146,1,0,0:0:0:0:
248,208,84363,1,8,0:0:0:0:
245,209,84689,1,8,0:0:0:0:
248,208,84798,1,8,0:0:0:0:
248,208,85015,1,8,0:0:0:0:
248,208,85233,1,0,0:0:0:0:
248,208,85450,1,0,0:0:0:0:
248,208,85668,1,8,0:0:0:0:
212,136,86102,1,8,0:0:0:0:
248,208,86320,1,0,0:0:0:0:
248,208,86537,1,8,0:0:0:0:
248,208,86646,1,8,0:0:0:0:
248,208,86754,1,8,0:0:0:0:
248,208,86972,1,0,0:0:0:0:
343,141,87298,1,0,0:0:0:0:
248,208,87624,1,0,0:0:0:0:
248,208,87841,1,8,0:0:0:0:
248,208,87950,1,8,0:0:0:0:
248,208,88059,1,8,0:0:0:0:
252,208,88276,1,8,0:0:0:0:
252,208,88711,1,4,0:0:0:0:
256,192,88928,12,0,89798,0:0:0:0:
248,208,90450,5,4,0:0:0:0:
244,208,90668,1,0,0:0:0:0:
236,208,90885,1,8,0:0:0:0:
257,180,91211,1,8,0:0:0:0:
253,174,91428,1,0,0:0:0:0:
244,208,91646,1,8,0:0:0:0:
240,208,91754,1,8,0:0:0:0:
240,208,92189,1,0,0:0:0:0:
240,208,92407,1,0,0:0:0:0:
240,208,92624,1,8,0:0:0:0:
240,208,92950,1,8,0:0:0:0:
240,208,93168,1,0,0:0:0:0:
248,208,93385,1,8,0:0:0:0:
244,208,93494,1,8,0:0:0:0:
248,200,93711,1,8,0:0:0:0:
248,200,93928,1,0,0:0:0:0:
248,208,94363,1,8,0:0:0:0:
248,208,94581,1,8,0:0:0:0:
250,205,94798,1,0,0:0:0:0:
252,208,95015,1,0,0:0:0:0:
252,208,95124,1,0,0:0:0:0:
268,204,95341,1,8,0:0:0:0:
268,204,95450,1,8,0:0:0:0:
268,204,95668,1,0,0:0:0:0:
270,208,96102,1,8,0:0:0:0:
260,208,96320,1,8,0:0:0:0:
267,214,96428,1,8,0:0:0:0:
239,214,96646,1,0,0:0:0:0:
260,208,97407,1,4,0:0:0:0:
264,204,97624,1,0,0:0:0:0:
260,208,97841,1,8,0:0:0:0:
256,204,98168,1,8,0:0:0:0:
256,204,98385,1,0,0:0:0:0:
256,204,98602,1,8,0:0:0:0:
252,192,98711,1,8,0:0:0:0:
252,192,99146,1,0,0:0:0:0:
244,192,99363,1,0,0:0:0:0:
252,192,99581,1,8,0:0:0:0:
252,192,99798,1,0,0:0:0:0:
252,192,100015,1,8,0:0:0:0:
248,196,100124,1,8,0:0:0:0:
248,196,100233,1,8,0:0:0:0:
248,196,100450,1,8,0:0:0:0:
248,196,100885,1,0,0:0:0:0:
248,200,101102,1,0,0:0:0:0:
248,200,101211,1,0,0:0:0:0:
240,196,101320,1,0,0:0:0:0:
248,200,101537,1,8,0:0:0:0:
240,196,101754,1,0,0:0:0:0:
248,200,101972,1,0,0:0:0:0:
248,200,102081,1,0,0:0:0:0:
240,196,102189,1,0,0:0:0:0:
240,196,102624,1,0,0:0:0:0:
248,196,102841,1,0,0:0:0:0:
248,208,102950,1,0,0:0:0:0:
252,212,103168,1,0,0:0:0:0:
252,212,103385,1,0,0:0:0:0:
256,208,103602,1,8,0:0:0:0:
260,212,103711,1,8,0:0:0:0:
256,204,103928,1,8,0:0:0:0:
268,204,104363,1,4,0:0:0:0:
264,212,105233,1,0,0:0:0:0:
264,212,105450,1,0,0:0:0:0:
264,208,105668,1,8,0:0:0:0:
264,212,106102,1,0,0:0:0:0:
280,208,106320,1,8,0:0:0:0:
291,209,106428,1,8,0:0:0:0:
280,216,106537,1,8,0:0:0:0:
280,192,106754,1,0,0:0:0:0:
280,192,106972,1,8,0:0:0:0:
268,172,107189,1,0,0:0:0:0:
268,175,107407,1,8,0:0:0:0:
268,176,107515,1,8,0:0:0:0:
288,168,107841,1,0,0:0:0:0:
272,176,108276,1,8,0:0:0:0:
272,184,108494,1,0,0:0:0:0:
272,184,108602,1,0,0:0:0:0:
272,184,108711,1,0,0:0:0:0:
260,184,108928,1,0,0:0:0:0:
260,184,109146,1,8,0:0:0:0:
260,184,109581,1,0,0:0:0:0:
252,184,109907,1,8,0:0:0:0:
241,180,110015,1,8,0:0:0:0:
260,200,110233,1,0,0:0:0:0:
260,200,110450,1,8,0:0:0:0:
252,200,110559,1,8,0:0:0:0:
252,200,110668,1,8,0:0:0:0:
248,204,111320,1,4,0:0:0:0:
256,204,111754,1,8,0:0:0:0:
256,200,111972,1,0,0:0:0:0:
256,200,112081,1,0,0:0:0:0:
256,200,112189,1,0,0:0:0:0:
260,200,112407,1,8,0:0:0:0:
260,200,112624,1,8,0:0:0:0:
280,208,113059,1,0,0:0:0:0:
280,208,113276,1,0,0:0:0:0:
280,208,113494,1,8,0:0:0:0:
280,208,113711,1,0,0:0:0:0:
280,208,113820,1,0,0:0:0:0:
248,196,114037,1,0,0:0:0:0:
248,196,114146,1,0,0:0:0:0:
272,204,114363,1,8,0:0:0:0:
257,202,114798,1,4,0:0:0:0:
260,192,115015,1,0,0:0:0:0:
259,198,115124,1,0,0:0:0:0:
263,197,115233,1,0,0:0:0:0:
260,201,115450,1,8,0:0:0:0:
256,199,115668,1,0,0:0:0:0:
274,203,115885,1,8,0:0:0:0:
274,203,116102,1,8,0:0:0:0:
274,203,116211,1,8,0:0:0:0:
274,203,116320,1,8,0:0:0:0:
260,201,116537,1,8,0:0:0:0:
264,196,116972,1,8,0:0:0:0:
262,185,117189,1,8,0:0:0:0:
264,196,117298,1,8,0:0:0:0:
264,196,117515,1,0,0:0:0:0:
262,185,117624,1,0,0:0:0:0:
264,196,117841,1,8,0:0:0:0:
256,192,118059,1,12,0:0:0:0:
