osu file format v14

[General]
AudioFilename: audio.mp3
AudioLeadIn: 0
PreviewTime: 48605
Countdown: 0
SampleSet: Normal
StackLeniency: 0.7
Mode: 1
LetterboxInBreaks: 0
WidescreenStoryboard: 0

[Editor]
Bookmarks: 6972,13928,20885,34798,48711,55668,62624,69581,76537,83494,90450,97407,104363,111320,114798
DistanceSpacing: 1.2
BeatDivisor: 8
GridSize: 4
TimelineZoom: 2.2

[Metadata]
Title:Cranberry City
TitleUnicode:Cranberry City
Artist:lapix feat. Luschel
ArtistUnicode:lapix feat. Luschel
Creator:Charlotte
Version:Inner Oni
Source:beatmania IIDX 26 Rootage
Tags:English GARAGE POP Video Rhythm Game ORIGINAL SOUNDTRACK SELECTION Rizing Destruction komasy Cychloryn Genjuro
BeatmapID:2366551
BeatmapSetID:1133066

[Difficulty]
HPDrainRate:6
CircleSize:5
OverallDifficulty:6
ApproachRate:5
SliderMultiplier:1.4
SliderTickRate:1

[Events]
//Background and Video events
0,0,"BG.jpg",0,90
//Break Periods
//Storyboard Layer 0 (Background)
//Storyboard Layer 1 (Fail)
//Storyboard Layer 2 (Pass)
//Storyboard Layer 3 (Foreground)
//Storyboard Layer 4 (Overlay)
//Storyboard Sound Samples

[TimingPoints]
1755,434.782608695652,4,1,0,80,1,0
3439,-111.111111111111,4,1,0,40,0,0
3548,-108.695652173913,4,1,0,40,0,0
3657,-106.382978723404,4,1,0,40,0,0
3765,-104.166666666667,4,1,0,40,0,0
3874,-102.040816326531,4,1,0,50,0,0
3983,-100,4,1,0,50,0,0
4091,-98.0392156862745,4,1,0,50,0,0
4200,-96.1538461538461,4,1,0,50,0,0
4309,-94.3396226415094,4,1,0,60,0,0
4418,-92.5925925925926,4,1,0,60,0,0
4526,-90.9090909090909,4,1,0,70,0,0
4635,-88.8888888888889,4,1,0,70,0,0
4744,-86.9565217391304,4,1,0,75,0,0
4852,-85.1063829787234,4,1,0,80,0,0
4961,-83.3333333333333,4,1,0,90,0,0
5070,-81.6326530612245,4,1,0,90,0,0
5178,-80,4,1,0,90,0,0
6265,-80,4,1,0,80,0,0
6918,-100,4,1,0,80,0,0
45178,-90.9090909090909,4,1,0,80,0,0
48711,-90.9090909090909,4,1,0,80,0,1
62189,-90.9090909090909,4,1,0,80,0,0
62624,-100,4,1,0,80,0,0
66537,-90.9090909090909,4,1,0,80,0,1
76537,-100,4,1,0,80,0,0
114526,-90.9090909090909,4,1,0,80,0,0

[HitObjects]
256,192,1755,5,0,0:0:0:0:
256,192,1863,1,8,0:0:0:0:
256,192,1972,1,8,0:0:0:0:
256,192,2081,1,0,0:0:0:0:
256,192,2189,1,8,0:0:0:0:
256,192,2298,1,8,0:0:0:0:
256,192,2407,1,0,0:0:0:0:
256,192,2515,1,8,0:0:0:0:
256,192,2624,1,0,0:0:0:0:
256,192,2733,1,8,0:0:0:0:
256,192,2841,1,0,0:0:0:0:
256,192,2950,1,0,0:0:0:0:
256,192,3059,1,8,0:0:0:0:
256,192,3494,1,0,0:0:0:0:
261,191,3602,1,0,0:0:0:0:
261,191,3711,1,0,0:0:0:0:
261,191,3820,1,0,0:0:0:0:
256,192,3928,1,0,0:0:0:0:
256,192,4037,1,0,0:0:0:0:
256,192,4146,1,0,0:0:0:0:
256,192,4254,1,0,0:0:0:0:
256,192,4363,1,0,0:0:0:0:
256,192,4472,1,0,0:0:0:0:
256,192,4581,1,0,0:0:0:0:
256,192,4689,1,0,0:0:0:0:
256,192,4798,1,0,0:0:0:0:
256,192,4907,1,0,0:0:0:0:
256,192,5015,1,8,0:0:0:0:
256,192,5124,1,8,0:0:0:0:
256,192,5233,1,4,0:0:0:0:
256,192,5450,1,8,0:0:0:0:
256,192,5668,1,4,0:0:0:0:
256,192,5885,1,8,0:0:0:0:
256,192,6102,1,4,0:0:0:0:
256,192,6320,1,8,0:0:0:0:
256,192,6374,1,8,0:0:0:0:
256,192,6428,1,0,0:0:0:0:
256,192,6537,1,8,0:0:0:0:
256,192,6972,1,4,0:0:0:0:
256,192,7189,1,0,0:0:0:0:
256,192,7407,1,8,0:0:0:0:
256,192,7624,1,0,0:0:0:0:
256,192,7733,1,8,0:0:0:0:
256,192,7950,1,8,0:0:0:0:
256,192,8059,1,0,0:0:0:0:
256,192,8276,1,8,0:0:0:0:
256,192,8494,1,0,0:0:0:0:
256,192,8602,1,8,0:0:0:0:
256,192,8711,1,0,0:0:0:0:
256,192,8928,1,0,0:0:0:0:
256,192,9037,1,0,0:0:0:0:
256,192,9146,1,8,0:0:0:0:
256,192,9254,1,0,0:0:0:0:
256,192,9363,1,0,0:0:0:0:
256,192,9472,1,8,0:0:0:0:
256,192,9689,1,8,0:0:0:0:
256,192,9798,1,0,0:0:0:0:
256,192,10015,1,8,0:0:0:0:
256,192,10233,1,0,0:0:0:0:
256,192,10341,1,8,0:0:0:0:
256,192,10450,1,0,0:0:0:0:
256,192,10668,1,0,0:0:0:0:
256,192,10885,1,8,0:0:0:0:
256,192,11102,1,0,0:0:0:0:
256,192,11211,1,8,0:0:0:0:
256,192,11428,1,8,0:0:0:0:
256,192,11537,1,0,0:0:0:0:
256,192,11754,1,8,0:0:0:0:
256,192,11863,1,8,0:0:0:0:
256,192,11972,1,0,0:0:0:0:
256,192,12081,1,8,0:0:0:0:
256,192,12189,1,0,0:0:0:0:
256,192,12298,1,8,0:0:0:0:
256,192,12407,1,8,0:0:0:0:
256,192,12624,1,8,0:0:0:0:
256,192,12733,1,0,0:0:0:0:
256,192,12841,1,8,0:0:0:0:
256,192,12950,1,0,0:0:0:0:
256,192,13168,1,8,0:0:0:0:
256,192,13276,1,0,0:0:0:0:
256,192,13494,1,8,0:0:0:0:
256,192,13602,1,8,0:0:0:0:
256,192,13711,1,0,0:0:0:0:
256,192,13820,1,8,0:0:0:0:
256,192,13928,1,0,0:0:0:0:
256,192,14146,1,0,0:0:0:0:
261,193,14363,1,8,0:0:0:0:
261,193,14581,1,0,0:0:0:0:
256,192,14689,1,8,0:0:0:0:
256,192,14907,1,8,0:0:0:0:
256,192,15015,1,0,0:0:0:0:
253,193,15233,1,8,0:0:0:0:
261,193,15450,1,0,0:0:0:0:
261,193,15559,1,8,0:0:0:0:
256,192,15668,1,0,0:0:0:0:
256,192,15885,1,0,0:0:0:0:
262,195,15994,1,0,0:0:0:0:
260,197,16102,1,8,0:0:0:0:
260,197,16211,1,0,0:0:0:0:
261,193,16320,1,0,0:0:0:0:
261,193,16428,1,8,0:0:0:0:
262,195,16646,1,8,0:0:0:0:
262,195,16754,1,0,0:0:0:0:
262,195,16972,1,8,0:0:0:0:
260,197,17189,1,0,0:0:0:0:
261,193,17298,1,8,0:0:0:0:
261,193,17407,1,0,0:0:0:0:
256,191,17624,1,0,0:0:0:0:
262,195,17841,1,8,0:0:0:0:
262,195,18059,1,0,0:0:0:0:
260,197,18168,1,8,0:0:0:0:
261,193,18385,1,8,0:0:0:0:
261,196,18494,1,0,0:0:0:0:
262,195,18711,1,8,0:0:0:0:
266,195,18820,1,0,0:0:0:0:
262,195,18928,1,8,0:0:0:0:
267,197,19037,1,8,0:0:0:0:
260,197,19146,1,0,0:0:0:0:
261,193,19363,1,0,0:0:0:0:
261,196,19472,1,0,0:0:0:0:
262,195,19689,1,0,0:0:0:0:
260,203,19907,1,0,0:0:0:0:
263,202,20124,1,0,0:0:0:0:
260,202,20233,1,8,0:0:0:0:
260,200,20287,1,8,0:0:0:0:
264,200,20341,1,0,0:0:0:0:
261,202,20450,1,8,0:0:0:0:
252,198,20885,1,4,0:0:0:0:
256,196,21102,1,0,0:0:0:0:
260,202,21320,1,8,0:0:0:0:
257,198,21754,1,4,0:0:0:0:
256,196,21972,1,0,0:0:0:0:
254,197,22189,1,8,0:0:0:0:
261,197,22407,1,8,0:0:0:0:
257,198,22515,1,8,0:0:0:0:
257,198,22624,1,0,0:0:0:0:
256,196,22841,1,0,0:0:0:0:
260,200,22950,1,0,0:0:0:0:
254,197,23059,1,8,0:0:0:0:
254,197,23168,1,8,0:0:0:0:
257,198,23276,1,0,0:0:0:0:
257,198,23385,1,0,0:0:0:0:
257,198,23439,1,0,0:0:0:0:
259,202,23494,1,8,0:0:0:0:
250,200,23602,1,8,0:0:0:0:
250,200,23711,1,0,0:0:0:0:
250,200,23820,1,0,0:0:0:0:
257,195,23928,1,8,0:0:0:0:
264,194,24146,1,0,0:0:0:0:
264,194,24254,1,8,0:0:0:0:
255,190,24363,1,0,0:0:0:0:
258,190,24581,1,0,0:0:0:0:
263,193,24798,1,8,0:0:0:0:
260,194,25015,1,8,0:0:0:0:
259,197,25124,1,8,0:0:0:0:
260,194,25233,1,0,0:0:0:0:
256,197,25341,1,8,0:0:0:0:
261,193,25450,1,0,0:0:0:0:
263,194,25559,1,0,0:0:0:0:
263,193,25668,1,8,0:0:0:0:
263,189,25885,1,0,0:0:0:0:
265,191,25994,1,8,0:0:0:0:
263,189,26102,1,0,0:0:0:0:
274,191,26320,1,0,0:0:0:0:
263,194,26537,1,8,0:0:0:0:
270,195,26754,1,8,0:0:0:0:
270,195,26863,1,0,0:0:0:0:
270,195,26972,1,0,0:0:0:0:
268,194,27081,1,8,0:0:0:0:
268,193,27189,1,8,0:0:0:0:
268,193,27298,1,0,0:0:0:0:
268,193,27407,1,8,0:0:0:0:
270,195,27624,1,0,0:0:0:0:
270,195,27733,1,0,0:0:0:0:
270,195,27841,1,8,0:0:0:0:
259,194,28059,1,0,0:0:0:0:
261,195,28276,1,8,0:0:0:0:
258,196,28494,1,0,0:0:0:0:
270,195,28602,1,8,0:0:0:0:
258,196,28711,1,0,0:0:0:0:
270,195,28820,1,8,0:0:0:0:
263,202,28928,1,0,0:0:0:0:
261,195,29146,1,8,0:0:0:0:
258,196,29363,1,0,0:0:0:0:
266,197,29472,1,8,0:0:0:0:
270,195,29581,1,8,0:0:0:0:
261,200,29689,1,8,0:0:0:0:
260,203,29798,1,0,0:0:0:0:
261,195,30015,1,8,0:0:0:0:
268,196,30233,1,8,0:0:0:0:
274,198,30341,1,0,0:0:0:0:
260,195,30559,1,8,0:0:0:0:
266,202,30668,1,0,0:0:0:0:
266,195,30776,1,0,0:0:0:0:
257,194,30885,1,8,0:0:0:0:
259,200,31102,1,0,0:0:0:0:
267,200,31211,1,8,0:0:0:0:
261,200,31320,1,0,0:0:0:0:
266,203,31537,1,0,0:0:0:0:
266,202,31646,1,0,0:0:0:0:
264,201,31754,1,8,0:0:0:0:
265,204,31972,1,8,0:0:0:0:
265,206,32081,1,8,0:0:0:0:
267,200,32189,1,0,0:0:0:0:
254,202,32298,1,8,0:0:0:0:
266,203,32407,1,0,0:0:0:0:
266,202,32515,1,0,0:0:0:0:
264,201,32624,1,8,0:0:0:0:
264,201,32733,1,0,0:0:0:0:
265,204,32841,1,8,0:0:0:0:
265,204,32950,1,8,0:0:0:0:
265,206,33059,1,0,0:0:0:0:
249,197,33276,1,0,0:0:0:0:
250,197,33385,1,0,0:0:0:0:
250,197,33494,1,8,0:0:0:0:
237,199,33602,1,8,0:0:0:0:
237,199,33711,1,0,0:0:0:0:
241,200,33820,1,8,0:0:0:0:
238,202,34037,1,0,0:0:0:0:
239,207,34146,1,8,0:0:0:0:
239,207,34200,1,8,0:0:0:0:
241,207,34254,1,0,0:0:0:0:
241,207,34363,1,8,0:0:0:0:
236,206,34581,1,8,0:0:0:0:
236,206,34689,1,8,0:0:0:0:
239,206,34798,1,0,0:0:0:0:
241,209,35015,1,0,0:0:0:0:
239,207,35233,1,8,0:0:0:0:
240,209,35450,1,0,0:0:0:0:
248,213,35559,1,8,0:0:0:0:
236,206,35668,1,0,0:0:0:0:
247,213,35776,1,8,0:0:0:0:
237,211,35885,1,0,0:0:0:0:
243,211,36102,1,8,0:0:0:0:
257,200,36537,1,4,0:0:0:0:
255,198,36972,1,12,0:0:0:0:
257,200,37407,1,4,0:0:0:0:
255,198,37624,1,0,0:0:0:0:
255,198,37733,1,0,0:0:0:0:
255,198,37841,1,8,0:0:0:0:
257,200,38059,1,0,0:0:0:0:
262,197,38168,1,8,0:0:0:0:
257,200,38276,1,0,0:0:0:0:
255,198,38494,1,0,0:0:0:0:
255,192,38711,1,8,0:0:0:0:
255,183,38928,1,0,0:0:0:0:
261,192,39037,1,8,0:0:0:0:
262,197,39146,1,0,0:0:0:0:
257,200,39254,1,8,0:0:0:0:
255,197,39363,1,0,0:0:0:0:
260,197,39581,1,8,0:0:0:0:
265,197,39798,1,8,0:0:0:0:
254,191,40015,1,4,0:0:0:0:
260,197,40450,1,12,0:0:0:0:
259,193,40885,1,8,0:0:0:0:
275,200,40994,1,0,0:0:0:0:
260,197,41211,1,0,0:0:0:0:
275,200,41320,1,8,0:0:0:0:
255,200,41428,1,0,0:0:0:0:
280,198,41537,1,0,0:0:0:0:
280,198,41646,1,8,0:0:0:0:
255,199,41754,1,0,0:0:0:0:
264,199,41972,1,0,0:0:0:0:
260,197,42189,1,8,0:0:0:0:
257,194,42407,1,8,0:0:0:0:
257,194,42624,1,0,0:0:0:0:
258,194,42841,1,8,0:0:0:0:
260,197,42950,1,0,0:0:0:0:
260,197,43168,1,0,0:0:0:0:
263,197,43276,1,8,0:0:0:0:
264,197,43494,1,0,0:0:0:0:
260,197,43711,1,0,0:0:0:0:
257,194,43928,1,8,0:0:0:0:
257,194,44146,1,8,0:0:0:0:
271,198,44254,1,8,0:0:0:0:
258,194,44363,1,0,0:0:0:0:
260,197,44581,1,8,0:0:0:0:
263,197,44689,1,8,0:0:0:0:
264,197,44798,1,0,0:0:0:0:
257,194,44907,1,0,0:0:0:0:
257,194,45015,1,8,0:0:0:0:
257,202,45233,1,8,0:0:0:0:
266,198,45305,1,0,0:0:0:0:
266,198,45378,1,0,0:0:0:0:
264,198,45450,1,8,0:0:0:0:
260,197,45559,1,0,0:0:0:0:
263,197,45668,1,8,0:0:0:0:
263,197,45740,1,0,0:0:0:0:
264,197,45812,1,0,0:0:0:0:
260,201,45885,1,8,0:0:0:0:
260,201,45994,1,0,0:0:0:0:
257,202,46102,1,8,0:0:0:0:
257,202,46175,1,8,0:0:0:0:
257,202,46247,1,8,0:0:0:0:
274,203,46320,1,0,0:0:0:0:
274,203,46428,1,8,0:0:0:0:
274,203,46537,1,0,0:0:0:0:
274,203,46610,1,8,0:0:0:0:
274,203,46682,1,8,0:0:0:0:
274,203,46754,1,0,0:0:0:0:
274,203,46827,1,8,0:0:0:0:
274,203,46899,1,8,0:0:0:0:
287,192,46972,1,0,0:0:0:0:
287,192,47117,1,8,0:0:0:0:
287,192,47262,1,8,0:0:0:0:
268,226,47407,1,8,0:0:0:0:
268,226,47479,1,0,0:0:0:0:
268,226,47552,1,0,0:0:0:0:
268,226,47624,1,8,0:0:0:0:
305,218,47697,1,0,0:0:0:0:
305,218,47769,1,0,0:0:0:0:
305,218,47841,1,8,0:0:0:0:
277,194,47950,1,0,0:0:0:0:
277,194,48059,1,8,0:0:0:0:
277,194,48113,1,8,0:0:0:0:
277,194,48168,1,0,0:0:0:0:
268,186,48276,1,12,0:0:0:0:
268,180,48711,1,4,0:0:0:0:
259,177,48928,1,0,0:0:0:0:
261,177,49146,1,8,0:0:0:0:
254,177,49363,1,0,0:0:0:0:
271,191,49472,1,8,0:0:0:0:
261,189,49581,1,0,0:0:0:0:
282,188,49689,1,8,0:0:0:0:
265,195,49798,1,0,0:0:0:0:
296,206,49907,1,0,0:0:0:0:
268,200,50015,1,8,0:0:0:0:
262,195,50233,1,0,0:0:0:0:
265,199,50450,1,8,0:0:0:0:
267,204,50559,1,8,0:0:0:0:
275,210,50668,1,0,0:0:0:0:
275,210,50885,1,8,0:0:0:0:
277,203,51102,1,0,0:0:0:0:
274,202,51211,1,8,0:0:0:0:
274,202,51320,1,0,0:0:0:0:
308,198,51428,1,8,0:0:0:0:
303,201,51537,1,8,0:0:0:0:
290,206,51646,1,0,0:0:0:0:
299,199,51754,1,8,0:0:0:0:
273,198,51972,1,0,0:0:0:0:
272,198,52081,1,8,0:0:0:0:
292,198,52189,1,0,0:0:0:0:
292,198,52407,1,0,0:0:0:0:
278,194,52624,1,8,0:0:0:0:
275,202,52841,1,8,0:0:0:0:
275,202,52950,1,8,0:0:0:0:
272,198,53059,1,0,0:0:0:0:
268,192,53168,1,8,0:0:0:0:
279,207,53276,1,8,0:0:0:0:
265,188,53385,1,0,0:0:0:0:
278,194,53494,1,8,0:0:0:0:
266,188,53711,1,8,0:0:0:0:
266,188,53820,1,8,0:0:0:0:
266,188,53928,1,0,0:0:0:0:
263,187,54037,1,8,0:0:0:0:
263,187,54146,1,0,0:0:0:0:
259,186,54363,1,8,0:0:0:0:
266,188,54581,1,0,0:0:0:0:
266,188,54689,1,8,0:0:0:0:
259,188,54798,1,0,0:0:0:0:
275,184,54907,1,8,0:0:0:0:
269,186,55015,1,0,0:0:0:0:
250,190,55233,1,8,0:0:0:0:
243,193,55450,1,0,0:0:0:0:
244,189,55559,1,0,0:0:0:0:
244,189,55668,1,0,0:0:0:0:
254,199,55885,1,0,0:0:0:0:
250,190,56102,1,8,0:0:0:0:
264,196,56320,1,0,0:0:0:0:
264,196,56428,1,8,0:0:0:0:
251,193,56537,1,0,0:0:0:0:
245,195,56646,1,8,0:0:0:0:
245,200,56754,1,0,0:0:0:0:
261,194,56863,1,0,0:0:0:0:
266,188,56972,1,8,0:0:0:0:
257,199,57081,1,0,0:0:0:0:
259,199,57189,1,8,0:0:0:0:
259,199,57298,1,8,0:0:0:0:
259,199,57407,1,0,0:0:0:0:
258,202,57515,1,8,0:0:0:0:
258,202,57624,1,0,0:0:0:0:
259,199,57841,1,8,0:0:0:0:
262,211,58059,1,0,0:0:0:0:
257,206,58168,1,8,0:0:0:0:
255,206,58276,1,0,0:0:0:0:
259,199,58385,1,8,0:0:0:0:
250,200,58494,1,8,0:0:0:0:
263,206,58602,1,0,0:0:0:0:
259,199,58711,1,8,0:0:0:0:
268,209,58928,1,8,0:0:0:0:
268,209,59037,1,8,0:0:0:0:
268,209,59146,1,0,0:0:0:0:
262,205,59363,1,0,0:0:0:0:
263,205,59472,1,0,0:0:0:0:
263,206,59581,1,8,0:0:0:0:
257,206,59798,1,0,0:0:0:0:
258,204,59907,1,8,0:0:0:0:
268,209,60015,1,0,0:0:0:0:
259,204,60124,1,8,0:0:0:0:
262,205,60233,1,0,0:0:0:0:
263,205,60450,1,8,0:0:0:0:
277,197,60559,1,8,0:0:0:0:
274,221,60668,1,0,0:0:0:0:
277,197,60776,1,8,0:0:0:0:
264,211,60885,1,0,0:0:0:0:
261,202,60994,1,8,0:0:0:0:
254,193,61102,1,0,0:0:0:0:
255,193,61211,1,0,0:0:0:0:
263,196,61428,1,8,0:0:0:0:
263,194,61537,1,0,0:0:0:0:
271,191,61646,1,8,0:0:0:0:
260,193,61754,1,8,0:0:0:0:
268,195,61863,1,0,0:0:0:0:
263,192,61972,1,8,0:0:0:0:
263,192,62026,1,8,0:0:0:0:
263,192,62081,1,0,0:0:0:0:
262,193,62189,1,8,0:0:0:0:
252,189,62624,1,4,0:0:0:0:
248,189,62841,1,0,0:0:0:0:
244,194,63059,1,8,0:0:0:0:
247,192,63276,1,0,0:0:0:0:
254,195,63385,1,8,0:0:0:0:
246,192,63494,1,0,0:0:0:0:
248,189,63711,1,0,0:0:0:0:
245,200,63928,1,8,0:0:0:0:
243,195,64146,1,8,0:0:0:0:
243,195,64254,1,8,0:0:0:0:
245,200,64363,1,0,0:0:0:0:
243,200,64472,1,8,0:0:0:0:
248,195,64581,1,0,0:0:0:0:
250,191,64798,1,8,0:0:0:0:
243,195,65015,1,0,0:0:0:0:
248,193,65124,1,8,0:0:0:0:
243,195,65233,1,0,0:0:0:0:
248,188,65341,1,8,0:0:0:0:
248,188,65450,1,0,0:0:0:0:
256,188,65559,1,0,0:0:0:0:
248,196,65668,1,8,0:0:0:0:
252,192,65885,1,0,0:0:0:0:
248,180,66102,1,0,0:0:0:0:
248,180,66537,1,12,0:0:0:0:
248,180,66754,1,0,0:0:0:0:
248,180,66863,1,8,0:0:0:0:
240,176,66972,1,0,0:0:0:0:
252,176,67081,1,8,0:0:0:0:
252,176,67189,1,8,0:0:0:0:
248,180,67298,1,0,0:0:0:0:
268,180,67407,1,8,0:0:0:0:
264,184,67624,1,8,0:0:0:0:
264,184,67733,1,8,0:0:0:0:
264,184,67841,1,0,0:0:0:0:
256,184,67950,1,8,0:0:0:0:
256,184,68059,1,0,0:0:0:0:
256,184,68276,1,8,0:0:0:0:
252,184,68494,1,0,0:0:0:0:
252,184,68602,1,8,0:0:0:0:
256,184,68711,1,0,0:0:0:0:
252,184,68820,1,8,0:0:0:0:
256,184,68928,1,0,0:0:0:0:
256,184,69146,1,8,0:0:0:0:
260,184,69363,1,0,0:0:0:0:
260,184,69472,1,0,0:0:0:0:
260,184,69581,1,0,0:0:0:0:
260,184,69798,1,0,0:0:0:0:
256,184,70015,1,8,0:0:0:0:
252,193,70233,1,0,0:0:0:0:
251,193,70341,1,8,0:0:0:0:
260,192,70450,1,0,0:0:0:0:
245,195,70559,1,8,0:0:0:0:
245,200,70668,1,0,0:0:0:0:
261,194,70776,1,0,0:0:0:0:
266,188,70885,1,8,0:0:0:0:
257,199,70994,1,0,0:0:0:0:
259,199,71102,1,8,0:0:0:0:
259,199,71211,1,8,0:0:0:0:
259,199,71320,1,0,0:0:0:0:
258,202,71537,1,0,0:0:0:0:
256,200,71754,1,8,0:0:0:0:
257,199,71972,1,0,0:0:0:0:
259,199,72081,1,0,0:0:0:0:
264,196,72298,1,0,0:0:0:0:
260,192,72407,1,8,0:0:0:0:
264,188,72515,1,0,0:0:0:0:
252,192,72624,1,8,0:0:0:0:
256,192,72841,1,8,0:0:0:0:
256,192,72950,1,8,0:0:0:0:
256,192,73059,1,0,0:0:0:0:
256,188,73131,1,0,0:0:0:0:
260,192,73204,1,0,0:0:0:0:
256,196,73276,1,8,0:0:0:0:
260,192,73385,1,0,0:0:0:0:
264,196,73494,1,8,0:0:0:0:
260,192,73566,1,0,0:0:0:0:
264,188,73639,1,0,0:0:0:0:
260,192,73711,1,8,0:0:0:0:
264,192,73820,1,8,0:0:0:0:
268,184,73928,1,0,0:0:0:0:
256,192,74001,1,0,0:0:0:0:
256,196,74073,1,0,0:0:0:0:
260,192,74146,1,8,0:0:0:0:
260,192,74254,1,0,0:0:0:0:
264,196,74363,1,8,0:0:0:0:
253,188,74436,1,0,0:0:0:0:
264,188,74508,1,0,0:0:0:0:
260,192,74581,1,8,0:0:0:0:
260,192,74653,1,8,0:0:0:0:
260,192,74726,1,8,0:0:0:0:
264,192,74798,1,0,0:0:0:0:
260,196,75015,1,0,0:0:0:0:
256,196,75124,1,0,0:0:0:0:
264,196,75341,1,8,0:0:0:0:
260,196,75450,1,0,0:0:0:0:
280,192,75559,1,0,0:0:0:0:
280,192,75668,1,8,0:0:0:0:
272,196,75776,1,0,0:0:0:0:
276,196,75885,1,8,0:0:0:0:
280,196,75939,1,8,0:0:0:0:
280,192,75994,1,0,0:0:0:0:
280,192,76102,1,8,0:0:0:0:
280,192,76537,1,4,0:0:0:0:
264,192,76754,1,0,0:0:0:0:
264,192,76863,1,0,0:0:0:0:
264,192,76972,1,8,0:0:0:0:
256,188,77189,1,0,0:0:0:0:
264,192,77407,1,8,0:0:0:0:
272,184,77515,1,8,0:0:0:0:
264,192,77624,1,0,0:0:0:0:
276,188,77733,1,0,0:0:0:0:
264,192,77841,1,8,0:0:0:0:
276,188,77950,1,0,0:0:0:0:
260,192,78059,1,8,0:0:0:0:
276,188,78168,1,8,0:0:0:0:
264,192,78276,1,0,0:0:0:0:
264,192,78494,1,0,0:0:0:0:
264,192,78602,1,0,0:0:0:0:
264,192,78711,1,8,0:0:0:0:
272,196,78820,1,0,0:0:0:0:
272,200,78928,1,0,0:0:0:0:
272,200,79037,1,0,0:0:0:0:
264,192,79146,1,8,0:0:0:0:
272,200,79254,1,8,0:0:0:0:
264,192,79363,1,0,0:0:0:0:
264,192,79472,1,8,0:0:0:0:
264,192,79581,1,0,0:0:0:0:
264,192,79689,1,0,0:0:0:0:
260,192,79798,1,8,0:0:0:0:
264,192,80015,1,8,0:0:0:0:
264,192,80124,1,0,0:0:0:0:
264,192,80233,1,8,0:0:0:0:
264,192,80341,1,8,0:0:0:0:
264,192,80450,1,0,0:0:0:0:
264,192,80559,1,0,0:0:0:0:
260,196,80668,1,8,0:0:0:0:
260,192,80776,1,0,0:0:0:0:
264,184,80885,1,8,0:0:0:0:
264,180,80994,1,0,0:0:0:0:
268,184,81102,1,0,0:0:0:0:
268,184,81211,1,8,0:0:0:0:
256,196,81320,1,0,0:0:0:0:
256,196,81428,1,0,0:0:0:0:
256,196,81537,1,8,0:0:0:0:
288,196,81646,1,0,0:0:0:0:
272,208,81754,1,8,0:0:0:0:
272,208,81863,1,8,0:0:0:0:
272,208,81972,1,8,0:0:0:0:
272,208,82081,1,0,0:0:0:0:
276,192,82189,1,8,0:0:0:0:
260,184,82298,1,8,0:0:0:0:
252,180,82407,1,0,0:0:0:0:
252,180,82515,1,0,0:0:0:0:
264,188,82624,1,8,0:0:0:0:
248,184,82733,1,0,0:0:0:0:
256,184,82841,1,8,0:0:0:0:
256,184,82950,1,8,0:0:0:0:
252,192,83059,1,0,0:0:0:0:
256,196,83168,1,8,0:0:0:0:
256,196,83276,1,0,0:0:0:0:
256,196,83385,1,8,0:0:0:0:
256,196,83494,1,0,0:0:0:0:
256,200,83711,1,8,0:0:0:0:
256,196,83820,1,0,0:0:0:0:
256,200,83928,1,8,0:0:0:0:
248,196,84146,1,0,0:0:0:0:
248,208,84254,1,0,0:0:0:0:
248,208,84363,1,8,0:0:0:0:
248,208,84472,1,8,0:0:0:0:
248,208,84581,1,0,0:0:0:0:
248,208,84689,1,0,0:0:0:0:
248,208,84798,1,8,0:0:0:0:
248,208,84907,1,0,0:0:0:0:
248,208,85015,1,8,0:0:0:0:
248,208,85124,1,8,0:0:0:0:
248,208,85233,1,0,0:0:0:0:
248,208,85341,1,0,0:0:0:0:
248,208,85450,1,8,0:0:0:0:
248,208,85668,1,0,0:0:0:0:
248,208,85885,1,8,0:0:0:0:
248,208,85994,1,8,0:0:0:0:
248,208,86102,1,0,0:0:0:0:
248,208,86211,1,0,0:0:0:0:
248,208,86320,1,8,0:0:0:0:
248,208,86428,1,0,0:0:0:0:
248,208,86537,1,8,0:0:0:0:
248,208,86646,1,8,0:0:0:0:
248,208,86754,1,0,0:0:0:0:
248,208,86863,1,8,0:0:0:0:
248,208,86972,1,0,0:0:0:0:
248,208,87081,1,8,0:0:0:0:
248,208,87189,1,8,0:0:0:0:
248,208,87298,1,0,0:0:0:0:
248,208,87407,1,8,0:0:0:0:
248,208,87515,1,0,0:0:0:0:
248,208,87624,1,0,0:0:0:0:
248,208,87733,1,8,0:0:0:0:
248,208,87841,1,0,0:0:0:0:
248,208,87950,1,8,0:0:0:0:
248,208,88059,1,0,0:0:0:0:
252,208,88168,1,8,0:0:0:0:
252,208,88276,1,0,0:0:0:0:
248,208,88385,1,8,0:0:0:0:
248,208,88494,1,8,0:0:0:0:
248,208,88602,1,8,0:0:0:0:
252,208,88711,1,0,0:0:0:0:
248,208,88820,1,0,0:0:0:0:
252,208,88928,1,8,0:0:0:0:
252,208,89037,1,0,0:0:0:0:
252,208,89146,1,8,0:0:0:0:
252,208,89254,1,8,0:0:0:0:
252,208,89363,1,0,0:0:0:0:
248,208,89472,1,8,0:0:0:0:
248,208,89581,1,0,0:0:0:0:
252,208,89689,1,0,0:0:0:0:
248,208,89798,1,8,0:0:0:0:
248,208,89852,1,8,0:0:0:0:
252,208,89907,1,0,0:0:0:0:
252,208,90015,1,8,0:0:0:0:
248,208,90450,1,4,0:0:0:0:
244,208,90668,1,0,0:0:0:0:
244,208,90776,1,0,0:0:0:0:
236,208,90885,1,8,0:0:0:0:
248,208,91102,1,0,0:0:0:0:
240,208,91211,1,8,0:0:0:0:
240,208,91428,1,8,0:0:0:0:
244,208,91537,1,0,0:0:0:0:
265,208,91646,1,0,0:0:0:0:
240,208,91754,1,8,0:0:0:0:
240,208,91972,1,0,0:0:0:0:
240,208,92081,1,8,0:0:0:0:
240,208,92189,1,0,0:0:0:0:
240,208,92407,1,0,0:0:0:0:
244,208,92515,1,0,0:0:0:0:
240,208,92624,1,8,0:0:0:0:
240,208,92841,1,0,0:0:0:0:
240,208,92950,1,8,0:0:0:0:
240,208,93168,1,8,0:0:0:0:
240,208,93276,1,0,0:0:0:0:
248,208,93385,1,0,0:0:0:0:
244,208,93494,1,8,0:0:0:0:
248,200,93602,1,8,0:0:0:0:
248,200,93711,1,0,0:0:0:0:
248,200,93820,1,8,0:0:0:0:
248,200,93928,1,0,0:0:0:0:
248,204,94146,1,0,0:0:0:0:
248,204,94254,1,0,0:0:0:0:
248,208,94363,1,8,0:0:0:0:
248,208,94472,1,0,0:0:0:0:
248,208,94689,1,8,0:0:0:0:
248,208,94798,1,0,0:0:0:0:
252,208,94907,1,8,0:0:0:0:
252,208,95015,1,8,0:0:0:0:
264,208,95124,1,0,0:0:0:0:
264,208,95233,1,8,0:0:0:0:
268,204,95450,1,0,0:0:0:0:
268,204,95559,1,8,0:0:0:0:
268,204,95668,1,0,0:0:0:0:
256,204,95776,1,8,0:0:0:0:
272,212,95885,1,0,0:0:0:0:
260,208,95994,1,0,0:0:0:0:
264,208,96102,1,8,0:0:0:0:
260,208,96320,1,0,0:0:0:0:
260,208,96428,1,8,0:0:0:0:
256,208,96646,1,8,0:0:0:0:
260,208,96754,1,0,0:0:0:0:
260,208,96863,1,8,0:0:0:0:
260,208,96972,1,0,0:0:0:0:
256,208,97081,1,0,0:0:0:0:
260,208,97189,1,8,0:0:0:0:
260,208,97298,1,8,0:0:0:0:
260,208,97407,1,0,0:0:0:0:
264,204,97624,1,0,0:0:0:0:
256,200,97733,1,0,0:0:0:0:
260,208,97841,1,8,0:0:0:0:
256,200,98059,1,0,0:0:0:0:
256,204,98168,1,8,0:0:0:0:
256,204,98385,1,8,0:0:0:0:
256,204,98494,1,0,0:0:0:0:
266,180,98602,1,0,0:0:0:0:
252,192,98711,1,8,0:0:0:0:
256,192,98928,1,8,0:0:0:0:
248,184,99037,1,8,0:0:0:0:
252,192,99146,1,0,0:0:0:0:
252,192,99254,1,8,0:0:0:0:
244,192,99363,1,0,0:0:0:0:
248,192,99472,1,0,0:0:0:0:
252,192,99581,1,8,0:0:0:0:
252,192,99798,1,0,0:0:0:0:
252,192,99907,1,8,0:0:0:0:
252,192,100015,1,0,0:0:0:0:
248,196,100124,1,8,0:0:0:0:
248,196,100233,1,8,0:0:0:0:
248,196,100341,1,8,0:0:0:0:
248,196,100450,1,0,0:0:0:0:
248,196,100668,1,8,0:0:0:0:
248,196,100776,1,8,0:0:0:0:
248,196,100885,1,0,0:0:0:0:
248,200,100957,1,0,0:0:0:0:
248,200,101030,1,0,0:0:0:0:
248,204,101102,1,8,0:0:0:0:
248,200,101211,1,0,0:0:0:0:
240,196,101320,1,8,0:0:0:0:
270,197,101392,1,0,0:0:0:0:
248,196,101465,1,0,0:0:0:0:
248,200,101537,1,8,0:0:0:0:
248,200,101646,1,8,0:0:0:0:
240,196,101754,1,0,0:0:0:0:
248,196,101827,1,0,0:0:0:0:
248,200,101899,1,0,0:0:0:0:
248,200,101972,1,8,0:0:0:0:
248,200,102081,1,0,0:0:0:0:
240,196,102189,1,8,0:0:0:0:
232,192,102262,1,0,0:0:0:0:
240,196,102334,1,0,0:0:0:0:
248,200,102407,1,8,0:0:0:0:
248,200,102479,1,8,0:0:0:0:
248,200,102552,1,8,0:0:0:0:
240,196,102624,1,0,0:0:0:0:
248,196,102841,1,0,0:0:0:0:
248,208,102950,1,0,0:0:0:0:
252,212,103168,1,0,0:0:0:0:
252,212,103385,1,0,0:0:0:0:
256,208,103602,1,0,0:0:0:0:
260,212,103711,1,8,0:0:0:0:
260,212,103765,1,8,0:0:0:0:
260,212,103820,1,0,0:0:0:0:
256,204,103928,1,8,0:0:0:0:
264,212,104146,1,0,0:0:0:0:
264,212,104254,1,8,0:0:0:0:
268,204,104363,1,0,0:0:0:0:
272,212,104581,1,0,0:0:0:0:
272,212,104689,1,0,0:0:0:0:
272,212,104798,1,8,0:0:0:0:
264,212,105015,1,0,0:0:0:0:
264,212,105124,1,8,0:0:0:0:
264,212,105233,1,0,0:0:0:0:
264,212,105341,1,8,0:0:0:0:
264,208,105450,1,0,0:0:0:0:
264,208,105559,1,0,0:0:0:0:
264,208,105668,1,8,0:0:0:0:
264,212,105776,1,0,0:0:0:0:
264,212,105885,1,8,0:0:0:0:
264,212,105994,1,8,0:0:0:0:
264,212,106102,1,0,0:0:0:0:
264,212,106211,1,8,0:0:0:0:
276,212,106320,1,0,0:0:0:0:
288,208,106392,1,0,0:0:0:0:
280,208,106465,1,0,0:0:0:0:
280,216,106537,1,8,0:0:0:0:
280,192,106754,1,0,0:0:0:0:
280,192,106863,1,8,0:0:0:0:
280,192,106972,1,0,0:0:0:0:
268,172,107081,1,8,0:0:0:0:
268,172,107189,1,0,0:0:0:0:
272,176,107298,1,0,0:0:0:0:
256,188,107407,1,8,0:0:0:0:
268,176,107515,1,8,0:0:0:0:
268,176,107624,1,0,0:0:0:0:
272,172,107733,1,0,0:0:0:0:
288,168,107841,1,8,0:0:0:0:
272,176,108059,1,8,0:0:0:0:
249,170,108131,1,0,0:0:0:0:
256,176,108204,1,0,0:0:0:0:
272,176,108276,1,8,0:0:0:0:
272,184,108494,1,0,0:0:0:0:
272,184,108602,1,0,0:0:0:0:
272,184,108711,1,8,0:0:0:0:
260,184,108820,1,0,0:0:0:0:
260,184,108928,1,0,0:0:0:0:
260,184,109037,1,0,0:0:0:0:
260,184,109146,1,8,0:0:0:0:
260,184,109254,1,0,0:0:0:0:
260,184,109363,1,0,0:0:0:0:
260,184,109472,1,8,0:0:0:0:
260,184,109581,1,0,0:0:0:0:
252,184,109689,1,8,0:0:0:0:
252,184,109798,1,8,0:0:0:0:
252,184,109907,1,0,0:0:0:0:
252,184,110015,1,8,0:0:0:0:
260,200,110233,1,0,0:0:0:0:
260,200,110341,1,8,0:0:0:0:
260,200,110450,1,0,0:0:0:0:
252,200,110559,1,8,0:0:0:0:
252,200,110668,1,8,0:0:0:0:
252,200,110776,1,0,0:0:0:0:
252,200,110885,1,8,0:0:0:0:
248,204,110994,1,0,0:0:0:0:
248,204,111102,1,8,0:0:0:0:
248,204,111211,1,8,0:0:0:0:
248,204,111320,1,0,0:0:0:0:
252,200,111537,1,0,0:0:0:0:
256,204,111646,1,0,0:0:0:0:
256,204,111754,1,8,0:0:0:0:
256,200,111972,1,0,0:0:0:0:
256,200,112081,1,8,0:0:0:0:
256,200,112189,1,0,0:0:0:0:
260,200,112298,1,0,0:0:0:0:
260,200,112407,1,8,0:0:0:0:
280,208,112515,1,0,0:0:0:0:
260,200,112624,1,8,0:0:0:0:
280,208,112733,1,8,0:0:0:0:
285,204,112841,1,0,0:0:0:0:
279,207,113059,1,0,0:0:0:0:
288,208,113168,1,8,0:0:0:0:
280,208,113276,1,0,0:0:0:0:
280,208,113494,1,0,0:0:0:0:
280,208,113602,1,8,0:0:0:0:
280,201,113711,1,0,0:0:0:0:
280,208,113820,1,0,0:0:0:0:
248,196,114037,1,8,0:0:0:0:
248,196,114146,1,0,0:0:0:0:
272,204,114254,1,0,0:0:0:0:
272,204,114363,1,8,0:0:0:0:
288,200,114581,1,0,0:0:0:0:
268,196,114689,1,0,0:0:0:0:
257,202,114798,1,8,0:0:0:0:
266,198,114870,1,0,0:0:0:0:
266,198,114943,1,0,0:0:0:0:
264,198,115015,1,8,0:0:0:0:
260,197,115124,1,0,0:0:0:0:
263,197,115233,1,8,0:0:0:0:
263,197,115305,1,8,0:0:0:0:
264,197,115378,1,0,0:0:0:0:
260,201,115450,1,8,0:0:0:0:
274,203,115559,1,0,0:0:0:0:
257,202,115668,1,8,0:0:0:0:
268,196,115740,1,0,0:0:0:0:
268,196,115812,1,0,0:0:0:0:
270,199,115885,1,8,0:0:0:0:
274,203,115957,1,8,0:0:0:0:
272,206,116030,1,0,0:0:0:0:
274,203,116102,1,8,0:0:0:0:
274,203,116211,1,0,0:0:0:0:
274,203,116320,1,8,0:0:0:0:
274,203,116392,1,0,0:0:0:0:
274,203,116465,1,0,0:0:0:0:
260,201,116537,1,8,0:0:0:0:
264,196,116646,1,0,0:0:0:0:
264,196,116754,1,0,0:0:0:0:
264,196,116863,1,8,0:0:0:0:
264,196,116972,1,0,0:0:0:0:
264,196,117081,1,0,0:0:0:0:
264,196,117189,1,8,0:0:0:0:
264,196,117298,1,8,0:0:0:0:
264,196,117407,1,0,0:0:0:0:
264,196,117515,1,0,0:0:0:0:
264,196,117624,1,8,0:0:0:0:
264,196,117678,1,8,0:0:0:0:
264,196,117733,1,0,0:0:0:0:
264,196,117841,1,8,0:0:0:0:
256,192,118059,1,12,0:0:0:0:
