osu file format v14

[General]
AudioFilename: audio.mp3
AudioLeadIn: 0
PreviewTime: 117363
Countdown: 0
SampleSet: Normal
StackLeniency: 0.7
Mode: 3
LetterboxInBreaks: 0
SpecialStyle: 0
WidescreenStoryboard: 0

[Editor]
DistanceSpacing: 0.8
BeatDivisor: 3
GridSize: 8
TimelineZoom: 1.8

[Metadata]
Title:synergy
TitleUnicode:synergy
Artist:lapix
ArtistUnicode:lapix
Creator:Wonki
Version:combination
Source:
Tags:
BeatmapID:1781428
BeatmapSetID:852248

[Difficulty]
HPDrainRate:8.3
CircleSize:7
OverallDifficulty:8.3
ApproachRate:5
SliderMultiplier:1.4
SliderTickRate:1

[Events]
//Background and Video events
0,0,"la.jpg",0,0
//Break Periods
//Storyboard Layer 0 (Background)
//Storyboard Layer 1 (Fail)
//Storyboard Layer 2 (Pass)
//Storyboard Layer 3 (Foreground)
//Storyboard Sound Samples

[TimingPoints]
1000,363.636363636364,4,1,0,50,1,0

[HitObjects]
256,192,272,128,0,1000:0:0:0:0:
36,192,1000,128,0,2454:0:0:0:0:
109,192,1000,1,0,0:0:0:0:
402,192,1000,1,0,0:0:0:0:
475,192,1000,1,0,0:0:0:0:
182,192,1000,1,0,0:0:0:0:
402,192,1363,128,0,1545:0:0:0:0:
475,192,1363,128,0,1545:0:0:0:0:
256,192,1727,1,0,0:0:0:0:
256,192,2090,1,0,0:0:0:0:
182,192,2454,1,0,0:0:0:0:
329,192,2454,1,0,0:0:0:0:
256,192,2636,1,0,0:0:0:0:
402,192,2636,1,0,0:0:0:0:
182,192,2818,1,0,0:0:0:0:
329,192,2818,1,0,0:0:0:0:
256,192,3000,1,0,0:0:0:0:
402,192,3000,1,0,0:0:0:0:
36,192,3181,1,0,0:0:0:0:
109,192,3272,1,0,0:0:0:0:
182,192,3363,1,0,0:0:0:0:
256,192,3454,1,0,0:0:0:0:
109,192,3545,1,0,0:0:0:0:
475,192,3545,1,0,0:0:0:0:
329,192,3636,1,0,0:0:0:0:
475,192,3727,1,0,0:0:0:0:
109,192,3727,1,0,0:0:0:0:
329,192,3818,1,0,0:0:0:0:
475,192,3909,1,0,0:0:0:0:
36,192,3909,1,0,0:0:0:0:
182,192,4090,1,0,0:0:0:0:
402,192,4090,1,0,0:0:0:0:
182,192,4272,1,0,0:0:0:0:
36,192,4363,1,0,0:0:0:0:
182,192,4454,1,0,0:0:0:0:
36,192,4545,1,0,0:0:0:0:
256,192,4636,1,0,0:0:0:0:
402,192,4636,1,0,0:0:0:0:
182,192,4818,1,0,0:0:0:0:
329,192,4909,1,0,0:0:0:0:
475,192,5000,1,0,0:0:0:0:
329,192,5090,1,0,0:0:0:0:
475,192,5181,1,0,0:0:0:0:
329,192,5272,1,0,0:0:0:0:
475,192,5363,1,0,0:0:0:0:
109,192,5363,1,0,0:0:0:0:
402,192,5545,1,0,0:0:0:0:
182,192,5545,1,0,0:0:0:0:
402,192,5727,1,0,0:0:0:0:
329,192,5818,1,0,0:0:0:0:
402,192,5909,1,0,0:0:0:0:
329,192,6000,1,0,0:0:0:0:
109,192,6090,1,0,0:0:0:0:
402,192,6090,1,0,0:0:0:0:
182,192,6272,1,0,0:0:0:0:
329,192,6454,1,0,0:0:0:0:
475,192,6500,1,0,0:0:0:0:
256,192,6545,1,0,0:0:0:0:
402,192,6590,1,0,0:0:0:0:
109,192,6636,1,0,0:0:0:0:
256,192,6681,1,0,0:0:0:0:
36,192,6727,1,0,0:0:0:0:
182,192,6772,1,0,0:0:0:0:
475,192,6818,1,0,0:0:0:0:
329,192,6818,128,0,8272:0:0:0:0:
475,192,7181,1,0,0:0:0:0:
475,192,7545,1,0,0:0:0:0:
475,192,7909,1,0,0:0:0:0:
475,192,8272,128,0,12636:0:0:0:0:
36,192,8272,1,0,0:0:0:0:
36,192,8636,1,0,0:0:0:0:
36,192,9000,1,0,0:0:0:0:
36,192,9363,1,0,0:0:0:0:
36,192,9727,128,0,12636:0:0:0:0:
256,192,9727,1,0,0:0:0:0:
256,192,10090,1,0,0:0:0:0:
256,192,10454,1,0,0:0:0:0:
256,192,10818,1,0,0:0:0:0:
256,192,11181,128,0,12636:0:0:0:0:
109,192,11181,1,0,0:0:0:0:
402,192,11181,1,0,0:0:0:0:
182,192,11272,1,0,0:0:0:0:
329,192,11363,1,0,0:0:0:0:
402,192,11454,1,0,0:0:0:0:
182,192,11545,1,0,0:0:0:0:
329,192,11545,1,0,0:0:0:0:
109,192,11636,1,0,0:0:0:0:
402,192,11727,1,0,0:0:0:0:
329,192,11818,1,0,0:0:0:0:
182,192,11909,1,0,0:0:0:0:
109,192,11909,1,0,0:0:0:0:
329,192,12000,1,0,0:0:0:0:
402,192,12090,1,0,0:0:0:0:
182,192,12181,1,0,0:0:0:0:
329,192,12272,1,0,0:0:0:0:
402,192,12272,1,0,0:0:0:0:
109,192,12363,1,0,0:0:0:0:
182,192,12454,1,0,0:0:0:0:
329,192,12545,1,0,0:0:0:0:
402,192,12636,1,0,0:0:0:0:
182,192,12636,1,0,0:0:0:0:
109,192,12636,1,0,0:0:0:0:
256,192,12818,1,0,0:0:0:0:
182,192,12818,1,0,0:0:0:0:
256,192,13000,1,0,0:0:0:0:
329,192,13000,1,0,0:0:0:0:
182,192,13181,1,0,0:0:0:0:
109,192,13181,1,0,0:0:0:0:
256,192,13272,1,0,0:0:0:0:
329,192,13363,1,0,0:0:0:0:
475,192,13363,1,0,0:0:0:0:
182,192,13545,1,0,0:0:0:0:
475,192,13545,1,0,0:0:0:0:
182,192,13727,1,0,0:0:0:0:
402,192,13727,1,0,0:0:0:0:
36,192,13727,1,0,0:0:0:0:
256,192,13818,1,0,0:0:0:0:
329,192,13818,1,0,0:0:0:0:
182,192,14090,1,0,0:0:0:0:
402,192,14090,1,0,0:0:0:0:
109,192,14272,1,0,0:0:0:0:
329,192,14272,1,0,0:0:0:0:
256,192,14454,1,0,0:0:0:0:
36,192,14454,1,0,0:0:0:0:
182,192,14636,1,0,0:0:0:0:
329,192,14636,1,0,0:0:0:0:
109,192,14727,1,0,0:0:0:0:
36,192,14818,1,0,0:0:0:0:
256,192,14818,1,0,0:0:0:0:
256,192,15000,1,0,0:0:0:0:
475,192,15000,1,0,0:0:0:0:
402,192,15181,1,0,0:0:0:0:
182,192,15181,1,0,0:0:0:0:
36,192,15181,1,0,0:0:0:0:
256,192,15272,1,0,0:0:0:0:
329,192,15272,1,0,0:0:0:0:
109,192,15545,1,0,0:0:0:0:
329,192,15545,1,0,0:0:0:0:
109,192,15727,1,0,0:0:0:0:
329,192,15727,1,0,0:0:0:0:
182,192,15909,1,0,0:0:0:0:
402,192,15909,1,0,0:0:0:0:
475,192,15909,1,0,0:0:0:0:
36,192,16090,1,0,0:0:0:0:
109,192,16090,1,0,0:0:0:0:
256,192,16181,1,0,0:0:0:0:
329,192,16181,1,0,0:0:0:0:
109,192,16454,1,0,0:0:0:0:
329,192,16454,1,0,0:0:0:0:
182,192,16636,1,0,0:0:0:0:
402,192,16636,1,0,0:0:0:0:
475,192,16636,1,0,0:0:0:0:
109,192,16727,1,0,0:0:0:0:
36,192,16727,1,0,0:0:0:0:
182,192,17000,1,0,0:0:0:0:
402,192,17000,1,0,0:0:0:0:
402,192,17181,1,0,0:0:0:0:
182,192,17181,1,0,0:0:0:0:
329,192,17363,1,0,0:0:0:0:
475,192,17363,1,0,0:0:0:0:
109,192,17363,1,0,0:0:0:0:
36,192,17545,1,0,0:0:0:0:
182,192,17545,1,0,0:0:0:0:
256,192,17636,1,0,0:0:0:0:
402,192,17636,1,0,0:0:0:0:
182,192,17909,1,0,0:0:0:0:
402,192,17909,1,0,0:0:0:0:
329,192,18090,1,0,0:0:0:0:
475,192,18090,1,0,0:0:0:0:
109,192,18090,1,0,0:0:0:0:
256,192,18136,1,0,0:0:0:0:
36,192,18181,1,0,0:0:0:0:
182,192,18227,1,0,0:0:0:0:
329,192,18272,1,0,0:0:0:0:
475,192,18318,1,0,0:0:0:0:
256,192,18363,1,0,0:0:0:0:
402,192,18409,1,0,0:0:0:0:
36,192,18454,1,0,0:0:0:0:
182,192,18454,128,0,18636:0:0:0:0:
256,192,18636,128,0,18818:0:0:0:0:
36,192,18636,1,0,0:0:0:0:
329,192,18818,128,0,19000:0:0:0:0:
475,192,18818,1,0,0:0:0:0:
182,192,19000,128,0,19181:0:0:0:0:
36,192,19000,1,0,0:0:0:0:
329,192,19090,1,0,0:0:0:0:
36,192,19363,1,0,0:0:0:0:
475,192,19363,128,0,19545:0:0:0:0:
329,192,19545,1,0,0:0:0:0:
36,192,19636,1,0,0:0:0:0:
36,192,19909,1,0,0:0:0:0:
402,192,19909,128,0,20090:0:0:0:0:
36,192,20090,1,0,0:0:0:0:
329,192,20090,128,0,20272:0:0:0:0:
475,192,20272,1,0,0:0:0:0:
256,192,20272,128,0,20454:0:0:0:0:
36,192,20454,1,0,0:0:0:0:
182,192,20454,128,0,20636:0:0:0:0:
329,192,20545,1,0,0:0:0:0:
36,192,20818,1,0,0:0:0:0:
475,192,21000,1,0,0:0:0:0:
329,192,21090,1,0,0:0:0:0:
36,192,21363,1,0,0:0:0:0:
182,192,21363,1,0,0:0:0:0:
182,192,21545,1,0,0:0:0:0:
36,192,21545,1,0,0:0:0:0:
329,192,21727,1,0,0:0:0:0:
475,192,21727,1,0,0:0:0:0:
36,192,21909,1,0,0:0:0:0:
182,192,21909,1,0,0:0:0:0:
109,192,22000,1,0,0:0:0:0:
256,192,22000,1,0,0:0:0:0:
182,192,22272,1,0,0:0:0:0:
36,192,22272,1,0,0:0:0:0:
329,192,22454,1,0,0:0:0:0:
475,192,22454,1,0,0:0:0:0:
256,192,22545,1,0,0:0:0:0:
402,192,22545,1,0,0:0:0:0:
36,192,22818,1,0,0:0:0:0:
182,192,22818,1,0,0:0:0:0:
329,192,22818,1,0,0:0:0:0:
475,192,22818,1,0,0:0:0:0:
109,192,22818,1,0,0:0:0:0:
402,192,22818,1,0,0:0:0:0:
256,192,23545,1,0,0:0:0:0:
402,192,23545,1,0,0:0:0:0:
329,192,23636,1,0,0:0:0:0:
475,192,23636,1,0,0:0:0:0:
182,192,23727,1,0,0:0:0:0:
256,192,23727,1,0,0:0:0:0:
329,192,23818,1,0,0:0:0:0:
402,192,23818,1,0,0:0:0:0:
109,192,23909,1,0,0:0:0:0:
36,192,23909,1,0,0:0:0:0:
182,192,23909,1,0,0:0:0:0:
329,192,24000,1,0,0:0:0:0:
475,192,24000,1,0,0:0:0:0:
402,192,24000,1,0,0:0:0:0:
329,192,24181,1,0,0:0:0:0:
402,192,24181,1,0,0:0:0:0:
475,192,24181,1,0,0:0:0:0:
256,192,24272,128,0,24727:0:0:0:0:
36,192,24272,128,0,24454:0:0:0:0:
109,192,24272,128,0,24454:0:0:0:0:
182,192,24272,128,0,24454:0:0:0:0:
329,192,24454,128,0,24727:0:0:0:0:
402,192,24454,128,0,24727:0:0:0:0:
182,192,24636,128,0,24727:0:0:0:0:
109,192,24636,128,0,24727:0:0:0:0:
256,192,24818,128,0,25000:0:0:0:0:
329,192,24818,128,0,25000:0:0:0:0:
402,192,24818,128,0,25000:0:0:0:0:
475,192,24818,128,0,25000:0:0:0:0:
109,192,24909,128,0,25000:0:0:0:0:
182,192,24909,128,0,25000:0:0:0:0:
109,192,25090,128,0,25272:0:0:0:0:
182,192,25090,128,0,25272:0:0:0:0:
329,192,25181,128,0,25272:0:0:0:0:
402,192,25181,128,0,25272:0:0:0:0:
36,192,25363,128,0,25636:0:0:0:0:
109,192,25363,128,0,25636:0:0:0:0:
256,192,25363,128,0,25636:0:0:0:0:
402,192,25363,128,0,25636:0:0:0:0:
475,192,25363,128,0,25636:0:0:0:0:
109,192,25727,128,0,25909:0:0:0:0:
36,192,25727,128,0,25909:0:0:0:0:
182,192,25727,128,0,25909:0:0:0:0:
256,192,25727,128,0,26181:0:0:0:0:
329,192,25909,128,0,26181:0:0:0:0:
402,192,25909,128,0,26181:0:0:0:0:
109,192,26090,128,0,26181:0:0:0:0:
182,192,26090,128,0,26181:0:0:0:0:
256,192,26272,128,0,26454:0:0:0:0:
475,192,26272,128,0,26454:0:0:0:0:
182,192,26363,128,0,26454:0:0:0:0:
109,192,26363,128,0,26454:0:0:0:0:
182,192,26545,128,0,26727:0:0:0:0:
109,192,26545,128,0,26727:0:0:0:0:
329,192,26636,128,0,26727:0:0:0:0:
402,192,26636,128,0,26727:0:0:0:0:
36,192,26818,128,0,27090:0:0:0:0:
109,192,26818,128,0,27090:0:0:0:0:
256,192,27000,128,0,27090:0:0:0:0:
329,192,27000,128,0,27090:0:0:0:0:
36,192,27181,128,0,27636:0:0:0:0:
109,192,27181,128,0,27636:0:0:0:0:
329,192,27181,128,0,27636:0:0:0:0:
402,192,27181,128,0,27636:0:0:0:0:
182,192,27454,128,0,27636:0:0:0:0:
256,192,27454,128,0,27636:0:0:0:0:
109,192,27727,128,0,28181:0:0:0:0:
182,192,27727,128,0,28181:0:0:0:0:
402,192,27727,128,0,27818:0:0:0:0:
475,192,27727,128,0,27818:0:0:0:0:
402,192,27909,128,0,28181:0:0:0:0:
475,192,27909,128,0,28181:0:0:0:0:
329,192,28090,128,0,28181:0:0:0:0:
256,192,28090,128,0,28181:0:0:0:0:
109,192,28272,128,0,28545:0:0:0:0:
256,192,28272,128,0,28545:0:0:0:0:
329,192,28272,128,0,28545:0:0:0:0:
402,192,28272,128,0,28545:0:0:0:0:
182,192,28454,128,0,28545:0:0:0:0:
36,192,28454,128,0,28545:0:0:0:0:
182,192,28636,128,0,28818:0:0:0:0:
256,192,28636,128,0,29000:0:0:0:0:
329,192,28636,128,0,29181:0:0:0:0:
402,192,28636,128,0,29363:0:0:0:0:
109,192,28818,128,0,29727:0:0:0:0:
182,192,29000,128,0,29545:0:0:0:0:
256,192,29181,128,0,29363:0:0:0:0:
329,192,29363,128,0,30000:0:0:0:0:
256,192,29545,128,0,30000:0:0:0:0:
182,192,29727,128,0,30000:0:0:0:0:
109,192,29909,128,0,30000:0:0:0:0:
256,192,30090,128,0,30545:0:0:0:0:
36,192,30090,128,0,30272:0:0:0:0:
109,192,30090,128,0,30272:0:0:0:0:
182,192,30090,128,0,30272:0:0:0:0:
329,192,30272,128,0,30545:0:0:0:0:
402,192,30272,128,0,30545:0:0:0:0:
182,192,30454,128,0,30545:0:0:0:0:
109,192,30454,128,0,30545:0:0:0:0:
256,192,30636,128,0,30818:0:0:0:0:
329,192,30636,128,0,30818:0:0:0:0:
402,192,30636,128,0,30818:0:0:0:0:
475,192,30636,128,0,30818:0:0:0:0:
109,192,30727,128,0,30818:0:0:0:0:
182,192,30727,128,0,30818:0:0:0:0:
109,192,30909,128,0,31090:0:0:0:0:
182,192,30909,128,0,31090:0:0:0:0:
329,192,31000,128,0,31090:0:0:0:0:
402,192,31000,128,0,31090:0:0:0:0:
36,192,31181,128,0,31454:0:0:0:0:
109,192,31181,128,0,31454:0:0:0:0:
256,192,31181,128,0,31454:0:0:0:0:
402,192,31181,128,0,31454:0:0:0:0:
475,192,31181,128,0,31454:0:0:0:0:
109,192,31545,128,0,31727:0:0:0:0:
36,192,31545,128,0,31727:0:0:0:0:
182,192,31545,128,0,31727:0:0:0:0:
256,192,31545,128,0,32000:0:0:0:0:
329,192,31727,128,0,32000:0:0:0:0:
402,192,31727,128,0,32000:0:0:0:0:
109,192,31909,128,0,32000:0:0:0:0:
182,192,31909,128,0,32000:0:0:0:0:
256,192,32090,128,0,32272:0:0:0:0:
475,192,32090,128,0,32272:0:0:0:0:
182,192,32181,128,0,32272:0:0:0:0:
109,192,32181,128,0,32272:0:0:0:0:
182,192,32363,128,0,32545:0:0:0:0:
109,192,32363,128,0,32545:0:0:0:0:
329,192,32454,128,0,32545:0:0:0:0:
402,192,32454,128,0,32545:0:0:0:0:
36,192,32636,128,0,32909:0:0:0:0:
109,192,32636,128,0,32909:0:0:0:0:
256,192,32818,128,0,32909:0:0:0:0:
329,192,32818,128,0,32909:0:0:0:0:
36,192,33000,128,0,33454:0:0:0:0:
109,192,33000,128,0,33454:0:0:0:0:
329,192,33000,128,0,33454:0:0:0:0:
402,192,33000,128,0,33454:0:0:0:0:
182,192,33272,128,0,33454:0:0:0:0:
256,192,33272,128,0,33454:0:0:0:0:
109,192,33545,128,0,34000:0:0:0:0:
182,192,33545,128,0,34000:0:0:0:0:
402,192,33545,128,0,33636:0:0:0:0:
475,192,33545,128,0,33636:0:0:0:0:
402,192,33727,128,0,34000:0:0:0:0:
475,192,33727,128,0,34000:0:0:0:0:
329,192,33909,128,0,34000:0:0:0:0:
256,192,33909,128,0,34000:0:0:0:0:
109,192,34090,128,0,34363:0:0:0:0:
256,192,34090,128,0,34363:0:0:0:0:
329,192,34090,128,0,34363:0:0:0:0:
402,192,34090,128,0,34363:0:0:0:0:
182,192,34272,128,0,34363:0:0:0:0:
36,192,34272,128,0,34363:0:0:0:0:
402,192,34454,128,0,34636:0:0:0:0:
329,192,34454,128,0,34818:0:0:0:0:
182,192,34454,128,0,35000:0:0:0:0:
475,192,34454,1,0,0:0:0:0:
475,192,34636,128,0,35181:0:0:0:0:
402,192,34818,128,0,35181:0:0:0:0:
329,192,35000,128,0,35181:0:0:0:0:
109,192,35000,128,0,35181:0:0:0:0:
36,192,35000,128,0,35181:0:0:0:0:
182,192,35181,1,0,0:0:0:0:
256,192,35181,1,0,0:0:0:0:
182,192,35272,1,0,0:0:0:0:
256,192,35272,1,0,0:0:0:0:
402,192,35363,1,0,0:0:0:0:
475,192,35363,1,0,0:0:0:0:
182,192,35454,1,0,0:0:0:0:
109,192,35454,1,0,0:0:0:0:
329,192,35545,1,0,0:0:0:0:
402,192,35545,1,0,0:0:0:0:
109,192,35636,1,0,0:0:0:0:
36,192,35636,1,0,0:0:0:0:
36,192,35818,1,0,0:0:0:0:
109,192,35818,1,0,0:0:0:0:
182,192,35909,1,0,0:0:0:0:
475,192,35909,1,0,0:0:0:0:
329,192,35909,1,0,0:0:0:0:
109,192,36090,1,0,0:0:0:0:
256,192,36090,1,0,0:0:0:0:
402,192,36090,1,0,0:0:0:0:
329,192,36272,1,0,0:0:0:0:
182,192,36272,1,0,0:0:0:0:
36,192,36272,1,0,0:0:0:0:
256,192,36454,1,0,0:0:0:0:
475,192,36454,1,0,0:0:0:0:
402,192,36454,1,0,0:0:0:0:
329,192,36545,1,0,0:0:0:0:
109,192,36545,1,0,0:0:0:0:
36,192,36545,1,0,0:0:0:0:
36,192,36727,1,0,0:0:0:0:
109,192,36727,1,0,0:0:0:0:
329,192,36727,1,0,0:0:0:0:
402,192,36818,1,0,0:0:0:0:
475,192,36818,1,0,0:0:0:0:
256,192,36818,1,0,0:0:0:0:
109,192,37000,128,0,37272:0:0:0:0:
182,192,37000,128,0,37272:0:0:0:0:
329,192,37000,128,0,37272:0:0:0:0:
36,192,37363,1,0,0:0:0:0:
182,192,37363,1,0,0:0:0:0:
329,192,37363,1,0,0:0:0:0:
109,192,37545,1,0,0:0:0:0:
256,192,37545,1,0,0:0:0:0:
402,192,37545,1,0,0:0:0:0:
182,192,37727,1,0,0:0:0:0:
329,192,37727,1,0,0:0:0:0:
475,192,37727,1,0,0:0:0:0:
256,192,37909,1,0,0:0:0:0:
109,192,37909,1,0,0:0:0:0:
36,192,37909,1,0,0:0:0:0:
402,192,38000,1,0,0:0:0:0:
475,192,38000,1,0,0:0:0:0:
182,192,38000,1,0,0:0:0:0:
182,192,38181,1,0,0:0:0:0:
475,192,38181,1,0,0:0:0:0:
402,192,38181,1,0,0:0:0:0:
109,192,38272,1,0,0:0:0:0:
256,192,38272,1,0,0:0:0:0:
36,192,38272,1,0,0:0:0:0:
36,192,38454,1,0,0:0:0:0:
109,192,38454,1,0,0:0:0:0:
256,192,38454,1,0,0:0:0:0:
109,192,38636,1,0,0:0:0:0:
182,192,38636,1,0,0:0:0:0:
329,192,38636,1,0,0:0:0:0:
36,192,38818,1,0,0:0:0:0:
256,192,38818,1,0,0:0:0:0:
402,192,38818,1,0,0:0:0:0:
109,192,39000,1,0,0:0:0:0:
256,192,39000,1,0,0:0:0:0:
402,192,39000,1,0,0:0:0:0:
182,192,39090,1,0,0:0:0:0:
329,192,39090,1,0,0:0:0:0:
475,192,39090,1,0,0:0:0:0:
109,192,39181,1,0,0:0:0:0:
36,192,39181,1,0,0:0:0:0:
256,192,39363,1,0,0:0:0:0:
402,192,39363,1,0,0:0:0:0:
182,192,39363,1,0,0:0:0:0:
182,192,39545,1,0,0:0:0:0:
256,192,39545,1,0,0:0:0:0:
402,192,39545,1,0,0:0:0:0:
109,192,39727,1,0,0:0:0:0:
182,192,39727,1,0,0:0:0:0:
329,192,39727,1,0,0:0:0:0:
402,192,39909,1,0,0:0:0:0:
36,192,39909,1,0,0:0:0:0:
256,192,39909,1,0,0:0:0:0:
109,192,40090,1,0,0:0:0:0:
329,192,40090,1,0,0:0:0:0:
475,192,40090,1,0,0:0:0:0:
256,192,40272,128,0,40818:0:0:0:0:
36,192,40272,1,0,0:0:0:0:
329,192,40454,128,0,41000:0:0:0:0:
182,192,40454,1,0,0:0:0:0:
402,192,40636,128,0,41181:0:0:0:0:
36,192,40636,1,0,0:0:0:0:
475,192,40818,128,0,41363:0:0:0:0:
182,192,40818,1,0,0:0:0:0:
36,192,41000,1,0,0:0:0:0:
109,192,41000,1,0,0:0:0:0:
256,192,41000,128,0,41636:0:0:0:0:
36,192,41181,1,0,0:0:0:0:
109,192,41181,1,0,0:0:0:0:
329,192,41181,128,0,41636:0:0:0:0:
109,192,41363,1,0,0:0:0:0:
36,192,41363,1,0,0:0:0:0:
402,192,41363,128,0,41636:0:0:0:0:
475,192,41545,128,0,41636:0:0:0:0:
36,192,41727,1,0,0:0:0:0:
182,192,41727,1,0,0:0:0:0:
329,192,41727,1,0,0:0:0:0:
109,192,41909,1,0,0:0:0:0:
256,192,41909,1,0,0:0:0:0:
402,192,41909,1,0,0:0:0:0:
182,192,42090,1,0,0:0:0:0:
329,192,42090,1,0,0:0:0:0:
475,192,42090,1,0,0:0:0:0:
36,192,42272,1,0,0:0:0:0:
109,192,42272,1,0,0:0:0:0:
329,192,42272,1,0,0:0:0:0:
182,192,42363,1,0,0:0:0:0:
402,192,42363,1,0,0:0:0:0:
475,192,42363,1,0,0:0:0:0:
182,192,42545,1,0,0:0:0:0:
402,192,42545,1,0,0:0:0:0:
475,192,42545,1,0,0:0:0:0:
329,192,42636,1,0,0:0:0:0:
109,192,42636,1,0,0:0:0:0:
36,192,42636,1,0,0:0:0:0:
182,192,42818,128,0,43090:0:0:0:0:
402,192,42818,128,0,43090:0:0:0:0:
256,192,42818,128,0,43090:0:0:0:0:
475,192,43181,1,0,0:0:0:0:
329,192,43181,1,0,0:0:0:0:
182,192,43181,1,0,0:0:0:0:
402,192,43363,1,0,0:0:0:0:
256,192,43363,1,0,0:0:0:0:
109,192,43363,1,0,0:0:0:0:
329,192,43545,1,0,0:0:0:0:
182,192,43545,1,0,0:0:0:0:
36,192,43545,1,0,0:0:0:0:
475,192,43727,1,0,0:0:0:0:
402,192,43727,1,0,0:0:0:0:
182,192,43727,1,0,0:0:0:0:
329,192,43818,1,0,0:0:0:0:
109,192,43818,1,0,0:0:0:0:
36,192,43818,1,0,0:0:0:0:
329,192,44000,1,0,0:0:0:0:
109,192,44000,1,0,0:0:0:0:
36,192,44000,1,0,0:0:0:0:
182,192,44090,1,0,0:0:0:0:
402,192,44090,1,0,0:0:0:0:
475,192,44090,1,0,0:0:0:0:
182,192,44272,1,0,0:0:0:0:
402,192,44272,1,0,0:0:0:0:
475,192,44272,1,0,0:0:0:0:
329,192,44454,1,0,0:0:0:0:
402,192,44454,1,0,0:0:0:0:
109,192,44454,1,0,0:0:0:0:
36,192,44636,1,0,0:0:0:0:
182,192,44636,1,0,0:0:0:0:
256,192,44636,1,0,0:0:0:0:
329,192,44727,1,0,0:0:0:0:
182,192,44818,1,0,0:0:0:0:
329,192,44909,1,0,0:0:0:0:
256,192,45000,1,0,0:0:0:0:
475,192,45000,1,0,0:0:0:0:
182,192,45000,1,0,0:0:0:0:
329,192,45090,1,0,0:0:0:0:
182,192,45181,1,0,0:0:0:0:
329,192,45272,1,0,0:0:0:0:
36,192,45363,1,0,0:0:0:0:
109,192,45409,1,0,0:0:0:0:
182,192,45454,1,0,0:0:0:0:
256,192,45500,1,0,0:0:0:0:
329,192,45545,1,0,0:0:0:0:
36,192,45590,1,0,0:0:0:0:
109,192,45636,1,0,0:0:0:0:
182,192,45681,1,0,0:0:0:0:
475,192,45727,1,0,0:0:0:0:
402,192,45772,1,0,0:0:0:0:
329,192,45818,1,0,0:0:0:0:
256,192,45863,1,0,0:0:0:0:
182,192,45909,1,0,0:0:0:0:
475,192,45954,1,0,0:0:0:0:
402,192,46000,1,0,0:0:0:0:
329,192,46045,1,0,0:0:0:0:
36,192,46090,1,0,0:0:0:0:
109,192,46136,1,0,0:0:0:0:
182,192,46181,1,0,0:0:0:0:
256,192,46227,1,0,0:0:0:0:
329,192,46272,1,0,0:0:0:0:
36,192,46318,1,0,0:0:0:0:
109,192,46363,1,0,0:0:0:0:
182,192,46409,1,0,0:0:0:0:
256,192,46454,1,0,0:0:0:0:
475,192,46454,1,0,0:0:0:0:
402,192,46500,1,0,0:0:0:0:
329,192,46545,1,0,0:0:0:0:
109,192,46590,1,0,0:0:0:0:
182,192,46636,1,0,0:0:0:0:
475,192,46636,1,0,0:0:0:0:
402,192,46681,1,0,0:0:0:0:
329,192,46727,1,0,0:0:0:0:
256,192,46772,1,0,0:0:0:0:
182,192,46818,1,0,0:0:0:0:
109,192,46818,1,0,0:0:0:0:
36,192,46818,1,0,0:0:0:0:
36,192,47000,1,0,0:0:0:0:
109,192,47000,1,0,0:0:0:0:
402,192,47181,1,0,0:0:0:0:
475,192,47181,1,0,0:0:0:0:
402,192,47363,1,0,0:0:0:0:
475,192,47363,1,0,0:0:0:0:
36,192,47545,1,0,0:0:0:0:
109,192,47545,1,0,0:0:0:0:
182,192,47545,1,0,0:0:0:0:
329,192,47545,1,0,0:0:0:0:
402,192,47545,1,0,0:0:0:0:
475,192,47545,1,0,0:0:0:0:
329,192,47727,1,0,0:0:0:0:
182,192,47727,1,0,0:0:0:0:
182,192,47909,1,0,0:0:0:0:
329,192,47909,1,0,0:0:0:0:
329,192,48090,1,0,0:0:0:0:
182,192,48090,1,0,0:0:0:0:
182,192,48272,1,0,0:0:0:0:
329,192,48272,1,0,0:0:0:0:
182,192,48454,1,0,0:0:0:0:
329,192,48454,1,0,0:0:0:0:
329,192,48636,1,0,0:0:0:0:
182,192,48636,1,0,0:0:0:0:
182,192,48818,1,0,0:0:0:0:
329,192,48818,1,0,0:0:0:0:
182,192,49000,1,0,0:0:0:0:
109,192,49000,1,0,0:0:0:0:
329,192,49000,1,0,0:0:0:0:
402,192,49000,1,0,0:0:0:0:
402,192,49181,1,0,0:0:0:0:
109,192,49181,1,0,0:0:0:0:
109,192,49363,1,0,0:0:0:0:
402,192,49363,1,0,0:0:0:0:
402,192,49545,1,0,0:0:0:0:
109,192,49545,1,0,0:0:0:0:
109,192,49727,1,0,0:0:0:0:
402,192,49727,1,0,0:0:0:0:
402,192,49909,1,0,0:0:0:0:
109,192,49909,1,0,0:0:0:0:
109,192,50090,1,0,0:0:0:0:
402,192,50090,1,0,0:0:0:0:
402,192,50272,1,0,0:0:0:0:
109,192,50272,1,0,0:0:0:0:
109,192,50454,1,0,0:0:0:0:
36,192,50454,1,0,0:0:0:0:
475,192,50454,1,0,0:0:0:0:
402,192,50454,1,0,0:0:0:0:
475,192,50636,1,0,0:0:0:0:
36,192,50636,1,0,0:0:0:0:
36,192,50818,1,0,0:0:0:0:
475,192,50818,1,0,0:0:0:0:
475,192,51000,1,0,0:0:0:0:
36,192,51000,1,0,0:0:0:0:
36,192,51181,1,0,0:0:0:0:
475,192,51181,1,0,0:0:0:0:
475,192,51363,1,0,0:0:0:0:
36,192,51363,1,0,0:0:0:0:
36,192,51545,1,0,0:0:0:0:
475,192,51545,1,0,0:0:0:0:
475,192,51727,1,0,0:0:0:0:
36,192,51727,1,0,0:0:0:0:
36,192,51909,1,0,0:0:0:0:
256,192,51909,1,0,0:0:0:0:
475,192,51909,1,0,0:0:0:0:
475,192,52090,1,0,0:0:0:0:
256,192,52090,1,0,0:0:0:0:
36,192,52090,1,0,0:0:0:0:
36,192,52272,1,0,0:0:0:0:
256,192,52272,1,0,0:0:0:0:
475,192,52272,1,0,0:0:0:0:
475,192,52454,1,0,0:0:0:0:
256,192,52454,1,0,0:0:0:0:
36,192,52454,1,0,0:0:0:0:
36,192,52636,1,0,0:0:0:0:
256,192,52636,1,0,0:0:0:0:
475,192,52636,1,0,0:0:0:0:
475,192,52818,1,0,0:0:0:0:
256,192,52818,1,0,0:0:0:0:
36,192,52818,1,0,0:0:0:0:
36,192,53000,1,0,0:0:0:0:
109,192,53000,1,0,0:0:0:0:
402,192,53000,1,0,0:0:0:0:
475,192,53000,1,0,0:0:0:0:
109,192,53363,1,0,0:0:0:0:
402,192,53363,1,0,0:0:0:0:
182,192,53454,1,0,0:0:0:0:
329,192,53454,1,0,0:0:0:0:
109,192,53545,1,0,0:0:0:0:
402,192,53545,1,0,0:0:0:0:
182,192,53636,1,0,0:0:0:0:
329,192,53636,1,0,0:0:0:0:
36,192,53727,1,0,0:0:0:0:
475,192,53727,1,0,0:0:0:0:
182,192,53818,1,0,0:0:0:0:
329,192,53818,1,0,0:0:0:0:
36,192,53909,1,0,0:0:0:0:
475,192,53909,1,0,0:0:0:0:
182,192,54000,1,0,0:0:0:0:
329,192,54000,1,0,0:0:0:0:
109,192,54090,1,0,0:0:0:0:
402,192,54090,1,0,0:0:0:0:
182,192,54181,1,0,0:0:0:0:
329,192,54181,1,0,0:0:0:0:
109,192,54272,1,0,0:0:0:0:
402,192,54272,1,0,0:0:0:0:
182,192,54363,1,0,0:0:0:0:
329,192,54363,1,0,0:0:0:0:
36,192,54454,1,0,0:0:0:0:
475,192,54454,1,0,0:0:0:0:
109,192,54545,1,0,0:0:0:0:
402,192,54545,1,0,0:0:0:0:
182,192,54636,1,0,0:0:0:0:
329,192,54636,1,0,0:0:0:0:
109,192,54727,1,0,0:0:0:0:
402,192,54727,1,0,0:0:0:0:
475,192,54818,1,0,0:0:0:0:
36,192,54818,1,0,0:0:0:0:
109,192,54909,1,0,0:0:0:0:
402,192,54909,1,0,0:0:0:0:
182,192,55000,1,0,0:0:0:0:
329,192,55000,1,0,0:0:0:0:
109,192,55090,1,0,0:0:0:0:
256,192,55090,1,0,0:0:0:0:
36,192,55181,1,0,0:0:0:0:
475,192,55181,1,0,0:0:0:0:
109,192,55272,1,0,0:0:0:0:
402,192,55272,1,0,0:0:0:0:
182,192,55363,1,0,0:0:0:0:
329,192,55363,1,0,0:0:0:0:
256,192,55454,1,0,0:0:0:0:
402,192,55454,1,0,0:0:0:0:
36,192,55545,1,0,0:0:0:0:
475,192,55545,1,0,0:0:0:0:
109,192,55636,1,0,0:0:0:0:
402,192,55636,1,0,0:0:0:0:
182,192,55727,1,0,0:0:0:0:
329,192,55727,1,0,0:0:0:0:
109,192,55818,1,0,0:0:0:0:
402,192,55818,1,0,0:0:0:0:
475,192,55909,1,0,0:0:0:0:
36,192,55909,1,0,0:0:0:0:
109,192,56000,1,0,0:0:0:0:
402,192,56000,1,0,0:0:0:0:
182,192,56090,1,0,0:0:0:0:
329,192,56090,1,0,0:0:0:0:
256,192,56181,1,0,0:0:0:0:
36,192,56272,1,0,0:0:0:0:
109,192,56318,1,0,0:0:0:0:
182,192,56363,1,0,0:0:0:0:
256,192,56409,1,0,0:0:0:0:
475,192,56454,1,0,0:0:0:0:
402,192,56500,1,0,0:0:0:0:
329,192,56545,1,0,0:0:0:0:
256,192,56590,1,0,0:0:0:0:
36,192,56636,1,0,0:0:0:0:
109,192,56681,1,0,0:0:0:0:
182,192,56727,1,0,0:0:0:0:
256,192,56772,1,0,0:0:0:0:
475,192,56818,1,0,0:0:0:0:
402,192,56863,1,0,0:0:0:0:
329,192,56909,1,0,0:0:0:0:
256,192,56954,1,0,0:0:0:0:
36,192,57000,1,0,0:0:0:0:
109,192,57045,1,0,0:0:0:0:
182,192,57090,1,0,0:0:0:0:
256,192,57136,1,0,0:0:0:0:
329,192,57181,1,0,0:0:0:0:
402,192,57227,1,0,0:0:0:0:
475,192,57272,1,0,0:0:0:0:
36,192,57318,1,0,0:0:0:0:
109,192,57363,1,0,0:0:0:0:
182,192,57409,1,0,0:0:0:0:
256,192,57454,1,0,0:0:0:0:
329,192,57500,1,0,0:0:0:0:
402,192,57545,1,0,0:0:0:0:
475,192,57590,1,0,0:0:0:0:
109,192,57636,1,0,0:0:0:0:
182,192,57681,1,0,0:0:0:0:
256,192,57727,1,0,0:0:0:0:
402,192,57727,1,0,0:0:0:0:
36,192,57727,1,0,0:0:0:0:
256,192,57909,1,0,0:0:0:0:
329,192,57909,1,0,0:0:0:0:
402,192,58000,1,0,0:0:0:0:
475,192,58000,1,0,0:0:0:0:
36,192,58090,1,0,0:0:0:0:
182,192,58090,1,0,0:0:0:0:
36,192,58272,1,0,0:0:0:0:
256,192,58272,1,0,0:0:0:0:
475,192,58272,1,0,0:0:0:0:
36,192,58454,1,0,0:0:0:0:
329,192,58454,1,0,0:0:0:0:
475,192,58454,1,0,0:0:0:0:
36,192,58636,1,0,0:0:0:0:
402,192,58636,1,0,0:0:0:0:
182,192,58636,1,0,0:0:0:0:
109,192,58636,1,0,0:0:0:0:
182,192,58818,1,0,0:0:0:0:
329,192,58818,1,0,0:0:0:0:
402,192,58818,1,0,0:0:0:0:
475,192,58818,1,0,0:0:0:0:
109,192,58818,1,0,0:0:0:0:
36,192,58818,1,0,0:0:0:0:
36,192,59181,128,0,59454:0:0:0:0:
182,192,59181,1,0,0:0:0:0:
256,192,59181,1,0,0:0:0:0:
329,192,59181,1,0,0:0:0:0:
475,192,59181,128,0,59454:0:0:0:0:
256,192,59545,1,0,0:0:0:0:
36,192,59545,1,0,0:0:0:0:
475,192,59545,1,0,0:0:0:0:
109,192,59636,1,0,0:0:0:0:
329,192,59636,1,0,0:0:0:0:
182,192,59727,1,0,0:0:0:0:
402,192,59727,1,0,0:0:0:0:
36,192,59909,1,0,0:0:0:0:
256,192,59909,1,0,0:0:0:0:
402,192,59909,1,0,0:0:0:0:
109,192,60000,1,0,0:0:0:0:
182,192,60000,1,0,0:0:0:0:
36,192,60090,1,0,0:0:0:0:
329,192,60090,1,0,0:0:0:0:
182,192,60181,1,0,0:0:0:0:
475,192,60181,1,0,0:0:0:0:
109,192,60272,128,0,60454:0:0:0:0:
329,192,60272,128,0,60454:0:0:0:0:
256,192,60363,1,0,0:0:0:0:
182,192,60454,128,0,60636:0:0:0:0:
402,192,60454,128,0,60636:0:0:0:0:
256,192,60545,1,0,0:0:0:0:
475,192,60636,1,0,0:0:0:0:
329,192,60636,1,0,0:0:0:0:
36,192,60636,1,0,0:0:0:0:
109,192,60636,1,0,0:0:0:0:
475,192,60818,1,0,0:0:0:0:
182,192,60818,1,0,0:0:0:0:
36,192,60818,1,0,0:0:0:0:
256,192,60818,1,0,0:0:0:0:
109,192,61000,1,0,0:0:0:0:
256,192,61000,1,0,0:0:0:0:
402,192,61000,1,0,0:0:0:0:
182,192,61090,1,0,0:0:0:0:
329,192,61090,1,0,0:0:0:0:
109,192,61181,1,0,0:0:0:0:
256,192,61181,1,0,0:0:0:0:
402,192,61181,1,0,0:0:0:0:
36,192,61363,1,0,0:0:0:0:
182,192,61363,1,0,0:0:0:0:
329,192,61363,1,0,0:0:0:0:
109,192,61454,1,0,0:0:0:0:
256,192,61454,1,0,0:0:0:0:
329,192,61545,1,0,0:0:0:0:
182,192,61545,1,0,0:0:0:0:
36,192,61545,1,0,0:0:0:0:
109,192,61727,1,0,0:0:0:0:
475,192,61727,1,0,0:0:0:0:
402,192,61727,1,0,0:0:0:0:
256,192,61727,1,0,0:0:0:0:
329,192,61818,1,0,0:0:0:0:
182,192,61818,1,0,0:0:0:0:
475,192,61909,1,0,0:0:0:0:
109,192,61909,1,0,0:0:0:0:
402,192,61909,1,0,0:0:0:0:
256,192,61909,1,0,0:0:0:0:
329,192,62000,1,0,0:0:0:0:
182,192,62000,1,0,0:0:0:0:
109,192,62090,1,0,0:0:0:0:
36,192,62090,1,0,0:0:0:0:
402,192,62090,1,0,0:0:0:0:
475,192,62090,1,0,0:0:0:0:
256,192,62181,1,0,0:0:0:0:
329,192,62181,1,0,0:0:0:0:
182,192,62272,1,0,0:0:0:0:
109,192,62272,1,0,0:0:0:0:
329,192,62363,1,0,0:0:0:0:
402,192,62363,1,0,0:0:0:0:
36,192,62454,1,0,0:0:0:0:
109,192,62454,1,0,0:0:0:0:
256,192,62454,1,0,0:0:0:0:
182,192,62545,1,0,0:0:0:0:
329,192,62545,1,0,0:0:0:0:
256,192,62636,1,0,0:0:0:0:
402,192,62636,1,0,0:0:0:0:
109,192,62727,1,0,0:0:0:0:
36,192,62727,1,0,0:0:0:0:
182,192,62818,1,0,0:0:0:0:
329,192,62818,1,0,0:0:0:0:
475,192,62818,1,0,0:0:0:0:
109,192,62909,1,0,0:0:0:0:
256,192,62909,1,0,0:0:0:0:
402,192,62909,1,0,0:0:0:0:
329,192,63000,1,0,0:0:0:0:
182,192,63000,1,0,0:0:0:0:
36,192,63000,1,0,0:0:0:0:
36,192,63181,1,0,0:0:0:0:
329,192,63181,1,0,0:0:0:0:
475,192,63181,1,0,0:0:0:0:
256,192,63272,1,0,0:0:0:0:
402,192,63272,1,0,0:0:0:0:
109,192,63272,1,0,0:0:0:0:
36,192,63363,1,0,0:0:0:0:
329,192,63363,1,0,0:0:0:0:
182,192,63363,1,0,0:0:0:0:
256,192,63545,128,0,63818:0:0:0:0:
402,192,63545,128,0,63818:0:0:0:0:
475,192,63545,128,0,63818:0:0:0:0:
109,192,63545,1,0,0:0:0:0:
36,192,63727,1,0,0:0:0:0:
109,192,63727,1,0,0:0:0:0:
182,192,63818,1,0,0:0:0:0:
329,192,63818,1,0,0:0:0:0:
36,192,63909,128,0,64181:0:0:0:0:
109,192,63909,128,0,64181:0:0:0:0:
256,192,63909,128,0,64181:0:0:0:0:
402,192,63909,1,0,0:0:0:0:
402,192,64090,1,0,0:0:0:0:
475,192,64090,1,0,0:0:0:0:
182,192,64181,1,0,0:0:0:0:
329,192,64181,1,0,0:0:0:0:
36,192,64272,1,0,0:0:0:0:
109,192,64272,1,0,0:0:0:0:
402,192,64272,1,0,0:0:0:0:
475,192,64272,1,0,0:0:0:0:
256,192,64363,1,0,0:0:0:0:
109,192,64454,1,0,0:0:0:0:
36,192,64454,1,0,0:0:0:0:
402,192,64454,1,0,0:0:0:0:
475,192,64454,1,0,0:0:0:0:
182,192,64545,1,0,0:0:0:0:
329,192,64545,1,0,0:0:0:0:
36,192,64636,1,0,0:0:0:0:
109,192,64636,1,0,0:0:0:0:
256,192,64636,1,0,0:0:0:0:
402,192,64636,1,0,0:0:0:0:
475,192,64636,1,0,0:0:0:0:
256,192,64818,1,0,0:0:0:0:
36,192,65000,1,0,0:0:0:0:
109,192,65000,1,0,0:0:0:0:
182,192,65000,1,0,0:0:0:0:
329,192,65000,1,0,0:0:0:0:
402,192,65000,1,0,0:0:0:0:
475,192,65000,1,0,0:0:0:0:
36,192,65363,1,0,0:0:0:0:
182,192,65363,1,0,0:0:0:0:
256,192,65363,1,0,0:0:0:0:
402,192,65363,1,0,0:0:0:0:
109,192,65545,1,0,0:0:0:0:
329,192,65545,1,0,0:0:0:0:
182,192,65636,1,0,0:0:0:0:
402,192,65636,1,0,0:0:0:0:
36,192,65727,1,0,0:0:0:0:
256,192,65727,1,0,0:0:0:0:
475,192,65727,1,0,0:0:0:0:
182,192,65818,1,0,0:0:0:0:
402,192,65818,1,0,0:0:0:0:
109,192,65909,1,0,0:0:0:0:
329,192,65909,1,0,0:0:0:0:
36,192,66090,128,0,66181:0:0:0:0:
256,192,66090,128,0,66181:0:0:0:0:
475,192,66090,128,0,66181:0:0:0:0:
475,192,66272,1,0,0:0:0:0:
256,192,66272,1,0,0:0:0:0:
36,192,66272,1,0,0:0:0:0:
475,192,66454,1,0,0:0:0:0:
256,192,66454,1,0,0:0:0:0:
329,192,66454,1,0,0:0:0:0:
109,192,66454,1,0,0:0:0:0:
182,192,66636,1,0,0:0:0:0:
402,192,66636,1,0,0:0:0:0:
329,192,66727,1,0,0:0:0:0:
109,192,66727,1,0,0:0:0:0:
256,192,66818,1,0,0:0:0:0:
475,192,66818,1,0,0:0:0:0:
36,192,66818,1,0,0:0:0:0:
109,192,66909,1,0,0:0:0:0:
329,192,66909,1,0,0:0:0:0:
402,192,67000,1,0,0:0:0:0:
182,192,67000,1,0,0:0:0:0:
36,192,67181,128,0,67272:0:0:0:0:
109,192,67181,128,0,67272:0:0:0:0:
256,192,67181,128,0,67272:0:0:0:0:
256,192,67363,1,0,0:0:0:0:
402,192,67363,1,0,0:0:0:0:
475,192,67363,1,0,0:0:0:0:
36,192,67545,128,0,67636:0:0:0:0:
182,192,67545,128,0,67636:0:0:0:0:
329,192,67545,128,0,67636:0:0:0:0:
475,192,67545,128,0,67636:0:0:0:0:
329,192,67727,128,0,67818:0:0:0:0:
475,192,67727,128,0,67818:0:0:0:0:
182,192,67727,128,0,67818:0:0:0:0:
36,192,67727,128,0,67818:0:0:0:0:
109,192,67909,1,0,0:0:0:0:
36,192,67909,1,0,0:0:0:0:
256,192,67909,1,0,0:0:0:0:
402,192,67909,1,0,0:0:0:0:
475,192,67909,1,0,0:0:0:0:
182,192,68000,1,0,0:0:0:0:
329,192,68090,1,0,0:0:0:0:
402,192,68090,1,0,0:0:0:0:
256,192,68181,1,0,0:0:0:0:
182,192,68181,1,0,0:0:0:0:
109,192,68272,1,0,0:0:0:0:
36,192,68272,1,0,0:0:0:0:
329,192,68272,1,0,0:0:0:0:
475,192,68272,1,0,0:0:0:0:
182,192,68363,1,0,0:0:0:0:
402,192,68454,1,0,0:0:0:0:
475,192,68454,1,0,0:0:0:0:
329,192,68545,1,0,0:0:0:0:
256,192,68545,1,0,0:0:0:0:
182,192,68636,1,0,0:0:0:0:
109,192,68636,1,0,0:0:0:0:
36,192,68636,1,0,0:0:0:0:
475,192,68636,1,0,0:0:0:0:
329,192,68727,1,0,0:0:0:0:
36,192,68818,1,0,0:0:0:0:
182,192,68818,1,0,0:0:0:0:
475,192,68818,1,0,0:0:0:0:
256,192,68909,1,0,0:0:0:0:
109,192,69000,1,0,0:0:0:0:
36,192,69000,1,0,0:0:0:0:
329,192,69000,1,0,0:0:0:0:
402,192,69000,1,0,0:0:0:0:
329,192,69181,128,0,69363:0:0:0:0:
402,192,69181,128,0,69363:0:0:0:0:
475,192,69363,1,0,0:0:0:0:
182,192,69363,1,0,0:0:0:0:
36,192,69363,1,0,0:0:0:0:
329,192,69454,1,0,0:0:0:0:
182,192,69545,1,0,0:0:0:0:
329,192,69636,1,0,0:0:0:0:
182,192,69727,1,0,0:0:0:0:
109,192,69727,1,0,0:0:0:0:
329,192,69818,1,0,0:0:0:0:
402,192,69818,1,0,0:0:0:0:
182,192,69909,1,0,0:0:0:0:
109,192,69909,1,0,0:0:0:0:
329,192,70000,1,0,0:0:0:0:
402,192,70000,1,0,0:0:0:0:
109,192,70090,1,0,0:0:0:0:
182,192,70136,1,0,0:0:0:0:
256,192,70181,1,0,0:0:0:0:
329,192,70227,1,0,0:0:0:0:
402,192,70272,1,0,0:0:0:0:
109,192,70318,1,0,0:0:0:0:
182,192,70363,1,0,0:0:0:0:
256,192,70409,1,0,0:0:0:0:
329,192,70454,1,0,0:0:0:0:
475,192,70454,1,0,0:0:0:0:
36,192,70454,1,0,0:0:0:0:
109,192,70454,1,0,0:0:0:0:
36,192,70636,1,0,0:0:0:0:
475,192,70636,1,0,0:0:0:0:
402,192,70636,1,0,0:0:0:0:
182,192,70636,1,0,0:0:0:0:
329,192,70727,1,0,0:0:0:0:
256,192,70818,1,0,0:0:0:0:
256,192,70909,1,0,0:0:0:0:
402,192,71000,128,0,71181:0:0:0:0:
36,192,71181,1,0,0:0:0:0:
109,192,71181,1,0,0:0:0:0:
182,192,71181,1,0,0:0:0:0:
329,192,71181,1,0,0:0:0:0:
475,192,71181,1,0,0:0:0:0:
256,192,71272,1,0,0:0:0:0:
402,192,71272,1,0,0:0:0:0:
329,192,71363,1,0,0:0:0:0:
475,192,71363,1,0,0:0:0:0:
182,192,71454,1,0,0:0:0:0:
109,192,71545,1,0,0:0:0:0:
36,192,71545,1,0,0:0:0:0:
475,192,71545,1,0,0:0:0:0:
402,192,71636,1,0,0:0:0:0:
182,192,71636,1,0,0:0:0:0:
256,192,71727,1,0,0:0:0:0:
329,192,71727,1,0,0:0:0:0:
402,192,71818,1,0,0:0:0:0:
475,192,71818,1,0,0:0:0:0:
109,192,71909,1,0,0:0:0:0:
36,192,71909,1,0,0:0:0:0:
182,192,71909,1,0,0:0:0:0:
256,192,72000,1,0,0:0:0:0:
475,192,72000,1,0,0:0:0:0:
402,192,72090,1,0,0:0:0:0:
182,192,72090,1,0,0:0:0:0:
329,192,72181,1,0,0:0:0:0:
109,192,72181,1,0,0:0:0:0:
36,192,72272,1,0,0:0:0:0:
256,192,72272,1,0,0:0:0:0:
402,192,72272,1,0,0:0:0:0:
475,192,72272,1,0,0:0:0:0:
256,192,72454,1,0,0:0:0:0:
402,192,72454,1,0,0:0:0:0:
36,192,72454,1,0,0:0:0:0:
109,192,72636,1,0,0:0:0:0:
36,192,72636,1,0,0:0:0:0:
256,192,72636,1,0,0:0:0:0:
475,192,72636,1,0,0:0:0:0:
109,192,72818,1,0,0:0:0:0:
256,192,72818,1,0,0:0:0:0:
475,192,72818,1,0,0:0:0:0:
36,192,73000,128,0,73090:0:0:0:0:
182,192,73000,128,0,73090:0:0:0:0:
329,192,73000,128,0,73090:0:0:0:0:
182,192,73181,1,0,0:0:0:0:
329,192,73181,1,0,0:0:0:0:
475,192,73181,1,0,0:0:0:0:
36,192,73363,1,0,0:0:0:0:
109,192,73363,1,0,0:0:0:0:
402,192,73363,1,0,0:0:0:0:
475,192,73363,1,0,0:0:0:0:
182,192,73454,1,0,0:0:0:0:
36,192,73545,1,0,0:0:0:0:
109,192,73545,1,0,0:0:0:0:
475,192,73545,1,0,0:0:0:0:
402,192,73545,1,0,0:0:0:0:
329,192,73636,1,0,0:0:0:0:
256,192,73727,1,0,0:0:0:0:
109,192,73727,1,0,0:0:0:0:
36,192,73727,1,0,0:0:0:0:
475,192,73727,1,0,0:0:0:0:
182,192,73818,1,0,0:0:0:0:
402,192,73818,1,0,0:0:0:0:
329,192,73909,1,0,0:0:0:0:
109,192,73909,1,0,0:0:0:0:
36,192,74000,1,0,0:0:0:0:
256,192,74000,1,0,0:0:0:0:
182,192,74090,1,0,0:0:0:0:
402,192,74090,1,0,0:0:0:0:
475,192,74090,1,0,0:0:0:0:
109,192,74181,1,0,0:0:0:0:
256,192,74181,1,0,0:0:0:0:
182,192,74272,1,0,0:0:0:0:
329,192,74272,1,0,0:0:0:0:
256,192,74363,1,0,0:0:0:0:
402,192,74363,1,0,0:0:0:0:
329,192,74454,1,0,0:0:0:0:
109,192,74454,1,0,0:0:0:0:
36,192,74454,1,0,0:0:0:0:
182,192,74545,1,0,0:0:0:0:
256,192,74545,1,0,0:0:0:0:
109,192,74636,1,0,0:0:0:0:
36,192,74636,1,0,0:0:0:0:
329,192,74727,1,0,0:0:0:0:
182,192,74818,1,0,0:0:0:0:
402,192,74818,1,0,0:0:0:0:
475,192,74818,1,0,0:0:0:0:
256,192,74909,1,0,0:0:0:0:
329,192,75000,1,0,0:0:0:0:
109,192,75000,1,0,0:0:0:0:
36,192,75000,1,0,0:0:0:0:
256,192,75090,1,0,0:0:0:0:
182,192,75181,1,0,0:0:0:0:
36,192,75181,1,0,0:0:0:0:
402,192,75181,1,0,0:0:0:0:
475,192,75181,1,0,0:0:0:0:
36,192,75454,1,0,0:0:0:0:
182,192,75454,1,0,0:0:0:0:
402,192,75454,1,0,0:0:0:0:
475,192,75454,1,0,0:0:0:0:
36,192,75727,1,0,0:0:0:0:
182,192,75727,1,0,0:0:0:0:
402,192,75727,1,0,0:0:0:0:
475,192,75727,1,0,0:0:0:0:
36,192,76000,1,0,0:0:0:0:
109,192,76000,1,0,0:0:0:0:
329,192,76000,1,0,0:0:0:0:
475,192,76000,1,0,0:0:0:0:
109,192,76272,1,0,0:0:0:0:
182,192,76272,1,0,0:0:0:0:
402,192,76272,1,0,0:0:0:0:
475,192,76272,1,0,0:0:0:0:
109,192,76454,1,0,0:0:0:0:
182,192,76454,1,0,0:0:0:0:
402,192,76454,1,0,0:0:0:0:
475,192,76454,1,0,0:0:0:0:
109,192,76636,1,0,0:0:0:0:
182,192,76636,1,0,0:0:0:0:
402,192,76636,1,0,0:0:0:0:
475,192,76636,1,0,0:0:0:0:
36,192,76636,1,0,0:0:0:0:
36,192,77000,1,0,0:0:0:0:
182,192,77000,1,0,0:0:0:0:
256,192,77000,1,0,0:0:0:0:
402,192,77000,1,0,0:0:0:0:
109,192,77181,1,0,0:0:0:0:
329,192,77181,1,0,0:0:0:0:
182,192,77272,1,0,0:0:0:0:
402,192,77272,1,0,0:0:0:0:
36,192,77363,1,0,0:0:0:0:
256,192,77363,1,0,0:0:0:0:
475,192,77363,1,0,0:0:0:0:
182,192,77454,1,0,0:0:0:0:
402,192,77454,1,0,0:0:0:0:
109,192,77545,1,0,0:0:0:0:
329,192,77545,1,0,0:0:0:0:
36,192,77727,128,0,77818:0:0:0:0:
256,192,77727,128,0,77818:0:0:0:0:
475,192,77727,128,0,77818:0:0:0:0:
475,192,77909,1,0,0:0:0:0:
256,192,77909,1,0,0:0:0:0:
36,192,77909,1,0,0:0:0:0:
475,192,78090,1,0,0:0:0:0:
256,192,78090,1,0,0:0:0:0:
329,192,78090,1,0,0:0:0:0:
109,192,78090,1,0,0:0:0:0:
182,192,78272,1,0,0:0:0:0:
402,192,78272,1,0,0:0:0:0:
329,192,78363,1,0,0:0:0:0:
109,192,78363,1,0,0:0:0:0:
256,192,78454,1,0,0:0:0:0:
475,192,78454,1,0,0:0:0:0:
36,192,78454,1,0,0:0:0:0:
109,192,78545,1,0,0:0:0:0:
329,192,78545,1,0,0:0:0:0:
402,192,78636,1,0,0:0:0:0:
182,192,78636,1,0,0:0:0:0:
36,192,78818,128,0,78909:0:0:0:0:
256,192,78818,128,0,78909:0:0:0:0:
329,192,78818,128,0,78909:0:0:0:0:
256,192,79000,1,0,0:0:0:0:
182,192,79000,1,0,0:0:0:0:
475,192,79000,1,0,0:0:0:0:
109,192,79181,1,0,0:0:0:0:
36,192,79181,1,0,0:0:0:0:
329,192,79181,1,0,0:0:0:0:
475,192,79181,1,0,0:0:0:0:
402,192,79181,1,0,0:0:0:0:
109,192,79363,1,0,0:0:0:0:
329,192,79363,1,0,0:0:0:0:
402,192,79363,1,0,0:0:0:0:
182,192,79545,1,0,0:0:0:0:
256,192,79545,1,0,0:0:0:0:
36,192,79545,1,0,0:0:0:0:
475,192,79545,1,0,0:0:0:0:
402,192,79727,1,0,0:0:0:0:
475,192,79727,1,0,0:0:0:0:
36,192,79772,1,0,0:0:0:0:
109,192,79772,1,0,0:0:0:0:
182,192,79818,1,0,0:0:0:0:
256,192,79818,1,0,0:0:0:0:
329,192,79863,1,0,0:0:0:0:
402,192,79863,1,0,0:0:0:0:
109,192,79909,1,0,0:0:0:0:
36,192,79909,1,0,0:0:0:0:
475,192,79909,1,0,0:0:0:0:
36,192,80090,1,0,0:0:0:0:
109,192,80090,1,0,0:0:0:0:
475,192,80136,1,0,0:0:0:0:
402,192,80136,1,0,0:0:0:0:
329,192,80181,1,0,0:0:0:0:
256,192,80181,1,0,0:0:0:0:
109,192,80227,1,0,0:0:0:0:
182,192,80227,1,0,0:0:0:0:
475,192,80272,1,0,0:0:0:0:
402,192,80272,1,0,0:0:0:0:
36,192,80272,1,0,0:0:0:0:
109,192,80454,1,0,0:0:0:0:
182,192,80454,1,0,0:0:0:0:
402,192,80454,1,0,0:0:0:0:
475,192,80454,1,0,0:0:0:0:
329,192,80545,1,0,0:0:0:0:
256,192,80545,1,0,0:0:0:0:
182,192,80636,1,0,0:0:0:0:
109,192,80636,1,0,0:0:0:0:
402,192,80636,1,0,0:0:0:0:
475,192,80636,1,0,0:0:0:0:
36,192,80818,128,0,81000:0:0:0:0:
256,192,80818,128,0,81000:0:0:0:0:
402,192,80818,128,0,81000:0:0:0:0:
475,192,81000,1,0,0:0:0:0:
329,192,81000,1,0,0:0:0:0:
182,192,81000,1,0,0:0:0:0:
109,192,81000,1,0,0:0:0:0:
256,192,81181,1,0,0:0:0:0:
402,192,81181,1,0,0:0:0:0:
109,192,81272,1,0,0:0:0:0:
475,192,81272,1,0,0:0:0:0:
329,192,81363,1,0,0:0:0:0:
182,192,81363,1,0,0:0:0:0:
109,192,81454,1,0,0:0:0:0:
36,192,81454,1,0,0:0:0:0:
256,192,81545,1,0,0:0:0:0:
402,192,81545,1,0,0:0:0:0:
182,192,81636,1,0,0:0:0:0:
109,192,81636,1,0,0:0:0:0:
475,192,81727,1,0,0:0:0:0:
402,192,81772,1,0,0:0:0:0:
329,192,81818,1,0,0:0:0:0:
256,192,81863,1,0,0:0:0:0:
36,192,81909,1,0,0:0:0:0:
109,192,81954,1,0,0:0:0:0:
182,192,82000,1,0,0:0:0:0:
256,192,82045,1,0,0:0:0:0:
329,192,82090,1,0,0:0:0:0:
402,192,82090,1,0,0:0:0:0:
475,192,82090,1,0,0:0:0:0:
36,192,82090,1,0,0:0:0:0:
109,192,82272,1,0,0:0:0:0:
182,192,82272,1,0,0:0:0:0:
329,192,82272,1,0,0:0:0:0:
36,192,82454,1,0,0:0:0:0:
475,192,82454,1,0,0:0:0:0:
256,192,82454,128,0,87909:0:0:0:0:
36,192,82636,1,0,0:0:0:0:
475,192,82636,1,0,0:0:0:0:
475,192,82818,1,0,0:0:0:0:
36,192,82818,1,0,0:0:0:0:
36,192,83000,1,0,0:0:0:0:
475,192,83000,1,0,0:0:0:0:
36,192,83181,1,0,0:0:0:0:
475,192,83181,1,0,0:0:0:0:
475,192,83363,1,0,0:0:0:0:
36,192,83363,1,0,0:0:0:0:
36,192,83545,1,0,0:0:0:0:
475,192,83545,1,0,0:0:0:0:
475,192,83727,1,0,0:0:0:0:
36,192,83727,1,0,0:0:0:0:
182,192,83909,1,0,0:0:0:0:
329,192,83909,1,0,0:0:0:0:
182,192,84090,1,0,0:0:0:0:
329,192,84090,1,0,0:0:0:0:
329,192,84272,1,0,0:0:0:0:
182,192,84272,1,0,0:0:0:0:
182,192,84454,1,0,0:0:0:0:
329,192,84454,1,0,0:0:0:0:
329,192,84636,1,0,0:0:0:0:
182,192,84636,1,0,0:0:0:0:
182,192,84818,1,0,0:0:0:0:
329,192,84818,1,0,0:0:0:0:
329,192,85000,1,0,0:0:0:0:
182,192,85000,1,0,0:0:0:0:
182,192,85181,1,0,0:0:0:0:
329,192,85181,1,0,0:0:0:0:
402,192,85363,1,0,0:0:0:0:
109,192,85363,1,0,0:0:0:0:
109,192,85545,1,0,0:0:0:0:
402,192,85545,1,0,0:0:0:0:
402,192,85727,1,0,0:0:0:0:
109,192,85727,1,0,0:0:0:0:
109,192,85909,1,0,0:0:0:0:
402,192,85909,1,0,0:0:0:0:
402,192,86090,1,0,0:0:0:0:
109,192,86090,1,0,0:0:0:0:
109,192,86272,1,0,0:0:0:0:
402,192,86272,1,0,0:0:0:0:
402,192,86454,1,0,0:0:0:0:
109,192,86454,1,0,0:0:0:0:
109,192,86636,1,0,0:0:0:0:
402,192,86636,1,0,0:0:0:0:
36,192,86818,1,0,0:0:0:0:
475,192,86818,1,0,0:0:0:0:
36,192,87000,1,0,0:0:0:0:
475,192,87000,1,0,0:0:0:0:
36,192,87181,1,0,0:0:0:0:
475,192,87181,1,0,0:0:0:0:
36,192,87363,1,0,0:0:0:0:
475,192,87363,1,0,0:0:0:0:
36,192,87545,1,0,0:0:0:0:
475,192,87545,1,0,0:0:0:0:
36,192,87727,1,0,0:0:0:0:
475,192,87727,1,0,0:0:0:0:
36,192,87909,1,0,0:0:0:0:
475,192,87909,1,0,0:0:0:0:
36,192,88272,1,0,0:0:0:0:
256,192,88272,1,0,0:0:0:0:
109,192,88363,1,0,0:0:0:0:
329,192,88363,1,0,0:0:0:0:
182,192,88454,1,0,0:0:0:0:
402,192,88454,1,0,0:0:0:0:
256,192,88545,1,0,0:0:0:0:
475,192,88545,1,0,0:0:0:0:
402,192,88636,1,0,0:0:0:0:
182,192,88636,1,0,0:0:0:0:
109,192,88727,1,0,0:0:0:0:
329,192,88727,1,0,0:0:0:0:
256,192,88818,1,0,0:0:0:0:
36,192,88818,1,0,0:0:0:0:
109,192,88909,1,0,0:0:0:0:
329,192,88909,1,0,0:0:0:0:
182,192,89000,1,0,0:0:0:0:
402,192,89000,1,0,0:0:0:0:
256,192,89090,1,0,0:0:0:0:
329,192,89090,1,0,0:0:0:0:
109,192,89181,1,0,0:0:0:0:
475,192,89181,1,0,0:0:0:0:
182,192,89272,1,0,0:0:0:0:
256,192,89272,1,0,0:0:0:0:
36,192,89363,1,0,0:0:0:0:
402,192,89363,1,0,0:0:0:0:
109,192,89454,1,0,0:0:0:0:
182,192,89454,1,0,0:0:0:0:
256,192,89545,1,0,0:0:0:0:
329,192,89545,1,0,0:0:0:0:
109,192,89636,1,0,0:0:0:0:
475,192,89636,1,0,0:0:0:0:
329,192,89727,1,0,0:0:0:0:
402,192,89727,1,0,0:0:0:0:
36,192,89818,1,0,0:0:0:0:
182,192,89818,1,0,0:0:0:0:
402,192,89909,1,0,0:0:0:0:
475,192,89909,1,0,0:0:0:0:
109,192,90000,1,0,0:0:0:0:
256,192,90000,1,0,0:0:0:0:
36,192,90090,1,0,0:0:0:0:
402,192,90090,1,0,0:0:0:0:
182,192,90181,1,0,0:0:0:0:
329,192,90181,1,0,0:0:0:0:
109,192,90272,1,0,0:0:0:0:
475,192,90272,1,0,0:0:0:0:
256,192,90363,1,0,0:0:0:0:
402,192,90363,1,0,0:0:0:0:
36,192,90454,1,0,0:0:0:0:
475,192,90454,1,0,0:0:0:0:
182,192,90545,1,0,0:0:0:0:
329,192,90545,1,0,0:0:0:0:
36,192,90636,1,0,0:0:0:0:
402,192,90636,1,0,0:0:0:0:
109,192,90727,1,0,0:0:0:0:
256,192,90727,1,0,0:0:0:0:
329,192,90818,1,0,0:0:0:0:
475,192,90818,1,0,0:0:0:0:
182,192,90909,1,0,0:0:0:0:
36,192,90909,1,0,0:0:0:0:
329,192,91000,1,0,0:0:0:0:
475,192,91000,1,0,0:0:0:0:
182,192,91090,1,0,0:0:0:0:
36,192,91090,1,0,0:0:0:0:
475,192,91181,1,0,0:0:0:0:
402,192,91227,1,0,0:0:0:0:
329,192,91272,1,0,0:0:0:0:
256,192,91318,1,0,0:0:0:0:
182,192,91363,1,0,0:0:0:0:
109,192,91409,1,0,0:0:0:0:
36,192,91454,1,0,0:0:0:0:
475,192,91500,1,0,0:0:0:0:
402,192,91545,1,0,0:0:0:0:
329,192,91590,1,0,0:0:0:0:
256,192,91636,1,0,0:0:0:0:
36,192,91681,1,0,0:0:0:0:
109,192,91727,1,0,0:0:0:0:
182,192,91772,1,0,0:0:0:0:
256,192,91818,1,0,0:0:0:0:
329,192,91863,1,0,0:0:0:0:
402,192,91909,1,0,0:0:0:0:
475,192,91954,1,0,0:0:0:0:
36,192,92000,1,0,0:0:0:0:
109,192,92045,1,0,0:0:0:0:
182,192,92090,1,0,0:0:0:0:
256,192,92136,1,0,0:0:0:0:
475,192,92181,1,0,0:0:0:0:
402,192,92227,1,0,0:0:0:0:
329,192,92272,1,0,0:0:0:0:
256,192,92318,1,0,0:0:0:0:
182,192,92363,1,0,0:0:0:0:
109,192,92409,1,0,0:0:0:0:
36,192,92454,1,0,0:0:0:0:
475,192,92500,1,0,0:0:0:0:
402,192,92545,1,0,0:0:0:0:
329,192,92590,1,0,0:0:0:0:
256,192,92636,1,0,0:0:0:0:
182,192,92636,1,0,0:0:0:0:
109,192,92636,1,0,0:0:0:0:
36,192,92636,1,0,0:0:0:0:
256,192,92818,1,0,0:0:0:0:
256,192,93000,128,0,93090:0:0:0:0:
256,192,93181,128,0,93272:0:0:0:0:
256,192,93363,128,0,93454:0:0:0:0:
256,192,93545,1,0,0:0:0:0:
36,192,93545,1,0,0:0:0:0:
475,192,93545,1,0,0:0:0:0:
182,192,93727,1,0,0:0:0:0:
109,192,93727,1,0,0:0:0:0:
36,192,93727,1,0,0:0:0:0:
329,192,93727,1,0,0:0:0:0:
402,192,93727,1,0,0:0:0:0:
475,192,93727,1,0,0:0:0:0:
36,192,94090,128,0,94363:0:0:0:0:
475,192,94090,128,0,94363:0:0:0:0:
182,192,94090,1,0,0:0:0:0:
329,192,94090,1,0,0:0:0:0:
256,192,94090,1,0,0:0:0:0:
109,192,94454,1,0,0:0:0:0:
36,192,94454,1,0,0:0:0:0:
256,192,94454,1,0,0:0:0:0:
475,192,94454,1,0,0:0:0:0:
182,192,94545,1,0,0:0:0:0:
402,192,94545,1,0,0:0:0:0:
329,192,94636,1,0,0:0:0:0:
109,192,94636,1,0,0:0:0:0:
182,192,94727,1,0,0:0:0:0:
402,192,94727,1,0,0:0:0:0:
36,192,94818,1,0,0:0:0:0:
256,192,94818,1,0,0:0:0:0:
475,192,94818,1,0,0:0:0:0:
182,192,94909,1,0,0:0:0:0:
329,192,94909,1,0,0:0:0:0:
109,192,95000,1,0,0:0:0:0:
402,192,95000,1,0,0:0:0:0:
329,192,95090,1,0,0:0:0:0:
182,192,95090,1,0,0:0:0:0:
109,192,95181,1,0,0:0:0:0:
36,192,95181,1,0,0:0:0:0:
256,192,95181,1,0,0:0:0:0:
182,192,95272,1,0,0:0:0:0:
329,192,95272,1,0,0:0:0:0:
256,192,95363,1,0,0:0:0:0:
402,192,95363,1,0,0:0:0:0:
329,192,95454,1,0,0:0:0:0:
475,192,95454,1,0,0:0:0:0:
402,192,95545,1,0,0:0:0:0:
36,192,95545,1,0,0:0:0:0:
109,192,95545,1,0,0:0:0:0:
256,192,95636,1,0,0:0:0:0:
182,192,95636,1,0,0:0:0:0:
109,192,95727,1,0,0:0:0:0:
36,192,95727,1,0,0:0:0:0:
402,192,95727,1,0,0:0:0:0:
182,192,95818,1,0,0:0:0:0:
256,192,95818,1,0,0:0:0:0:
329,192,95909,1,0,0:0:0:0:
475,192,95909,1,0,0:0:0:0:
36,192,95909,1,0,0:0:0:0:
109,192,96000,1,0,0:0:0:0:
256,192,96000,1,0,0:0:0:0:
182,192,96090,1,0,0:0:0:0:
402,192,96090,1,0,0:0:0:0:
256,192,96181,1,0,0:0:0:0:
475,192,96181,1,0,0:0:0:0:
329,192,96272,1,0,0:0:0:0:
109,192,96272,1,0,0:0:0:0:
36,192,96272,1,0,0:0:0:0:
182,192,96363,1,0,0:0:0:0:
402,192,96363,1,0,0:0:0:0:
475,192,96454,1,0,0:0:0:0:
256,192,96454,1,0,0:0:0:0:
402,192,96545,1,0,0:0:0:0:
182,192,96545,1,0,0:0:0:0:
109,192,96636,1,0,0:0:0:0:
329,192,96636,1,0,0:0:0:0:
36,192,96636,1,0,0:0:0:0:
256,192,96727,1,0,0:0:0:0:
182,192,96727,1,0,0:0:0:0:
109,192,96818,1,0,0:0:0:0:
36,192,96818,1,0,0:0:0:0:
329,192,96818,1,0,0:0:0:0:
182,192,96909,1,0,0:0:0:0:
256,192,96909,1,0,0:0:0:0:
329,192,97000,1,0,0:0:0:0:
475,192,97000,1,0,0:0:0:0:
402,192,97000,1,0,0:0:0:0:
256,192,97090,1,0,0:0:0:0:
36,192,97090,1,0,0:0:0:0:
109,192,97181,1,0,0:0:0:0:
329,192,97181,1,0,0:0:0:0:
182,192,97272,1,0,0:0:0:0:
402,192,97272,1,0,0:0:0:0:
109,192,97363,1,0,0:0:0:0:
36,192,97363,1,0,0:0:0:0:
329,192,97363,1,0,0:0:0:0:
256,192,97454,1,0,0:0:0:0:
475,192,97454,1,0,0:0:0:0:
109,192,97545,1,0,0:0:0:0:
329,192,97545,1,0,0:0:0:0:
182,192,97636,1,0,0:0:0:0:
402,192,97636,1,0,0:0:0:0:
36,192,97727,1,0,0:0:0:0:
256,192,97727,1,0,0:0:0:0:
475,192,97727,1,0,0:0:0:0:
109,192,97818,1,0,0:0:0:0:
329,192,97818,1,0,0:0:0:0:
182,192,97909,1,0,0:0:0:0:
402,192,97909,1,0,0:0:0:0:
329,192,98000,1,0,0:0:0:0:
109,192,98000,1,0,0:0:0:0:
36,192,98090,1,0,0:0:0:0:
256,192,98090,1,0,0:0:0:0:
475,192,98090,1,0,0:0:0:0:
182,192,98181,1,0,0:0:0:0:
402,192,98181,1,0,0:0:0:0:
329,192,98272,1,0,0:0:0:0:
109,192,98272,1,0,0:0:0:0:
36,192,98363,1,0,0:0:0:0:
256,192,98363,1,0,0:0:0:0:
182,192,98454,1,0,0:0:0:0:
402,192,98454,1,0,0:0:0:0:
475,192,98454,1,0,0:0:0:0:
256,192,98545,1,0,0:0:0:0:
329,192,98545,1,0,0:0:0:0:
109,192,98636,1,0,0:0:0:0:
36,192,98636,1,0,0:0:0:0:
182,192,98727,1,0,0:0:0:0:
256,192,98727,1,0,0:0:0:0:
329,192,98818,1,0,0:0:0:0:
402,192,98818,1,0,0:0:0:0:
475,192,98818,1,0,0:0:0:0:
109,192,98909,1,0,0:0:0:0:
36,192,98909,1,0,0:0:0:0:
182,192,99000,1,0,0:0:0:0:
256,192,99000,1,0,0:0:0:0:
329,192,99090,1,0,0:0:0:0:
402,192,99090,1,0,0:0:0:0:
182,192,99181,1,0,0:0:0:0:
109,192,99181,1,0,0:0:0:0:
36,192,99181,1,0,0:0:0:0:
256,192,99272,1,0,0:0:0:0:
329,192,99363,1,0,0:0:0:0:
402,192,99363,1,0,0:0:0:0:
475,192,99363,1,0,0:0:0:0:
182,192,99454,1,0,0:0:0:0:
109,192,99545,1,0,0:0:0:0:
36,192,99545,1,0,0:0:0:0:
402,192,99545,1,0,0:0:0:0:
475,192,99545,1,0,0:0:0:0:
182,192,99727,1,0,0:0:0:0:
329,192,99727,1,0,0:0:0:0:
36,192,99909,1,0,0:0:0:0:
256,192,99909,1,0,0:0:0:0:
475,192,99909,1,0,0:0:0:0:
109,192,99909,128,0,100181:0:0:0:0:
402,192,99909,128,0,100181:0:0:0:0:
36,192,100272,1,0,0:0:0:0:
109,192,100272,1,0,0:0:0:0:
329,192,100272,1,0,0:0:0:0:
475,192,100272,1,0,0:0:0:0:
329,192,100393,1,0,0:0:0:0:
475,192,100393,1,0,0:0:0:0:
182,192,100393,1,0,0:0:0:0:
329,192,100515,1,0,0:0:0:0:
475,192,100515,1,0,0:0:0:0:
256,192,100515,1,0,0:0:0:0:
402,192,100636,1,0,0:0:0:0:
182,192,100636,1,0,0:0:0:0:
36,192,100636,1,0,0:0:0:0:
329,192,100757,1,0,0:0:0:0:
182,192,100757,1,0,0:0:0:0:
36,192,100757,1,0,0:0:0:0:
256,192,100878,1,0,0:0:0:0:
36,192,100878,1,0,0:0:0:0:
182,192,100878,1,0,0:0:0:0:
109,192,101000,1,0,0:0:0:0:
402,192,101000,1,0,0:0:0:0:
475,192,101000,1,0,0:0:0:0:
36,192,101000,1,0,0:0:0:0:
182,192,101121,1,0,0:0:0:0:
475,192,101121,1,0,0:0:0:0:
402,192,101121,1,0,0:0:0:0:
256,192,101242,1,0,0:0:0:0:
402,192,101242,1,0,0:0:0:0:
475,192,101242,1,0,0:0:0:0:
109,192,101363,1,0,0:0:0:0:
36,192,101363,1,0,0:0:0:0:
329,192,101363,1,0,0:0:0:0:
475,192,101363,1,0,0:0:0:0:
36,192,101484,1,0,0:0:0:0:
109,192,101484,1,0,0:0:0:0:
256,192,101484,1,0,0:0:0:0:
109,192,101606,1,0,0:0:0:0:
36,192,101606,1,0,0:0:0:0:
182,192,101606,1,0,0:0:0:0:
329,192,101727,1,0,0:0:0:0:
402,192,101727,1,0,0:0:0:0:
475,192,101727,1,0,0:0:0:0:
329,192,101848,1,0,0:0:0:0:
402,192,101848,1,0,0:0:0:0:
475,192,101848,1,0,0:0:0:0:
329,192,101969,1,0,0:0:0:0:
402,192,101969,1,0,0:0:0:0:
475,192,101969,1,0,0:0:0:0:
182,192,102090,1,0,0:0:0:0:
109,192,102090,1,0,0:0:0:0:
36,192,102090,1,0,0:0:0:0:
36,192,102212,1,0,0:0:0:0:
109,192,102212,1,0,0:0:0:0:
182,192,102212,1,0,0:0:0:0:
182,192,102333,1,0,0:0:0:0:
109,192,102333,1,0,0:0:0:0:
36,192,102333,1,0,0:0:0:0:
182,192,102454,1,0,0:0:0:0:
256,192,102454,1,0,0:0:0:0:
329,192,102454,1,0,0:0:0:0:
182,192,102575,1,0,0:0:0:0:
256,192,102575,1,0,0:0:0:0:
329,192,102575,1,0,0:0:0:0:
329,192,102696,1,0,0:0:0:0:
256,192,102696,1,0,0:0:0:0:
182,192,102696,1,0,0:0:0:0:
109,192,102818,1,0,0:0:0:0:
36,192,102818,1,0,0:0:0:0:
402,192,102818,1,0,0:0:0:0:
475,192,102818,1,0,0:0:0:0:
256,192,102909,1,0,0:0:0:0:
109,192,103000,1,0,0:0:0:0:
36,192,103000,1,0,0:0:0:0:
329,192,103000,1,0,0:0:0:0:
182,192,103090,1,0,0:0:0:0:
402,192,103090,1,0,0:0:0:0:
475,192,103090,1,0,0:0:0:0:
109,192,103181,1,0,0:0:0:0:
36,192,103181,1,0,0:0:0:0:
329,192,103181,1,0,0:0:0:0:
256,192,103272,1,0,0:0:0:0:
402,192,103363,1,0,0:0:0:0:
475,192,103363,1,0,0:0:0:0:
182,192,103363,1,0,0:0:0:0:
109,192,103454,1,0,0:0:0:0:
36,192,103454,1,0,0:0:0:0:
329,192,103454,1,0,0:0:0:0:
182,192,103545,1,0,0:0:0:0:
402,192,103545,1,0,0:0:0:0:
475,192,103545,1,0,0:0:0:0:
329,192,103636,1,0,0:0:0:0:
256,192,103727,128,0,103909:0:0:0:0:
36,192,103909,1,0,0:0:0:0:
109,192,103909,1,0,0:0:0:0:
182,192,103909,1,0,0:0:0:0:
329,192,103909,1,0,0:0:0:0:
402,192,103909,1,0,0:0:0:0:
475,192,103909,1,0,0:0:0:0:
182,192,104090,1,0,0:0:0:0:
329,192,104181,1,0,0:0:0:0:
109,192,104272,1,0,0:0:0:0:
36,192,104272,1,0,0:0:0:0:
402,192,104272,1,0,0:0:0:0:
475,192,104272,1,0,0:0:0:0:
256,192,104454,1,0,0:0:0:0:
182,192,104636,1,0,0:0:0:0:
36,192,104636,1,0,0:0:0:0:
402,192,104636,1,0,0:0:0:0:
475,192,104636,1,0,0:0:0:0:
329,192,104818,1,0,0:0:0:0:
256,192,104909,1,0,0:0:0:0:
36,192,105000,1,0,0:0:0:0:
109,192,105045,1,0,0:0:0:0:
182,192,105090,1,0,0:0:0:0:
256,192,105136,1,0,0:0:0:0:
475,192,105181,1,0,0:0:0:0:
402,192,105227,1,0,0:0:0:0:
329,192,105272,1,0,0:0:0:0:
256,192,105318,1,0,0:0:0:0:
182,192,105363,1,0,0:0:0:0:
109,192,105363,1,0,0:0:0:0:
36,192,105363,1,0,0:0:0:0:
475,192,105363,1,0,0:0:0:0:
182,192,105545,1,0,0:0:0:0:
109,192,105545,1,0,0:0:0:0:
36,192,105545,1,0,0:0:0:0:
475,192,105545,1,0,0:0:0:0:
256,192,105727,128,0,105909:0:0:0:0:
402,192,106090,1,0,0:0:0:0:
475,192,106090,1,0,0:0:0:0:
256,192,106090,1,0,0:0:0:0:
36,192,106090,1,0,0:0:0:0:
329,192,106181,1,0,0:0:0:0:
109,192,106181,1,0,0:0:0:0:
182,192,106272,1,0,0:0:0:0:
402,192,106272,1,0,0:0:0:0:
329,192,106363,1,0,0:0:0:0:
109,192,106363,1,0,0:0:0:0:
475,192,106454,1,0,0:0:0:0:
256,192,106454,1,0,0:0:0:0:
36,192,106454,1,0,0:0:0:0:
329,192,106545,1,0,0:0:0:0:
182,192,106545,1,0,0:0:0:0:
402,192,106636,1,0,0:0:0:0:
109,192,106636,1,0,0:0:0:0:
182,192,106727,1,0,0:0:0:0:
329,192,106727,1,0,0:0:0:0:
402,192,106818,1,0,0:0:0:0:
475,192,106818,1,0,0:0:0:0:
256,192,106818,1,0,0:0:0:0:
329,192,106909,1,0,0:0:0:0:
182,192,106909,1,0,0:0:0:0:
256,192,107000,1,0,0:0:0:0:
109,192,107000,1,0,0:0:0:0:
182,192,107090,1,0,0:0:0:0:
36,192,107090,1,0,0:0:0:0:
109,192,107181,1,0,0:0:0:0:
475,192,107181,1,0,0:0:0:0:
402,192,107181,1,0,0:0:0:0:
256,192,107272,1,0,0:0:0:0:
329,192,107272,1,0,0:0:0:0:
402,192,107363,1,0,0:0:0:0:
475,192,107363,1,0,0:0:0:0:
109,192,107363,1,0,0:0:0:0:
329,192,107454,1,0,0:0:0:0:
256,192,107454,1,0,0:0:0:0:
182,192,107545,1,0,0:0:0:0:
36,192,107545,1,0,0:0:0:0:
475,192,107545,1,0,0:0:0:0:
402,192,107636,1,0,0:0:0:0:
256,192,107636,1,0,0:0:0:0:
329,192,107727,1,0,0:0:0:0:
109,192,107727,1,0,0:0:0:0:
256,192,107818,1,0,0:0:0:0:
36,192,107818,1,0,0:0:0:0:
182,192,107909,1,0,0:0:0:0:
402,192,107909,1,0,0:0:0:0:
475,192,107909,1,0,0:0:0:0:
329,192,108000,1,0,0:0:0:0:
109,192,108000,1,0,0:0:0:0:
36,192,108090,1,0,0:0:0:0:
256,192,108090,1,0,0:0:0:0:
109,192,108181,1,0,0:0:0:0:
329,192,108181,1,0,0:0:0:0:
402,192,108272,1,0,0:0:0:0:
182,192,108272,1,0,0:0:0:0:
475,192,108272,1,0,0:0:0:0:
256,192,108363,1,0,0:0:0:0:
329,192,108363,1,0,0:0:0:0:
402,192,108454,1,0,0:0:0:0:
475,192,108454,1,0,0:0:0:0:
182,192,108454,1,0,0:0:0:0:
329,192,108545,1,0,0:0:0:0:
256,192,108545,1,0,0:0:0:0:
182,192,108636,1,0,0:0:0:0:
36,192,108636,1,0,0:0:0:0:
109,192,108636,1,0,0:0:0:0:
256,192,108727,1,0,0:0:0:0:
475,192,108727,1,0,0:0:0:0:
402,192,108818,1,0,0:0:0:0:
182,192,108818,1,0,0:0:0:0:
329,192,108909,1,0,0:0:0:0:
109,192,108909,1,0,0:0:0:0:
402,192,109000,1,0,0:0:0:0:
475,192,109000,1,0,0:0:0:0:
182,192,109000,1,0,0:0:0:0:
256,192,109090,1,0,0:0:0:0:
36,192,109090,1,0,0:0:0:0:
402,192,109181,1,0,0:0:0:0:
182,192,109181,1,0,0:0:0:0:
329,192,109272,1,0,0:0:0:0:
109,192,109272,1,0,0:0:0:0:
475,192,109363,1,0,0:0:0:0:
256,192,109363,1,0,0:0:0:0:
36,192,109363,1,0,0:0:0:0:
402,192,109454,1,0,0:0:0:0:
182,192,109454,1,0,0:0:0:0:
329,192,109545,1,0,0:0:0:0:
109,192,109545,1,0,0:0:0:0:
182,192,109636,1,0,0:0:0:0:
402,192,109636,1,0,0:0:0:0:
475,192,109727,1,0,0:0:0:0:
256,192,109727,1,0,0:0:0:0:
36,192,109727,1,0,0:0:0:0:
329,192,109818,1,0,0:0:0:0:
109,192,109818,1,0,0:0:0:0:
182,192,109909,1,0,0:0:0:0:
402,192,109909,1,0,0:0:0:0:
475,192,110000,1,0,0:0:0:0:
256,192,110000,1,0,0:0:0:0:
329,192,110090,1,0,0:0:0:0:
109,192,110090,1,0,0:0:0:0:
36,192,110090,1,0,0:0:0:0:
402,192,110090,1,0,0:0:0:0:
256,192,110181,1,0,0:0:0:0:
182,192,110181,1,0,0:0:0:0:
109,192,110272,1,0,0:0:0:0:
36,192,110272,1,0,0:0:0:0:
256,192,110363,1,0,0:0:0:0:
329,192,110363,1,0,0:0:0:0:
402,192,110363,1,0,0:0:0:0:
475,192,110363,1,0,0:0:0:0:
182,192,110454,1,0,0:0:0:0:
109,192,110454,1,0,0:0:0:0:
329,192,110545,1,0,0:0:0:0:
402,192,110545,1,0,0:0:0:0:
256,192,110636,1,0,0:0:0:0:
182,192,110636,1,0,0:0:0:0:
109,192,110636,1,0,0:0:0:0:
36,192,110636,1,0,0:0:0:0:
402,192,110727,1,0,0:0:0:0:
475,192,110727,1,0,0:0:0:0:
109,192,110818,1,0,0:0:0:0:
36,192,110818,1,0,0:0:0:0:
256,192,110909,1,0,0:0:0:0:
329,192,110909,1,0,0:0:0:0:
402,192,110909,1,0,0:0:0:0:
475,192,110909,1,0,0:0:0:0:
182,192,111000,1,0,0:0:0:0:
109,192,111000,1,0,0:0:0:0:
329,192,111090,1,0,0:0:0:0:
402,192,111090,1,0,0:0:0:0:
256,192,111181,1,0,0:0:0:0:
182,192,111181,1,0,0:0:0:0:
109,192,111181,1,0,0:0:0:0:
36,192,111181,1,0,0:0:0:0:
329,192,111272,1,0,0:0:0:0:
402,192,111272,1,0,0:0:0:0:
182,192,111363,1,0,0:0:0:0:
109,192,111363,1,0,0:0:0:0:
36,192,111363,1,0,0:0:0:0:
329,192,111454,1,0,0:0:0:0:
256,192,111454,1,0,0:0:0:0:
109,192,111545,1,0,0:0:0:0:
36,192,111545,1,0,0:0:0:0:
182,192,111545,1,0,0:0:0:0:
402,192,111545,1,0,0:0:0:0:
475,192,111545,1,0,0:0:0:0:
36,192,111909,1,0,0:0:0:0:
256,192,111909,1,0,0:0:0:0:
475,192,111909,1,0,0:0:0:0:
109,192,112000,1,0,0:0:0:0:
329,192,112000,1,0,0:0:0:0:
182,192,112090,1,0,0:0:0:0:
402,192,112090,1,0,0:0:0:0:
256,192,112181,1,0,0:0:0:0:
475,192,112181,1,0,0:0:0:0:
329,192,112272,1,0,0:0:0:0:
109,192,112272,1,0,0:0:0:0:
36,192,112272,1,0,0:0:0:0:
182,192,112363,1,0,0:0:0:0:
402,192,112363,1,0,0:0:0:0:
256,192,112454,1,0,0:0:0:0:
475,192,112454,1,0,0:0:0:0:
329,192,112545,1,0,0:0:0:0:
109,192,112545,1,0,0:0:0:0:
182,192,112636,1,0,0:0:0:0:
402,192,112636,1,0,0:0:0:0:
36,192,112636,1,0,0:0:0:0:
256,192,112727,1,0,0:0:0:0:
475,192,112727,1,0,0:0:0:0:
329,192,112818,1,0,0:0:0:0:
109,192,112818,1,0,0:0:0:0:
36,192,112818,1,0,0:0:0:0:
182,192,112909,1,0,0:0:0:0:
402,192,112909,1,0,0:0:0:0:
36,192,113000,1,0,0:0:0:0:
256,192,113000,1,0,0:0:0:0:
475,192,113000,1,0,0:0:0:0:
109,192,113090,1,0,0:0:0:0:
329,192,113090,1,0,0:0:0:0:
182,192,113181,1,0,0:0:0:0:
402,192,113181,1,0,0:0:0:0:
256,192,113272,1,0,0:0:0:0:
475,192,113272,1,0,0:0:0:0:
36,192,113363,1,0,0:0:0:0:
182,192,113363,1,0,0:0:0:0:
402,192,113363,1,0,0:0:0:0:
109,192,113454,1,0,0:0:0:0:
256,192,113454,1,0,0:0:0:0:
182,192,113545,1,0,0:0:0:0:
329,192,113545,1,0,0:0:0:0:
256,192,113636,1,0,0:0:0:0:
402,192,113636,1,0,0:0:0:0:
475,192,113727,1,0,0:0:0:0:
329,192,113727,1,0,0:0:0:0:
36,192,113727,1,0,0:0:0:0:
109,192,113818,1,0,0:0:0:0:
182,192,113818,1,0,0:0:0:0:
256,192,113909,1,0,0:0:0:0:
329,192,113909,1,0,0:0:0:0:
402,192,113909,1,0,0:0:0:0:
109,192,114000,1,0,0:0:0:0:
36,192,114000,1,0,0:0:0:0:
182,192,114090,1,0,0:0:0:0:
256,192,114090,1,0,0:0:0:0:
329,192,114090,1,0,0:0:0:0:
402,192,114181,1,0,0:0:0:0:
475,192,114181,1,0,0:0:0:0:
36,192,114272,1,0,0:0:0:0:
109,192,114272,1,0,0:0:0:0:
182,192,114272,1,0,0:0:0:0:
256,192,114363,1,0,0:0:0:0:
329,192,114363,1,0,0:0:0:0:
402,192,114454,1,0,0:0:0:0:
475,192,114454,1,0,0:0:0:0:
182,192,114454,1,0,0:0:0:0:
109,192,114454,1,0,0:0:0:0:
36,192,114454,1,0,0:0:0:0:
329,192,114636,1,0,0:0:0:0:
256,192,114681,1,0,0:0:0:0:
182,192,114727,1,0,0:0:0:0:
36,192,114772,1,0,0:0:0:0:
109,192,114818,1,0,0:0:0:0:
329,192,114818,1,0,0:0:0:0:
402,192,114818,1,0,0:0:0:0:
475,192,114818,1,0,0:0:0:0:
182,192,115000,1,0,0:0:0:0:
256,192,115045,1,0,0:0:0:0:
329,192,115090,1,0,0:0:0:0:
475,192,115136,1,0,0:0:0:0:
182,192,115181,1,0,0:0:0:0:
109,192,115181,1,0,0:0:0:0:
36,192,115181,1,0,0:0:0:0:
402,192,115181,1,0,0:0:0:0:
36,192,115363,1,0,0:0:0:0:
109,192,115363,1,0,0:0:0:0:
475,192,115363,1,0,0:0:0:0:
402,192,115363,1,0,0:0:0:0:
182,192,115454,1,0,0:0:0:0:
329,192,115454,1,0,0:0:0:0:
109,192,115545,1,0,0:0:0:0:
36,192,115545,1,0,0:0:0:0:
402,192,115545,1,0,0:0:0:0:
475,192,115545,1,0,0:0:0:0:
36,192,115727,1,0,0:0:0:0:
109,192,115727,1,0,0:0:0:0:
402,192,115727,1,0,0:0:0:0:
475,192,115727,1,0,0:0:0:0:
182,192,115818,1,0,0:0:0:0:
329,192,115818,1,0,0:0:0:0:
109,192,115909,1,0,0:0:0:0:
36,192,115909,1,0,0:0:0:0:
402,192,115909,1,0,0:0:0:0:
475,192,115909,1,0,0:0:0:0:
256,192,115909,1,0,0:0:0:0:
329,192,116272,1,0,0:0:0:0:
182,192,116333,1,0,0:0:0:0:
329,192,116393,1,0,0:0:0:0:
182,192,116454,1,0,0:0:0:0:
256,192,116545,1,0,0:0:0:0:
329,192,116636,1,0,0:0:0:0:
36,192,116681,1,0,0:0:0:0:
109,192,116727,1,0,0:0:0:0:
182,192,116772,1,0,0:0:0:0:
402,192,116818,1,0,0:0:0:0:
182,192,116863,1,0,0:0:0:0:
256,192,116909,1,0,0:0:0:0:
329,192,116954,1,0,0:0:0:0:
402,192,117000,1,0,0:0:0:0:
475,192,117000,1,0,0:0:0:0:
109,192,117000,1,0,0:0:0:0:
36,192,117000,1,0,0:0:0:0:
109,192,117181,1,0,0:0:0:0:
36,192,117181,1,0,0:0:0:0:
256,192,117181,1,0,0:0:0:0:
402,192,117181,1,0,0:0:0:0:
475,192,117363,128,0,117636:0:0:0:0:
182,192,117363,128,0,117636:0:0:0:0:
402,192,117363,128,0,117636:0:0:0:0:
36,192,117545,1,0,0:0:0:0:
329,192,117545,1,0,0:0:0:0:
109,192,117636,1,0,0:0:0:0:
256,192,117636,1,0,0:0:0:0:
182,192,117727,128,0,117909:0:0:0:0:
475,192,117727,128,0,117909:0:0:0:0:
402,192,117727,128,0,117909:0:0:0:0:
36,192,117909,1,0,0:0:0:0:
329,192,117909,1,0,0:0:0:0:
182,192,118000,1,0,0:0:0:0:
402,192,118000,1,0,0:0:0:0:
475,192,118000,1,0,0:0:0:0:
329,192,118090,1,0,0:0:0:0:
109,192,118090,1,0,0:0:0:0:
36,192,118090,1,0,0:0:0:0:
402,192,118181,1,0,0:0:0:0:
475,192,118181,1,0,0:0:0:0:
329,192,118272,1,0,0:0:0:0:
109,192,118272,1,0,0:0:0:0:
36,192,118272,1,0,0:0:0:0:
36,192,118454,128,0,118636:0:0:0:0:
109,192,118454,128,0,118636:0:0:0:0:
475,192,118454,128,0,118636:0:0:0:0:
256,192,118636,128,0,118818:0:0:0:0:
182,192,118636,128,0,118818:0:0:0:0:
402,192,118636,128,0,118818:0:0:0:0:
36,192,118818,128,0,119090:0:0:0:0:
329,192,118818,128,0,119090:0:0:0:0:
475,192,118818,128,0,119090:0:0:0:0:
109,192,119000,1,0,0:0:0:0:
402,192,119000,1,0,0:0:0:0:
256,192,119090,1,0,0:0:0:0:
182,192,119090,1,0,0:0:0:0:
36,192,119181,128,0,119363:0:0:0:0:
329,192,119181,128,0,119363:0:0:0:0:
475,192,119181,128,0,119363:0:0:0:0:
109,192,119363,1,0,0:0:0:0:
402,192,119363,1,0,0:0:0:0:
329,192,119454,1,0,0:0:0:0:
36,192,119454,1,0,0:0:0:0:
475,192,119454,1,0,0:0:0:0:
256,192,119545,1,0,0:0:0:0:
182,192,119545,1,0,0:0:0:0:
109,192,119545,1,0,0:0:0:0:
402,192,119636,1,0,0:0:0:0:
475,192,119636,1,0,0:0:0:0:
256,192,119727,1,0,0:0:0:0:
182,192,119727,1,0,0:0:0:0:
109,192,119727,1,0,0:0:0:0:
109,192,119909,128,0,120090:0:0:0:0:
256,192,119909,128,0,120090:0:0:0:0:
402,192,119909,128,0,120090:0:0:0:0:
329,192,120090,128,0,120272:0:0:0:0:
182,192,120090,128,0,120272:0:0:0:0:
36,192,120090,128,0,120272:0:0:0:0:
109,192,120272,128,0,120545:0:0:0:0:
402,192,120272,128,0,120545:0:0:0:0:
475,192,120272,128,0,120545:0:0:0:0:
36,192,120454,1,0,0:0:0:0:
256,192,120454,1,0,0:0:0:0:
182,192,120545,1,0,0:0:0:0:
329,192,120545,1,0,0:0:0:0:
402,192,120636,128,0,120818:0:0:0:0:
475,192,120636,128,0,120818:0:0:0:0:
109,192,120636,128,0,120818:0:0:0:0:
36,192,120818,1,0,0:0:0:0:
256,192,120818,1,0,0:0:0:0:
109,192,120909,1,0,0:0:0:0:
402,192,120909,1,0,0:0:0:0:
475,192,120909,1,0,0:0:0:0:
36,192,121000,1,0,0:0:0:0:
329,192,121000,1,0,0:0:0:0:
256,192,121000,1,0,0:0:0:0:
182,192,121090,1,0,0:0:0:0:
402,192,121090,1,0,0:0:0:0:
475,192,121090,1,0,0:0:0:0:
36,192,121181,1,0,0:0:0:0:
329,192,121181,1,0,0:0:0:0:
256,192,121181,1,0,0:0:0:0:
36,192,121363,128,0,121545:0:0:0:0:
182,192,121363,128,0,121545:0:0:0:0:
402,192,121363,128,0,121545:0:0:0:0:
475,192,121545,128,0,121727:0:0:0:0:
109,192,121545,128,0,121727:0:0:0:0:
256,192,121545,128,0,121727:0:0:0:0:
36,192,121727,1,0,0:0:0:0:
182,192,121727,1,0,0:0:0:0:
329,192,121727,1,0,0:0:0:0:
109,192,121909,1,0,0:0:0:0:
256,192,121909,1,0,0:0:0:0:
402,192,121909,1,0,0:0:0:0:
182,192,122090,128,0,122363:0:0:0:0:
329,192,122090,128,0,122363:0:0:0:0:
475,192,122090,128,0,122363:0:0:0:0:
36,192,122454,1,0,0:0:0:0:
182,192,122454,1,0,0:0:0:0:
329,192,122454,1,0,0:0:0:0:
109,192,122636,1,0,0:0:0:0:
256,192,122636,1,0,0:0:0:0:
402,192,122636,1,0,0:0:0:0:
182,192,122818,128,0,123090:0:0:0:0:
329,192,122818,128,0,123090:0:0:0:0:
475,192,122818,128,0,123090:0:0:0:0:
36,192,123181,128,0,123454:0:0:0:0:
329,192,123181,128,0,123454:0:0:0:0:
109,192,123181,128,0,123454:0:0:0:0:
475,192,123363,1,0,0:0:0:0:
182,192,123363,1,0,0:0:0:0:
402,192,123454,1,0,0:0:0:0:
256,192,123454,1,0,0:0:0:0:
329,192,123545,128,0,123727:0:0:0:0:
36,192,123545,128,0,123727:0:0:0:0:
109,192,123545,128,0,123727:0:0:0:0:
475,192,123727,1,0,0:0:0:0:
182,192,123727,1,0,0:0:0:0:
329,192,123818,1,0,0:0:0:0:
109,192,123818,1,0,0:0:0:0:
36,192,123818,1,0,0:0:0:0:
182,192,123909,1,0,0:0:0:0:
402,192,123909,1,0,0:0:0:0:
475,192,123909,1,0,0:0:0:0:
109,192,124000,1,0,0:0:0:0:
36,192,124000,1,0,0:0:0:0:
182,192,124090,1,0,0:0:0:0:
402,192,124090,1,0,0:0:0:0:
475,192,124090,1,0,0:0:0:0:
475,192,124272,128,0,124454:0:0:0:0:
402,192,124272,128,0,124454:0:0:0:0:
36,192,124272,128,0,124454:0:0:0:0:
256,192,124454,128,0,124636:0:0:0:0:
329,192,124454,128,0,124636:0:0:0:0:
109,192,124454,128,0,124636:0:0:0:0:
402,192,124636,128,0,124909:0:0:0:0:
182,192,124636,128,0,124909:0:0:0:0:
36,192,124636,128,0,124909:0:0:0:0:
329,192,124818,1,0,0:0:0:0:
109,192,124818,1,0,0:0:0:0:
256,192,124909,1,0,0:0:0:0:
475,192,124909,1,0,0:0:0:0:
402,192,125000,128,0,125181:0:0:0:0:
182,192,125000,128,0,125181:0:0:0:0:
36,192,125000,128,0,125181:0:0:0:0:
329,192,125181,1,0,0:0:0:0:
109,192,125181,1,0,0:0:0:0:
182,192,125272,1,0,0:0:0:0:
402,192,125272,1,0,0:0:0:0:
36,192,125272,1,0,0:0:0:0:
109,192,125363,1,0,0:0:0:0:
329,192,125363,1,0,0:0:0:0:
475,192,125363,1,0,0:0:0:0:
182,192,125454,1,0,0:0:0:0:
256,192,125454,1,0,0:0:0:0:
402,192,125454,1,0,0:0:0:0:
109,192,125545,1,0,0:0:0:0:
329,192,125545,1,0,0:0:0:0:
475,192,125545,1,0,0:0:0:0:
402,192,125727,128,0,125909:0:0:0:0:
256,192,125727,128,0,125909:0:0:0:0:
109,192,125727,128,0,125909:0:0:0:0:
182,192,125909,128,0,126090:0:0:0:0:
329,192,125909,128,0,126090:0:0:0:0:
475,192,125909,128,0,126090:0:0:0:0:
402,192,126090,128,0,126363:0:0:0:0:
109,192,126090,128,0,126363:0:0:0:0:
36,192,126090,128,0,126363:0:0:0:0:
475,192,126272,1,0,0:0:0:0:
256,192,126272,1,0,0:0:0:0:
329,192,126363,1,0,0:0:0:0:
182,192,126363,1,0,0:0:0:0:
402,192,126454,128,0,126636:0:0:0:0:
475,192,126454,128,0,126636:0:0:0:0:
109,192,126454,128,0,126636:0:0:0:0:
36,192,126636,1,0,0:0:0:0:
256,192,126636,1,0,0:0:0:0:
182,192,126727,1,0,0:0:0:0:
402,192,126727,1,0,0:0:0:0:
475,192,126727,1,0,0:0:0:0:
36,192,126818,1,0,0:0:0:0:
329,192,126818,1,0,0:0:0:0:
256,192,126818,1,0,0:0:0:0:
109,192,126909,1,0,0:0:0:0:
402,192,126909,1,0,0:0:0:0:
475,192,126909,1,0,0:0:0:0:
36,192,127000,1,0,0:0:0:0:
329,192,127000,1,0,0:0:0:0:
256,192,127000,1,0,0:0:0:0:
402,192,127181,128,0,127363:0:0:0:0:
329,192,127181,128,0,127363:0:0:0:0:
109,192,127181,128,0,127363:0:0:0:0:
36,192,127363,128,0,127545:0:0:0:0:
182,192,127363,128,0,127545:0:0:0:0:
256,192,127363,128,0,127545:0:0:0:0:
109,192,127545,1,0,0:0:0:0:
329,192,127545,1,0,0:0:0:0:
402,192,127545,1,0,0:0:0:0:
475,192,127545,128,0,127818:0:0:0:0:
182,192,127636,1,0,0:0:0:0:
329,192,127727,1,0,0:0:0:0:
256,192,127818,1,0,0:0:0:0:
182,192,127909,1,0,0:0:0:0:
109,192,127909,1,0,0:0:0:0:
36,192,127909,1,0,0:0:0:0:
475,192,127909,128,0,128181:0:0:0:0:
256,192,128000,1,0,0:0:0:0:
402,192,128090,1,0,0:0:0:0:
329,192,128181,1,0,0:0:0:0:
36,192,128272,128,0,128545:0:0:0:0:
109,192,128272,1,0,0:0:0:0:
182,192,128318,1,0,0:0:0:0:
256,192,128363,1,0,0:0:0:0:
329,192,128409,1,0,0:0:0:0:
402,192,128454,1,0,0:0:0:0:
475,192,128500,1,0,0:0:0:0:
109,192,128545,1,0,0:0:0:0:
182,192,128590,1,0,0:0:0:0:
36,192,128636,128,0,128909:0:0:0:0:
256,192,128636,1,0,0:0:0:0:
329,192,128681,1,0,0:0:0:0:
402,192,128727,1,0,0:0:0:0:
475,192,128772,1,0,0:0:0:0:
109,192,128818,1,0,0:0:0:0:
182,192,128818,1,0,0:0:0:0:
256,192,128909,1,0,0:0:0:0:
329,192,128909,1,0,0:0:0:0:
36,192,129000,1,0,0:0:0:0:
109,192,129000,1,0,0:0:0:0:
182,192,129000,1,0,0:0:0:0:
402,192,129000,1,0,0:0:0:0:
329,192,129090,1,0,0:0:0:0:
256,192,129181,1,0,0:0:0:0:
182,192,129272,1,0,0:0:0:0:
36,192,129272,1,0,0:0:0:0:
329,192,129272,1,0,0:0:0:0:
109,192,129363,1,0,0:0:0:0:
256,192,129363,1,0,0:0:0:0:
402,192,129363,1,0,0:0:0:0:
182,192,129454,1,0,0:0:0:0:
475,192,129545,1,0,0:0:0:0:
329,192,129545,1,0,0:0:0:0:
402,192,129545,1,0,0:0:0:0:
182,192,129636,1,0,0:0:0:0:
109,192,129636,1,0,0:0:0:0:
36,192,129636,1,0,0:0:0:0:
402,192,129727,1,0,0:0:0:0:
475,192,129727,1,0,0:0:0:0:
256,192,129727,1,0,0:0:0:0:
182,192,129818,1,0,0:0:0:0:
36,192,129818,1,0,0:0:0:0:
329,192,129818,1,0,0:0:0:0:
109,192,129909,1,0,0:0:0:0:
256,192,129909,1,0,0:0:0:0:
402,192,129909,1,0,0:0:0:0:
329,192,130000,1,0,0:0:0:0:
109,192,130090,1,0,0:0:0:0:
182,192,130090,1,0,0:0:0:0:
402,192,130090,1,0,0:0:0:0:
475,192,130090,1,0,0:0:0:0:
329,192,130272,1,0,0:0:0:0:
402,192,130272,1,0,0:0:0:0:
109,192,130272,1,0,0:0:0:0:
36,192,130272,1,0,0:0:0:0:
36,192,130454,1,0,0:0:0:0:
109,192,130454,1,0,0:0:0:0:
182,192,130454,1,0,0:0:0:0:
475,192,130454,1,0,0:0:0:0:
329,192,130545,1,0,0:0:0:0:
256,192,130636,1,0,0:0:0:0:
36,192,130727,1,0,0:0:0:0:
402,192,130727,1,0,0:0:0:0:
182,192,130727,1,0,0:0:0:0:
475,192,130818,1,0,0:0:0:0:
109,192,130818,1,0,0:0:0:0:
256,192,130818,1,0,0:0:0:0:
329,192,130909,1,0,0:0:0:0:
256,192,131000,1,0,0:0:0:0:
109,192,131000,1,0,0:0:0:0:
36,192,131000,1,0,0:0:0:0:
182,192,131090,1,0,0:0:0:0:
402,192,131090,1,0,0:0:0:0:
475,192,131090,1,0,0:0:0:0:
109,192,131181,1,0,0:0:0:0:
329,192,131181,1,0,0:0:0:0:
256,192,131181,1,0,0:0:0:0:
36,192,131272,1,0,0:0:0:0:
182,192,131272,1,0,0:0:0:0:
402,192,131272,1,0,0:0:0:0:
109,192,131363,1,0,0:0:0:0:
256,192,131363,1,0,0:0:0:0:
475,192,131363,1,0,0:0:0:0:
402,192,131454,1,0,0:0:0:0:
36,192,131545,1,0,0:0:0:0:
109,192,131545,1,0,0:0:0:0:
256,192,131545,1,0,0:0:0:0:
329,192,131545,1,0,0:0:0:0:
109,192,131727,1,0,0:0:0:0:
182,192,131727,1,0,0:0:0:0:
329,192,131727,1,0,0:0:0:0:
402,192,131727,1,0,0:0:0:0:
36,192,131909,1,0,0:0:0:0:
256,192,131909,1,0,0:0:0:0:
402,192,131909,1,0,0:0:0:0:
475,192,131909,1,0,0:0:0:0:
329,192,132000,1,0,0:0:0:0:
402,192,132090,1,0,0:0:0:0:
36,192,132181,1,0,0:0:0:0:
182,192,132181,1,0,0:0:0:0:
329,192,132181,1,0,0:0:0:0:
402,192,132272,1,0,0:0:0:0:
475,192,132272,1,0,0:0:0:0:
256,192,132272,1,0,0:0:0:0:
36,192,132363,1,0,0:0:0:0:
109,192,132454,1,0,0:0:0:0:
256,192,132454,1,0,0:0:0:0:
402,192,132454,1,0,0:0:0:0:
475,192,132545,1,0,0:0:0:0:
329,192,132545,1,0,0:0:0:0:
182,192,132545,1,0,0:0:0:0:
402,192,132636,1,0,0:0:0:0:
109,192,132636,1,0,0:0:0:0:
256,192,132636,1,0,0:0:0:0:
36,192,132727,1,0,0:0:0:0:
182,192,132727,1,0,0:0:0:0:
329,192,132727,1,0,0:0:0:0:
402,192,132818,1,0,0:0:0:0:
475,192,132818,1,0,0:0:0:0:
256,192,132818,1,0,0:0:0:0:
109,192,132909,1,0,0:0:0:0:
36,192,133000,1,0,0:0:0:0:
182,192,133000,1,0,0:0:0:0:
329,192,133000,1,0,0:0:0:0:
475,192,133090,1,0,0:0:0:0:
329,192,133181,1,0,0:0:0:0:
182,192,133272,1,0,0:0:0:0:
109,192,133363,1,0,0:0:0:0:
36,192,133363,1,0,0:0:0:0:
256,192,133363,1,0,0:0:0:0:
329,192,133363,1,0,0:0:0:0:
475,192,133454,1,0,0:0:0:0:
109,192,133545,1,0,0:0:0:0:
182,192,133545,1,0,0:0:0:0:
402,192,133545,1,0,0:0:0:0:
329,192,133545,1,0,0:0:0:0:
36,192,133636,1,0,0:0:0:0:
182,192,133727,1,0,0:0:0:0:
256,192,133727,1,0,0:0:0:0:
475,192,133727,1,0,0:0:0:0:
402,192,133727,1,0,0:0:0:0:
109,192,133818,1,0,0:0:0:0:
329,192,133909,1,0,0:0:0:0:
402,192,134000,1,0,0:0:0:0:
256,192,134090,1,0,0:0:0:0:
109,192,134090,1,0,0:0:0:0:
36,192,134090,1,0,0:0:0:0:
329,192,134090,1,0,0:0:0:0:
475,192,134181,1,0,0:0:0:0:
109,192,134272,1,0,0:0:0:0:
182,192,134272,1,0,0:0:0:0:
329,192,134272,1,0,0:0:0:0:
402,192,134272,1,0,0:0:0:0:
36,192,134363,1,0,0:0:0:0:
182,192,134454,1,0,0:0:0:0:
256,192,134454,1,0,0:0:0:0:
402,192,134454,1,0,0:0:0:0:
475,192,134454,1,0,0:0:0:0:
109,192,134545,1,0,0:0:0:0:
329,192,134636,1,0,0:0:0:0:
256,192,134727,1,0,0:0:0:0:
475,192,134818,1,0,0:0:0:0:
402,192,134818,1,0,0:0:0:0:
329,192,134818,1,0,0:0:0:0:
109,192,134818,1,0,0:0:0:0:
182,192,134909,1,0,0:0:0:0:
256,192,135000,1,0,0:0:0:0:
329,192,135090,1,0,0:0:0:0:
475,192,135090,1,0,0:0:0:0:
182,192,135090,1,0,0:0:0:0:
402,192,135181,1,0,0:0:0:0:
256,192,135181,1,0,0:0:0:0:
109,192,135181,1,0,0:0:0:0:
329,192,135272,1,0,0:0:0:0:
36,192,135363,1,0,0:0:0:0:
182,192,135363,1,0,0:0:0:0:
109,192,135363,1,0,0:0:0:0:
329,192,135454,1,0,0:0:0:0:
402,192,135454,1,0,0:0:0:0:
475,192,135454,1,0,0:0:0:0:
109,192,135545,1,0,0:0:0:0:
36,192,135545,1,0,0:0:0:0:
256,192,135545,1,0,0:0:0:0:
329,192,135636,1,0,0:0:0:0:
475,192,135636,1,0,0:0:0:0:
182,192,135636,1,0,0:0:0:0:
402,192,135727,1,0,0:0:0:0:
256,192,135727,1,0,0:0:0:0:
109,192,135727,1,0,0:0:0:0:
182,192,135818,1,0,0:0:0:0:
402,192,135909,1,0,0:0:0:0:
329,192,135909,1,0,0:0:0:0:
109,192,135909,1,0,0:0:0:0:
36,192,135909,1,0,0:0:0:0:
182,192,136090,1,0,0:0:0:0:
109,192,136090,1,0,0:0:0:0:
402,192,136090,1,0,0:0:0:0:
475,192,136090,1,0,0:0:0:0:
475,192,136272,1,0,0:0:0:0:
402,192,136272,1,0,0:0:0:0:
329,192,136272,1,0,0:0:0:0:
36,192,136272,1,0,0:0:0:0:
182,192,136363,1,0,0:0:0:0:
256,192,136454,1,0,0:0:0:0:
475,192,136545,1,0,0:0:0:0:
109,192,136545,1,0,0:0:0:0:
329,192,136545,1,0,0:0:0:0:
36,192,136636,1,0,0:0:0:0:
402,192,136636,1,0,0:0:0:0:
256,192,136636,1,0,0:0:0:0:
182,192,136727,1,0,0:0:0:0:
256,192,136818,1,0,0:0:0:0:
402,192,136818,1,0,0:0:0:0:
475,192,136818,1,0,0:0:0:0:
329,192,136909,1,0,0:0:0:0:
109,192,136909,1,0,0:0:0:0:
36,192,136909,1,0,0:0:0:0:
402,192,137000,1,0,0:0:0:0:
182,192,137000,1,0,0:0:0:0:
256,192,137000,1,0,0:0:0:0:
475,192,137090,1,0,0:0:0:0:
329,192,137090,1,0,0:0:0:0:
109,192,137090,1,0,0:0:0:0:
402,192,137181,1,0,0:0:0:0:
256,192,137181,1,0,0:0:0:0:
36,192,137181,1,0,0:0:0:0:
109,192,137272,1,0,0:0:0:0:
475,192,137363,1,0,0:0:0:0:
402,192,137363,1,0,0:0:0:0:
256,192,137363,1,0,0:0:0:0:
182,192,137363,1,0,0:0:0:0:
402,192,137545,1,0,0:0:0:0:
329,192,137545,1,0,0:0:0:0:
182,192,137545,1,0,0:0:0:0:
109,192,137545,1,0,0:0:0:0:
475,192,137727,1,0,0:0:0:0:
256,192,137727,1,0,0:0:0:0:
109,192,137727,1,0,0:0:0:0:
36,192,137727,1,0,0:0:0:0:
182,192,137818,1,0,0:0:0:0:
109,192,137909,1,0,0:0:0:0:
475,192,138000,1,0,0:0:0:0:
329,192,138000,1,0,0:0:0:0:
182,192,138000,1,0,0:0:0:0:
109,192,138090,1,0,0:0:0:0:
36,192,138090,1,0,0:0:0:0:
402,192,138090,1,0,0:0:0:0:
329,192,138181,1,0,0:0:0:0:
402,192,138272,1,0,0:0:0:0:
256,192,138272,1,0,0:0:0:0:
109,192,138272,1,0,0:0:0:0:
36,192,138363,1,0,0:0:0:0:
182,192,138363,1,0,0:0:0:0:
329,192,138363,1,0,0:0:0:0:
109,192,138454,1,0,0:0:0:0:
402,192,138454,1,0,0:0:0:0:
256,192,138454,1,0,0:0:0:0:
475,192,138545,1,0,0:0:0:0:
329,192,138545,1,0,0:0:0:0:
182,192,138545,1,0,0:0:0:0:
109,192,138636,1,0,0:0:0:0:
36,192,138636,1,0,0:0:0:0:
256,192,138636,1,0,0:0:0:0:
402,192,138727,1,0,0:0:0:0:
475,192,138818,1,0,0:0:0:0:
329,192,138818,1,0,0:0:0:0:
182,192,138818,1,0,0:0:0:0:
109,192,138818,1,0,0:0:0:0:
36,192,139000,1,0,0:0:0:0:
109,192,139000,1,0,0:0:0:0:
256,192,139000,1,0,0:0:0:0:
402,192,139000,1,0,0:0:0:0:
36,192,139181,1,0,0:0:0:0:
182,192,139181,1,0,0:0:0:0:
329,192,139181,1,0,0:0:0:0:
475,192,139181,1,0,0:0:0:0:
109,192,139272,1,0,0:0:0:0:
402,192,139363,1,0,0:0:0:0:
109,192,139454,1,0,0:0:0:0:
256,192,139545,1,0,0:0:0:0:
329,192,139545,1,0,0:0:0:0:
475,192,139545,1,0,0:0:0:0:
182,192,139636,1,0,0:0:0:0:
329,192,139727,1,0,0:0:0:0:
182,192,139818,1,0,0:0:0:0:
402,192,139909,1,0,0:0:0:0:
475,192,139909,1,0,0:0:0:0:
36,192,139909,1,0,0:0:0:0:
109,192,139954,1,0,0:0:0:0:
182,192,140000,1,0,0:0:0:0:
256,192,140045,1,0,0:0:0:0:
329,192,140090,1,0,0:0:0:0:
36,192,140136,1,0,0:0:0:0:
109,192,140181,1,0,0:0:0:0:
182,192,140227,1,0,0:0:0:0:
256,192,140272,1,0,0:0:0:0:
402,192,140272,1,0,0:0:0:0:
329,192,140272,1,0,0:0:0:0:
475,192,140318,1,0,0:0:0:0:
36,192,140363,1,0,0:0:0:0:
109,192,140409,1,0,0:0:0:0:
182,192,140454,1,0,0:0:0:0:
256,192,140500,1,0,0:0:0:0:
329,192,140545,1,0,0:0:0:0:
402,192,140590,1,0,0:0:0:0:
182,192,140636,1,0,0:0:0:0:
109,192,140636,1,0,0:0:0:0:
36,192,140636,128,0,143545:0:0:0:0:
475,192,140636,128,0,143545:0:0:0:0:
109,192,140818,1,0,0:0:0:0:
182,192,140818,1,0,0:0:0:0:
256,192,141000,1,0,0:0:0:0:
402,192,141000,1,0,0:0:0:0:
109,192,141181,1,0,0:0:0:0:
182,192,141181,1,0,0:0:0:0:
182,192,141272,1,0,0:0:0:0:
109,192,141272,1,0,0:0:0:0:
182,192,141545,1,0,0:0:0:0:
109,192,141545,1,0,0:0:0:0:
256,192,141727,1,0,0:0:0:0:
402,192,141727,1,0,0:0:0:0:
182,192,141818,1,0,0:0:0:0:
109,192,141818,1,0,0:0:0:0:
182,192,142090,1,0,0:0:0:0:
329,192,142090,1,0,0:0:0:0:
182,192,142272,1,0,0:0:0:0:
329,192,142272,1,0,0:0:0:0:
109,192,142454,1,0,0:0:0:0:
402,192,142454,1,0,0:0:0:0:
182,192,142636,1,0,0:0:0:0:
329,192,142636,1,0,0:0:0:0:
182,192,142727,1,0,0:0:0:0:
329,192,142727,1,0,0:0:0:0:
182,192,143000,1,0,0:0:0:0:
329,192,143000,1,0,0:0:0:0:
109,192,143181,1,0,0:0:0:0:
402,192,143181,1,0,0:0:0:0:
182,192,143272,1,0,0:0:0:0:
329,192,143272,1,0,0:0:0:0:
256,192,143545,1,0,0:0:0:0:
402,192,143545,1,0,0:0:0:0:
256,192,143727,1,0,0:0:0:0:
402,192,143727,1,0,0:0:0:0:
109,192,143909,1,0,0:0:0:0:
475,192,143909,1,0,0:0:0:0:
402,192,144090,1,0,0:0:0:0:
256,192,144090,1,0,0:0:0:0:
256,192,144181,1,0,0:0:0:0:
402,192,144181,1,0,0:0:0:0:
256,192,144454,1,0,0:0:0:0:
402,192,144454,1,0,0:0:0:0:
475,192,144636,1,0,0:0:0:0:
109,192,144636,1,0,0:0:0:0:
402,192,144727,1,0,0:0:0:0:
256,192,144727,1,0,0:0:0:0:
36,192,145000,1,0,0:0:0:0:
329,192,145000,1,0,0:0:0:0:
36,192,145181,1,0,0:0:0:0:
329,192,145181,1,0,0:0:0:0:
182,192,145363,1,0,0:0:0:0:
475,192,145363,1,0,0:0:0:0:
36,192,145545,1,0,0:0:0:0:
329,192,145545,1,0,0:0:0:0:
36,192,145636,1,0,0:0:0:0:
329,192,145636,1,0,0:0:0:0:
36,192,145909,1,0,0:0:0:0:
329,192,145909,1,0,0:0:0:0:
182,192,146090,1,0,0:0:0:0:
475,192,146090,1,0,0:0:0:0:
402,192,146136,1,0,0:0:0:0:
36,192,146181,1,0,0:0:0:0:
329,192,146181,1,0,0:0:0:0:
109,192,146227,1,0,0:0:0:0:
182,192,146272,1,0,0:0:0:0:
256,192,146318,1,0,0:0:0:0:
329,192,146363,1,0,0:0:0:0:
402,192,146409,1,0,0:0:0:0:
475,192,146454,1,0,0:0:0:0:
109,192,146454,1,0,0:0:0:0:
36,192,146454,1,0,0:0:0:0:
109,192,146636,1,0,0:0:0:0:
475,192,146636,1,0,0:0:0:0:
36,192,146636,1,0,0:0:0:0:
256,192,146818,1,0,0:0:0:0:
182,192,146818,1,0,0:0:0:0:
402,192,146818,1,0,0:0:0:0:
109,192,147000,1,0,0:0:0:0:
475,192,147000,1,0,0:0:0:0:
36,192,147000,1,0,0:0:0:0:
182,192,147090,1,0,0:0:0:0:
402,192,147090,1,0,0:0:0:0:
475,192,147181,1,0,0:0:0:0:
109,192,147181,1,0,0:0:0:0:
36,192,147181,1,0,0:0:0:0:
109,192,147363,1,0,0:0:0:0:
475,192,147363,1,0,0:0:0:0:
36,192,147363,1,0,0:0:0:0:
182,192,147545,1,0,0:0:0:0:
256,192,147545,1,0,0:0:0:0:
402,192,147545,1,0,0:0:0:0:
109,192,147727,1,0,0:0:0:0:
475,192,147727,1,0,0:0:0:0:
36,192,147727,1,0,0:0:0:0:
36,192,147909,1,0,0:0:0:0:
256,192,147909,1,0,0:0:0:0:
402,192,147909,1,0,0:0:0:0:
36,192,148090,1,0,0:0:0:0:
256,192,148090,1,0,0:0:0:0:
402,192,148090,1,0,0:0:0:0:
109,192,148272,1,0,0:0:0:0:
329,192,148272,1,0,0:0:0:0:
475,192,148272,1,0,0:0:0:0:
36,192,148454,1,0,0:0:0:0:
256,192,148454,1,0,0:0:0:0:
402,192,148454,1,0,0:0:0:0:
182,192,148545,1,0,0:0:0:0:
109,192,148545,1,0,0:0:0:0:
36,192,148636,1,0,0:0:0:0:
256,192,148636,1,0,0:0:0:0:
402,192,148636,1,0,0:0:0:0:
36,192,148818,1,0,0:0:0:0:
256,192,148818,1,0,0:0:0:0:
402,192,148818,1,0,0:0:0:0:
109,192,149000,1,0,0:0:0:0:
329,192,149000,1,0,0:0:0:0:
475,192,149000,1,0,0:0:0:0:
256,192,149090,1,0,0:0:0:0:
109,192,149181,1,0,0:0:0:0:
329,192,149181,1,0,0:0:0:0:
475,192,149181,1,0,0:0:0:0:
182,192,149272,1,0,0:0:0:0:
36,192,149363,1,0,0:0:0:0:
256,192,149363,1,0,0:0:0:0:
475,192,149363,1,0,0:0:0:0:
402,192,149454,1,0,0:0:0:0:
329,192,149545,1,0,0:0:0:0:
109,192,149545,1,0,0:0:0:0:
36,192,149545,1,0,0:0:0:0:
182,192,149636,1,0,0:0:0:0:
256,192,149727,1,0,0:0:0:0:
475,192,149727,1,0,0:0:0:0:
402,192,149727,1,0,0:0:0:0:
329,192,149818,1,0,0:0:0:0:
36,192,149909,1,0,0:0:0:0:
109,192,149909,1,0,0:0:0:0:
256,192,149909,1,0,0:0:0:0:
182,192,150000,1,0,0:0:0:0:
36,192,150090,1,0,0:0:0:0:
329,192,150090,1,0,0:0:0:0:
475,192,150090,1,0,0:0:0:0:
109,192,150136,1,0,0:0:0:0:
182,192,150181,1,0,0:0:0:0:
256,192,150227,1,0,0:0:0:0:
475,192,150272,1,0,0:0:0:0:
402,192,150318,1,0,0:0:0:0:
329,192,150363,1,0,0:0:0:0:
256,192,150409,1,0,0:0:0:0:
36,192,150454,1,0,0:0:0:0:
109,192,150500,1,0,0:0:0:0:
182,192,150545,1,0,0:0:0:0:
256,192,150590,1,0,0:0:0:0:
329,192,150636,1,0,0:0:0:0:
36,192,150681,1,0,0:0:0:0:
109,192,150727,1,0,0:0:0:0:
182,192,150772,1,0,0:0:0:0:
256,192,150818,1,0,0:0:0:0:
329,192,150863,1,0,0:0:0:0:
475,192,150909,1,0,0:0:0:0:
402,192,150954,1,0,0:0:0:0:
329,192,151000,1,0,0:0:0:0:
256,192,151045,1,0,0:0:0:0:
182,192,151090,1,0,0:0:0:0:
475,192,151136,1,0,0:0:0:0:
402,192,151181,1,0,0:0:0:0:
329,192,151227,1,0,0:0:0:0:
256,192,151272,1,0,0:0:0:0:
182,192,151318,1,0,0:0:0:0:
36,192,151363,1,0,0:0:0:0:
109,192,151409,1,0,0:0:0:0:
182,192,151454,1,0,0:0:0:0:
256,192,151500,1,0,0:0:0:0:
329,192,151545,1,0,0:0:0:0:
475,192,151545,1,0,0:0:0:0:
256,192,151636,1,0,0:0:0:0:
402,192,151636,1,0,0:0:0:0:
329,192,151727,1,0,0:0:0:0:
182,192,151727,1,0,0:0:0:0:
256,192,151818,1,0,0:0:0:0:
109,192,151818,1,0,0:0:0:0:
182,192,151909,1,0,0:0:0:0:
36,192,151909,1,0,0:0:0:0:
475,192,151909,1,0,0:0:0:0:
256,192,152000,1,0,0:0:0:0:
109,192,152000,1,0,0:0:0:0:
402,192,152000,1,0,0:0:0:0:
182,192,152090,1,0,0:0:0:0:
329,192,152090,1,0,0:0:0:0:
402,192,152181,1,0,0:0:0:0:
475,192,152181,1,0,0:0:0:0:
256,192,152272,128,0,152727:0:0:0:0:
36,192,152272,128,0,152454:0:0:0:0:
109,192,152272,128,0,152454:0:0:0:0:
182,192,152272,128,0,152454:0:0:0:0:
329,192,152454,128,0,152727:0:0:0:0:
402,192,152454,128,0,152727:0:0:0:0:
182,192,152636,128,0,152727:0:0:0:0:
109,192,152636,128,0,152727:0:0:0:0:
256,192,152818,128,0,153000:0:0:0:0:
329,192,152818,128,0,153000:0:0:0:0:
402,192,152818,128,0,153000:0:0:0:0:
475,192,152818,128,0,153000:0:0:0:0:
109,192,152909,128,0,153000:0:0:0:0:
182,192,152909,128,0,153000:0:0:0:0:
109,192,153090,128,0,153272:0:0:0:0:
182,192,153090,128,0,153272:0:0:0:0:
329,192,153181,128,0,153272:0:0:0:0:
402,192,153181,128,0,153272:0:0:0:0:
36,192,153363,128,0,153636:0:0:0:0:
109,192,153363,128,0,153636:0:0:0:0:
256,192,153363,128,0,153636:0:0:0:0:
402,192,153363,128,0,153636:0:0:0:0:
475,192,153363,128,0,153636:0:0:0:0:
109,192,153727,128,0,153909:0:0:0:0:
36,192,153727,128,0,153909:0:0:0:0:
182,192,153727,128,0,153909:0:0:0:0:
256,192,153727,128,0,154181:0:0:0:0:
329,192,153909,128,0,154181:0:0:0:0:
402,192,153909,128,0,154181:0:0:0:0:
109,192,154090,128,0,154181:0:0:0:0:
182,192,154090,128,0,154181:0:0:0:0:
256,192,154272,128,0,154454:0:0:0:0:
475,192,154272,128,0,154454:0:0:0:0:
182,192,154363,128,0,154454:0:0:0:0:
109,192,154363,128,0,154454:0:0:0:0:
182,192,154545,128,0,154727:0:0:0:0:
109,192,154545,128,0,154727:0:0:0:0:
329,192,154636,128,0,154727:0:0:0:0:
402,192,154636,128,0,154727:0:0:0:0:
36,192,154818,128,0,155090:0:0:0:0:
109,192,154818,128,0,155090:0:0:0:0:
256,192,155000,128,0,155090:0:0:0:0:
329,192,155000,128,0,155090:0:0:0:0:
36,192,155181,128,0,155636:0:0:0:0:
109,192,155181,128,0,155636:0:0:0:0:
329,192,155181,128,0,155636:0:0:0:0:
402,192,155181,128,0,155636:0:0:0:0:
182,192,155454,128,0,155636:0:0:0:0:
256,192,155454,128,0,155636:0:0:0:0:
109,192,155727,128,0,156181:0:0:0:0:
182,192,155727,128,0,156181:0:0:0:0:
402,192,155727,128,0,155818:0:0:0:0:
475,192,155727,128,0,155818:0:0:0:0:
402,192,155909,128,0,156181:0:0:0:0:
475,192,155909,128,0,156181:0:0:0:0:
329,192,156090,128,0,156181:0:0:0:0:
256,192,156090,128,0,156181:0:0:0:0:
109,192,156272,128,0,156545:0:0:0:0:
256,192,156272,128,0,156545:0:0:0:0:
329,192,156272,128,0,156545:0:0:0:0:
402,192,156272,128,0,156545:0:0:0:0:
182,192,156454,128,0,156545:0:0:0:0:
36,192,156454,128,0,156545:0:0:0:0:
182,192,156636,128,0,156818:0:0:0:0:
256,192,156636,128,0,157000:0:0:0:0:
329,192,156636,128,0,157181:0:0:0:0:
402,192,156636,128,0,157363:0:0:0:0:
109,192,156818,128,0,157727:0:0:0:0:
182,192,157000,128,0,157545:0:0:0:0:
256,192,157181,128,0,157363:0:0:0:0:
329,192,157363,128,0,158000:0:0:0:0:
256,192,157545,128,0,158000:0:0:0:0:
182,192,157727,128,0,158000:0:0:0:0:
109,192,157909,128,0,158000:0:0:0:0:
256,192,158090,128,0,158545:0:0:0:0:
36,192,158090,128,0,158272:0:0:0:0:
109,192,158090,128,0,158272:0:0:0:0:
182,192,158090,128,0,158272:0:0:0:0:
329,192,158272,128,0,158545:0:0:0:0:
402,192,158272,128,0,158545:0:0:0:0:
182,192,158454,128,0,158545:0:0:0:0:
109,192,158454,128,0,158545:0:0:0:0:
256,192,158636,128,0,158818:0:0:0:0:
329,192,158636,128,0,158818:0:0:0:0:
402,192,158636,128,0,158818:0:0:0:0:
475,192,158636,128,0,158818:0:0:0:0:
109,192,158727,128,0,158818:0:0:0:0:
182,192,158727,128,0,158818:0:0:0:0:
109,192,158909,128,0,159090:0:0:0:0:
182,192,158909,128,0,159090:0:0:0:0:
329,192,159000,128,0,159090:0:0:0:0:
402,192,159000,128,0,159090:0:0:0:0:
36,192,159181,128,0,159454:0:0:0:0:
109,192,159181,128,0,159454:0:0:0:0:
256,192,159181,128,0,159454:0:0:0:0:
402,192,159181,128,0,159454:0:0:0:0:
475,192,159181,128,0,159454:0:0:0:0:
109,192,159545,128,0,159727:0:0:0:0:
36,192,159545,128,0,159727:0:0:0:0:
182,192,159545,128,0,159727:0:0:0:0:
256,192,159545,128,0,160000:0:0:0:0:
329,192,159727,128,0,160000:0:0:0:0:
402,192,159727,128,0,160000:0:0:0:0:
109,192,159909,128,0,160000:0:0:0:0:
182,192,159909,128,0,160000:0:0:0:0:
256,192,160090,128,0,160272:0:0:0:0:
475,192,160090,128,0,160272:0:0:0:0:
182,192,160181,128,0,160272:0:0:0:0:
109,192,160181,128,0,160272:0:0:0:0:
182,192,160363,128,0,160545:0:0:0:0:
109,192,160363,128,0,160545:0:0:0:0:
329,192,160454,128,0,160545:0:0:0:0:
402,192,160454,128,0,160545:0:0:0:0:
36,192,160636,128,0,160909:0:0:0:0:
109,192,160636,128,0,160909:0:0:0:0:
256,192,160818,128,0,160909:0:0:0:0:
329,192,160818,128,0,160909:0:0:0:0:
36,192,161000,128,0,161454:0:0:0:0:
109,192,161000,128,0,161454:0:0:0:0:
329,192,161000,128,0,161454:0:0:0:0:
402,192,161000,128,0,161454:0:0:0:0:
182,192,161272,128,0,161454:0:0:0:0:
256,192,161272,128,0,161454:0:0:0:0:
109,192,161545,128,0,162000:0:0:0:0:
182,192,161545,128,0,162000:0:0:0:0:
402,192,161545,128,0,161636:0:0:0:0:
475,192,161545,128,0,161636:0:0:0:0:
402,192,161727,128,0,162000:0:0:0:0:
475,192,161727,128,0,162000:0:0:0:0:
329,192,161909,128,0,162000:0:0:0:0:
256,192,161909,128,0,162000:0:0:0:0:
109,192,162090,128,0,162363:0:0:0:0:
256,192,162090,128,0,162363:0:0:0:0:
329,192,162090,128,0,162363:0:0:0:0:
402,192,162090,128,0,162363:0:0:0:0:
182,192,162272,128,0,162363:0:0:0:0:
36,192,162272,128,0,162363:0:0:0:0:
402,192,162454,128,0,162636:0:0:0:0:
329,192,162454,128,0,162818:0:0:0:0:
182,192,162454,128,0,163000:0:0:0:0:
475,192,162454,1,0,0:0:0:0:
475,192,162636,128,0,163181:0:0:0:0:
402,192,162818,128,0,163181:0:0:0:0:
329,192,163000,128,0,163181:0:0:0:0:
109,192,163000,128,0,163181:0:0:0:0:
36,192,163000,128,0,163181:0:0:0:0:
182,192,163181,1,0,0:0:0:0:
256,192,163181,1,0,0:0:0:0:
182,192,163272,1,0,0:0:0:0:
256,192,163272,1,0,0:0:0:0:
402,192,163363,1,0,0:0:0:0:
475,192,163363,1,0,0:0:0:0:
182,192,163454,1,0,0:0:0:0:
109,192,163454,1,0,0:0:0:0:
329,192,163545,1,0,0:0:0:0:
402,192,163545,1,0,0:0:0:0:
109,192,163636,1,0,0:0:0:0:
36,192,163636,1,0,0:0:0:0:
36,192,163818,1,0,0:0:0:0:
109,192,163818,1,0,0:0:0:0:
475,192,163909,128,0,164090:0:0:0:0:
402,192,163909,128,0,164090:0:0:0:0:
256,192,163909,128,0,164363:0:0:0:0:
329,192,163909,128,0,164090:0:0:0:0:
109,192,164090,128,0,164363:0:0:0:0:
36,192,164090,128,0,164363:0:0:0:0:
182,192,164272,128,0,164363:0:0:0:0:
402,192,164272,128,0,164363:0:0:0:0:
402,192,164454,128,0,164636:0:0:0:0:
475,192,164454,128,0,164636:0:0:0:0:
256,192,164454,128,0,164636:0:0:0:0:
329,192,164454,128,0,164636:0:0:0:0:
182,192,164545,128,0,164636:0:0:0:0:
109,192,164545,128,0,164636:0:0:0:0:
109,192,164727,128,0,164909:0:0:0:0:
36,192,164727,128,0,164909:0:0:0:0:
329,192,164818,128,0,164909:0:0:0:0:
402,192,164818,128,0,164909:0:0:0:0:
329,192,165000,128,0,165272:0:0:0:0:
475,192,165000,128,0,165272:0:0:0:0:
182,192,165000,128,0,165272:0:0:0:0:
36,192,165000,128,0,165272:0:0:0:0:
256,192,165000,128,0,165272:0:0:0:0:
182,192,165363,128,0,165545:0:0:0:0:
256,192,165363,128,0,165818:0:0:0:0:
109,192,165363,128,0,165545:0:0:0:0:
36,192,165363,128,0,165545:0:0:0:0:
402,192,165545,128,0,165818:0:0:0:0:
475,192,165545,128,0,165818:0:0:0:0:
329,192,165727,128,0,165818:0:0:0:0:
109,192,165727,128,0,165818:0:0:0:0:
475,192,165909,128,0,166090:0:0:0:0:
256,192,165909,128,0,166090:0:0:0:0:
109,192,166000,128,0,166090:0:0:0:0:
36,192,166000,128,0,166090:0:0:0:0:
109,192,166181,128,0,166363:0:0:0:0:
36,192,166181,128,0,166363:0:0:0:0:
329,192,166272,128,0,166363:0:0:0:0:
256,192,166272,128,0,166363:0:0:0:0:
182,192,166454,128,0,166727:0:0:0:0:
109,192,166454,128,0,166727:0:0:0:0:
329,192,166636,128,0,166727:0:0:0:0:
475,192,166636,128,0,166727:0:0:0:0:
329,192,166818,128,0,167272:0:0:0:0:
475,192,166818,128,0,167272:0:0:0:0:
36,192,166818,128,0,167272:0:0:0:0:
109,192,166818,128,0,167272:0:0:0:0:
256,192,167090,128,0,167272:0:0:0:0:
182,192,167090,128,0,167272:0:0:0:0:
402,192,167363,128,0,167454:0:0:0:0:
475,192,167363,128,0,167454:0:0:0:0:
109,192,167363,128,0,167818:0:0:0:0:
36,192,167363,128,0,167818:0:0:0:0:
475,192,167545,128,0,167818:0:0:0:0:
402,192,167545,128,0,167818:0:0:0:0:
182,192,167727,128,0,167818:0:0:0:0:
329,192,167727,128,0,167818:0:0:0:0:
329,192,167909,128,0,168181:0:0:0:0:
402,192,167909,128,0,168181:0:0:0:0:
109,192,167909,128,0,168181:0:0:0:0:
256,192,167909,128,0,168181:0:0:0:0:
36,192,168090,128,0,168181:0:0:0:0:
182,192,168090,128,0,168181:0:0:0:0:
402,192,168272,128,0,168818:0:0:0:0:
475,192,168272,128,0,169000:0:0:0:0:
256,192,168272,128,0,168454:0:0:0:0:
329,192,168272,128,0,168636:0:0:0:0:
182,192,168454,128,0,169363:0:0:0:0:
256,192,168636,128,0,169181:0:0:0:0:
329,192,168818,128,0,169000:0:0:0:0:
402,192,169000,128,0,169636:0:0:0:0:
329,192,169181,128,0,169636:0:0:0:0:
256,192,169363,128,0,169636:0:0:0:0:
182,192,169545,128,0,169636:0:0:0:0:
109,192,169727,128,0,169909:0:0:0:0:
182,192,169727,128,0,169909:0:0:0:0:
256,192,169727,128,0,170181:0:0:0:0:
36,192,169727,128,0,169909:0:0:0:0:
402,192,169909,128,0,170181:0:0:0:0:
329,192,169909,128,0,170181:0:0:0:0:
109,192,170090,128,0,170181:0:0:0:0:
36,192,170090,128,0,170181:0:0:0:0:
402,192,170272,128,0,170454:0:0:0:0:
475,192,170272,128,0,170454:0:0:0:0:
256,192,170272,128,0,170454:0:0:0:0:
329,192,170272,128,0,170454:0:0:0:0:
109,192,170363,128,0,170454:0:0:0:0:
36,192,170363,128,0,170454:0:0:0:0:
36,192,170545,128,0,170727:0:0:0:0:
109,192,170545,128,0,170727:0:0:0:0:
402,192,170636,128,0,170727:0:0:0:0:
329,192,170636,128,0,170727:0:0:0:0:
402,192,170818,128,0,171090:0:0:0:0:
475,192,170818,128,0,171090:0:0:0:0:
256,192,170818,128,0,171090:0:0:0:0:
36,192,170818,128,0,171090:0:0:0:0:
182,192,170818,128,0,171090:0:0:0:0:
182,192,171181,128,0,171363:0:0:0:0:
256,192,171181,128,0,171636:0:0:0:0:
109,192,171181,128,0,171363:0:0:0:0:
36,192,171181,128,0,171363:0:0:0:0:
402,192,171363,128,0,171636:0:0:0:0:
475,192,171363,128,0,171636:0:0:0:0:
109,192,171545,128,0,171636:0:0:0:0:
36,192,171545,128,0,171636:0:0:0:0:
475,192,171727,128,0,171909:0:0:0:0:
329,192,171727,128,0,171909:0:0:0:0:
109,192,171818,128,0,171909:0:0:0:0:
182,192,171818,128,0,171909:0:0:0:0:
109,192,172000,128,0,172181:0:0:0:0:
182,192,172000,128,0,172181:0:0:0:0:
475,192,172090,128,0,172181:0:0:0:0:
329,192,172090,128,0,172181:0:0:0:0:
109,192,172272,128,0,172545:0:0:0:0:
36,192,172272,128,0,172545:0:0:0:0:
402,192,172454,128,0,172545:0:0:0:0:
256,192,172454,128,0,172545:0:0:0:0:
256,192,172636,128,0,173090:0:0:0:0:
329,192,172636,128,0,173090:0:0:0:0:
36,192,172636,128,0,173090:0:0:0:0:
109,192,172636,128,0,173090:0:0:0:0:
402,192,172909,128,0,173090:0:0:0:0:
182,192,172909,128,0,173090:0:0:0:0:
402,192,173181,128,0,173272:0:0:0:0:
475,192,173181,128,0,173272:0:0:0:0:
109,192,173181,128,0,173636:0:0:0:0:
36,192,173181,128,0,173636:0:0:0:0:
475,192,173363,128,0,173636:0:0:0:0:
402,192,173363,128,0,173636:0:0:0:0:
182,192,173545,128,0,173636:0:0:0:0:
329,192,173545,128,0,173636:0:0:0:0:
329,192,173727,128,0,174000:0:0:0:0:
402,192,173727,128,0,174000:0:0:0:0:
109,192,173727,128,0,174000:0:0:0:0:
256,192,173727,128,0,174000:0:0:0:0:
36,192,173909,128,0,174000:0:0:0:0:
182,192,173909,128,0,174000:0:0:0:0:
36,192,174090,128,0,174636:0:0:0:0:
475,192,174090,1,0,0:0:0:0:
402,192,174090,128,0,174272:0:0:0:0:
329,192,174090,128,0,174454:0:0:0:0:
475,192,174272,128,0,174818:0:0:0:0:
402,192,174454,128,0,174818:0:0:0:0:
182,192,174636,128,0,174818:0:0:0:0:
109,192,174636,128,0,174818:0:0:0:0:
329,192,174636,128,0,174818:0:0:0:0:
256,192,174818,1,0,0:0:0:0:
36,192,174818,1,0,0:0:0:0:
256,192,174909,1,0,0:0:0:0:
36,192,174909,1,0,0:0:0:0:
475,192,175000,1,0,0:0:0:0:
402,192,175000,1,0,0:0:0:0:
109,192,175090,1,0,0:0:0:0:
182,192,175090,1,0,0:0:0:0:
402,192,175181,1,0,0:0:0:0:
329,192,175181,1,0,0:0:0:0:
36,192,175272,1,0,0:0:0:0:
109,192,175272,1,0,0:0:0:0:
109,192,175454,1,0,0:0:0:0:
36,192,175454,1,0,0:0:0:0:
329,192,175545,1,0,0:0:0:0:
475,192,175545,1,0,0:0:0:0:
182,192,175545,1,0,0:0:0:0:
402,192,175727,1,0,0:0:0:0:
256,192,175727,1,0,0:0:0:0:
109,192,175727,1,0,0:0:0:0:
36,192,175909,1,0,0:0:0:0:
182,192,175909,1,0,0:0:0:0:
329,192,175909,1,0,0:0:0:0:
402,192,176090,1,0,0:0:0:0:
475,192,176090,1,0,0:0:0:0:
256,192,176090,1,0,0:0:0:0:
36,192,176181,1,0,0:0:0:0:
109,192,176181,1,0,0:0:0:0:
329,192,176181,1,0,0:0:0:0:
329,192,176363,1,0,0:0:0:0:
109,192,176363,1,0,0:0:0:0:
36,192,176363,1,0,0:0:0:0:
256,192,176454,1,0,0:0:0:0:
475,192,176454,1,0,0:0:0:0:
402,192,176454,1,0,0:0:0:0:
329,192,176636,128,0,176909:0:0:0:0:
182,192,176636,128,0,176909:0:0:0:0:
109,192,176636,128,0,176909:0:0:0:0:
329,192,177000,1,0,0:0:0:0:
182,192,177000,1,0,0:0:0:0:
36,192,177000,1,0,0:0:0:0:
402,192,177181,1,0,0:0:0:0:
256,192,177181,1,0,0:0:0:0:
109,192,177181,1,0,0:0:0:0:
475,192,177363,1,0,0:0:0:0:
329,192,177363,1,0,0:0:0:0:
182,192,177363,1,0,0:0:0:0:
36,192,177545,1,0,0:0:0:0:
109,192,177545,1,0,0:0:0:0:
256,192,177545,1,0,0:0:0:0:
182,192,177636,1,0,0:0:0:0:
475,192,177636,1,0,0:0:0:0:
402,192,177636,1,0,0:0:0:0:
402,192,177818,1,0,0:0:0:0:
475,192,177818,1,0,0:0:0:0:
182,192,177818,1,0,0:0:0:0:
36,192,177909,1,0,0:0:0:0:
256,192,177909,1,0,0:0:0:0:
109,192,177909,1,0,0:0:0:0:
256,192,178090,1,0,0:0:0:0:
109,192,178090,1,0,0:0:0:0:
36,192,178090,1,0,0:0:0:0:
329,192,178272,1,0,0:0:0:0:
182,192,178272,1,0,0:0:0:0:
109,192,178272,1,0,0:0:0:0:
402,192,178454,1,0,0:0:0:0:
256,192,178454,1,0,0:0:0:0:
36,192,178454,1,0,0:0:0:0:
402,192,178636,1,0,0:0:0:0:
256,192,178636,1,0,0:0:0:0:
109,192,178636,1,0,0:0:0:0:
475,192,178727,1,0,0:0:0:0:
329,192,178727,1,0,0:0:0:0:
182,192,178727,1,0,0:0:0:0:
36,192,178818,1,0,0:0:0:0:
109,192,178818,1,0,0:0:0:0:
182,192,179000,1,0,0:0:0:0:
402,192,179000,1,0,0:0:0:0:
256,192,179000,1,0,0:0:0:0:
402,192,179181,1,0,0:0:0:0:
256,192,179181,1,0,0:0:0:0:
182,192,179181,1,0,0:0:0:0:
329,192,179363,1,0,0:0:0:0:
182,192,179363,1,0,0:0:0:0:
109,192,179363,1,0,0:0:0:0:
256,192,179545,1,0,0:0:0:0:
36,192,179545,1,0,0:0:0:0:
402,192,179545,1,0,0:0:0:0:
475,192,179727,1,0,0:0:0:0:
329,192,179727,1,0,0:0:0:0:
109,192,179727,1,0,0:0:0:0:
36,192,179909,1,0,0:0:0:0:
256,192,179909,128,0,180454:0:0:0:0:
182,192,180090,1,0,0:0:0:0:
329,192,180090,128,0,180636:0:0:0:0:
36,192,180272,1,0,0:0:0:0:
402,192,180272,128,0,180818:0:0:0:0:
182,192,180454,1,0,0:0:0:0:
475,192,180454,128,0,181000:0:0:0:0:
256,192,180636,128,0,181272:0:0:0:0:
109,192,180636,1,0,0:0:0:0:
36,192,180636,1,0,0:0:0:0:
329,192,180818,128,0,181272:0:0:0:0:
109,192,180818,1,0,0:0:0:0:
36,192,180818,1,0,0:0:0:0:
402,192,181000,128,0,181272:0:0:0:0:
36,192,181000,1,0,0:0:0:0:
109,192,181000,1,0,0:0:0:0:
475,192,181181,128,0,181272:0:0:0:0:
329,192,181363,1,0,0:0:0:0:
182,192,181363,1,0,0:0:0:0:
36,192,181363,1,0,0:0:0:0:
402,192,181545,1,0,0:0:0:0:
256,192,181545,1,0,0:0:0:0:
109,192,181545,1,0,0:0:0:0:
475,192,181727,1,0,0:0:0:0:
329,192,181727,1,0,0:0:0:0:
182,192,181727,1,0,0:0:0:0:
329,192,181909,1,0,0:0:0:0:
109,192,181909,1,0,0:0:0:0:
36,192,181909,1,0,0:0:0:0:
475,192,182000,1,0,0:0:0:0:
402,192,182000,1,0,0:0:0:0:
182,192,182000,1,0,0:0:0:0:
475,192,182181,1,0,0:0:0:0:
402,192,182181,1,0,0:0:0:0:
182,192,182181,1,0,0:0:0:0:
36,192,182272,1,0,0:0:0:0:
109,192,182272,1,0,0:0:0:0:
329,192,182272,1,0,0:0:0:0:
256,192,182454,128,0,182727:0:0:0:0:
402,192,182454,128,0,182727:0:0:0:0:
182,192,182454,128,0,182727:0:0:0:0:
182,192,182818,1,0,0:0:0:0:
329,192,182818,1,0,0:0:0:0:
475,192,182818,1,0,0:0:0:0:
109,192,183000,1,0,0:0:0:0:
256,192,183000,1,0,0:0:0:0:
402,192,183000,1,0,0:0:0:0:
36,192,183181,1,0,0:0:0:0:
182,192,183181,1,0,0:0:0:0:
329,192,183181,1,0,0:0:0:0:
182,192,183363,1,0,0:0:0:0:
402,192,183363,1,0,0:0:0:0:
475,192,183363,1,0,0:0:0:0:
36,192,183454,1,0,0:0:0:0:
109,192,183454,1,0,0:0:0:0:
329,192,183454,1,0,0:0:0:0:
36,192,183636,1,0,0:0:0:0:
109,192,183636,1,0,0:0:0:0:
329,192,183636,1,0,0:0:0:0:
475,192,183727,1,0,0:0:0:0:
402,192,183727,1,0,0:0:0:0:
182,192,183727,1,0,0:0:0:0:
475,192,183909,1,0,0:0:0:0:
402,192,183909,1,0,0:0:0:0:
182,192,183909,1,0,0:0:0:0:
109,192,184090,1,0,0:0:0:0:
402,192,184090,1,0,0:0:0:0:
329,192,184090,1,0,0:0:0:0:
256,192,184272,1,0,0:0:0:0:
182,192,184272,1,0,0:0:0:0:
36,192,184272,1,0,0:0:0:0:
329,192,184363,1,0,0:0:0:0:
182,192,184454,1,0,0:0:0:0:
329,192,184545,1,0,0:0:0:0:
256,192,184636,1,0,0:0:0:0:
475,192,184636,1,0,0:0:0:0:
182,192,184636,1,0,0:0:0:0:
329,192,184727,1,0,0:0:0:0:
182,192,184818,1,0,0:0:0:0:
329,192,184909,1,0,0:0:0:0:
36,192,185000,1,0,0:0:0:0:
109,192,185045,1,0,0:0:0:0:
182,192,185090,1,0,0:0:0:0:
256,192,185136,1,0,0:0:0:0:
329,192,185181,1,0,0:0:0:0:
36,192,185227,1,0,0:0:0:0:
109,192,185272,1,0,0:0:0:0:
182,192,185318,1,0,0:0:0:0:
475,192,185363,1,0,0:0:0:0:
402,192,185409,1,0,0:0:0:0:
329,192,185454,1,0,0:0:0:0:
256,192,185500,1,0,0:0:0:0:
182,192,185545,1,0,0:0:0:0:
475,192,185590,1,0,0:0:0:0:
402,192,185636,1,0,0:0:0:0:
329,192,185681,1,0,0:0:0:0:
36,192,185727,1,0,0:0:0:0:
109,192,185772,1,0,0:0:0:0:
182,192,185818,1,0,0:0:0:0:
256,192,185863,1,0,0:0:0:0:
329,192,185909,1,0,0:0:0:0:
36,192,185954,1,0,0:0:0:0:
109,192,186000,1,0,0:0:0:0:
182,192,186045,1,0,0:0:0:0:
256,192,186090,1,0,0:0:0:0:
475,192,186090,1,0,0:0:0:0:
402,192,186136,1,0,0:0:0:0:
329,192,186181,1,0,0:0:0:0:
109,192,186227,1,0,0:0:0:0:
182,192,186272,1,0,0:0:0:0:
475,192,186272,1,0,0:0:0:0:
402,192,186318,1,0,0:0:0:0:
329,192,186363,1,0,0:0:0:0:
256,192,186409,1,0,0:0:0:0:
182,192,186454,1,0,0:0:0:0:
109,192,186454,1,0,0:0:0:0:
36,192,186454,1,0,0:0:0:0:
36,192,186636,1,0,0:0:0:0:
109,192,186636,1,0,0:0:0:0:
182,192,186727,1,0,0:0:0:0:
329,192,186727,1,0,0:0:0:0:
402,192,186818,1,0,0:0:0:0:
475,192,186818,1,0,0:0:0:0:
402,192,187000,1,0,0:0:0:0:
475,192,187000,1,0,0:0:0:0:
36,192,187181,1,0,0:0:0:0:
109,192,187181,1,0,0:0:0:0:
402,192,187181,1,0,0:0:0:0:
475,192,187181,1,0,0:0:0:0:
256,192,187181,128,0,191363:0:0:0:0:
329,192,187363,1,0,0:0:0:0:
182,192,187363,1,0,0:0:0:0:
182,192,187545,1,0,0:0:0:0:
329,192,187545,1,0,0:0:0:0:
329,192,187727,1,0,0:0:0:0:
182,192,187727,1,0,0:0:0:0:
182,192,187909,1,0,0:0:0:0:
329,192,187909,1,0,0:0:0:0:
182,192,188090,1,0,0:0:0:0:
329,192,188090,1,0,0:0:0:0:
329,192,188272,1,0,0:0:0:0:
182,192,188272,1,0,0:0:0:0:
182,192,188454,1,0,0:0:0:0:
329,192,188454,1,0,0:0:0:0:
182,192,188636,1,0,0:0:0:0:
109,192,188636,1,0,0:0:0:0:
329,192,188636,1,0,0:0:0:0:
402,192,188636,1,0,0:0:0:0:
402,192,188818,1,0,0:0:0:0:
109,192,188818,1,0,0:0:0:0:
109,192,189000,1,0,0:0:0:0:
402,192,189000,1,0,0:0:0:0:
402,192,189181,1,0,0:0:0:0:
109,192,189181,1,0,0:0:0:0:
109,192,189363,1,0,0:0:0:0:
402,192,189363,1,0,0:0:0:0:
402,192,189545,1,0,0:0:0:0:
109,192,189545,1,0,0:0:0:0:
109,192,189727,1,0,0:0:0:0:
402,192,189727,1,0,0:0:0:0:
402,192,189909,1,0,0:0:0:0:
109,192,189909,1,0,0:0:0:0:
109,192,190090,1,0,0:0:0:0:
36,192,190090,1,0,0:0:0:0:
475,192,190090,1,0,0:0:0:0:
402,192,190090,1,0,0:0:0:0:
475,192,190272,1,0,0:0:0:0:
36,192,190272,1,0,0:0:0:0:
36,192,190454,1,0,0:0:0:0:
475,192,190454,1,0,0:0:0:0:
475,192,190636,1,0,0:0:0:0:
36,192,190636,1,0,0:0:0:0:
36,192,190818,1,0,0:0:0:0:
475,192,190818,1,0,0:0:0:0:
475,192,191000,1,0,0:0:0:0:
36,192,191000,1,0,0:0:0:0:
36,192,191181,1,0,0:0:0:0:
475,192,191181,1,0,0:0:0:0:
475,192,191363,1,0,0:0:0:0:
36,192,191363,1,0,0:0:0:0:
36,192,191545,1,0,0:0:0:0:
256,192,191545,1,0,0:0:0:0:
475,192,191545,1,0,0:0:0:0:
475,192,191727,1,0,0:0:0:0:
256,192,191727,1,0,0:0:0:0:
36,192,191727,1,0,0:0:0:0:
36,192,191909,1,0,0:0:0:0:
256,192,191909,1,0,0:0:0:0:
475,192,191909,1,0,0:0:0:0:
475,192,192090,1,0,0:0:0:0:
256,192,192090,1,0,0:0:0:0:
36,192,192090,1,0,0:0:0:0:
36,192,192272,1,0,0:0:0:0:
256,192,192272,1,0,0:0:0:0:
475,192,192272,1,0,0:0:0:0:
475,192,192454,1,0,0:0:0:0:
256,192,192454,1,0,0:0:0:0:
36,192,192454,1,0,0:0:0:0:
36,192,192636,1,0,0:0:0:0:
109,192,192636,1,0,0:0:0:0:
402,192,192636,1,0,0:0:0:0:
475,192,192636,1,0,0:0:0:0:
329,192,192727,1,0,0:0:0:0:
256,192,192818,1,0,0:0:0:0:
182,192,192909,1,0,0:0:0:0:
36,192,193000,1,0,0:0:0:0:
109,192,193000,1,0,0:0:0:0:
182,192,193090,1,0,0:0:0:0:
256,192,193090,1,0,0:0:0:0:
329,192,193181,1,0,0:0:0:0:
402,192,193181,1,0,0:0:0:0:
36,192,193272,1,0,0:0:0:0:
475,192,193272,1,0,0:0:0:0:
109,192,193363,1,0,0:0:0:0:
182,192,193363,1,0,0:0:0:0:
256,192,193454,1,0,0:0:0:0:
329,192,193454,1,0,0:0:0:0:
402,192,193545,1,0,0:0:0:0:
475,192,193545,1,0,0:0:0:0:
36,192,193636,1,0,0:0:0:0:
109,192,193636,1,0,0:0:0:0:
182,192,193727,1,0,0:0:0:0:
329,192,193727,1,0,0:0:0:0:
402,192,193818,1,0,0:0:0:0:
475,192,193818,1,0,0:0:0:0:
36,192,193909,1,0,0:0:0:0:
109,192,193909,1,0,0:0:0:0:
182,192,194000,1,0,0:0:0:0:
256,192,194000,1,0,0:0:0:0:
329,192,194090,1,0,0:0:0:0:
402,192,194090,1,0,0:0:0:0:
475,192,194181,1,0,0:0:0:0:
36,192,194181,1,0,0:0:0:0:
109,192,194272,1,0,0:0:0:0:
182,192,194272,1,0,0:0:0:0:
256,192,194363,1,0,0:0:0:0:
402,192,194363,1,0,0:0:0:0:
475,192,194454,1,0,0:0:0:0:
36,192,194454,1,0,0:0:0:0:
109,192,194545,1,0,0:0:0:0:
182,192,194545,1,0,0:0:0:0:
256,192,194636,1,0,0:0:0:0:
329,192,194636,1,0,0:0:0:0:
402,192,194727,1,0,0:0:0:0:
475,192,194727,1,0,0:0:0:0:
36,192,194818,1,0,0:0:0:0:
256,192,194818,1,0,0:0:0:0:
109,192,194909,1,0,0:0:0:0:
329,192,194909,1,0,0:0:0:0:
182,192,195000,1,0,0:0:0:0:
402,192,195000,1,0,0:0:0:0:
256,192,195090,1,0,0:0:0:0:
475,192,195090,1,0,0:0:0:0:
109,192,195181,1,0,0:0:0:0:
36,192,195181,1,0,0:0:0:0:
182,192,195272,1,0,0:0:0:0:
256,192,195272,1,0,0:0:0:0:
329,192,195363,1,0,0:0:0:0:
402,192,195363,1,0,0:0:0:0:
475,192,195454,1,0,0:0:0:0:
36,192,195454,1,0,0:0:0:0:
109,192,195545,1,0,0:0:0:0:
256,192,195545,1,0,0:0:0:0:
182,192,195636,1,0,0:0:0:0:
329,192,195636,1,0,0:0:0:0:
256,192,195727,1,0,0:0:0:0:
402,192,195727,1,0,0:0:0:0:
329,192,195818,1,0,0:0:0:0:
475,192,195818,1,0,0:0:0:0:
36,192,195909,1,0,0:0:0:0:
109,192,195954,1,0,0:0:0:0:
182,192,196000,1,0,0:0:0:0:
256,192,196045,1,0,0:0:0:0:
475,192,196090,1,0,0:0:0:0:
402,192,196136,1,0,0:0:0:0:
329,192,196181,1,0,0:0:0:0:
256,192,196227,1,0,0:0:0:0:
36,192,196272,1,0,0:0:0:0:
109,192,196318,1,0,0:0:0:0:
182,192,196363,1,0,0:0:0:0:
256,192,196409,1,0,0:0:0:0:
475,192,196454,1,0,0:0:0:0:
402,192,196500,1,0,0:0:0:0:
329,192,196545,1,0,0:0:0:0:
256,192,196590,1,0,0:0:0:0:
36,192,196636,1,0,0:0:0:0:
109,192,196681,1,0,0:0:0:0:
182,192,196727,1,0,0:0:0:0:
256,192,196772,1,0,0:0:0:0:
329,192,196818,1,0,0:0:0:0:
402,192,196863,1,0,0:0:0:0:
475,192,196909,1,0,0:0:0:0:
36,192,196954,1,0,0:0:0:0:
109,192,197000,1,0,0:0:0:0:
182,192,197045,1,0,0:0:0:0:
256,192,197090,1,0,0:0:0:0:
329,192,197136,1,0,0:0:0:0:
402,192,197181,1,0,0:0:0:0:
475,192,197227,1,0,0:0:0:0:
109,192,197272,1,0,0:0:0:0:
182,192,197318,1,0,0:0:0:0:
256,192,197363,1,0,0:0:0:0:
402,192,197363,1,0,0:0:0:0:
36,192,197363,1,0,0:0:0:0:
475,192,197454,1,0,0:0:0:0:
402,192,197545,1,0,0:0:0:0:
109,192,197636,1,0,0:0:0:0:
329,192,197727,128,0,197909:0:0:0:0:
36,192,197909,1,0,0:0:0:0:
475,192,198000,128,0,198181:0:0:0:0:
329,192,198181,1,0,0:0:0:0:
36,192,198272,1,0,0:0:0:0:
402,192,198272,1,0,0:0:0:0:
182,192,198272,1,0,0:0:0:0:
109,192,198272,1,0,0:0:0:0:
256,192,198363,1,0,0:0:0:0:
182,192,198454,1,0,0:0:0:0:
329,192,198454,1,0,0:0:0:0:
402,192,198454,1,0,0:0:0:0:
475,192,198454,1,0,0:0:0:0:
109,192,198454,1,0,0:0:0:0:
36,192,198454,1,0,0:0:0:0:
36,192,198818,1,0,0:0:0:0:
256,192,198818,1,0,0:0:0:0:
402,192,198818,1,0,0:0:0:0:
475,192,198818,1,0,0:0:0:0:
109,192,198909,1,0,0:0:0:0:
329,192,198909,1,0,0:0:0:0:
182,192,199000,1,0,0:0:0:0:
402,192,199000,1,0,0:0:0:0:
256,192,199090,1,0,0:0:0:0:
475,192,199090,1,0,0:0:0:0:
109,192,199181,1,0,0:0:0:0:
36,192,199181,1,0,0:0:0:0:
329,192,199181,1,0,0:0:0:0:
402,192,199181,1,0,0:0:0:0:
182,192,199272,1,0,0:0:0:0:
256,192,199363,1,0,0:0:0:0:
36,192,199363,1,0,0:0:0:0:
402,192,199363,1,0,0:0:0:0:
109,192,199454,1,0,0:0:0:0:
329,192,199454,1,0,0:0:0:0:
475,192,199454,1,0,0:0:0:0:
36,192,199545,1,0,0:0:0:0:
256,192,199545,1,0,0:0:0:0:
402,192,199545,1,0,0:0:0:0:
109,192,199636,1,0,0:0:0:0:
329,192,199636,1,0,0:0:0:0:
182,192,199727,1,0,0:0:0:0:
402,192,199727,1,0,0:0:0:0:
329,192,199818,1,0,0:0:0:0:
109,192,199818,1,0,0:0:0:0:
36,192,199909,1,0,0:0:0:0:
256,192,199909,1,0,0:0:0:0:
475,192,199909,1,0,0:0:0:0:
402,192,199909,1,0,0:0:0:0:
182,192,200000,1,0,0:0:0:0:
329,192,200000,1,0,0:0:0:0:
109,192,200090,1,0,0:0:0:0:
256,192,200090,1,0,0:0:0:0:
182,192,200181,1,0,0:0:0:0:
329,192,200181,1,0,0:0:0:0:
256,192,200272,1,0,0:0:0:0:
36,192,200272,1,0,0:0:0:0:
402,192,200272,1,0,0:0:0:0:
109,192,200363,1,0,0:0:0:0:
182,192,200363,1,0,0:0:0:0:
256,192,200454,1,0,0:0:0:0:
329,192,200454,1,0,0:0:0:0:
402,192,200545,1,0,0:0:0:0:
475,192,200545,1,0,0:0:0:0:
36,192,200636,1,0,0:0:0:0:
109,192,200636,1,0,0:0:0:0:
329,192,200636,1,0,0:0:0:0:
182,192,200636,1,0,0:0:0:0:
256,192,200727,1,0,0:0:0:0:
182,192,200818,1,0,0:0:0:0:
36,192,200818,1,0,0:0:0:0:
329,192,200818,1,0,0:0:0:0:
109,192,200909,1,0,0:0:0:0:
256,192,200909,1,0,0:0:0:0:
402,192,200909,1,0,0:0:0:0:
182,192,201000,1,0,0:0:0:0:
36,192,201000,1,0,0:0:0:0:
329,192,201000,1,0,0:0:0:0:
402,192,201090,1,0,0:0:0:0:
109,192,201090,1,0,0:0:0:0:
182,192,201181,1,0,0:0:0:0:
475,192,201181,1,0,0:0:0:0:
402,192,201272,1,0,0:0:0:0:
109,192,201272,1,0,0:0:0:0:
329,192,201363,1,0,0:0:0:0:
256,192,201363,1,0,0:0:0:0:
36,192,201363,1,0,0:0:0:0:
182,192,201363,1,0,0:0:0:0:
475,192,201454,1,0,0:0:0:0:
109,192,201454,1,0,0:0:0:0:
329,192,201545,1,0,0:0:0:0:
402,192,201545,1,0,0:0:0:0:
475,192,201636,1,0,0:0:0:0:
182,192,201636,1,0,0:0:0:0:
256,192,201727,1,0,0:0:0:0:
329,192,201727,1,0,0:0:0:0:
36,192,201727,1,0,0:0:0:0:
109,192,201818,1,0,0:0:0:0:
402,192,201818,1,0,0:0:0:0:
182,192,201909,1,0,0:0:0:0:
475,192,201909,1,0,0:0:0:0:
256,192,202000,1,0,0:0:0:0:
402,192,202000,1,0,0:0:0:0:
329,192,202090,1,0,0:0:0:0:
109,192,202090,1,0,0:0:0:0:
36,192,202090,1,0,0:0:0:0:
182,192,202090,1,0,0:0:0:0:
475,192,202181,1,0,0:0:0:0:
109,192,202272,1,0,0:0:0:0:
256,192,202272,1,0,0:0:0:0:
402,192,202272,1,0,0:0:0:0:
329,192,202363,1,0,0:0:0:0:
475,192,202363,1,0,0:0:0:0:
182,192,202363,1,0,0:0:0:0:
109,192,202454,1,0,0:0:0:0:
256,192,202454,1,0,0:0:0:0:
402,192,202454,1,0,0:0:0:0:
36,192,202545,1,0,0:0:0:0:
329,192,202545,1,0,0:0:0:0:
256,192,202636,1,0,0:0:0:0:
475,192,202636,1,0,0:0:0:0:
402,192,202727,1,0,0:0:0:0:
182,192,202727,1,0,0:0:0:0:
36,192,202818,1,0,0:0:0:0:
109,192,202818,1,0,0:0:0:0:
329,192,202818,1,0,0:0:0:0:
256,192,202818,1,0,0:0:0:0:
182,192,202909,1,0,0:0:0:0:
402,192,202909,1,0,0:0:0:0:
36,192,203000,1,0,0:0:0:0:
475,192,203000,1,0,0:0:0:0:
109,192,203090,1,0,0:0:0:0:
402,192,203090,1,0,0:0:0:0:
182,192,203181,1,0,0:0:0:0:
256,192,203181,1,0,0:0:0:0:
329,192,203181,1,0,0:0:0:0:
402,192,203272,1,0,0:0:0:0:
475,192,203272,1,0,0:0:0:0:
36,192,203363,1,0,0:0:0:0:
109,192,203363,1,0,0:0:0:0:
182,192,203454,1,0,0:0:0:0:
256,192,203454,1,0,0:0:0:0:
109,192,203545,1,0,0:0:0:0:
36,192,203545,1,0,0:0:0:0:
329,192,203545,1,0,0:0:0:0:
475,192,203545,1,0,0:0:0:0:
256,192,203636,1,0,0:0:0:0:
182,192,203727,1,0,0:0:0:0:
329,192,203727,1,0,0:0:0:0:
475,192,203727,1,0,0:0:0:0:
402,192,203818,1,0,0:0:0:0:
256,192,203818,1,0,0:0:0:0:
109,192,203818,1,0,0:0:0:0:
182,192,203909,1,0,0:0:0:0:
36,192,203909,1,0,0:0:0:0:
329,192,203909,1,0,0:0:0:0:
256,192,204000,1,0,0:0:0:0:
475,192,204000,1,0,0:0:0:0:
402,192,204090,1,0,0:0:0:0:
182,192,204090,1,0,0:0:0:0:
329,192,204181,1,0,0:0:0:0:
109,192,204181,1,0,0:0:0:0:
256,192,204272,1,0,0:0:0:0:
36,192,204272,1,0,0:0:0:0:
402,192,204272,1,0,0:0:0:0:
475,192,204272,1,0,0:0:0:0:
182,192,204363,1,0,0:0:0:0:
329,192,204363,1,0,0:0:0:0:
256,192,204454,1,0,0:0:0:0:
109,192,204454,1,0,0:0:0:0:
182,192,204545,1,0,0:0:0:0:
36,192,204545,1,0,0:0:0:0:
109,192,204636,1,0,0:0:0:0:
329,192,204636,1,0,0:0:0:0:
475,192,204636,1,0,0:0:0:0:
402,192,204636,1,0,0:0:0:0:
36,192,204727,1,0,0:0:0:0:
256,192,204727,1,0,0:0:0:0:
109,192,204818,1,0,0:0:0:0:
329,192,204818,1,0,0:0:0:0:
182,192,204909,1,0,0:0:0:0:
402,192,204909,1,0,0:0:0:0:
256,192,205000,1,0,0:0:0:0:
36,192,205000,1,0,0:0:0:0:
109,192,205000,1,0,0:0:0:0:
475,192,205000,1,0,0:0:0:0:
329,192,205090,1,0,0:0:0:0:
36,192,205181,1,0,0:0:0:0:
109,192,205181,1,0,0:0:0:0:
182,192,205181,1,0,0:0:0:0:
329,192,205272,1,0,0:0:0:0:
402,192,205272,1,0,0:0:0:0:
475,192,205272,1,0,0:0:0:0:
182,192,205363,1,0,0:0:0:0:
109,192,205363,1,0,0:0:0:0:
36,192,205363,1,0,0:0:0:0:
256,192,205454,1,0,0:0:0:0:
475,192,205454,1,0,0:0:0:0:
402,192,205545,1,0,0:0:0:0:
182,192,205545,1,0,0:0:0:0:
329,192,205636,1,0,0:0:0:0:
109,192,205636,1,0,0:0:0:0:
36,192,205727,1,0,0:0:0:0:
256,192,205727,1,0,0:0:0:0:
475,192,205727,1,0,0:0:0:0:
402,192,205727,1,0,0:0:0:0:
182,192,205818,1,0,0:0:0:0:
329,192,205818,1,0,0:0:0:0:
109,192,205909,1,0,0:0:0:0:
402,192,205909,1,0,0:0:0:0:
329,192,206000,1,0,0:0:0:0:
182,192,206000,1,0,0:0:0:0:
256,192,206090,1,0,0:0:0:0:
36,192,206090,1,0,0:0:0:0:
475,192,206090,1,0,0:0:0:0:
109,192,206181,1,0,0:0:0:0:
329,192,206181,1,0,0:0:0:0:
182,192,206272,1,0,0:0:0:0:
402,192,206272,1,0,0:0:0:0:
256,192,206363,1,0,0:0:0:0:
475,192,206363,1,0,0:0:0:0:
329,192,206454,1,0,0:0:0:0:
36,192,206454,1,0,0:0:0:0:
109,192,206454,1,0,0:0:0:0:
402,192,206454,1,0,0:0:0:0:
182,192,206545,1,0,0:0:0:0:
36,192,206636,1,0,0:0:0:0:
109,192,206636,1,0,0:0:0:0:
256,192,206636,1,0,0:0:0:0:
329,192,206727,1,0,0:0:0:0:
402,192,206727,1,0,0:0:0:0:
475,192,206727,1,0,0:0:0:0:
256,192,206818,1,0,0:0:0:0:
109,192,206818,1,0,0:0:0:0:
36,192,206818,1,0,0:0:0:0:
182,192,206909,1,0,0:0:0:0:
329,192,206909,1,0,0:0:0:0:
256,192,207000,1,0,0:0:0:0:
402,192,207000,1,0,0:0:0:0:
182,192,207090,1,0,0:0:0:0:
329,192,207090,1,0,0:0:0:0:
109,192,207181,1,0,0:0:0:0:
36,192,207181,1,0,0:0:0:0:
402,192,207181,1,0,0:0:0:0:
475,192,207181,1,0,0:0:0:0:
329,192,207272,1,0,0:0:0:0:
182,192,207272,1,0,0:0:0:0:
109,192,207363,1,0,0:0:0:0:
402,192,207363,1,0,0:0:0:0:
475,192,207454,1,0,0:0:0:0:
36,192,207454,1,0,0:0:0:0:
182,192,207545,1,0,0:0:0:0:
329,192,207545,1,0,0:0:0:0:
109,192,207545,1,0,0:0:0:0:
256,192,207636,1,0,0:0:0:0:
475,192,207636,1,0,0:0:0:0:
182,192,207727,1,0,0:0:0:0:
402,192,207727,1,0,0:0:0:0:
109,192,207818,1,0,0:0:0:0:
329,192,207818,1,0,0:0:0:0:
36,192,207909,1,0,0:0:0:0:
256,192,207909,1,0,0:0:0:0:
402,192,207909,1,0,0:0:0:0:
475,192,207909,1,0,0:0:0:0:
109,192,208000,1,0,0:0:0:0:
329,192,208000,1,0,0:0:0:0:
475,192,208090,1,0,0:0:0:0:
402,192,208136,1,0,0:0:0:0:
182,192,208181,1,0,0:0:0:0:
256,192,208227,1,0,0:0:0:0:
329,192,208272,1,0,0:0:0:0:
475,192,208272,1,0,0:0:0:0:
109,192,208272,1,0,0:0:0:0:
36,192,208272,1,0,0:0:0:0:
182,192,208363,1,0,0:0:0:0:
402,192,208363,1,0,0:0:0:0:
329,192,208454,1,0,0:0:0:0:
109,192,208454,1,0,0:0:0:0:
36,192,208545,1,0,0:0:0:0:
256,192,208545,1,0,0:0:0:0:
109,192,208636,1,0,0:0:0:0:
182,192,208636,1,0,0:0:0:0:
109,192,208727,1,0,0:0:0:0:
182,192,208727,1,0,0:0:0:0:
329,192,208818,1,0,0:0:0:0:
475,192,208818,1,0,0:0:0:0:
256,192,209000,1,0,0:0:0:0:
402,192,209000,1,0,0:0:0:0:
109,192,209000,1,0,0:0:0:0:
36,192,209000,1,0,0:0:0:0:
182,192,209090,1,0,0:0:0:0:
475,192,209090,1,0,0:0:0:0:
402,192,209181,1,0,0:0:0:0:
109,192,209181,1,0,0:0:0:0:
329,192,209272,1,0,0:0:0:0:
36,192,209272,1,0,0:0:0:0:
109,192,209363,1,0,0:0:0:0:
182,192,209363,1,0,0:0:0:0:
256,192,209363,1,0,0:0:0:0:
475,192,209363,1,0,0:0:0:0:
402,192,209363,1,0,0:0:0:0:
109,192,209545,1,0,0:0:0:0:
182,192,209545,1,0,0:0:0:0:
402,192,209545,1,0,0:0:0:0:
475,192,209545,1,0,0:0:0:0:
256,192,209545,1,0,0:0:0:0:
36,192,209727,1,0,0:0:0:0:
329,192,209727,1,0,0:0:0:0:
109,192,209772,1,0,0:0:0:0:
182,192,209818,1,0,0:0:0:0:
402,192,209818,1,0,0:0:0:0:
256,192,209863,1,0,0:0:0:0:
475,192,209909,1,0,0:0:0:0:
329,192,210000,1,0,0:0:0:0:
36,192,210000,1,0,0:0:0:0:
182,192,210090,1,0,0:0:0:0:
475,192,210090,1,0,0:0:0:0:
402,192,210136,1,0,0:0:0:0:
109,192,210181,1,0,0:0:0:0:
329,192,210181,1,0,0:0:0:0:
256,192,210227,1,0,0:0:0:0:
36,192,210272,1,0,0:0:0:0:
475,192,210272,1,0,0:0:0:0:
109,192,210318,1,0,0:0:0:0:
182,192,210363,1,0,0:0:0:0:
402,192,210363,1,0,0:0:0:0:
256,192,210409,1,0,0:0:0:0:
36,192,210454,128,0,210545:0:0:0:0:
109,192,210454,128,0,210545:0:0:0:0:
329,192,210454,128,0,210545:0:0:0:0:
475,192,210454,128,0,210545:0:0:0:0:
182,192,210545,128,0,210636:0:0:0:0:
256,192,210545,128,0,210636:0:0:0:0:
36,192,210636,128,0,210727:0:0:0:0:
109,192,210636,128,0,210727:0:0:0:0:
475,192,210636,128,0,210727:0:0:0:0:
329,192,210727,128,0,210818:0:0:0:0:
402,192,210727,128,0,210818:0:0:0:0:
36,192,210818,128,0,210909:0:0:0:0:
109,192,210818,128,0,210909:0:0:0:0:
256,192,210818,128,0,210909:0:0:0:0:
475,192,210818,128,0,210909:0:0:0:0:
182,192,210909,128,0,211000:0:0:0:0:
36,192,211000,128,0,211090:0:0:0:0:
256,192,211000,128,0,211090:0:0:0:0:
402,192,211000,128,0,211090:0:0:0:0:
109,192,211090,128,0,211181:0:0:0:0:
329,192,211090,128,0,211181:0:0:0:0:
475,192,211090,128,0,211181:0:0:0:0:
402,192,211181,128,0,211272:0:0:0:0:
36,192,211181,128,0,211272:0:0:0:0:
256,192,211181,128,0,211272:0:0:0:0:
182,192,211272,128,0,211363:0:0:0:0:
475,192,211272,128,0,211363:0:0:0:0:
329,192,211363,128,0,211454:0:0:0:0:
36,192,211363,128,0,211454:0:0:0:0:
256,192,211363,128,0,211454:0:0:0:0:
109,192,211454,128,0,211545:0:0:0:0:
402,192,211454,128,0,211545:0:0:0:0:
182,192,211545,128,0,211636:0:0:0:0:
329,192,211545,128,0,211636:0:0:0:0:
475,192,211545,128,0,211636:0:0:0:0:
256,192,211545,128,0,211636:0:0:0:0:
109,192,211636,128,0,211727:0:0:0:0:
36,192,211636,128,0,211727:0:0:0:0:
402,192,211727,128,0,211818:0:0:0:0:
475,192,211727,128,0,211818:0:0:0:0:
329,192,211727,128,0,211818:0:0:0:0:
256,192,211818,128,0,211909:0:0:0:0:
182,192,211818,128,0,211909:0:0:0:0:
109,192,211909,128,0,212000:0:0:0:0:
36,192,211909,128,0,212000:0:0:0:0:
402,192,211909,128,0,212000:0:0:0:0:
475,192,211909,128,0,212000:0:0:0:0:
182,192,212000,128,0,212090:0:0:0:0:
329,192,212000,128,0,212090:0:0:0:0:
402,192,212090,128,0,212181:0:0:0:0:
475,192,212090,128,0,212181:0:0:0:0:
36,192,212090,128,0,212181:0:0:0:0:
109,192,212181,128,0,212272:0:0:0:0:
256,192,212181,128,0,212272:0:0:0:0:
36,192,212272,128,0,212363:0:0:0:0:
182,192,212272,128,0,212363:0:0:0:0:
402,192,212272,128,0,212363:0:0:0:0:
475,192,212272,128,0,212363:0:0:0:0:
329,192,212363,128,0,212454:0:0:0:0:
36,192,212454,128,0,212545:0:0:0:0:
109,192,212454,128,0,212545:0:0:0:0:
182,192,212454,128,0,212545:0:0:0:0:
329,192,212545,128,0,212636:0:0:0:0:
402,192,212545,128,0,212636:0:0:0:0:
475,192,212545,128,0,212636:0:0:0:0:
182,192,212636,128,0,212727:0:0:0:0:
109,192,212636,128,0,212727:0:0:0:0:
36,192,212636,128,0,212727:0:0:0:0:
256,192,212727,128,0,212818:0:0:0:0:
402,192,212727,128,0,212818:0:0:0:0:
329,192,212818,128,0,212909:0:0:0:0:
475,192,212818,128,0,212909:0:0:0:0:
109,192,212818,128,0,212909:0:0:0:0:
36,192,212909,128,0,213000:0:0:0:0:
256,192,212909,128,0,213000:0:0:0:0:
182,192,213000,128,0,213090:0:0:0:0:
402,192,213000,128,0,213090:0:0:0:0:
475,192,213000,128,0,213090:0:0:0:0:
329,192,213000,128,0,213090:0:0:0:0:
256,192,213090,128,0,213181:0:0:0:0:
109,192,213090,128,0,213181:0:0:0:0:
182,192,213181,128,0,213272:0:0:0:0:
402,192,213181,128,0,213272:0:0:0:0:
475,192,213181,128,0,213272:0:0:0:0:
329,192,213272,128,0,213363:0:0:0:0:
109,192,213272,128,0,213363:0:0:0:0:
36,192,213363,128,0,213454:0:0:0:0:
256,192,213363,128,0,213454:0:0:0:0:
182,192,213363,128,0,213454:0:0:0:0:
109,192,213454,128,0,213545:0:0:0:0:
329,192,213454,128,0,213545:0:0:0:0:
182,192,213545,128,0,213636:0:0:0:0:
402,192,213545,128,0,213636:0:0:0:0:
475,192,213545,128,0,213636:0:0:0:0:
109,192,213636,128,0,213727:0:0:0:0:
329,192,213636,128,0,213727:0:0:0:0:
402,192,213727,128,0,213818:0:0:0:0:
475,192,213727,128,0,213818:0:0:0:0:
256,192,213727,128,0,213818:0:0:0:0:
36,192,213727,128,0,213818:0:0:0:0:
182,192,213818,128,0,213909:0:0:0:0:
109,192,213909,128,0,214000:0:0:0:0:
256,192,213909,128,0,214000:0:0:0:0:
402,192,213909,128,0,214000:0:0:0:0:
182,192,214000,128,0,214090:0:0:0:0:
329,192,214000,128,0,214090:0:0:0:0:
475,192,214000,128,0,214090:0:0:0:0:
109,192,214090,128,0,214181:0:0:0:0:
256,192,214090,128,0,214181:0:0:0:0:
402,192,214090,128,0,214181:0:0:0:0:
182,192,214181,128,0,214272:0:0:0:0:
475,192,214181,128,0,214272:0:0:0:0:
109,192,214272,128,0,214363:0:0:0:0:
329,192,214272,128,0,214363:0:0:0:0:
402,192,214272,128,0,214363:0:0:0:0:
256,192,214363,128,0,214454:0:0:0:0:
36,192,214363,128,0,214454:0:0:0:0:
182,192,214454,128,0,214545:0:0:0:0:
402,192,214454,128,0,214545:0:0:0:0:
475,192,214454,128,0,214545:0:0:0:0:
109,192,214454,128,0,214545:0:0:0:0:
256,192,214545,128,0,214636:0:0:0:0:
329,192,214545,128,0,214636:0:0:0:0:
402,192,214636,128,0,214727:0:0:0:0:
475,192,214636,128,0,214727:0:0:0:0:
109,192,214636,128,0,214727:0:0:0:0:
182,192,214727,128,0,214818:0:0:0:0:
256,192,214727,128,0,214818:0:0:0:0:
36,192,214818,128,0,214909:0:0:0:0:
109,192,214818,128,0,214909:0:0:0:0:
329,192,214818,128,0,214909:0:0:0:0:
256,192,214909,128,0,215000:0:0:0:0:
475,192,214909,128,0,215000:0:0:0:0:
402,192,215000,128,0,215090:0:0:0:0:
182,192,215000,128,0,215090:0:0:0:0:
36,192,215000,128,0,215090:0:0:0:0:
109,192,215090,128,0,215181:0:0:0:0:
329,192,215090,128,0,215181:0:0:0:0:
182,192,215181,128,0,215272:0:0:0:0:
256,192,215181,128,0,215272:0:0:0:0:
402,192,215181,128,0,215272:0:0:0:0:
475,192,215181,128,0,215272:0:0:0:0:
36,192,215272,128,0,215363:0:0:0:0:
109,192,215363,128,0,215454:0:0:0:0:
182,192,215363,128,0,215454:0:0:0:0:
256,192,215363,128,0,215454:0:0:0:0:
329,192,215454,128,0,215545:0:0:0:0:
402,192,215454,128,0,215545:0:0:0:0:
475,192,215454,128,0,215545:0:0:0:0:
36,192,215545,128,0,215636:0:0:0:0:
109,192,215545,128,0,215636:0:0:0:0:
182,192,215545,128,0,215636:0:0:0:0:
256,192,215636,128,0,215727:0:0:0:0:
475,192,215636,128,0,215727:0:0:0:0:
402,192,215727,128,0,215818:0:0:0:0:
182,192,215727,128,0,215818:0:0:0:0:
36,192,215727,128,0,215818:0:0:0:0:
109,192,215818,128,0,215909:0:0:0:0:
329,192,215818,128,0,215909:0:0:0:0:
182,192,215909,128,0,216000:0:0:0:0:
256,192,215909,128,0,216000:0:0:0:0:
402,192,215909,128,0,216000:0:0:0:0:
475,192,215909,128,0,216000:0:0:0:0:
109,192,216000,128,0,216090:0:0:0:0:
36,192,216000,128,0,216090:0:0:0:0:
182,192,216090,128,0,216181:0:0:0:0:
256,192,216090,128,0,216181:0:0:0:0:
329,192,216090,128,0,216181:0:0:0:0:
402,192,216181,128,0,216272:0:0:0:0:
475,192,216181,128,0,216272:0:0:0:0:
36,192,216272,1,0,0:0:0:0:
109,192,216272,1,0,0:0:0:0:
182,192,216272,1,0,0:0:0:0:
256,192,216272,1,0,0:0:0:0:
329,192,216363,1,0,0:0:0:0:
402,192,216363,1,0,0:0:0:0:
475,192,216363,1,0,0:0:0:0:
182,192,216454,1,0,0:0:0:0:
109,192,216454,1,0,0:0:0:0:
36,192,216454,1,0,0:0:0:0:
329,192,216545,1,0,0:0:0:0:
402,192,216545,1,0,0:0:0:0:
475,192,216545,1,0,0:0:0:0:
109,192,216636,1,0,0:0:0:0:
36,192,216636,1,0,0:0:0:0:
256,192,216636,1,0,0:0:0:0:
402,192,216727,1,0,0:0:0:0:
36,192,216818,128,0,216909:0:0:0:0:
182,192,216818,128,0,216909:0:0:0:0:
329,192,216818,128,0,216909:0:0:0:0:
109,192,216909,128,0,217000:0:0:0:0:
256,192,216909,128,0,217000:0:0:0:0:
402,192,216909,128,0,217000:0:0:0:0:
182,192,217000,128,0,217090:0:0:0:0:
329,192,217000,128,0,217090:0:0:0:0:
475,192,217000,128,0,217090:0:0:0:0:
109,192,217090,128,0,217181:0:0:0:0:
36,192,217090,128,0,217181:0:0:0:0:
256,192,217181,128,0,217272:0:0:0:0:
402,192,217181,128,0,217272:0:0:0:0:
475,192,217181,128,0,217272:0:0:0:0:
182,192,217272,128,0,217363:0:0:0:0:
329,192,217272,128,0,217363:0:0:0:0:
36,192,217363,128,0,217454:0:0:0:0:
109,192,217363,128,0,217454:0:0:0:0:
402,192,217363,128,0,217454:0:0:0:0:
475,192,217363,128,0,217454:0:0:0:0:
329,192,217454,128,0,217545:0:0:0:0:
182,192,217454,128,0,217545:0:0:0:0:
109,192,217545,128,0,217636:0:0:0:0:
402,192,217545,128,0,217636:0:0:0:0:
182,192,217636,128,0,217727:0:0:0:0:
329,192,217636,128,0,217727:0:0:0:0:
36,192,217727,1,0,0:0:0:0:
109,192,217727,1,0,0:0:0:0:
402,192,217727,1,0,0:0:0:0:
475,192,217727,1,0,0:0:0:0:
182,192,217818,1,0,0:0:0:0:
329,192,217818,1,0,0:0:0:0:
109,192,217909,1,0,0:0:0:0:
36,192,217909,1,0,0:0:0:0:
402,192,217909,1,0,0:0:0:0:
475,192,217909,1,0,0:0:0:0:
329,192,218000,1,0,0:0:0:0:
182,192,218000,1,0,0:0:0:0:
109,192,218090,1,0,0:0:0:0:
36,192,218090,1,0,0:0:0:0:
402,192,218090,1,0,0:0:0:0:
475,192,218090,1,0,0:0:0:0:
182,192,218181,1,0,0:0:0:0:
36,192,218272,128,0,218363:0:0:0:0:
256,192,218272,128,0,218363:0:0:0:0:
402,192,218272,128,0,218363:0:0:0:0:
329,192,218363,128,0,218454:0:0:0:0:
109,192,218363,128,0,218454:0:0:0:0:
475,192,218363,128,0,218454:0:0:0:0:
182,192,218454,128,0,218545:0:0:0:0:
36,192,218454,128,0,218545:0:0:0:0:
256,192,218454,128,0,218545:0:0:0:0:
402,192,218545,128,0,218636:0:0:0:0:
475,192,218545,128,0,218636:0:0:0:0:
329,192,218636,128,0,218727:0:0:0:0:
256,192,218636,128,0,218727:0:0:0:0:
109,192,218636,128,0,218727:0:0:0:0:
182,192,218727,128,0,218818:0:0:0:0:
36,192,218727,128,0,218818:0:0:0:0:
109,192,218818,128,0,218909:0:0:0:0:
329,192,218818,128,0,218909:0:0:0:0:
402,192,218818,128,0,218909:0:0:0:0:
475,192,218818,128,0,218909:0:0:0:0:
182,192,218909,128,0,219000:0:0:0:0:
256,192,218909,128,0,219000:0:0:0:0:
329,192,219000,128,0,219090:0:0:0:0:
402,192,219000,128,0,219090:0:0:0:0:
36,192,219000,128,0,219090:0:0:0:0:
109,192,219090,128,0,219181:0:0:0:0:
182,192,219090,128,0,219181:0:0:0:0:
256,192,219181,1,0,0:0:0:0:
329,192,219181,1,0,0:0:0:0:
402,192,219181,1,0,0:0:0:0:
475,192,219181,1,0,0:0:0:0:
182,192,219272,1,0,0:0:0:0:
109,192,219272,1,0,0:0:0:0:
36,192,219272,1,0,0:0:0:0:
329,192,219363,1,0,0:0:0:0:
256,192,219363,1,0,0:0:0:0:
402,192,219363,1,0,0:0:0:0:
182,192,219454,1,0,0:0:0:0:
109,192,219454,1,0,0:0:0:0:
36,192,219454,1,0,0:0:0:0:
256,192,219545,1,0,0:0:0:0:
329,192,219545,1,0,0:0:0:0:
402,192,219636,128,0,219727:0:0:0:0:
475,192,219636,128,0,219727:0:0:0:0:
36,192,219636,128,0,219727:0:0:0:0:
109,192,219636,128,0,219727:0:0:0:0:
182,192,219727,1,0,0:0:0:0:
256,192,219727,1,0,0:0:0:0:
109,192,219818,128,0,219909:0:0:0:0:
329,192,219818,128,0,219909:0:0:0:0:
402,192,219818,128,0,219909:0:0:0:0:
36,192,219818,128,0,219909:0:0:0:0:
182,192,219909,128,0,220000:0:0:0:0:
256,192,219909,128,0,220000:0:0:0:0:
475,192,219909,128,0,220000:0:0:0:0:
109,192,220000,128,0,220090:0:0:0:0:
329,192,220000,128,0,220090:0:0:0:0:
182,192,220090,128,0,220181:0:0:0:0:
402,192,220090,128,0,220181:0:0:0:0:
475,192,220090,128,0,220181:0:0:0:0:
329,192,220181,128,0,220272:0:0:0:0:
109,192,220181,128,0,220272:0:0:0:0:
256,192,220272,128,0,220363:0:0:0:0:
475,192,220272,128,0,220363:0:0:0:0:
36,192,220272,128,0,220363:0:0:0:0:
182,192,220363,128,0,220454:0:0:0:0:
402,192,220363,128,0,220454:0:0:0:0:
109,192,220454,128,0,220545:0:0:0:0:
329,192,220454,128,0,220545:0:0:0:0:
36,192,220454,128,0,220545:0:0:0:0:
182,192,220545,128,0,220636:0:0:0:0:
402,192,220545,128,0,220636:0:0:0:0:
109,192,220636,1,0,0:0:0:0:
36,192,220636,1,0,0:0:0:0:
329,192,220636,1,0,0:0:0:0:
475,192,220636,1,0,0:0:0:0:
182,192,220727,1,0,0:0:0:0:
402,192,220727,1,0,0:0:0:0:
109,192,220818,1,0,0:0:0:0:
36,192,220818,1,0,0:0:0:0:
329,192,220818,1,0,0:0:0:0:
182,192,220909,1,0,0:0:0:0:
256,192,220909,1,0,0:0:0:0:
109,192,221000,1,0,0:0:0:0:
36,192,221000,1,0,0:0:0:0:
402,192,221000,1,0,0:0:0:0:
475,192,221000,1,0,0:0:0:0:
256,192,221090,1,0,0:0:0:0:
329,192,221090,1,0,0:0:0:0:
182,192,221181,1,0,0:0:0:0:
109,192,221181,1,0,0:0:0:0:
36,192,221181,1,0,0:0:0:0:
329,192,221272,1,0,0:0:0:0:
402,192,221272,1,0,0:0:0:0:
256,192,221272,1,0,0:0:0:0:
36,192,221363,1,0,0:0:0:0:
475,192,221363,1,0,0:0:0:0:
109,192,221409,1,0,0:0:0:0:
182,192,221454,1,0,0:0:0:0:
402,192,221454,1,0,0:0:0:0:
256,192,221500,1,0,0:0:0:0:
329,192,221545,1,0,0:0:0:0:
36,192,221590,1,0,0:0:0:0:
109,192,221636,1,0,0:0:0:0:
402,192,221636,1,0,0:0:0:0:
182,192,221681,1,0,0:0:0:0:
475,192,221727,1,0,0:0:0:0:
256,192,221727,1,0,0:0:0:0:
402,192,221772,1,0,0:0:0:0:
329,192,221818,1,0,0:0:0:0:
182,192,221818,1,0,0:0:0:0:
109,192,221863,1,0,0:0:0:0:
36,192,221909,1,0,0:0:0:0:
256,192,221909,1,0,0:0:0:0:
329,192,221954,1,0,0:0:0:0:
402,192,222000,1,0,0:0:0:0:
109,192,222000,1,0,0:0:0:0:
182,192,222045,1,0,0:0:0:0:
256,192,222090,1,0,0:0:0:0:
475,192,222090,1,0,0:0:0:0:
36,192,222090,1,0,0:0:0:0:
182,192,222181,1,0,0:0:0:0:
109,192,222272,1,0,0:0:0:0:
329,192,222272,1,0,0:0:0:0:
475,192,222272,1,0,0:0:0:0:
256,192,222363,1,0,0:0:0:0:
182,192,222454,1,0,0:0:0:0:
402,192,222454,1,0,0:0:0:0:
475,192,222454,1,0,0:0:0:0:
36,192,222454,1,0,0:0:0:0:
329,192,222545,1,0,0:0:0:0:
36,192,222636,1,0,0:0:0:0:
256,192,222636,1,0,0:0:0:0:
109,192,222636,1,0,0:0:0:0:
329,192,222727,1,0,0:0:0:0:
182,192,222818,1,0,0:0:0:0:
36,192,222818,1,0,0:0:0:0:
402,192,222818,128,0,222909:0:0:0:0:
475,192,222818,128,0,222909:0:0:0:0:
329,192,222909,1,0,0:0:0:0:
109,192,223000,1,0,0:0:0:0:
402,192,223000,128,0,223090:0:0:0:0:
475,192,223000,128,0,223090:0:0:0:0:
256,192,223090,1,0,0:0:0:0:
36,192,223181,1,0,0:0:0:0:
182,192,223181,1,0,0:0:0:0:
329,192,223181,128,0,223272:0:0:0:0:
402,192,223181,128,0,223272:0:0:0:0:
109,192,223272,1,0,0:0:0:0:
256,192,223363,1,0,0:0:0:0:
329,192,223363,128,0,223454:0:0:0:0:
402,192,223363,128,0,223454:0:0:0:0:
182,192,223454,1,0,0:0:0:0:
36,192,223545,1,0,0:0:0:0:
329,192,223545,1,0,0:0:0:0:
475,192,223545,1,0,0:0:0:0:
182,192,223636,1,0,0:0:0:0:
36,192,223727,1,0,0:0:0:0:
256,192,223727,1,0,0:0:0:0:
402,192,223727,1,0,0:0:0:0:
109,192,223818,1,0,0:0:0:0:
329,192,223909,1,0,0:0:0:0:
36,192,223909,1,0,0:0:0:0:
182,192,223909,1,0,0:0:0:0:
475,192,224000,1,0,0:0:0:0:
36,192,224090,1,0,0:0:0:0:
109,192,224090,1,0,0:0:0:0:
256,192,224090,1,0,0:0:0:0:
402,192,224181,1,0,0:0:0:0:
36,192,224272,128,0,224363:0:0:0:0:
182,192,224272,128,0,224363:0:0:0:0:
256,192,224272,1,0,0:0:0:0:
475,192,224272,1,0,0:0:0:0:
402,192,224363,1,0,0:0:0:0:
36,192,224454,128,0,224545:0:0:0:0:
182,192,224454,128,0,224545:0:0:0:0:
329,192,224454,1,0,0:0:0:0:
402,192,224545,1,0,0:0:0:0:
109,192,224636,128,0,224727:0:0:0:0:
36,192,224636,128,0,224727:0:0:0:0:
256,192,224636,1,0,0:0:0:0:
475,192,224636,1,0,0:0:0:0:
329,192,224727,1,0,0:0:0:0:
36,192,224818,128,0,224909:0:0:0:0:
109,192,224818,128,0,224909:0:0:0:0:
402,192,224818,1,0,0:0:0:0:
329,192,224909,1,0,0:0:0:0:
402,192,225000,1,0,0:0:0:0:
475,192,225000,1,0,0:0:0:0:
36,192,225000,1,0,0:0:0:0:
182,192,225000,1,0,0:0:0:0:
256,192,225090,1,0,0:0:0:0:
329,192,225090,1,0,0:0:0:0:
109,192,225181,1,0,0:0:0:0:
36,192,225181,1,0,0:0:0:0:
402,192,225181,1,0,0:0:0:0:
475,192,225181,1,0,0:0:0:0:
256,192,225272,1,0,0:0:0:0:
182,192,225272,1,0,0:0:0:0:
36,192,225363,1,0,0:0:0:0:
402,192,225363,1,0,0:0:0:0:
475,192,225363,1,0,0:0:0:0:
109,192,225363,1,0,0:0:0:0:
256,192,225454,1,0,0:0:0:0:
36,192,225545,1,0,0:0:0:0:
109,192,225545,1,0,0:0:0:0:
329,192,225545,1,0,0:0:0:0:
402,192,225636,1,0,0:0:0:0:
475,192,225636,1,0,0:0:0:0:
182,192,225636,1,0,0:0:0:0:
109,192,225727,1,0,0:0:0:0:
36,192,225727,1,0,0:0:0:0:
329,192,225727,1,0,0:0:0:0:
256,192,225818,1,0,0:0:0:0:
475,192,225818,1,0,0:0:0:0:
402,192,225909,1,0,0:0:0:0:
182,192,225909,1,0,0:0:0:0:
109,192,226000,1,0,0:0:0:0:
329,192,226000,1,0,0:0:0:0:
36,192,226090,1,0,0:0:0:0:
256,192,226090,1,0,0:0:0:0:
475,192,226090,1,0,0:0:0:0:
182,192,226181,1,0,0:0:0:0:
329,192,226181,1,0,0:0:0:0:
109,192,226272,1,0,0:0:0:0:
475,192,226272,1,0,0:0:0:0:
402,192,226363,1,0,0:0:0:0:
36,192,226363,1,0,0:0:0:0:
182,192,226454,1,0,0:0:0:0:
256,192,226454,1,0,0:0:0:0:
329,192,226454,1,0,0:0:0:0:
402,192,226545,1,0,0:0:0:0:
475,192,226545,1,0,0:0:0:0:
109,192,226545,1,0,0:0:0:0:
329,192,226636,1,0,0:0:0:0:
256,192,226636,1,0,0:0:0:0:
36,192,226636,1,0,0:0:0:0:
182,192,226727,1,0,0:0:0:0:
109,192,226727,1,0,0:0:0:0:
402,192,226727,1,0,0:0:0:0:
36,192,226818,1,0,0:0:0:0:
329,192,226818,1,0,0:0:0:0:
475,192,226818,1,0,0:0:0:0:
256,192,226909,1,0,0:0:0:0:
109,192,227000,1,0,0:0:0:0:
329,192,227000,1,0,0:0:0:0:
475,192,227000,1,0,0:0:0:0:
182,192,227090,1,0,0:0:0:0:
402,192,227090,1,0,0:0:0:0:
36,192,227090,1,0,0:0:0:0:
109,192,227181,1,0,0:0:0:0:
329,192,227181,1,0,0:0:0:0:
475,192,227181,1,0,0:0:0:0:
256,192,227272,1,0,0:0:0:0:
402,192,227272,1,0,0:0:0:0:
329,192,227363,1,0,0:0:0:0:
182,192,227363,1,0,0:0:0:0:
256,192,227454,1,0,0:0:0:0:
109,192,227454,1,0,0:0:0:0:
182,192,227545,1,0,0:0:0:0:
475,192,227545,1,0,0:0:0:0:
329,192,227545,1,0,0:0:0:0:
402,192,227636,1,0,0:0:0:0:
109,192,227636,1,0,0:0:0:0:
36,192,227727,1,0,0:0:0:0:
329,192,227727,1,0,0:0:0:0:
109,192,227818,1,0,0:0:0:0:
256,192,227818,1,0,0:0:0:0:
182,192,227909,1,0,0:0:0:0:
402,192,227909,1,0,0:0:0:0:
475,192,227909,1,0,0:0:0:0:
256,192,228000,1,0,0:0:0:0:
109,192,228090,1,0,0:0:0:0:
329,192,228090,1,0,0:0:0:0:
402,192,228090,1,0,0:0:0:0:
182,192,228181,1,0,0:0:0:0:
256,192,228272,1,0,0:0:0:0:
329,192,228272,1,0,0:0:0:0:
36,192,228272,1,0,0:0:0:0:
182,192,228363,1,0,0:0:0:0:
109,192,228454,1,0,0:0:0:0:
329,192,228454,1,0,0:0:0:0:
402,192,228454,1,0,0:0:0:0:
256,192,228545,1,0,0:0:0:0:
182,192,228636,128,0,228727:0:0:0:0:
36,192,228636,128,0,228727:0:0:0:0:
402,192,228636,1,0,0:0:0:0:
475,192,228636,1,0,0:0:0:0:
329,192,228727,1,0,0:0:0:0:
36,192,228818,128,0,228909:0:0:0:0:
182,192,228818,128,0,228909:0:0:0:0:
256,192,228818,1,0,0:0:0:0:
402,192,228909,1,0,0:0:0:0:
329,192,229000,128,0,229090:0:0:0:0:
475,192,229000,128,0,229090:0:0:0:0:
182,192,229000,1,0,0:0:0:0:
36,192,229000,1,0,0:0:0:0:
256,192,229090,1,0,0:0:0:0:
329,192,229181,128,0,229272:0:0:0:0:
475,192,229181,128,0,229272:0:0:0:0:
109,192,229181,1,0,0:0:0:0:
182,192,229272,1,0,0:0:0:0:
256,192,229363,1,0,0:0:0:0:
402,192,229363,1,0,0:0:0:0:
36,192,229363,1,0,0:0:0:0:
182,192,229454,1,0,0:0:0:0:
109,192,229545,1,0,0:0:0:0:
329,192,229545,1,0,0:0:0:0:
475,192,229545,1,0,0:0:0:0:
256,192,229636,1,0,0:0:0:0:
182,192,229727,1,0,0:0:0:0:
36,192,229727,1,0,0:0:0:0:
402,192,229727,1,0,0:0:0:0:
329,192,229818,1,0,0:0:0:0:
109,192,229909,1,0,0:0:0:0:
256,192,229909,1,0,0:0:0:0:
475,192,229909,1,0,0:0:0:0:
329,192,230000,1,0,0:0:0:0:
402,192,230090,128,0,230181:0:0:0:0:
475,192,230090,128,0,230181:0:0:0:0:
36,192,230090,1,0,0:0:0:0:
182,192,230090,1,0,0:0:0:0:
256,192,230181,1,0,0:0:0:0:
402,192,230272,128,0,230363:0:0:0:0:
475,192,230272,128,0,230363:0:0:0:0:
329,192,230272,1,0,0:0:0:0:
256,192,230363,1,0,0:0:0:0:
36,192,230454,128,0,230545:0:0:0:0:
109,192,230454,128,0,230545:0:0:0:0:
402,192,230454,1,0,0:0:0:0:
475,192,230454,1,0,0:0:0:0:
329,192,230545,1,0,0:0:0:0:
109,192,230636,128,0,230727:0:0:0:0:
36,192,230636,128,0,230727:0:0:0:0:
256,192,230636,1,0,0:0:0:0:
329,192,230727,1,0,0:0:0:0:
475,192,230818,1,0,0:0:0:0:
402,192,230818,1,0,0:0:0:0:
36,192,230818,1,0,0:0:0:0:
109,192,230818,1,0,0:0:0:0:
182,192,230909,1,0,0:0:0:0:
256,192,230909,1,0,0:0:0:0:
475,192,231000,1,0,0:0:0:0:
36,192,231000,1,0,0:0:0:0:
109,192,231000,1,0,0:0:0:0:
402,192,231000,1,0,0:0:0:0:
256,192,231090,1,0,0:0:0:0:
329,192,231090,1,0,0:0:0:0:
475,192,231181,1,0,0:0:0:0:
36,192,231181,1,0,0:0:0:0:
109,192,231181,1,0,0:0:0:0:
402,192,231181,1,0,0:0:0:0:
182,192,231272,1,0,0:0:0:0:
256,192,231272,1,0,0:0:0:0:
329,192,231272,1,0,0:0:0:0:
36,192,231363,1,0,0:0:0:0:
109,192,231454,1,0,0:0:0:0:
182,192,231454,1,0,0:0:0:0:
256,192,231454,1,0,0:0:0:0:
329,192,231545,1,0,0:0:0:0:
402,192,231545,1,0,0:0:0:0:
475,192,231545,1,0,0:0:0:0:
36,192,231636,1,0,0:0:0:0:
256,192,231636,1,0,0:0:0:0:
109,192,231727,1,0,0:0:0:0:
329,192,231727,1,0,0:0:0:0:
182,192,231818,1,0,0:0:0:0:
402,192,231818,1,0,0:0:0:0:
256,192,231909,1,0,0:0:0:0:
475,192,231909,1,0,0:0:0:0:
36,192,231909,1,0,0:0:0:0:
182,192,232000,1,0,0:0:0:0:
402,192,232000,1,0,0:0:0:0:
36,192,232090,1,0,0:0:0:0:
256,192,232090,1,0,0:0:0:0:
109,192,232181,1,0,0:0:0:0:
329,192,232181,1,0,0:0:0:0:
182,192,232272,1,0,0:0:0:0:
256,192,232272,1,0,0:0:0:0:
402,192,232272,1,0,0:0:0:0:
475,192,232272,1,0,0:0:0:0:
109,192,232363,1,0,0:0:0:0:
36,192,232363,1,0,0:0:0:0:
182,192,232454,1,0,0:0:0:0:
256,192,232454,1,0,0:0:0:0:
329,192,232545,1,0,0:0:0:0:
402,192,232545,1,0,0:0:0:0:
256,192,232636,1,0,0:0:0:0:
182,192,232636,1,0,0:0:0:0:
109,192,232636,1,0,0:0:0:0:
36,192,232636,1,0,0:0:0:0:
402,192,232727,1,0,0:0:0:0:
475,192,232727,1,0,0:0:0:0:
329,192,232818,1,0,0:0:0:0:
256,192,232818,1,0,0:0:0:0:
182,192,232909,1,0,0:0:0:0:
109,192,232909,1,0,0:0:0:0:
36,192,233000,1,0,0:0:0:0:
402,192,233000,1,0,0:0:0:0:
475,192,233000,1,0,0:0:0:0:
329,192,233045,1,0,0:0:0:0:
256,192,233090,1,0,0:0:0:0:
182,192,233136,1,0,0:0:0:0:
109,192,233181,1,0,0:0:0:0:
475,192,233227,1,0,0:0:0:0:
402,192,233272,1,0,0:0:0:0:
329,192,233318,1,0,0:0:0:0:
182,192,233363,1,0,0:0:0:0:
36,192,233363,1,0,0:0:0:0:
109,192,233363,1,0,0:0:0:0:
256,192,233409,1,0,0:0:0:0:
329,192,233454,1,0,0:0:0:0:
402,192,233500,1,0,0:0:0:0:
182,192,233545,1,0,0:0:0:0:
109,192,233545,1,0,0:0:0:0:
36,192,233545,1,0,0:0:0:0:
256,192,233590,1,0,0:0:0:0:
329,192,233636,1,0,0:0:0:0:
402,192,233681,1,0,0:0:0:0:
36,192,233727,1,0,0:0:0:0:
109,192,233727,1,0,0:0:0:0:
182,192,233727,1,0,0:0:0:0:
475,192,233727,128,0,234272:0:0:0:0:
256,192,233818,1,0,0:0:0:0:
402,192,233909,128,0,234090:0:0:0:0:
182,192,233909,1,0,0:0:0:0:
109,192,234000,1,0,0:0:0:0:
329,192,234090,128,0,234272:0:0:0:0:
36,192,234090,1,0,0:0:0:0:
182,192,234181,1,0,0:0:0:0:
402,192,234272,1,0,0:0:0:0:
109,192,234272,1,0,0:0:0:0:
256,192,234363,1,0,0:0:0:0:
36,192,234454,128,0,234727:0:0:0:0:
402,192,234454,1,0,0:0:0:0:
475,192,234454,1,0,0:0:0:0:
182,192,234545,128,0,234818:0:0:0:0:
329,192,234636,128,0,234909:0:0:0:0:
475,192,234727,128,0,235000:0:0:0:0:
36,192,234818,128,0,235090:0:0:0:0:
256,192,234818,1,0,0:0:0:0:
182,192,234909,128,0,235090:0:0:0:0:
329,192,235000,128,0,235090:0:0:0:0:
475,192,235090,1,0,0:0:0:0:
109,192,235181,128,0,235545:0:0:0:0:
256,192,235181,1,0,0:0:0:0:
402,192,235181,1,0,0:0:0:0:
36,192,235181,1,0,0:0:0:0:
329,192,235272,1,0,0:0:0:0:
182,192,235363,128,0,235727:0:0:0:0:
402,192,235363,1,0,0:0:0:0:
475,192,235454,1,0,0:0:0:0:
36,192,235545,128,0,235727:0:0:0:0:
329,192,235545,1,0,0:0:0:0:
256,192,235636,1,0,0:0:0:0:
109,192,235727,1,0,0:0:0:0:
402,192,235727,1,0,0:0:0:0:
329,192,235818,1,0,0:0:0:0:
475,192,235909,128,0,236181:0:0:0:0:
36,192,235909,1,0,0:0:0:0:
256,192,235909,1,0,0:0:0:0:
329,192,236000,128,0,236272:0:0:0:0:
182,192,236090,128,0,236363:0:0:0:0:
36,192,236181,128,0,236454:0:0:0:0:
475,192,236272,128,0,236545:0:0:0:0:
256,192,236272,1,0,0:0:0:0:
329,192,236363,128,0,236545:0:0:0:0:
182,192,236454,128,0,236545:0:0:0:0:
36,192,236545,1,0,0:0:0:0:
402,192,236636,1,0,0:0:0:0:
475,192,236636,1,0,0:0:0:0:
109,192,236636,1,0,0:0:0:0:
329,192,236727,1,0,0:0:0:0:
182,192,236727,1,0,0:0:0:0:
402,192,236818,1,0,0:0:0:0:
475,192,236818,1,0,0:0:0:0:
36,192,236818,1,0,0:0:0:0:
329,192,236909,1,0,0:0:0:0:
109,192,236909,1,0,0:0:0:0:
402,192,237000,1,0,0:0:0:0:
475,192,237000,1,0,0:0:0:0:
182,192,237000,1,0,0:0:0:0:
256,192,237090,1,0,0:0:0:0:
182,192,237181,1,0,0:0:0:0:
109,192,237181,1,0,0:0:0:0:
36,192,237181,1,0,0:0:0:0:
329,192,237272,1,0,0:0:0:0:
402,192,237272,1,0,0:0:0:0:
475,192,237272,1,0,0:0:0:0:
109,192,237363,1,0,0:0:0:0:
182,192,237363,1,0,0:0:0:0:
36,192,237363,1,0,0:0:0:0:
402,192,237454,1,0,0:0:0:0:
475,192,237454,1,0,0:0:0:0:
329,192,237545,1,0,0:0:0:0:
256,192,237545,1,0,0:0:0:0:
182,192,237636,1,0,0:0:0:0:
109,192,237636,1,0,0:0:0:0:
36,192,237727,1,0,0:0:0:0:
402,192,237727,1,0,0:0:0:0:
475,192,237727,1,0,0:0:0:0:
109,192,237818,1,0,0:0:0:0:
182,192,237818,1,0,0:0:0:0:
256,192,237909,1,0,0:0:0:0:
329,192,237909,1,0,0:0:0:0:
402,192,238000,1,0,0:0:0:0:
475,192,238000,1,0,0:0:0:0:
36,192,238090,1,0,0:0:0:0:
109,192,238090,1,0,0:0:0:0:
329,192,238090,1,0,0:0:0:0:
182,192,238181,1,0,0:0:0:0:
475,192,238181,1,0,0:0:0:0:
402,192,238181,1,0,0:0:0:0:
329,192,238272,1,0,0:0:0:0:
109,192,238272,1,0,0:0:0:0:
36,192,238272,1,0,0:0:0:0:
182,192,238363,1,0,0:0:0:0:
402,192,238363,1,0,0:0:0:0:
475,192,238363,1,0,0:0:0:0:
109,192,238454,1,0,0:0:0:0:
36,192,238454,1,0,0:0:0:0:
329,192,238454,1,0,0:0:0:0:
256,192,238545,1,0,0:0:0:0:
182,192,238636,1,0,0:0:0:0:
109,192,238636,1,0,0:0:0:0:
329,192,238636,1,0,0:0:0:0:
256,192,238727,1,0,0:0:0:0:
402,192,238727,1,0,0:0:0:0:
475,192,238727,1,0,0:0:0:0:
36,192,238818,1,0,0:0:0:0:
109,192,238818,1,0,0:0:0:0:
329,192,238818,1,0,0:0:0:0:
402,192,238909,1,0,0:0:0:0:
475,192,238909,1,0,0:0:0:0:
256,192,239000,1,0,0:0:0:0:
182,192,239000,1,0,0:0:0:0:
329,192,239090,1,0,0:0:0:0:
402,192,239090,1,0,0:0:0:0:
109,192,239181,1,0,0:0:0:0:
36,192,239181,1,0,0:0:0:0:
475,192,239181,1,0,0:0:0:0:
256,192,239272,1,0,0:0:0:0:
329,192,239272,1,0,0:0:0:0:
182,192,239363,1,0,0:0:0:0:
109,192,239363,1,0,0:0:0:0:
402,192,239454,1,0,0:0:0:0:
475,192,239454,1,0,0:0:0:0:
36,192,239545,1,0,0:0:0:0:
109,192,239545,1,0,0:0:0:0:
182,192,239545,1,0,0:0:0:0:
256,192,239545,1,0,0:0:0:0:
329,192,239636,1,0,0:0:0:0:
402,192,239636,1,0,0:0:0:0:
182,192,239727,1,0,0:0:0:0:
109,192,239727,1,0,0:0:0:0:
329,192,239818,1,0,0:0:0:0:
402,192,239818,1,0,0:0:0:0:
36,192,239909,1,0,0:0:0:0:
109,192,239909,1,0,0:0:0:0:
182,192,239909,1,0,0:0:0:0:
402,192,240000,1,0,0:0:0:0:
475,192,240000,1,0,0:0:0:0:
109,192,240090,1,0,0:0:0:0:
36,192,240090,1,0,0:0:0:0:
402,192,240181,1,0,0:0:0:0:
475,192,240181,1,0,0:0:0:0:
36,192,240272,1,0,0:0:0:0:
109,192,240272,1,0,0:0:0:0:
256,192,240272,1,0,0:0:0:0:
329,192,240363,1,0,0:0:0:0:
402,192,240363,1,0,0:0:0:0:
256,192,240454,1,0,0:0:0:0:
109,192,240454,1,0,0:0:0:0:
329,192,240545,1,0,0:0:0:0:
402,192,240545,1,0,0:0:0:0:
182,192,240636,1,0,0:0:0:0:
109,192,240636,1,0,0:0:0:0:
36,192,240636,1,0,0:0:0:0:
256,192,240727,1,0,0:0:0:0:
329,192,240727,1,0,0:0:0:0:
109,192,240818,1,0,0:0:0:0:
36,192,240818,1,0,0:0:0:0:
256,192,240909,1,0,0:0:0:0:
329,192,240909,1,0,0:0:0:0:
182,192,241000,1,0,0:0:0:0:
109,192,241000,1,0,0:0:0:0:
36,192,241000,1,0,0:0:0:0:
329,192,241090,1,0,0:0:0:0:
402,192,241090,1,0,0:0:0:0:
475,192,241090,1,0,0:0:0:0:
182,192,241181,1,0,0:0:0:0:
109,192,241181,1,0,0:0:0:0:
36,192,241181,1,0,0:0:0:0:
329,192,241272,1,0,0:0:0:0:
475,192,241272,1,0,0:0:0:0:
402,192,241272,1,0,0:0:0:0:
256,192,241363,1,0,0:0:0:0:
109,192,241363,1,0,0:0:0:0:
36,192,241363,1,0,0:0:0:0:
329,192,241454,1,0,0:0:0:0:
402,192,241454,1,0,0:0:0:0:
475,192,241454,1,0,0:0:0:0:
256,192,241545,1,0,0:0:0:0:
109,192,241545,1,0,0:0:0:0:
36,192,241545,1,0,0:0:0:0:
329,192,241636,1,0,0:0:0:0:
402,192,241636,1,0,0:0:0:0:
475,192,241636,1,0,0:0:0:0:
109,192,241727,1,0,0:0:0:0:
36,192,241727,1,0,0:0:0:0:
256,192,241727,1,0,0:0:0:0:
329,192,241818,1,0,0:0:0:0:
402,192,241818,1,0,0:0:0:0:
475,192,241818,1,0,0:0:0:0:
109,192,241909,1,0,0:0:0:0:
36,192,241909,1,0,0:0:0:0:
182,192,241909,1,0,0:0:0:0:
402,192,242000,1,0,0:0:0:0:
475,192,242000,1,0,0:0:0:0:
329,192,242000,1,0,0:0:0:0:
182,192,242090,1,0,0:0:0:0:
109,192,242090,1,0,0:0:0:0:
36,192,242090,1,0,0:0:0:0:
402,192,242181,1,0,0:0:0:0:
475,192,242181,1,0,0:0:0:0:
256,192,242181,1,0,0:0:0:0:
182,192,242272,1,0,0:0:0:0:
109,192,242272,1,0,0:0:0:0:
36,192,242272,1,0,0:0:0:0:
256,192,242363,1,0,0:0:0:0:
402,192,242363,1,0,0:0:0:0:
475,192,242363,1,0,0:0:0:0:
36,192,242454,1,0,0:0:0:0:
329,192,242454,1,0,0:0:0:0:
256,192,242500,1,0,0:0:0:0:
182,192,242545,1,0,0:0:0:0:
475,192,242545,1,0,0:0:0:0:
402,192,242590,1,0,0:0:0:0:
329,192,242636,1,0,0:0:0:0:
36,192,242636,1,0,0:0:0:0:
109,192,242681,1,0,0:0:0:0:
475,192,242727,1,0,0:0:0:0:
182,192,242727,1,0,0:0:0:0:
402,192,242772,1,0,0:0:0:0:
329,192,242818,1,0,0:0:0:0:
182,192,242818,1,0,0:0:0:0:
109,192,242863,1,0,0:0:0:0:
36,192,242909,1,0,0:0:0:0:
256,192,242909,1,0,0:0:0:0:
329,192,242954,1,0,0:0:0:0:
402,192,243000,1,0,0:0:0:0:
109,192,243000,1,0,0:0:0:0:
182,192,243045,1,0,0:0:0:0:
256,192,243090,1,0,0:0:0:0:
475,192,243090,1,0,0:0:0:0:
402,192,243136,1,0,0:0:0:0:
329,192,243181,1,0,0:0:0:0:
36,192,243181,1,0,0:0:0:0:
109,192,243227,1,0,0:0:0:0:
182,192,243272,1,0,0:0:0:0:
329,192,243272,1,0,0:0:0:0:
402,192,243318,1,0,0:0:0:0:
475,192,243363,1,0,0:0:0:0:
256,192,243363,1,0,0:0:0:0:
182,192,243409,1,0,0:0:0:0:
109,192,243454,1,0,0:0:0:0:
402,192,243454,1,0,0:0:0:0:
329,192,243500,1,0,0:0:0:0:
256,192,243545,1,0,0:0:0:0:
36,192,243545,1,0,0:0:0:0:
475,192,243545,1,0,0:0:0:0:
109,192,243590,1,0,0:0:0:0:
182,192,243636,1,0,0:0:0:0:
329,192,243636,1,0,0:0:0:0:
402,192,243681,1,0,0:0:0:0:
475,192,243727,1,0,0:0:0:0:
36,192,243727,1,0,0:0:0:0:
256,192,243727,1,0,0:0:0:0:
109,192,243772,1,0,0:0:0:0:
182,192,243818,1,0,0:0:0:0:
329,192,243818,1,0,0:0:0:0:
402,192,243863,1,0,0:0:0:0:
475,192,243909,1,0,0:0:0:0:
256,192,243909,1,0,0:0:0:0:
36,192,243909,1,0,0:0:0:0:
109,192,244090,1,0,0:0:0:0:
182,192,244090,1,0,0:0:0:0:
329,192,244181,1,0,0:0:0:0:
402,192,244181,1,0,0:0:0:0:
182,192,244363,1,0,0:0:0:0:
109,192,244363,1,0,0:0:0:0:
329,192,244454,1,0,0:0:0:0:
402,192,244454,1,0,0:0:0:0:
182,192,244545,1,0,0:0:0:0:
109,192,244545,1,0,0:0:0:0:
36,192,244636,1,0,0:0:0:0:
475,192,244636,1,0,0:0:0:0:
109,192,244681,1,0,0:0:0:0:
182,192,244727,1,0,0:0:0:0:
402,192,244727,1,0,0:0:0:0:
256,192,244772,1,0,0:0:0:0:
329,192,244818,1,0,0:0:0:0:
36,192,244863,1,0,0:0:0:0:
402,192,244909,1,0,0:0:0:0:
109,192,244909,1,0,0:0:0:0:
182,192,244954,1,0,0:0:0:0:
475,192,245000,1,0,0:0:0:0:
256,192,245000,1,0,0:0:0:0:
402,192,245045,1,0,0:0:0:0:
329,192,245090,1,0,0:0:0:0:
182,192,245090,1,0,0:0:0:0:
109,192,245136,1,0,0:0:0:0:
256,192,245181,1,0,0:0:0:0:
36,192,245181,1,0,0:0:0:0:
329,192,245227,1,0,0:0:0:0:
109,192,245272,1,0,0:0:0:0:
402,192,245272,1,0,0:0:0:0:
182,192,245318,1,0,0:0:0:0:
256,192,245363,1,0,0:0:0:0:
36,192,245363,1,0,0:0:0:0:
475,192,245363,1,0,0:0:0:0:
329,192,245545,1,0,0:0:0:0:
475,192,245727,1,0,0:0:0:0:
256,192,245909,1,0,0:0:0:0:
475,192,246000,1,0,0:0:0:0:
475,192,246181,1,0,0:0:0:0:
182,192,246272,1,0,0:0:0:0:
329,192,246363,1,0,0:0:0:0:
475,192,246454,1,0,0:0:0:0:
36,192,246454,1,0,0:0:0:0:
109,192,246545,1,0,0:0:0:0:
402,192,246545,1,0,0:0:0:0:
182,192,246636,1,0,0:0:0:0:
329,192,246636,1,0,0:0:0:0:
109,192,246727,1,0,0:0:0:0:
402,192,246727,1,0,0:0:0:0:
475,192,246818,1,0,0:0:0:0:
36,192,246818,1,0,0:0:0:0:
256,192,247000,1,0,0:0:0:0:
402,192,247181,1,0,0:0:0:0:
36,192,247363,1,0,0:0:0:0:
402,192,247454,1,0,0:0:0:0:
402,192,247636,1,0,0:0:0:0:
182,192,247727,1,0,0:0:0:0:
256,192,247909,1,0,0:0:0:0:
475,192,247909,1,0,0:0:0:0:
402,192,248000,1,0,0:0:0:0:
182,192,248000,1,0,0:0:0:0:
109,192,248090,1,0,0:0:0:0:
329,192,248090,1,0,0:0:0:0:
256,192,248181,1,0,0:0:0:0:
36,192,248181,1,0,0:0:0:0:
182,192,248272,1,0,0:0:0:0:
329,192,248272,1,0,0:0:0:0:
256,192,248454,1,0,0:0:0:0:
402,192,248636,1,0,0:0:0:0:
256,192,248818,1,0,0:0:0:0:
402,192,248909,1,0,0:0:0:0:
402,192,249090,1,0,0:0:0:0:
109,192,249181,1,0,0:0:0:0:
182,192,249363,1,0,0:0:0:0:
329,192,249363,1,0,0:0:0:0:
109,192,249454,1,0,0:0:0:0:
402,192,249454,1,0,0:0:0:0:
36,192,249545,1,0,0:0:0:0:
475,192,249545,1,0,0:0:0:0:
109,192,249636,1,0,0:0:0:0:
402,192,249636,1,0,0:0:0:0:
182,192,249727,1,0,0:0:0:0:
329,192,249727,1,0,0:0:0:0:
109,192,249909,1,0,0:0:0:0:
402,192,250090,1,0,0:0:0:0:
109,192,250272,1,0,0:0:0:0:
402,192,250363,1,0,0:0:0:0:
402,192,250545,1,0,0:0:0:0:
182,192,250727,1,0,0:0:0:0:
329,192,250818,1,0,0:0:0:0:
475,192,250863,1,0,0:0:0:0:
256,192,250909,1,0,0:0:0:0:
402,192,250954,1,0,0:0:0:0:
109,192,251000,1,0,0:0:0:0:
256,192,251045,1,0,0:0:0:0:
36,192,251090,1,0,0:0:0:0:
182,192,251136,1,0,0:0:0:0:
329,192,251181,1,0,0:0:0:0:
475,192,251181,1,0,0:0:0:0:
329,192,251363,1,0,0:0:0:0:
475,192,251363,1,0,0:0:0:0:
182,192,251545,1,0,0:0:0:0:
36,192,251545,1,0,0:0:0:0:
256,192,251727,1,0,0:0:0:0:
402,192,251727,1,0,0:0:0:0:
182,192,251818,1,0,0:0:0:0:
36,192,251818,1,0,0:0:0:0:
182,192,252000,1,0,0:0:0:0:
36,192,252000,1,0,0:0:0:0:
256,192,252090,1,0,0:0:0:0:
402,192,252090,1,0,0:0:0:0:
109,192,252272,1,0,0:0:0:0:
475,192,252272,1,0,0:0:0:0:
182,192,252363,1,0,0:0:0:0:
402,192,252363,1,0,0:0:0:0:
36,192,252636,1,0,0:0:0:0:
182,192,252636,1,0,0:0:0:0:
182,192,252818,1,0,0:0:0:0:
36,192,252818,1,0,0:0:0:0:
329,192,253000,1,0,0:0:0:0:
475,192,253000,1,0,0:0:0:0:
256,192,253181,1,0,0:0:0:0:
109,192,253181,1,0,0:0:0:0:
329,192,253272,1,0,0:0:0:0:
475,192,253272,1,0,0:0:0:0:
329,192,253454,1,0,0:0:0:0:
475,192,253454,1,0,0:0:0:0:
256,192,253545,1,0,0:0:0:0:
109,192,253545,1,0,0:0:0:0:
402,192,253727,1,0,0:0:0:0:
36,192,253727,1,0,0:0:0:0:
329,192,253818,1,0,0:0:0:0:
109,192,253818,1,0,0:0:0:0:
36,192,254090,1,0,0:0:0:0:
109,192,254090,1,0,0:0:0:0:
109,192,254272,1,0,0:0:0:0:
36,192,254272,1,0,0:0:0:0:
256,192,254454,1,0,0:0:0:0:
402,192,254454,1,0,0:0:0:0:
109,192,254636,1,0,0:0:0:0:
182,192,254636,1,0,0:0:0:0:
256,192,254727,1,0,0:0:0:0:
329,192,254727,1,0,0:0:0:0:
256,192,254909,1,0,0:0:0:0:
329,192,254909,1,0,0:0:0:0:
182,192,255000,1,0,0:0:0:0:
109,192,255000,1,0,0:0:0:0:
36,192,255181,1,0,0:0:0:0:
475,192,255181,1,0,0:0:0:0:
182,192,255272,1,0,0:0:0:0:
329,192,255272,1,0,0:0:0:0:
36,192,255545,1,0,0:0:0:0:
256,192,255545,1,0,0:0:0:0:
109,192,255636,1,0,0:0:0:0:
329,192,255636,1,0,0:0:0:0:
182,192,255727,1,0,0:0:0:0:
402,192,255727,1,0,0:0:0:0:
256,192,255818,1,0,0:0:0:0:
475,192,255818,1,0,0:0:0:0:
109,192,255909,1,0,0:0:0:0:
329,192,255909,1,0,0:0:0:0:
182,192,256000,1,0,0:0:0:0:
402,192,256000,1,0,0:0:0:0:
256,192,256090,1,0,0:0:0:0:
475,192,256090,1,0,0:0:0:0:
329,192,256181,1,0,0:0:0:0:
109,192,256181,1,0,0:0:0:0:
182,192,256272,1,0,0:0:0:0:
402,192,256272,1,0,0:0:0:0:
256,192,256363,1,0,0:0:0:0:
475,192,256363,1,0,0:0:0:0:
36,192,256454,1,0,0:0:0:0:
329,192,256454,1,0,0:0:0:0:
109,192,256545,1,0,0:0:0:0:
402,192,256545,1,0,0:0:0:0:
182,192,256636,1,0,0:0:0:0:
475,192,256636,1,0,0:0:0:0:
256,192,256727,1,0,0:0:0:0:
36,192,256727,1,0,0:0:0:0:
109,192,256818,1,0,0:0:0:0:
329,192,256818,1,0,0:0:0:0:
182,192,256909,1,0,0:0:0:0:
402,192,256909,1,0,0:0:0:0:
256,192,257000,1,0,0:0:0:0:
475,192,257000,1,0,0:0:0:0:
256,192,257181,1,0,0:0:0:0:
475,192,257181,1,0,0:0:0:0:
182,192,257363,1,0,0:0:0:0:
36,192,257363,1,0,0:0:0:0:
256,192,257545,1,0,0:0:0:0:
402,192,257545,1,0,0:0:0:0:
182,192,257636,1,0,0:0:0:0:
36,192,257636,1,0,0:0:0:0:
36,192,257818,1,0,0:0:0:0:
182,192,257818,1,0,0:0:0:0:
256,192,257909,1,0,0:0:0:0:
402,192,257909,1,0,0:0:0:0:
109,192,258090,1,0,0:0:0:0:
329,192,258090,1,0,0:0:0:0:
182,192,258181,1,0,0:0:0:0:
402,192,258181,1,0,0:0:0:0:
36,192,258454,1,0,0:0:0:0:
256,192,258454,1,0,0:0:0:0:
36,192,258636,1,0,0:0:0:0:
256,192,258636,1,0,0:0:0:0:
475,192,258818,1,0,0:0:0:0:
329,192,258818,1,0,0:0:0:0:
109,192,259000,1,0,0:0:0:0:
256,192,259000,1,0,0:0:0:0:
475,192,259090,1,0,0:0:0:0:
329,192,259090,1,0,0:0:0:0:
329,192,259272,1,0,0:0:0:0:
475,192,259272,1,0,0:0:0:0:
109,192,259363,1,0,0:0:0:0:
256,192,259363,1,0,0:0:0:0:
182,192,259545,1,0,0:0:0:0:
402,192,259545,1,0,0:0:0:0:
109,192,259636,1,0,0:0:0:0:
329,192,259636,1,0,0:0:0:0:
182,192,259727,1,0,0:0:0:0:
402,192,259727,1,0,0:0:0:0:
109,192,259909,1,0,0:0:0:0:
36,192,259909,1,0,0:0:0:0:
109,192,260090,1,0,0:0:0:0:
36,192,260090,1,0,0:0:0:0:
256,192,260272,1,0,0:0:0:0:
475,192,260272,1,0,0:0:0:0:
109,192,260454,1,0,0:0:0:0:
36,192,260454,1,0,0:0:0:0:
256,192,260545,1,0,0:0:0:0:
402,192,260545,1,0,0:0:0:0:
256,192,260727,1,0,0:0:0:0:
402,192,260727,1,0,0:0:0:0:
109,192,260818,1,0,0:0:0:0:
36,192,260818,1,0,0:0:0:0:
182,192,261000,1,0,0:0:0:0:
475,192,261000,1,0,0:0:0:0:
402,192,261090,1,0,0:0:0:0:
109,192,261090,1,0,0:0:0:0:
402,192,261363,1,0,0:0:0:0:
475,192,261363,1,0,0:0:0:0:
402,192,261545,1,0,0:0:0:0:
475,192,261545,1,0,0:0:0:0:
256,192,261727,1,0,0:0:0:0:
36,192,261727,1,0,0:0:0:0:
402,192,261909,1,0,0:0:0:0:
475,192,261909,1,0,0:0:0:0:
256,192,262000,1,0,0:0:0:0:
109,192,262000,1,0,0:0:0:0:
256,192,262181,1,0,0:0:0:0:
109,192,262181,1,0,0:0:0:0:
402,192,262272,1,0,0:0:0:0:
475,192,262272,1,0,0:0:0:0:
109,192,262454,1,0,0:0:0:0:
256,192,262500,1,0,0:0:0:0:
36,192,262545,1,0,0:0:0:0:
182,192,262590,1,0,0:0:0:0:
329,192,262636,1,0,0:0:0:0:
475,192,262681,1,0,0:0:0:0:
256,192,262727,1,0,0:0:0:0:
402,192,262772,1,0,0:0:0:0:
36,192,262818,1,0,0:0:0:0:
182,192,262818,1,0,0:0:0:0:
182,192,263000,1,0,0:0:0:0:
36,192,263000,1,0,0:0:0:0:
329,192,263181,1,0,0:0:0:0:
475,192,263181,1,0,0:0:0:0:
182,192,263363,1,0,0:0:0:0:
36,192,263363,1,0,0:0:0:0:
329,192,263454,1,0,0:0:0:0:
475,192,263454,1,0,0:0:0:0:
182,192,263727,1,0,0:0:0:0:
36,192,263727,1,0,0:0:0:0:
329,192,263909,1,0,0:0:0:0:
475,192,263909,1,0,0:0:0:0:
182,192,264000,1,0,0:0:0:0:
36,192,264000,1,0,0:0:0:0:
109,192,264272,1,0,0:0:0:0:
182,192,264272,1,0,0:0:0:0:
182,192,264454,1,0,0:0:0:0:
109,192,264454,1,0,0:0:0:0:
329,192,264636,1,0,0:0:0:0:
402,192,264636,1,0,0:0:0:0:
182,192,264818,1,0,0:0:0:0:
109,192,264818,1,0,0:0:0:0:
329,192,264909,1,0,0:0:0:0:
402,192,264909,1,0,0:0:0:0:
182,192,265181,1,0,0:0:0:0:
109,192,265181,1,0,0:0:0:0:
329,192,265363,1,0,0:0:0:0:
402,192,265363,1,0,0:0:0:0:
182,192,265454,1,0,0:0:0:0:
109,192,265454,1,0,0:0:0:0:
256,192,265545,1,0,0:0:0:0:
329,192,265636,1,0,0:0:0:0:
36,192,265727,128,0,267090:0:0:0:0:
475,192,265727,1,0,0:0:0:0:
402,192,265818,1,0,0:0:0:0:
329,192,265909,1,0,0:0:0:0:
256,192,266000,1,0,0:0:0:0:
329,192,266090,1,0,0:0:0:0:
402,192,266181,1,0,0:0:0:0:
475,192,266272,1,0,0:0:0:0:
109,192,266363,1,0,0:0:0:0:
182,192,266454,1,0,0:0:0:0:
256,192,266545,1,0,0:0:0:0:
329,192,266636,1,0,0:0:0:0:
256,192,266727,1,0,0:0:0:0:
182,192,266818,1,0,0:0:0:0:
109,192,266909,1,0,0:0:0:0:
475,192,267000,1,0,0:0:0:0:
329,192,267090,1,0,0:0:0:0:
36,192,267181,1,0,0:0:0:0:
182,192,267181,1,0,0:0:0:0:
402,192,267181,1,0,0:0:0:0:
475,192,267181,1,0,0:0:0:0:
109,192,267909,1,0,0:0:0:0:
402,192,267909,1,0,0:0:0:0:
182,192,268000,1,0,0:0:0:0:
329,192,268000,1,0,0:0:0:0:
109,192,268090,1,0,0:0:0:0:
402,192,268090,1,0,0:0:0:0:
182,192,268181,1,0,0:0:0:0:
329,192,268181,1,0,0:0:0:0:
256,192,268272,1,0,0:0:0:0:
109,192,268272,1,0,0:0:0:0:
36,192,268272,1,0,0:0:0:0:
329,192,268363,1,0,0:0:0:0:
402,192,268363,1,0,0:0:0:0:
475,192,268363,1,0,0:0:0:0:
329,192,268545,1,0,0:0:0:0:
402,192,268545,1,0,0:0:0:0:
475,192,268545,1,0,0:0:0:0:
475,192,268636,128,0,273000:0:0:0:0:
36,192,268636,128,0,273000:0:0:0:0:
109,192,268636,128,0,273000:0:0:0:0:
402,192,268636,128,0,273000:0:0:0:0:
182,192,268636,128,0,268757:0:0:0:0:
329,192,268636,128,0,269000:0:0:0:0:
182,192,268878,128,0,269242:0:0:0:0:
329,192,269121,128,0,269363:0:0:0:0:
182,192,269363,128,0,269606:0:0:0:0:
329,192,269606,128,0,269848:0:0:0:0:
182,192,269848,128,0,270090:0:0:0:0:
329,192,270090,128,0,270333:0:0:0:0:
182,192,270333,128,0,270575:0:0:0:0:
329,192,270575,128,0,270818:0:0:0:0:
182,192,270818,128,0,271060:0:0:0:0:
329,192,271060,128,0,271303:0:0:0:0:
182,192,271303,128,0,271545:0:0:0:0:
329,192,271545,128,0,271787:0:0:0:0:
182,192,271787,128,0,273000:0:0:0:0:
329,192,272030,128,0,273000:0:0:0:0:
