osu file format v14

[General]
AudioFilename: newaudio.mp3
AudioLeadIn: 0
PreviewTime: 142518
Countdown: 0
SampleSet: Soft
StackLeniency: 0.7
Mode: 3
LetterboxInBreaks: 0
SpecialStyle: 0
WidescreenStoryboard: 0

[Editor]
Bookmarks: 11432,14632,27432,31416,38632,53032,65832,74932,78632,115432,117032,129832,136292,142632,155432,168232,174632,200232,206632,219432,232232,245032,254632,277032,283432,296232
DistanceSpacing: 1
BeatDivisor: 4
GridSize: 4
TimelineZoom: 1.8

[Metadata]
Title:You're Beautiful
TitleUnicode:You're Beautiful
Artist:lapix
ArtistUnicode:lapix
Creator:Umo-
Version:High Fashion
Source:
Tags:PsyStyle Nation bzrn-001 dj poyoshi electronic instrumental bizzare
BeatmapID:2157779
BeatmapSetID:1031877

[Difficulty]
HPDrainRate:8.5
CircleSize:4
OverallDifficulty:8
ApproachRate:5
SliderMultiplier:1.4
SliderTickRate:1

[Events]
//Background and Video events
0,0,"newbg.jpg",0,0
//Break Periods
//Storyboard Layer 0 (Background)
//Storyboard Layer 1 (Fail)
//Storyboard Layer 2 (Pass)
//Storyboard Layer 3 (Foreground)
//Storyboard Layer 4 (Overlay)
//Storyboard Sound Samples

[TimingPoints]
1718,400,4,2,1,60,1,0
11318,-100,4,2,1,60,0,0
14518,-100,4,2,1,40,0,0
40118,-100,4,2,1,60,0,0
52918,-100,4,2,1,70,0,0
65718,-100,4,2,1,45,0,0
78518,-100,4,2,1,70,0,0
91318,-100,4,2,1,70,0,1
102518,-100,4,2,1,70,0,0
104118,-100,4,2,1,70,0,1
113718,-100,4,2,1,70,0,0
142518,-100,4,2,1,70,0,1
168118,-100,4,2,1,70,0,0
200118,-100,4,2,1,60,0,0
244918,-100,4,2,1,70,0,0
257718,-100,4,2,1,70,0,1
268918,-100,4,2,1,70,0,0
270518,-100,4,2,1,70,0,1
280118,-100,4,2,1,70,0,0

[HitObjects]
448,192,118,128,0,318:0:0:0:0:
192,192,318,1,0,0:0:0:0:
320,192,418,1,0,0:0:0:0:
64,192,518,128,0,718:0:0:0:0:
192,192,618,128,0,718:0:0:0:0:
448,192,718,128,0,918:0:0:0:0:
320,192,818,128,0,918:0:0:0:0:
64,192,918,128,0,1118:0:0:0:0:
192,192,1118,128,0,1318:0:0:0:0:
320,192,1318,128,0,1418:0:0:0:0:
192,192,1418,128,0,1518:0:0:0:0:
320,192,1518,1,0,0:0:0:0:
64,192,1718,1,0,0:0:0:0:
320,192,1718,1,0,0:0:0:0:
448,192,1718,1,4,0:0:0:0:
192,192,1818,1,0,0:0:0:0:
320,192,1918,1,0,0:0:0:0:
192,192,2018,1,0,0:0:0:0:
320,192,2118,1,0,0:0:0:0:
64,192,2318,1,0,0:0:0:0:
192,192,2418,1,0,0:0:0:0:
64,192,2518,1,0,0:0:0:0:
192,192,2618,1,0,0:0:0:0:
64,192,2718,1,0,0:0:0:0:
320,192,2818,1,0,0:0:0:0:
192,192,2918,1,8,0:0:0:0:
448,192,2918,128,0,3718:0:0:0:0:
64,192,3118,1,0,0:0:0:0:
192,192,3218,1,0,0:0:0:0:
320,192,3318,1,0,0:0:0:0:
64,192,3418,1,0,0:0:0:0:
320,192,3518,1,0,0:0:0:0:
64,192,3618,1,0,0:0:0:0:
320,192,3718,1,0,0:0:0:0:
448,192,3918,1,0,0:0:0:0:
192,192,4018,1,0,0:0:0:0:
448,192,4118,1,0,0:0:0:0:
192,192,4218,1,0,0:0:0:0:
448,192,4318,1,0,0:0:0:0:
320,192,4418,1,0,0:0:0:0:
64,192,4518,128,0,4718:0:0:0:0:
192,192,4518,1,8,0:0:0:0:
448,192,4718,1,0,0:0:0:0:
320,192,4784,1,0,0:0:0:0:
192,192,4851,1,0,0:0:0:0:
448,192,4918,1,0,0:0:0:0:
320,192,5018,1,0,0:0:0:0:
448,192,5118,1,0,0:0:0:0:
320,192,5218,1,0,0:0:0:0:
448,192,5318,1,0,0:0:0:0:
64,192,5518,1,0,0:0:0:0:
320,192,5618,1,0,0:0:0:0:
64,192,5718,1,0,0:0:0:0:
320,192,5818,1,0,0:0:0:0:
64,192,5918,1,0,0:0:0:0:
192,192,6018,1,0,0:0:0:0:
320,192,6118,1,0,0:0:0:0:
448,192,6118,1,8,0:0:0:0:
64,192,6318,1,0,0:0:0:0:
192,192,6418,1,0,0:0:0:0:
448,192,6518,1,0,0:0:0:0:
64,192,6618,1,0,0:0:0:0:
448,192,6718,128,0,6818:0:0:0:0:
64,192,6818,1,0,0:0:0:0:
448,192,6918,1,0,0:0:0:0:
192,192,7018,128,0,7118:0:0:0:0:
320,192,7118,1,0,0:0:0:0:
64,192,7218,128,0,7318:0:0:0:0:
320,192,7318,1,0,0:0:0:0:
64,192,7518,128,0,7618:0:0:0:0:
448,192,7718,128,0,8118:0:0:0:0:
320,192,7718,1,8,0:0:0:0:
64,192,7918,1,0,0:0:0:0:
192,192,8018,1,0,0:0:0:0:
64,192,8118,1,0,0:0:0:0:
320,192,8218,1,0,0:0:0:0:
64,192,8318,1,0,0:0:0:0:
320,192,8418,1,0,0:0:0:0:
64,192,8518,1,0,0:0:0:0:
448,192,8718,1,0,0:0:0:0:
192,192,8818,1,0,0:0:0:0:
448,192,8918,1,0,0:0:0:0:
192,192,9018,1,0,0:0:0:0:
448,192,9118,1,0,0:0:0:0:
320,192,9218,1,0,0:0:0:0:
192,192,9318,1,8,0:0:0:0:
64,192,9318,128,0,10118:0:0:0:0:
320,192,9518,1,0,0:0:0:0:
448,192,9618,1,0,0:0:0:0:
192,192,9718,1,0,0:0:0:0:
320,192,9818,1,0,0:0:0:0:
192,192,9918,1,0,0:0:0:0:
320,192,10018,1,0,0:0:0:0:
192,192,10118,1,0,0:0:0:0:
448,192,10318,1,0,0:0:0:0:
192,192,10418,1,0,0:0:0:0:
448,192,10518,1,0,0:0:0:0:
192,192,10618,1,0,0:0:0:0:
448,192,10718,1,0,0:0:0:0:
320,192,10818,1,0,0:0:0:0:
64,192,10918,128,0,11118:0:0:0:0:
320,192,11118,1,0,0:0:0:0:
448,192,11218,1,0,0:0:0:0:
64,192,11318,1,4,0:0:0:0:
320,192,11318,1,8,0:0:0:0:
192,192,11318,1,2,0:0:0:0:
64,192,11518,128,0,11718:0:0:0:0:
448,192,11718,128,0,11818:0:0:0:0:
192,192,11918,1,2,0:0:0:0:
320,192,11918,1,8,0:0:0:0:
448,192,11918,1,0,0:0:0:0:
64,192,12018,1,0,0:0:0:0:
192,192,12118,1,0,0:0:0:0:
320,192,12118,1,2,0:0:0:0:
448,192,12118,1,8,0:0:0:0:
192,192,12218,1,0,0:0:0:0:
320,192,12318,1,0,0:0:0:0:
192,192,12418,1,8,0:0:0:0:
64,192,12418,1,0,0:0:0:0:
448,192,12418,1,2,0:0:0:0:
320,192,12618,1,0,0:0:0:0:
192,192,12718,1,2,0:0:0:0:
64,192,12718,1,0,0:0:0:0:
448,192,12718,1,8,0:0:0:0:
320,192,12918,1,0,0:0:0:0:
192,192,13018,1,0,0:0:0:0:
320,192,13118,1,0,0:0:0:0:
192,192,13218,1,0,0:0:0:0:
320,192,13318,1,8,0:0:0:0:
64,192,13318,1,0,0:0:0:0:
448,192,13318,1,2,0:0:0:0:
192,192,13518,1,0,0:0:0:0:
64,192,13618,1,0,0:0:0:0:
192,192,13718,128,0,14418:0:0:0:0:
320,192,13918,128,0,14418:0:0:0:0:
64,192,14118,128,0,14418:0:0:0:0:
448,192,14318,128,0,14418:0:0:0:0:
64,192,14518,1,0,0:0:0:0:
192,192,14518,1,4,0:0:0:0:
320,192,14518,1,0,0:0:0:0:
448,192,14518,1,0,0:0:0:0:
448,192,14818,1,0,0:0:0:0:
448,192,15118,1,0,0:0:0:0:
448,192,15418,1,0,0:0:0:0:
320,192,15718,1,0,0:0:0:0:
64,192,16118,1,0,0:0:0:0:
64,192,16418,1,0,0:0:0:0:
64,192,16718,1,0,0:0:0:0:
64,192,17018,1,0,0:0:0:0:
64,192,17318,1,0,0:0:0:0:
320,192,17718,1,0,0:0:0:0:
320,192,18018,1,0,0:0:0:0:
320,192,18318,1,0,0:0:0:0:
320,192,18618,1,0,0:0:0:0:
192,192,18918,1,0,0:0:0:0:
320,192,19218,1,0,0:0:0:0:
192,192,19318,1,0,0:0:0:0:
192,192,19618,1,0,0:0:0:0:
192,192,19918,1,0,0:0:0:0:
192,192,20218,1,0,0:0:0:0:
192,192,20518,1,0,0:0:0:0:
448,192,20918,1,0,0:0:0:0:
320,192,21018,1,0,0:0:0:0:
448,192,21218,1,0,0:0:0:0:
320,192,21318,1,0,0:0:0:0:
448,192,21518,1,0,0:0:0:0:
320,192,21618,1,0,0:0:0:0:
448,192,21818,1,0,0:0:0:0:
320,192,21918,1,0,0:0:0:0:
192,192,22118,1,0,0:0:0:0:
320,192,22318,1,0,0:0:0:0:
64,192,22518,1,0,0:0:0:0:
192,192,22618,1,0,0:0:0:0:
64,192,22818,1,0,0:0:0:0:
192,192,22918,1,0,0:0:0:0:
64,192,23118,1,0,0:0:0:0:
192,192,23218,1,0,0:0:0:0:
64,192,23418,1,0,0:0:0:0:
192,192,23518,1,0,0:0:0:0:
64,192,23718,1,0,0:0:0:0:
320,192,24118,1,0,0:0:0:0:
192,192,24218,1,0,0:0:0:0:
320,192,24418,1,0,0:0:0:0:
192,192,24518,1,0,0:0:0:0:
320,192,24718,1,0,0:0:0:0:
192,192,24818,1,0,0:0:0:0:
320,192,25018,1,0,0:0:0:0:
192,192,25118,1,0,0:0:0:0:
448,192,25318,1,0,0:0:0:0:
320,192,25518,1,0,0:0:0:0:
192,192,25618,1,0,0:0:0:0:
64,192,25718,128,0,27318:0:0:0:0:
448,192,25818,1,0,0:0:0:0:
320,192,26018,1,0,0:0:0:0:
448,192,26118,1,0,0:0:0:0:
320,192,26318,1,0,0:0:0:0:
448,192,26418,1,0,0:0:0:0:
320,192,26618,1,0,0:0:0:0:
448,192,26718,1,0,0:0:0:0:
320,192,26918,1,0,0:0:0:0:
192,192,27318,1,0,0:0:0:0:
448,192,27318,1,0,0:0:0:0:
448,192,27618,1,0,0:0:0:0:
64,192,27918,1,0,0:0:0:0:
320,192,28018,1,0,0:0:0:0:
192,192,28118,1,0,0:0:0:0:
320,192,28318,1,0,0:0:0:0:
64,192,28418,1,0,0:0:0:0:
192,192,28518,1,0,0:0:0:0:
448,192,28918,1,0,0:0:0:0:
448,192,29218,1,0,0:0:0:0:
192,192,29518,1,0,0:0:0:0:
64,192,29618,1,0,0:0:0:0:
320,192,29718,1,0,0:0:0:0:
448,192,29918,1,0,0:0:0:0:
64,192,30118,128,0,31318:0:0:0:0:
448,192,30518,1,0,0:0:0:0:
448,192,30818,1,0,0:0:0:0:
320,192,31118,1,0,0:0:0:0:
192,192,31318,1,0,0:0:0:0:
448,192,31518,1,0,0:0:0:0:
64,192,31718,1,0,0:0:0:0:
192,192,32018,1,0,0:0:0:0:
64,192,32118,1,0,0:0:0:0:
320,192,32118,1,0,0:0:0:0:
64,192,32418,1,0,0:0:0:0:
320,192,32418,1,0,0:0:0:0:
320,192,32718,1,0,0:0:0:0:
64,192,32718,1,0,0:0:0:0:
192,192,32818,1,0,0:0:0:0:
448,192,32918,1,0,0:0:0:0:
320,192,33018,1,0,0:0:0:0:
64,192,33018,1,0,0:0:0:0:
64,192,33318,1,0,0:0:0:0:
320,192,33318,1,0,0:0:0:0:
192,192,33718,1,0,0:0:0:0:
64,192,33718,1,0,0:0:0:0:
64,192,34018,1,0,0:0:0:0:
192,192,34018,1,0,0:0:0:0:
192,192,34318,1,0,0:0:0:0:
64,192,34318,1,0,0:0:0:0:
448,192,34418,1,0,0:0:0:0:
320,192,34518,1,0,0:0:0:0:
192,192,34618,1,0,0:0:0:0:
64,192,34618,1,0,0:0:0:0:
192,192,34918,1,0,0:0:0:0:
64,192,34918,1,0,0:0:0:0:
448,192,35318,1,0,0:0:0:0:
320,192,35318,1,0,0:0:0:0:
448,192,35618,1,0,0:0:0:0:
320,192,35618,1,0,0:0:0:0:
448,192,35918,1,0,0:0:0:0:
320,192,35918,1,0,0:0:0:0:
192,192,36018,1,0,0:0:0:0:
64,192,36118,1,0,0:0:0:0:
448,192,36218,1,0,0:0:0:0:
320,192,36218,1,0,0:0:0:0:
320,192,36518,1,0,0:0:0:0:
64,192,36518,128,0,37718:0:0:0:0:
192,192,36918,1,0,0:0:0:0:
448,192,36918,1,0,0:0:0:0:
448,192,37218,1,0,0:0:0:0:
192,192,37218,1,0,0:0:0:0:
448,192,37518,1,0,0:0:0:0:
192,192,37518,1,0,0:0:0:0:
320,192,37718,1,0,0:0:0:0:
448,192,37818,1,0,0:0:0:0:
192,192,37818,1,0,0:0:0:0:
320,192,38118,1,0,0:0:0:0:
64,192,38118,1,0,0:0:0:0:
64,192,38418,1,0,0:0:0:0:
320,192,38418,1,0,0:0:0:0:
192,192,38518,1,0,0:0:0:0:
320,192,38518,1,2,0:0:0:0:
448,192,38518,1,8,0:0:0:0:
320,192,40118,1,4,0:0:0:0:
192,192,40118,1,0,0:0:0:0:
448,192,40118,128,8,40518:0:0:0:0:
64,192,40118,128,2,40518:0:0:0:0:
320,192,40718,128,0,40818:0:0:0:0:
192,192,40818,128,0,40918:0:0:0:0:
448,192,40918,128,0,41118:0:0:0:0:
64,192,41118,128,0,41518:0:0:0:0:
320,192,41318,128,0,41518:0:0:0:0:
448,192,41518,128,0,41618:0:0:0:0:
192,192,41618,128,0,41718:0:0:0:0:
320,192,41718,128,0,41818:0:0:0:0:
64,192,41818,128,0,41918:0:0:0:0:
320,192,41918,128,0,42018:0:0:0:0:
448,192,42018,128,0,42318:0:0:0:0:
192,192,42018,128,0,42318:0:0:0:0:
64,192,42318,128,0,42718:0:0:0:0:
320,192,42318,128,0,42718:0:0:0:0:
192,192,42718,128,0,43118:0:0:0:0:
448,192,42718,128,0,42918:0:0:0:0:
320,192,42918,128,0,43118:0:0:0:0:
448,192,43118,128,0,43718:0:0:0:0:
64,192,43118,128,0,43518:0:0:0:0:
192,192,43318,128,0,43618:0:0:0:0:
64,192,43918,128,0,44118:0:0:0:0:
192,192,43918,128,0,44018:0:0:0:0:
320,192,44018,128,0,44118:0:0:0:0:
448,192,44118,128,0,44518:0:0:0:0:
192,192,44318,128,0,44518:0:0:0:0:
320,192,44518,128,0,44918:0:0:0:0:
64,192,44718,128,0,44918:0:0:0:0:
192,192,44818,128,0,44918:0:0:0:0:
448,192,44918,128,0,45018:0:0:0:0:
320,192,45018,128,0,45118:0:0:0:0:
64,192,45118,128,0,45318:0:0:0:0:
448,192,45118,128,0,45218:0:0:0:0:
192,192,45218,128,0,45318:0:0:0:0:
448,192,45318,128,0,45518:0:0:0:0:
320,192,45318,128,0,45418:0:0:0:0:
320,192,45518,128,0,45718:0:0:0:0:
192,192,45518,128,0,45618:0:0:0:0:
64,192,45718,128,0,45918:0:0:0:0:
192,192,45818,128,0,45918:0:0:0:0:
448,192,45918,128,0,46018:0:0:0:0:
320,192,45918,128,0,46018:0:0:0:0:
320,192,46118,1,2,0:0:0:0:
448,192,46118,1,0,0:0:0:0:
64,192,46218,1,2,0:0:0:0:
320,192,46318,1,2,0:0:0:0:
448,192,46318,1,0,0:0:0:0:
192,192,46418,1,2,0:0:0:0:
320,192,46518,1,0,0:0:0:0:
192,192,46518,1,2,0:0:0:0:
64,192,46518,128,8,46918:0:0:0:0:
448,192,46518,128,0,46918:0:0:0:0:
320,192,47118,128,0,47218:0:0:0:0:
448,192,47218,128,0,47318:0:0:0:0:
192,192,47318,128,0,47718:0:0:0:0:
448,192,47518,128,0,47718:0:0:0:0:
320,192,47718,128,0,47918:0:0:0:0:
64,192,47918,128,0,48018:0:0:0:0:
448,192,48018,128,0,48118:0:0:0:0:
192,192,48118,128,0,48218:0:0:0:0:
320,192,48218,128,0,48318:0:0:0:0:
64,192,48318,128,0,48418:0:0:0:0:
192,192,48418,128,0,48718:0:0:0:0:
448,192,48418,128,0,48718:0:0:0:0:
320,192,48718,128,0,49118:0:0:0:0:
64,192,48718,128,0,49118:0:0:0:0:
448,192,49118,128,0,49518:0:0:0:0:
192,192,49118,128,0,49318:0:0:0:0:
320,192,49318,128,0,49518:0:0:0:0:
64,192,49518,128,0,50118:0:0:0:0:
192,192,49518,128,0,49918:0:0:0:0:
448,192,49718,128,0,50018:0:0:0:0:
448,192,50318,128,0,50518:0:0:0:0:
320,192,50318,128,0,50418:0:0:0:0:
192,192,50418,128,0,50518:0:0:0:0:
64,192,50518,128,0,50918:0:0:0:0:
320,192,50718,128,0,50918:0:0:0:0:
192,192,50918,128,0,51318:0:0:0:0:
448,192,51118,128,0,51318:0:0:0:0:
320,192,51218,128,0,51318:0:0:0:0:
64,192,51318,128,0,51418:0:0:0:0:
192,192,51418,128,0,51518:0:0:0:0:
448,192,51518,128,0,51718:0:0:0:0:
64,192,51518,128,0,51618:0:0:0:0:
320,192,51618,128,0,51718:0:0:0:0:
64,192,51718,128,0,51918:0:0:0:0:
192,192,51718,128,0,51818:0:0:0:0:
320,192,51818,128,0,51918:0:0:0:0:
448,192,51918,128,0,52318:0:0:0:0:
192,192,51918,128,0,52318:0:0:0:0:
64,192,52318,128,0,52518:0:0:0:0:
320,192,52518,128,0,52718:0:0:0:0:
192,192,52718,128,0,52818:0:0:0:0:
192,192,52918,1,0,0:0:0:0:
320,192,52918,1,4,0:0:0:0:
448,192,52918,1,8,0:0:0:0:
64,192,52918,128,2,53318:0:0:0:0:
192,192,53218,1,0,0:0:0:0:
320,192,53318,1,2,0:0:0:0:
448,192,53318,1,8,0:0:0:0:
320,192,53518,128,0,53618:0:0:0:0:
448,192,53618,128,0,53718:0:0:0:0:
192,192,53718,128,8,53918:0:0:0:0:
64,192,53718,1,2,0:0:0:0:
64,192,53918,128,0,54318:0:0:0:0:
320,192,54018,1,0,0:0:0:0:
192,192,54118,128,2,54318:0:0:0:0:
448,192,54118,1,8,0:0:0:0:
320,192,54318,128,0,54418:0:0:0:0:
448,192,54418,128,0,54518:0:0:0:0:
64,192,54518,128,2,54618:0:0:0:0:
192,192,54518,1,8,0:0:0:0:
448,192,54618,128,0,54718:0:0:0:0:
320,192,54718,128,0,54818:0:0:0:0:
448,192,54818,128,0,55118:0:0:0:0:
192,192,54918,1,8,0:0:0:0:
64,192,54918,1,2,0:0:0:0:
320,192,55118,128,0,55518:0:0:0:0:
64,192,55318,1,2,0:0:0:0:
448,192,55318,1,8,0:0:0:0:
192,192,55518,128,0,55918:0:0:0:0:
448,192,55618,1,0,0:0:0:0:
320,192,55718,128,2,55918:0:0:0:0:
64,192,55718,1,8,0:0:0:0:
64,192,55918,128,8,56418:0:0:0:0:
448,192,55918,1,0,0:0:0:0:
448,192,56118,128,2,56418:0:0:0:0:
192,192,56118,1,8,0:0:0:0:
192,192,56418,1,0,0:0:0:0:
64,192,56518,1,2,0:0:0:0:
448,192,56518,1,8,0:0:0:0:
64,192,56718,128,0,56918:0:0:0:0:
320,192,56718,128,0,56818:0:0:0:0:
192,192,56818,128,0,56918:0:0:0:0:
448,192,56918,128,2,57118:0:0:0:0:
320,192,56918,1,8,0:0:0:0:
64,192,57118,128,0,57318:0:0:0:0:
192,192,57218,1,0,0:0:0:0:
320,192,57318,128,2,57518:0:0:0:0:
448,192,57318,1,8,0:0:0:0:
192,192,57518,128,0,57618:0:0:0:0:
64,192,57618,128,0,57718:0:0:0:0:
448,192,57718,128,2,57818:0:0:0:0:
320,192,57718,1,8,0:0:0:0:
192,192,57818,128,0,57918:0:0:0:0:
64,192,57918,128,0,58118:0:0:0:0:
320,192,57918,128,0,58018:0:0:0:0:
448,192,58018,128,0,58118:0:0:0:0:
192,192,58118,128,2,58318:0:0:0:0:
320,192,58118,128,8,58218:0:0:0:0:
320,192,58318,128,0,58518:0:0:0:0:
448,192,58318,128,0,58418:0:0:0:0:
448,192,58518,128,2,58718:0:0:0:0:
192,192,58518,128,8,58718:0:0:0:0:
64,192,58718,128,0,58918:0:0:0:0:
320,192,58718,128,0,58918:0:0:0:0:
192,192,58918,1,2,0:0:0:0:
448,192,58918,1,8,0:0:0:0:
448,192,59118,1,0,0:0:0:0:
192,192,59118,1,0,0:0:0:0:
64,192,59318,1,2,0:0:0:0:
192,192,59318,1,0,0:0:0:0:
320,192,59318,1,8,0:0:0:0:
448,192,59318,128,0,59718:0:0:0:0:
320,192,59618,1,0,0:0:0:0:
64,192,59718,1,8,0:0:0:0:
192,192,59718,1,2,0:0:0:0:
320,192,59918,128,0,60018:0:0:0:0:
192,192,60018,128,0,60118:0:0:0:0:
320,192,60118,128,2,60318:0:0:0:0:
64,192,60118,1,8,0:0:0:0:
64,192,60318,128,0,60718:0:0:0:0:
448,192,60418,1,0,0:0:0:0:
192,192,60518,128,8,60718:0:0:0:0:
320,192,60518,1,2,0:0:0:0:
448,192,60718,128,0,60818:0:0:0:0:
320,192,60818,128,0,60918:0:0:0:0:
192,192,60918,128,8,61018:0:0:0:0:
448,192,60918,1,2,0:0:0:0:
64,192,61018,128,0,61118:0:0:0:0:
448,192,61118,128,0,61218:0:0:0:0:
320,192,61218,128,0,61518:0:0:0:0:
192,192,61318,1,2,0:0:0:0:
64,192,61318,1,8,0:0:0:0:
448,192,61518,128,0,61918:0:0:0:0:
64,192,61718,1,2,0:0:0:0:
192,192,61718,1,8,0:0:0:0:
64,192,61918,128,0,62318:0:0:0:0:
192,192,62018,1,0,0:0:0:0:
448,192,62118,128,8,62318:0:0:0:0:
320,192,62118,1,2,0:0:0:0:
192,192,62318,128,0,62818:0:0:0:0:
320,192,62318,1,8,0:0:0:0:
448,192,62518,128,8,62818:0:0:0:0:
64,192,62518,1,2,0:0:0:0:
320,192,62818,1,0,0:0:0:0:
192,192,62918,1,8,0:0:0:0:
448,192,62918,1,2,0:0:0:0:
192,192,63118,128,0,63318:0:0:0:0:
320,192,63118,128,0,63218:0:0:0:0:
64,192,63218,128,0,63318:0:0:0:0:
448,192,63318,128,8,63518:0:0:0:0:
320,192,63318,1,2,0:0:0:0:
64,192,63518,128,0,63718:0:0:0:0:
448,192,63618,1,0,0:0:0:0:
320,192,63718,128,8,63918:0:0:0:0:
192,192,63718,1,2,0:0:0:0:
64,192,63918,128,0,64018:0:0:0:0:
192,192,64018,128,0,64118:0:0:0:0:
448,192,64118,128,2,64218:0:0:0:0:
64,192,64118,1,8,0:0:0:0:
320,192,64218,128,0,64318:0:0:0:0:
64,192,64318,128,0,64518:0:0:0:0:
192,192,64318,128,0,64418:0:0:0:0:
448,192,64418,128,0,64518:0:0:0:0:
192,192,64518,128,0,64718:0:0:0:0:
320,192,64518,128,0,64618:0:0:0:0:
64,192,64618,128,0,64718:0:0:0:0:
448,192,64718,128,0,65118:0:0:0:0:
320,192,64718,128,0,64918:0:0:0:0:
64,192,64918,1,2,0:0:0:0:
192,192,65018,1,2,0:0:0:0:
64,192,65118,128,0,65318:0:0:0:0:
320,192,65118,128,2,65318:0:0:0:0:
192,192,65318,1,2,0:0:0:0:
448,192,65318,128,0,65618:0:0:0:0:
192,192,65418,1,2,0:0:0:0:
320,192,65518,128,0,65618:0:0:0:0:
64,192,65718,1,8,0:0:0:0:
192,192,65718,1,2,0:0:0:0:
448,192,65718,1,0,0:0:0:0:
192,192,66118,1,0,0:0:0:0:
64,192,66118,1,0,0:0:0:0:
192,192,66518,1,0,0:0:0:0:
64,192,66518,1,0,0:0:0:0:
448,192,66618,1,0,0:0:0:0:
320,192,66718,1,0,0:0:0:0:
64,192,66918,1,0,0:0:0:0:
192,192,66918,1,0,0:0:0:0:
320,192,67118,1,0,0:0:0:0:
320,192,67318,1,0,0:0:0:0:
448,192,67318,1,0,0:0:0:0:
64,192,67418,1,0,0:0:0:0:
192,192,67518,1,0,0:0:0:0:
64,192,67618,1,0,0:0:0:0:
448,192,67718,1,0,0:0:0:0:
320,192,67718,1,0,0:0:0:0:
192,192,67918,1,0,0:0:0:0:
64,192,68018,1,0,0:0:0:0:
320,192,68118,1,0,0:0:0:0:
448,192,68118,1,0,0:0:0:0:
192,192,68218,1,0,0:0:0:0:
64,192,68318,1,0,0:0:0:0:
320,192,68518,1,0,0:0:0:0:
448,192,68518,128,0,69318:0:0:0:0:
320,192,68918,1,0,0:0:0:0:
64,192,68918,1,0,0:0:0:0:
192,192,69018,1,0,0:0:0:0:
320,192,69118,1,0,0:0:0:0:
192,192,69218,1,0,0:0:0:0:
64,192,69318,1,0,0:0:0:0:
320,192,69318,1,0,0:0:0:0:
448,192,69518,1,0,0:0:0:0:
192,192,69618,1,0,0:0:0:0:
320,192,69718,1,0,0:0:0:0:
64,192,69718,1,0,0:0:0:0:
448,192,69818,1,0,0:0:0:0:
192,192,69918,1,0,0:0:0:0:
64,192,70118,1,0,0:0:0:0:
320,192,70118,1,0,0:0:0:0:
448,192,70318,1,0,0:0:0:0:
64,192,70518,1,0,0:0:0:0:
448,192,70518,1,0,0:0:0:0:
192,192,70618,1,0,0:0:0:0:
64,192,70718,1,0,0:0:0:0:
192,192,70818,1,0,0:0:0:0:
448,192,70918,1,0,0:0:0:0:
64,192,70918,1,0,0:0:0:0:
320,192,71118,1,0,0:0:0:0:
192,192,71218,1,0,0:0:0:0:
64,192,71318,1,0,0:0:0:0:
448,192,71318,1,0,0:0:0:0:
448,192,71518,128,2,71618:0:0:0:0:
192,192,71518,128,0,71618:0:0:0:0:
64,192,71518,128,0,71618:0:0:0:0:
64,192,71718,128,0,71818:0:0:0:0:
192,192,71718,128,0,71818:0:0:0:0:
448,192,71718,128,2,71818:0:0:0:0:
192,192,71918,128,0,72018:0:0:0:0:
448,192,71918,128,2,72018:0:0:0:0:
64,192,71918,128,0,72018:0:0:0:0:
64,192,72118,128,0,72218:0:0:0:0:
320,192,72118,128,0,72218:0:0:0:0:
448,192,72118,128,2,72218:0:0:0:0:
320,192,72518,1,0,0:0:0:0:
448,192,72518,1,0,0:0:0:0:
192,192,72718,1,0,0:0:0:0:
64,192,72818,1,0,0:0:0:0:
448,192,72918,1,0,0:0:0:0:
320,192,72918,1,0,0:0:0:0:
192,192,73018,1,0,0:0:0:0:
64,192,73118,1,0,0:0:0:0:
320,192,73318,1,0,0:0:0:0:
448,192,73318,1,0,0:0:0:0:
192,192,73518,1,0,0:0:0:0:
192,192,73718,1,0,0:0:0:0:
64,192,73718,1,0,0:0:0:0:
448,192,73818,1,0,0:0:0:0:
320,192,73918,1,0,0:0:0:0:
448,192,74018,1,0,0:0:0:0:
64,192,74118,1,0,0:0:0:0:
192,192,74118,1,0,0:0:0:0:
320,192,74318,1,0,0:0:0:0:
448,192,74418,1,0,0:0:0:0:
192,192,74518,1,0,0:0:0:0:
64,192,74518,1,0,0:0:0:0:
448,192,74618,1,0,0:0:0:0:
320,192,74718,1,0,0:0:0:0:
192,192,74918,1,0,0:0:0:0:
64,192,74918,128,0,75718:0:0:0:0:
448,192,75318,1,0,0:0:0:0:
192,192,75318,1,0,0:0:0:0:
320,192,75418,1,0,0:0:0:0:
448,192,75518,1,0,0:0:0:0:
320,192,75618,1,0,0:0:0:0:
192,192,75718,1,0,0:0:0:0:
448,192,75718,1,0,0:0:0:0:
320,192,75918,1,0,0:0:0:0:
64,192,76018,1,0,0:0:0:0:
192,192,76118,1,0,0:0:0:0:
448,192,76118,1,0,0:0:0:0:
320,192,76218,1,0,0:0:0:0:
64,192,76318,1,0,0:0:0:0:
448,192,76518,1,0,0:0:0:0:
192,192,76518,1,0,0:0:0:0:
320,192,76718,1,0,0:0:0:0:
192,192,76918,1,0,0:0:0:0:
320,192,76918,1,0,0:0:0:0:
448,192,77018,1,0,0:0:0:0:
64,192,77118,1,0,0:0:0:0:
448,192,77218,1,0,0:0:0:0:
320,192,77318,1,0,0:0:0:0:
192,192,77318,1,0,0:0:0:0:
64,192,77518,1,0,0:0:0:0:
448,192,77618,1,0,0:0:0:0:
320,192,77718,128,0,77918:0:0:0:0:
192,192,77718,128,0,77818:0:0:0:0:
192,192,77918,128,0,78118:0:0:0:0:
448,192,77918,128,0,78018:0:0:0:0:
320,192,78118,1,2,0:0:0:0:
320,192,78218,1,2,0:0:0:0:
192,192,78318,1,2,0:0:0:0:
64,192,78318,128,0,78418:0:0:0:0:
64,192,78518,1,8,0:0:0:0:
192,192,78518,1,4,0:0:0:0:
320,192,78518,1,0,0:0:0:0:
448,192,78518,1,2,0:0:0:0:
320,192,78618,1,0,0:0:0:0:
192,192,78718,1,0,0:0:0:0:
320,192,78818,1,0,0:0:0:0:
448,192,78918,1,0,0:0:0:0:
64,192,78918,1,0,0:0:0:0:
192,192,79018,1,0,0:0:0:0:
448,192,79118,128,0,79218:0:0:0:0:
320,192,79118,1,0,0:0:0:0:
192,192,79218,1,0,0:0:0:0:
64,192,79318,1,0,0:0:0:0:
320,192,79318,1,0,0:0:0:0:
192,192,79418,1,0,0:0:0:0:
448,192,79518,128,0,79618:0:0:0:0:
64,192,79518,1,0,0:0:0:0:
320,192,79618,1,0,0:0:0:0:
192,192,79718,1,0,0:0:0:0:
64,192,79718,1,0,0:0:0:0:
320,192,79818,1,0,0:0:0:0:
64,192,79918,128,0,80018:0:0:0:0:
448,192,79918,1,0,0:0:0:0:
192,192,80018,1,0,0:0:0:0:
320,192,80118,1,0,0:0:0:0:
448,192,80118,1,0,0:0:0:0:
192,192,80218,1,0,0:0:0:0:
64,192,80318,128,0,80418:0:0:0:0:
448,192,80318,1,0,0:0:0:0:
320,192,80418,1,0,0:0:0:0:
192,192,80518,1,0,0:0:0:0:
64,192,80518,1,0,0:0:0:0:
448,192,80618,1,0,0:0:0:0:
320,192,80718,128,0,80818:0:0:0:0:
64,192,80718,1,0,0:0:0:0:
192,192,80818,1,0,0:0:0:0:
448,192,80918,1,0,0:0:0:0:
64,192,80918,1,0,0:0:0:0:
192,192,81018,1,0,0:0:0:0:
320,192,81118,128,0,81218:0:0:0:0:
448,192,81118,1,0,0:0:0:0:
192,192,81218,1,0,0:0:0:0:
64,192,81318,1,0,0:0:0:0:
448,192,81318,1,0,0:0:0:0:
320,192,81418,1,0,0:0:0:0:
192,192,81518,128,0,81618:0:0:0:0:
64,192,81518,1,0,0:0:0:0:
320,192,81618,1,0,0:0:0:0:
448,192,81718,1,0,0:0:0:0:
64,192,81718,1,0,0:0:0:0:
320,192,81818,1,0,0:0:0:0:
192,192,81918,128,0,82018:0:0:0:0:
448,192,81918,1,0,0:0:0:0:
64,192,82018,1,0,0:0:0:0:
320,192,82118,1,0,0:0:0:0:
448,192,82118,1,0,0:0:0:0:
192,192,82218,1,0,0:0:0:0:
448,192,82318,128,0,82418:0:0:0:0:
64,192,82318,1,0,0:0:0:0:
320,192,82418,1,0,0:0:0:0:
192,192,82518,1,0,0:0:0:0:
64,192,82518,1,0,0:0:0:0:
320,192,82618,1,0,0:0:0:0:
448,192,82718,128,0,82818:0:0:0:0:
192,192,82718,1,0,0:0:0:0:
64,192,82818,1,0,0:0:0:0:
320,192,82918,1,0,0:0:0:0:
448,192,82918,1,0,0:0:0:0:
64,192,83018,1,0,0:0:0:0:
192,192,83118,128,0,83218:0:0:0:0:
448,192,83118,1,0,0:0:0:0:
320,192,83218,1,0,0:0:0:0:
64,192,83318,1,0,0:0:0:0:
448,192,83318,1,0,0:0:0:0:
320,192,83418,1,0,0:0:0:0:
192,192,83518,128,0,83618:0:0:0:0:
64,192,83518,1,0,0:0:0:0:
448,192,83618,1,0,0:0:0:0:
320,192,83718,1,0,0:0:0:0:
192,192,83718,1,0,0:0:0:0:
448,192,83818,1,0,0:0:0:0:
64,192,83918,128,0,84018:0:0:0:0:
192,192,83918,1,0,0:0:0:0:
320,192,84018,1,0,0:0:0:0:
448,192,84118,1,0,0:0:0:0:
64,192,84118,1,0,0:0:0:0:
320,192,84218,1,0,0:0:0:0:
64,192,84318,128,0,84418:0:0:0:0:
448,192,84318,1,0,0:0:0:0:
192,192,84418,1,0,0:0:0:0:
320,192,84518,1,0,0:0:0:0:
448,192,84518,1,0,0:0:0:0:
192,192,84618,1,0,0:0:0:0:
320,192,84718,128,0,84818:0:0:0:0:
64,192,84718,1,0,0:0:0:0:
192,192,84818,1,0,0:0:0:0:
64,192,84918,1,0,0:0:0:0:
448,192,84918,1,0,0:0:0:0:
320,192,84968,1,0,0:0:0:0:
192,192,85018,1,0,0:0:0:0:
64,192,85068,1,0,0:0:0:0:
320,192,85118,1,0,0:0:0:0:
448,192,85168,1,0,0:0:0:0:
64,192,85218,1,0,0:0:0:0:
192,192,85268,1,0,0:0:0:0:
448,192,85318,1,0,0:0:0:0:
320,192,85368,1,0,0:0:0:0:
192,192,85418,1,0,0:0:0:0:
64,192,85468,1,0,0:0:0:0:
320,192,85518,1,0,0:0:0:0:
448,192,85568,1,0,0:0:0:0:
64,192,85618,1,0,0:0:0:0:
192,192,85668,1,0,0:0:0:0:
320,192,85718,1,0,0:0:0:0:
448,192,85768,1,0,0:0:0:0:
192,192,85818,1,0,0:0:0:0:
64,192,85868,1,0,0:0:0:0:
448,192,85918,1,0,0:0:0:0:
320,192,85968,1,0,0:0:0:0:
192,192,86018,1,0,0:0:0:0:
64,192,86068,1,0,0:0:0:0:
448,192,86118,1,0,0:0:0:0:
320,192,86168,1,0,0:0:0:0:
64,192,86218,1,0,0:0:0:0:
192,192,86268,1,0,0:0:0:0:
448,192,86318,1,0,0:0:0:0:
320,192,86368,1,0,0:0:0:0:
192,192,86418,1,0,0:0:0:0:
64,192,86468,1,0,0:0:0:0:
320,192,86518,1,0,0:0:0:0:
448,192,86568,1,0,0:0:0:0:
64,192,86618,1,0,0:0:0:0:
192,192,86668,1,0,0:0:0:0:
320,192,86718,1,0,0:0:0:0:
448,192,86768,1,0,0:0:0:0:
192,192,86818,1,0,0:0:0:0:
64,192,86868,1,0,0:0:0:0:
448,192,86918,1,0,0:0:0:0:
320,192,86968,1,0,0:0:0:0:
192,192,87018,1,0,0:0:0:0:
64,192,87068,1,0,0:0:0:0:
320,192,87118,1,0,0:0:0:0:
448,192,87168,1,0,0:0:0:0:
64,192,87218,1,0,0:0:0:0:
192,192,87268,1,0,0:0:0:0:
320,192,87318,1,0,0:0:0:0:
64,192,87368,1,0,0:0:0:0:
448,192,87418,1,0,0:0:0:0:
192,192,87468,1,0,0:0:0:0:
320,192,87518,1,0,0:0:0:0:
448,192,87568,1,0,0:0:0:0:
64,192,87618,1,0,0:0:0:0:
320,192,87668,1,0,0:0:0:0:
192,192,87718,1,0,0:0:0:0:
64,192,87768,1,0,0:0:0:0:
448,192,87818,1,0,0:0:0:0:
192,192,87868,1,0,0:0:0:0:
320,192,87918,1,0,0:0:0:0:
448,192,87968,1,0,0:0:0:0:
64,192,88018,1,0,0:0:0:0:
320,192,88068,1,0,0:0:0:0:
192,192,88118,128,0,88718:0:0:0:0:
448,192,88118,1,0,0:0:0:0:
448,192,88918,128,0,89718:0:0:0:0:
192,192,89318,128,0,89718:0:0:0:0:
64,192,89718,1,0,0:0:0:0:
320,192,89718,1,8,0:0:0:0:
448,192,89818,1,8,0:0:0:0:
192,192,89818,1,0,0:0:0:0:
64,192,89918,1,0,0:0:0:0:
320,192,89918,1,8,0:0:0:0:
192,192,90018,1,8,0:0:0:0:
64,192,90118,1,0,0:0:0:0:
448,192,90118,1,8,0:0:0:0:
320,192,90218,1,8,0:0:0:0:
192,192,90218,1,0,0:0:0:0:
64,192,90318,1,0,0:0:0:0:
448,192,90318,1,8,0:0:0:0:
320,192,90418,1,8,0:0:0:0:
64,192,90518,1,0,0:0:0:0:
192,192,90518,1,8,0:0:0:0:
448,192,90618,1,0,0:0:0:0:
320,192,90618,1,8,0:0:0:0:
192,192,90718,1,8,0:0:0:0:
64,192,90718,1,0,0:0:0:0:
320,192,90818,1,8,0:0:0:0:
448,192,90918,128,0,91218:0:0:0:0:
320,192,90984,128,0,91218:0:0:0:0:
192,192,91051,128,0,91218:0:0:0:0:
64,192,91318,1,0,0:0:0:0:
192,192,91318,1,4,0:0:0:0:
320,192,91318,1,2,0:0:0:0:
448,192,91318,1,8,0:0:0:0:
64,192,91518,1,0,0:0:0:0:
192,192,91518,1,0,0:0:0:0:
448,192,91518,1,2,0:0:0:0:
320,192,91718,128,8,91818:0:0:0:0:
448,192,91718,128,2,91818:0:0:0:0:
64,192,91718,128,0,91818:0:0:0:0:
192,192,91918,1,0,0:0:0:0:
64,192,91918,1,0,0:0:0:0:
320,192,92018,1,0,0:0:0:0:
448,192,92018,1,0,0:0:0:0:
192,192,92118,1,2,0:0:0:0:
64,192,92118,128,0,92318:0:0:0:0:
448,192,92218,128,0,92318:0:0:0:0:
192,192,92318,1,0,0:0:0:0:
320,192,92318,1,0,0:0:0:0:
448,192,92418,1,0,0:0:0:0:
64,192,92418,1,0,0:0:0:0:
192,192,92518,1,0,0:0:0:0:
320,192,92518,1,2,0:0:0:0:
448,192,92618,1,0,0:0:0:0:
64,192,92718,1,0,0:0:0:0:
192,192,92718,1,0,0:0:0:0:
320,192,92818,1,0,0:0:0:0:
448,192,92918,1,8,0:0:0:0:
192,192,92918,1,2,0:0:0:0:
64,192,92918,1,0,0:0:0:0:
64,192,93118,1,2,0:0:0:0:
320,192,93118,1,0,0:0:0:0:
448,192,93118,1,0,0:0:0:0:
64,192,93318,128,0,93418:0:0:0:0:
192,192,93318,128,2,93418:0:0:0:0:
320,192,93318,128,8,93418:0:0:0:0:
448,192,93518,128,0,93618:0:0:0:0:
64,192,93518,128,0,93618:0:0:0:0:
320,192,93618,1,0,0:0:0:0:
192,192,93618,1,0,0:0:0:0:
64,192,93718,1,0,0:0:0:0:
448,192,93718,128,2,93918:0:0:0:0:
320,192,93818,128,0,93918:0:0:0:0:
64,192,93918,1,0,0:0:0:0:
192,192,93918,1,0,0:0:0:0:
448,192,94018,1,0,0:0:0:0:
320,192,94018,1,0,0:0:0:0:
192,192,94118,1,2,0:0:0:0:
64,192,94118,1,0,0:0:0:0:
320,192,94218,1,0,0:0:0:0:
192,192,94318,1,0,0:0:0:0:
448,192,94318,1,0,0:0:0:0:
64,192,94518,1,0,0:0:0:0:
320,192,94518,1,2,0:0:0:0:
448,192,94518,1,8,0:0:0:0:
64,192,94718,1,0,0:0:0:0:
192,192,94718,1,2,0:0:0:0:
320,192,94718,1,0,0:0:0:0:
320,192,94918,128,2,95018:0:0:0:0:
448,192,94918,128,8,95018:0:0:0:0:
64,192,94918,128,0,95018:0:0:0:0:
192,192,95118,128,0,95218:0:0:0:0:
448,192,95118,128,0,95218:0:0:0:0:
320,192,95218,1,0,0:0:0:0:
64,192,95218,1,0,0:0:0:0:
448,192,95318,1,0,0:0:0:0:
192,192,95318,128,2,95518:0:0:0:0:
320,192,95418,128,0,95518:0:0:0:0:
448,192,95518,1,0,0:0:0:0:
64,192,95518,1,0,0:0:0:0:
192,192,95618,1,0,0:0:0:0:
320,192,95618,1,0,0:0:0:0:
64,192,95718,1,2,0:0:0:0:
448,192,95718,1,0,0:0:0:0:
320,192,95818,1,0,0:0:0:0:
192,192,95918,1,0,0:0:0:0:
64,192,95918,1,0,0:0:0:0:
320,192,96018,1,0,0:0:0:0:
192,192,96118,1,2,0:0:0:0:
64,192,96118,1,8,0:0:0:0:
448,192,96118,1,0,0:0:0:0:
320,192,96318,1,0,0:0:0:0:
448,192,96318,1,0,0:0:0:0:
192,192,96318,1,2,0:0:0:0:
64,192,96518,128,2,96618:0:0:0:0:
192,192,96518,128,8,96618:0:0:0:0:
320,192,96518,128,0,96618:0:0:0:0:
448,192,96718,1,0,0:0:0:0:
192,192,96718,1,0,0:0:0:0:
320,192,96818,1,0,0:0:0:0:
64,192,96818,1,0,0:0:0:0:
192,192,96918,1,0,0:0:0:0:
448,192,96918,128,2,97118:0:0:0:0:
64,192,97018,128,0,97118:0:0:0:0:
320,192,97118,1,0,0:0:0:0:
192,192,97218,1,0,0:0:0:0:
448,192,97318,128,0,97518:0:0:0:0:
64,192,97318,128,0,97418:0:0:0:0:
64,192,97518,128,0,97718:0:0:0:0:
320,192,97518,128,0,97618:0:0:0:0:
192,192,97718,1,2,0:0:0:0:
320,192,97718,1,0,0:0:0:0:
448,192,97718,1,8,0:0:0:0:
64,192,97918,1,2,0:0:0:0:
320,192,97918,1,0,0:0:0:0:
192,192,97918,1,0,0:0:0:0:
192,192,98118,128,0,98218:0:0:0:0:
320,192,98118,128,2,98218:0:0:0:0:
448,192,98118,128,8,98218:0:0:0:0:
64,192,98318,1,0,0:0:0:0:
448,192,98318,1,0,0:0:0:0:
320,192,98418,1,0,0:0:0:0:
192,192,98418,1,0,0:0:0:0:
448,192,98518,1,0,0:0:0:0:
64,192,98518,128,2,98718:0:0:0:0:
192,192,98618,128,0,98718:0:0:0:0:
320,192,98718,1,0,0:0:0:0:
448,192,98718,1,0,0:0:0:0:
192,192,98818,1,0,0:0:0:0:
64,192,98818,1,0,0:0:0:0:
448,192,98918,1,2,0:0:0:0:
320,192,98918,1,0,0:0:0:0:
192,192,99018,1,0,0:0:0:0:
320,192,99118,1,0,0:0:0:0:
64,192,99118,1,0,0:0:0:0:
192,192,99218,1,0,0:0:0:0:
64,192,99318,1,0,0:0:0:0:
320,192,99318,1,2,0:0:0:0:
448,192,99318,1,8,0:0:0:0:
64,192,99518,1,0,0:0:0:0:
192,192,99518,1,2,0:0:0:0:
448,192,99518,1,0,0:0:0:0:
320,192,99718,128,2,99818:0:0:0:0:
448,192,99718,128,8,99818:0:0:0:0:
64,192,99718,128,0,99818:0:0:0:0:
448,192,99918,128,0,100018:0:0:0:0:
64,192,99918,128,0,100018:0:0:0:0:
320,192,100018,1,0,0:0:0:0:
192,192,100018,1,0,0:0:0:0:
64,192,100118,1,0,0:0:0:0:
448,192,100118,128,2,100318:0:0:0:0:
192,192,100218,128,0,100318:0:0:0:0:
320,192,100318,1,0,0:0:0:0:
64,192,100318,1,0,0:0:0:0:
448,192,100418,1,0,0:0:0:0:
192,192,100418,1,0,0:0:0:0:
320,192,100518,1,2,0:0:0:0:
64,192,100518,1,0,0:0:0:0:
448,192,100618,1,0,0:0:0:0:
192,192,100718,1,0,0:0:0:0:
64,192,100718,1,0,0:0:0:0:
448,192,100918,1,2,0:0:0:0:
64,192,100918,1,8,0:0:0:0:
192,192,100984,1,0,0:0:0:0:
320,192,101051,1,0,0:0:0:0:
64,192,101118,1,2,0:0:0:0:
192,192,101118,1,0,0:0:0:0:
448,192,101184,1,0,0:0:0:0:
320,192,101251,1,0,0:0:0:0:
448,192,101318,1,0,0:0:0:0:
64,192,101318,1,2,0:0:0:0:
192,192,101318,1,8,0:0:0:0:
320,192,101384,1,0,0:0:0:0:
64,192,101451,1,0,0:0:0:0:
192,192,101518,1,0,0:0:0:0:
448,192,101518,1,0,0:0:0:0:
320,192,101584,1,0,0:0:0:0:
192,192,101651,1,0,0:0:0:0:
64,192,101718,1,2,0:0:0:0:
448,192,101718,1,0,0:0:0:0:
320,192,101784,1,0,0:0:0:0:
192,192,101851,1,0,0:0:0:0:
320,192,101918,1,0,0:0:0:0:
448,192,101918,1,0,0:0:0:0:
64,192,101984,1,0,0:0:0:0:
192,192,102051,1,0,0:0:0:0:
320,192,102118,1,2,0:0:0:0:
448,192,102118,1,0,0:0:0:0:
64,192,102118,1,0,0:0:0:0:
192,192,102184,1,0,0:0:0:0:
320,192,102251,1,0,0:0:0:0:
448,192,102318,1,0,0:0:0:0:
64,192,102318,1,0,0:0:0:0:
192,192,102418,1,0,0:0:0:0:
320,192,102518,1,8,0:0:0:0:
64,192,102518,1,0,0:0:0:0:
448,192,102518,128,2,103118:0:0:0:0:
192,192,102718,1,0,0:0:0:0:
64,192,102918,1,2,0:0:0:0:
320,192,102918,1,0,0:0:0:0:
192,192,103118,128,0,103218:0:0:0:0:
320,192,103218,128,0,103318:0:0:0:0:
448,192,103318,128,0,103618:0:0:0:0:
64,192,103518,1,0,0:0:0:0:
64,192,103718,1,0,0:0:0:0:
192,192,103718,1,2,0:0:0:0:
320,192,103718,1,8,0:0:0:0:
448,192,103718,1,4,0:0:0:0:
64,192,104118,1,0,0:0:0:0:
192,192,104118,1,0,0:0:0:0:
320,192,104118,1,2,0:0:0:0:
448,192,104118,1,8,0:0:0:0:
448,192,104318,1,0,0:0:0:0:
320,192,104318,1,2,0:0:0:0:
64,192,104318,1,0,0:0:0:0:
192,192,104518,128,8,104618:0:0:0:0:
64,192,104518,128,0,104618:0:0:0:0:
448,192,104518,128,2,104618:0:0:0:0:
320,192,104718,1,0,0:0:0:0:
448,192,104718,1,0,0:0:0:0:
192,192,104818,1,0,0:0:0:0:
64,192,104818,1,0,0:0:0:0:
320,192,104918,1,2,0:0:0:0:
448,192,104918,128,0,105118:0:0:0:0:
64,192,105018,128,0,105118:0:0:0:0:
320,192,105118,1,0,0:0:0:0:
192,192,105118,1,0,0:0:0:0:
64,192,105218,1,0,0:0:0:0:
448,192,105218,1,0,0:0:0:0:
320,192,105318,1,2,0:0:0:0:
192,192,105318,1,0,0:0:0:0:
64,192,105418,1,0,0:0:0:0:
448,192,105518,1,0,0:0:0:0:
320,192,105518,1,0,0:0:0:0:
192,192,105618,1,0,0:0:0:0:
64,192,105718,1,0,0:0:0:0:
320,192,105718,1,2,0:0:0:0:
448,192,105718,1,8,0:0:0:0:
448,192,105918,1,0,0:0:0:0:
192,192,105918,1,2,0:0:0:0:
64,192,105918,1,0,0:0:0:0:
448,192,106118,128,8,106218:0:0:0:0:
320,192,106118,128,2,106218:0:0:0:0:
192,192,106118,128,0,106218:0:0:0:0:
64,192,106318,128,0,106418:0:0:0:0:
448,192,106318,128,0,106418:0:0:0:0:
320,192,106418,1,0,0:0:0:0:
448,192,106518,1,2,0:0:0:0:
64,192,106518,128,0,106718:0:0:0:0:
192,192,106618,128,0,106718:0:0:0:0:
448,192,106718,1,0,0:0:0:0:
320,192,106718,1,0,0:0:0:0:
64,192,106818,1,0,0:0:0:0:
192,192,106818,1,0,0:0:0:0:
320,192,106918,1,0,0:0:0:0:
448,192,106918,1,2,0:0:0:0:
192,192,107018,1,0,0:0:0:0:
64,192,107118,1,0,0:0:0:0:
320,192,107118,1,0,0:0:0:0:
448,192,107318,1,2,0:0:0:0:
192,192,107318,1,8,0:0:0:0:
64,192,107318,1,0,0:0:0:0:
448,192,107518,1,0,0:0:0:0:
320,192,107518,1,2,0:0:0:0:
64,192,107518,1,0,0:0:0:0:
192,192,107718,128,2,107818:0:0:0:0:
64,192,107718,128,8,107818:0:0:0:0:
448,192,107718,128,0,107818:0:0:0:0:
320,192,107918,128,0,108018:0:0:0:0:
64,192,107918,128,0,108018:0:0:0:0:
192,192,108018,1,0,0:0:0:0:
448,192,108018,1,2,0:0:0:0:
320,192,108118,1,0,0:0:0:0:
448,192,108218,128,0,108418:0:0:0:0:
192,192,108218,1,2,0:0:0:0:
64,192,108318,128,0,108418:0:0:0:0:
320,192,108418,1,0,0:0:0:0:
192,192,108418,1,0,0:0:0:0:
448,192,108518,1,2,0:0:0:0:
64,192,108518,1,0,0:0:0:0:
320,192,108618,1,0,0:0:0:0:
192,192,108618,1,0,0:0:0:0:
64,192,108718,1,0,0:0:0:0:
448,192,108718,1,0,0:0:0:0:
192,192,108818,1,0,0:0:0:0:
320,192,108918,1,2,0:0:0:0:
448,192,108918,1,8,0:0:0:0:
64,192,108918,1,0,0:0:0:0:
192,192,109118,1,2,0:0:0:0:
64,192,109118,1,0,0:0:0:0:
448,192,109118,1,0,0:0:0:0:
448,192,109318,128,8,109418:0:0:0:0:
320,192,109318,128,2,109418:0:0:0:0:
192,192,109318,128,0,109418:0:0:0:0:
64,192,109518,1,0,0:0:0:0:
192,192,109618,1,0,0:0:0:0:
448,192,109618,1,2,0:0:0:0:
320,192,109718,1,0,0:0:0:0:
64,192,109818,128,0,110018:0:0:0:0:
192,192,109818,1,0,0:0:0:0:
448,192,109918,128,2,110018:0:0:0:0:
192,192,110018,1,0,0:0:0:0:
320,192,110018,1,0,0:0:0:0:
64,192,110118,128,0,110318:0:0:0:0:
448,192,110118,128,0,110218:0:0:0:0:
448,192,110318,128,0,110518:0:0:0:0:
192,192,110318,128,0,110418:0:0:0:0:
320,192,110518,1,2,0:0:0:0:
192,192,110518,1,4,0:0:0:0:
64,192,110518,1,8,0:0:0:0:
448,192,110718,1,2,0:0:0:0:
320,192,110718,1,0,0:0:0:0:
64,192,110718,1,0,0:0:0:0:
64,192,110918,128,0,111018:0:0:0:0:
192,192,110918,128,2,111018:0:0:0:0:
320,192,110918,128,8,111018:0:0:0:0:
448,192,111118,1,0,0:0:0:0:
64,192,111118,1,0,0:0:0:0:
192,192,111218,1,0,0:0:0:0:
320,192,111218,1,0,0:0:0:0:
448,192,111318,1,0,0:0:0:0:
64,192,111318,1,0,0:0:0:0:
192,192,111318,1,2,0:0:0:0:
320,192,111418,128,0,111618:0:0:0:0:
192,192,111518,128,0,111618:0:0:0:0:
64,192,111618,1,0,0:0:0:0:
448,192,111618,1,0,0:0:0:0:
320,192,111718,1,0,0:0:0:0:
192,192,111718,1,2,0:0:0:0:
64,192,111718,1,8,0:0:0:0:
320,192,111818,1,0,0:0:0:0:
448,192,111818,1,0,0:0:0:0:
192,192,111918,1,0,0:0:0:0:
320,192,112018,1,0,0:0:0:0:
448,192,112118,1,8,0:0:0:0:
192,192,112118,1,0,0:0:0:0:
64,192,112118,1,2,0:0:0:0:
320,192,112318,1,0,0:0:0:0:
192,192,112318,1,2,0:0:0:0:
64,192,112318,1,0,0:0:0:0:
320,192,112518,128,2,112618:0:0:0:0:
64,192,112518,128,0,112618:0:0:0:0:
448,192,112518,128,8,112618:0:0:0:0:
448,192,112718,128,0,112818:0:0:0:0:
64,192,112718,128,0,112818:0:0:0:0:
192,192,112818,1,0,0:0:0:0:
320,192,112818,1,0,0:0:0:0:
448,192,112918,1,0,0:0:0:0:
64,192,112918,1,0,0:0:0:0:
320,192,112918,1,2,0:0:0:0:
192,192,113018,128,0,113218:0:0:0:0:
320,192,113118,128,0,113218:0:0:0:0:
64,192,113118,1,0,0:0:0:0:
448,192,113218,1,0,0:0:0:0:
192,192,113318,1,2,0:0:0:0:
448,192,113318,1,0,0:0:0:0:
64,192,113318,1,0,0:0:0:0:
64,192,113418,1,0,0:0:0:0:
320,192,113418,1,0,0:0:0:0:
448,192,113518,1,0,0:0:0:0:
192,192,113618,1,0,0:0:0:0:
64,192,113718,1,8,0:0:0:0:
448,192,113718,1,2,0:0:0:0:
64,192,113918,1,0,0:0:0:0:
320,192,113918,1,0,0:0:0:0:
320,192,114118,128,2,114218:0:0:0:0:
448,192,114118,128,8,114218:0:0:0:0:
64,192,114118,128,0,114218:0:0:0:0:
192,192,114318,1,0,0:0:0:0:
320,192,114418,1,0,0:0:0:0:
448,192,114418,1,0,0:0:0:0:
192,192,114518,1,2,0:0:0:0:
64,192,114518,128,0,114718:0:0:0:0:
448,192,114618,128,0,114718:0:0:0:0:
320,192,114718,1,0,0:0:0:0:
192,192,114818,1,0,0:0:0:0:
320,192,114918,1,2,0:0:0:0:
448,192,114918,1,0,0:0:0:0:
192,192,115018,1,0,0:0:0:0:
64,192,115118,1,0,0:0:0:0:
448,192,115118,1,0,0:0:0:0:
320,192,115218,1,0,0:0:0:0:
448,192,115318,1,0,0:0:0:0:
64,192,115318,1,8,0:0:0:0:
192,192,115318,128,2,115418:0:0:0:0:
320,192,115418,128,0,115518:0:0:0:0:
448,192,115518,128,0,115618:0:0:0:0:
192,192,115618,128,0,115718:0:0:0:0:
64,192,115718,128,0,115918:0:0:0:0:
448,192,115918,128,0,116118:0:0:0:0:
192,192,116118,1,2,0:0:0:0:
64,192,116118,1,0,0:0:0:0:
64,192,116218,1,0,0:0:0:0:
192,192,116218,1,2,0:0:0:0:
320,192,116318,1,2,0:0:0:0:
448,192,116318,1,0,0:0:0:0:
448,192,116418,1,0,0:0:0:0:
320,192,116418,1,2,0:0:0:0:
448,192,116518,128,0,116818:0:0:0:0:
64,192,116518,128,2,116818:0:0:0:0:
192,192,116518,128,8,116718:0:0:0:0:
320,192,116518,128,4,116718:0:0:0:0:
320,192,116918,1,2,0:0:0:0:
448,192,116918,1,8,0:0:0:0:
64,192,116918,128,0,117518:0:0:0:0:
192,192,117118,1,0,0:0:0:0:
320,192,117218,1,0,0:0:0:0:
448,192,117318,1,2,0:0:0:0:
192,192,117318,1,0,0:0:0:0:
320,192,117418,1,0,0:0:0:0:
192,192,117518,128,0,117718:0:0:0:0:
320,192,117618,128,0,117818:0:0:0:0:
448,192,117718,128,2,118018:0:0:0:0:
64,192,117718,1,0,0:0:0:0:
192,192,117818,128,0,118018:0:0:0:0:
320,192,117918,128,0,118118:0:0:0:0:
64,192,118018,128,0,118118:0:0:0:0:
448,192,118118,128,2,118518:0:0:0:0:
192,192,118118,128,0,118218:0:0:0:0:
64,192,118318,1,0,0:0:0:0:
192,192,118518,1,2,0:0:0:0:
64,192,118518,1,0,0:0:0:0:
320,192,118618,128,0,119118:0:0:0:0:
64,192,118718,1,0,0:0:0:0:
192,192,118818,1,0,0:0:0:0:
448,192,118918,1,2,0:0:0:0:
64,192,118918,1,0,0:0:0:0:
192,192,119018,1,0,0:0:0:0:
64,192,119118,128,0,119318:0:0:0:0:
320,192,119218,1,0,0:0:0:0:
448,192,119318,1,2,0:0:0:0:
192,192,119318,1,0,0:0:0:0:
320,192,119418,1,0,0:0:0:0:
448,192,119518,1,0,0:0:0:0:
192,192,119518,1,0,0:0:0:0:
64,192,119618,1,0,0:0:0:0:
320,192,119618,1,0,0:0:0:0:
192,192,119718,1,2,0:0:0:0:
448,192,119718,1,0,0:0:0:0:
64,192,119918,1,0,0:0:0:0:
192,192,120018,128,0,120118:0:0:0:0:
320,192,120118,1,0,0:0:0:0:
448,192,120118,128,2,120718:0:0:0:0:
64,192,120318,1,0,0:0:0:0:
192,192,120418,1,0,0:0:0:0:
320,192,120518,1,2,0:0:0:0:
64,192,120518,1,0,0:0:0:0:
192,192,120618,1,0,0:0:0:0:
64,192,120718,128,0,120918:0:0:0:0:
192,192,120818,1,0,0:0:0:0:
448,192,120918,1,2,0:0:0:0:
320,192,120918,1,0,0:0:0:0:
192,192,121018,128,0,121518:0:0:0:0:
64,192,121118,1,0,0:0:0:0:
448,192,121218,1,0,0:0:0:0:
320,192,121318,1,2,0:0:0:0:
64,192,121318,1,0,0:0:0:0:
448,192,121518,128,0,121718:0:0:0:0:
192,192,121618,1,0,0:0:0:0:
320,192,121718,1,2,0:0:0:0:
64,192,121718,128,0,122018:0:0:0:0:
320,192,121918,1,0,0:0:0:0:
192,192,122018,1,0,0:0:0:0:
448,192,122118,128,0,122418:0:0:0:0:
320,192,122118,1,2,0:0:0:0:
64,192,122218,1,0,0:0:0:0:
192,192,122318,128,0,122518:0:0:0:0:
64,192,122418,1,0,0:0:0:0:
320,192,122518,128,0,122818:0:0:0:0:
448,192,122518,1,2,0:0:0:0:
64,192,122718,128,0,122818:0:0:0:0:
64,192,122918,128,0,123118:0:0:0:0:
448,192,122918,128,0,123018:0:0:0:0:
320,192,123018,1,0,0:0:0:0:
192,192,123118,128,0,123318:0:0:0:0:
448,192,123218,1,0,0:0:0:0:
320,192,123318,1,8,0:0:0:0:
64,192,123318,128,2,123918:0:0:0:0:
448,192,123518,1,0,0:0:0:0:
192,192,123618,1,0,0:0:0:0:
448,192,123718,1,0,0:0:0:0:
320,192,123718,1,2,0:0:0:0:
192,192,123818,1,0,0:0:0:0:
320,192,123918,128,0,124118:0:0:0:0:
192,192,124018,128,0,124218:0:0:0:0:
64,192,124118,128,0,124318:0:0:0:0:
448,192,124118,1,2,0:0:0:0:
320,192,124218,128,0,124418:0:0:0:0:
192,192,124318,128,0,124518:0:0:0:0:
64,192,124418,128,0,124518:0:0:0:0:
448,192,124518,128,2,124918:0:0:0:0:
320,192,124518,128,0,124618:0:0:0:0:
64,192,124718,1,0,0:0:0:0:
320,192,124818,1,0,0:0:0:0:
192,192,124918,1,2,0:0:0:0:
64,192,124918,1,0,0:0:0:0:
320,192,125018,128,0,125518:0:0:0:0:
64,192,125118,1,0,0:0:0:0:
192,192,125218,1,0,0:0:0:0:
448,192,125318,1,2,0:0:0:0:
64,192,125318,1,0,0:0:0:0:
192,192,125418,1,0,0:0:0:0:
64,192,125518,128,0,125718:0:0:0:0:
320,192,125618,1,0,0:0:0:0:
448,192,125718,1,2,0:0:0:0:
192,192,125718,1,0,0:0:0:0:
320,192,125818,1,0,0:0:0:0:
64,192,125918,1,0,0:0:0:0:
192,192,125918,1,0,0:0:0:0:
448,192,126018,1,0,0:0:0:0:
320,192,126018,1,0,0:0:0:0:
192,192,126118,1,2,0:0:0:0:
64,192,126118,1,0,0:0:0:0:
320,192,126218,1,0,0:0:0:0:
448,192,126318,1,0,0:0:0:0:
192,192,126418,1,0,0:0:0:0:
64,192,126518,1,2,0:0:0:0:
448,192,126518,128,0,127018:0:0:0:0:
320,192,126718,1,0,0:0:0:0:
192,192,126818,1,0,0:0:0:0:
320,192,126918,1,0,0:0:0:0:
64,192,126918,1,2,0:0:0:0:
192,192,127018,1,0,0:0:0:0:
64,192,127118,128,0,127318:0:0:0:0:
192,192,127218,1,0,0:0:0:0:
448,192,127318,1,2,0:0:0:0:
320,192,127318,1,0,0:0:0:0:
192,192,127418,128,0,127918:0:0:0:0:
64,192,127518,1,0,0:0:0:0:
448,192,127618,1,0,0:0:0:0:
320,192,127718,1,2,0:0:0:0:
64,192,127718,1,0,0:0:0:0:
320,192,127918,128,0,128018:0:0:0:0:
448,192,128018,128,0,128118:0:0:0:0:
192,192,128118,1,2,0:0:0:0:
64,192,128118,1,0,0:0:0:0:
320,192,128218,128,0,128418:0:0:0:0:
192,192,128318,1,0,0:0:0:0:
448,192,128418,1,0,0:0:0:0:
192,192,128518,128,2,128718:0:0:0:0:
64,192,128518,128,0,128718:0:0:0:0:
448,192,128718,128,0,128818:0:0:0:0:
320,192,128818,128,0,128918:0:0:0:0:
448,192,128918,128,2,129118:0:0:0:0:
64,192,128918,128,0,129018:0:0:0:0:
192,192,129018,128,0,129118:0:0:0:0:
64,192,129118,128,0,129318:0:0:0:0:
320,192,129118,128,0,129218:0:0:0:0:
448,192,129218,128,0,129318:0:0:0:0:
320,192,129318,128,0,129518:0:0:0:0:
192,192,129318,128,0,129418:0:0:0:0:
64,192,129418,128,0,129518:0:0:0:0:
448,192,129518,128,0,129718:0:0:0:0:
192,192,129518,128,0,129618:0:0:0:0:
64,192,129618,128,0,129718:0:0:0:0:
320,192,129718,1,2,0:0:0:0:
192,192,129718,1,8,0:0:0:0:
448,192,129818,1,0,0:0:0:0:
320,192,129918,128,0,130018:0:0:0:0:
64,192,129918,1,0,0:0:0:0:
192,192,130018,1,0,0:0:0:0:
320,192,130118,1,2,0:0:0:0:
448,192,130118,1,0,0:0:0:0:
64,192,130218,1,0,0:0:0:0:
448,192,130318,128,0,130418:0:0:0:0:
192,192,130318,1,0,0:0:0:0:
320,192,130418,1,0,0:0:0:0:
192,192,130518,1,0,0:0:0:0:
448,192,130518,1,2,0:0:0:0:
320,192,130618,1,0,0:0:0:0:
448,192,130718,128,0,130818:0:0:0:0:
192,192,130718,1,0,0:0:0:0:
64,192,130818,1,0,0:0:0:0:
192,192,130918,1,2,0:0:0:0:
320,192,130918,1,0,0:0:0:0:
448,192,131018,1,0,0:0:0:0:
64,192,131118,128,0,131218:0:0:0:0:
320,192,131118,1,0,0:0:0:0:
192,192,131218,1,0,0:0:0:0:
448,192,131318,1,2,0:0:0:0:
64,192,131318,1,0,0:0:0:0:
320,192,131418,1,0,0:0:0:0:
64,192,131518,128,0,131618:0:0:0:0:
448,192,131518,1,0,0:0:0:0:
320,192,131618,1,0,0:0:0:0:
192,192,131718,1,2,0:0:0:0:
64,192,131718,1,0,0:0:0:0:
448,192,131818,1,0,0:0:0:0:
192,192,131918,128,0,132018:0:0:0:0:
320,192,131918,1,0,0:0:0:0:
64,192,132018,1,0,0:0:0:0:
192,192,132118,1,0,0:0:0:0:
320,192,132118,1,2,0:0:0:0:
64,192,132218,1,0,0:0:0:0:
192,192,132318,128,0,132418:0:0:0:0:
320,192,132318,1,0,0:0:0:0:
64,192,132418,1,0,0:0:0:0:
448,192,132418,1,0,0:0:0:0:
320,192,132518,1,0,0:0:0:0:
192,192,132518,1,2,0:0:0:0:
448,192,132618,1,0,0:0:0:0:
64,192,132718,128,0,132818:0:0:0:0:
320,192,132718,1,0,0:0:0:0:
192,192,132818,1,0,0:0:0:0:
320,192,132918,1,2,0:0:0:0:
448,192,132918,1,0,0:0:0:0:
192,192,133018,1,0,0:0:0:0:
64,192,133118,128,0,133218:0:0:0:0:
448,192,133118,1,0,0:0:0:0:
192,192,133218,1,0,0:0:0:0:
320,192,133318,1,2,0:0:0:0:
448,192,133318,1,0,0:0:0:0:
64,192,133418,1,0,0:0:0:0:
448,192,133518,128,0,133618:0:0:0:0:
320,192,133518,1,0,0:0:0:0:
192,192,133618,1,0,0:0:0:0:
320,192,133718,1,2,0:0:0:0:
448,192,133718,1,0,0:0:0:0:
64,192,133818,1,0,0:0:0:0:
448,192,133918,128,0,134018:0:0:0:0:
192,192,133918,1,0,0:0:0:0:
64,192,134018,1,0,0:0:0:0:
320,192,134118,1,2,0:0:0:0:
448,192,134118,1,0,0:0:0:0:
192,192,134218,1,0,0:0:0:0:
64,192,134318,128,0,134418:0:0:0:0:
320,192,134318,1,0,0:0:0:0:
192,192,134418,1,0,0:0:0:0:
320,192,134518,1,2,0:0:0:0:
448,192,134518,1,0,0:0:0:0:
192,192,134618,1,0,0:0:0:0:
64,192,134718,128,0,134818:0:0:0:0:
448,192,134718,1,0,0:0:0:0:
192,192,134818,1,0,0:0:0:0:
320,192,134918,1,2,0:0:0:0:
448,192,134918,1,0,0:0:0:0:
64,192,135018,1,0,0:0:0:0:
320,192,135118,128,0,135218:0:0:0:0:
192,192,135118,1,0,0:0:0:0:
64,192,135218,1,0,0:0:0:0:
320,192,135318,1,2,0:0:0:0:
448,192,135318,1,0,0:0:0:0:
64,192,135418,1,0,0:0:0:0:
320,192,135518,128,0,135618:0:0:0:0:
192,192,135518,1,0,0:0:0:0:
64,192,135718,1,2,0:0:0:0:
192,192,135718,1,0,0:0:0:0:
320,192,135818,1,0,0:0:0:0:
192,192,135918,128,0,136018:0:0:0:0:
448,192,135918,1,0,0:0:0:0:
320,192,136018,1,0,0:0:0:0:
64,192,136118,1,8,0:0:0:0:
448,192,136118,128,2,136218:0:0:0:0:
192,192,136118,1,4,0:0:0:0:
320,192,136218,128,0,136318:0:0:0:0:
192,192,136318,128,0,136418:0:0:0:0:
64,192,136418,128,0,136518:0:0:0:0:
448,192,136518,128,2,136618:0:0:0:0:
320,192,136518,1,0,0:0:0:0:
192,192,136618,128,0,136718:0:0:0:0:
64,192,136718,128,0,136818:0:0:0:0:
320,192,136818,128,0,136918:0:0:0:0:
448,192,136918,128,2,137018:0:0:0:0:
64,192,136918,1,0,0:0:0:0:
192,192,137018,128,0,137118:0:0:0:0:
320,192,137118,128,0,137218:0:0:0:0:
64,192,137218,128,0,137318:0:0:0:0:
448,192,137318,128,2,137418:0:0:0:0:
320,192,137318,1,0,0:0:0:0:
192,192,137418,128,0,137518:0:0:0:0:
64,192,137518,128,0,137618:0:0:0:0:
320,192,137618,128,0,137718:0:0:0:0:
192,192,137718,128,8,137818:0:0:0:0:
448,192,137718,1,4,0:0:0:0:
64,192,137718,1,2,0:0:0:0:
320,192,137818,128,0,137918:0:0:0:0:
448,192,137918,128,0,138018:0:0:0:0:
192,192,138018,128,0,138118:0:0:0:0:
320,192,138118,128,0,138218:0:0:0:0:
64,192,138118,1,2,0:0:0:0:
448,192,138218,128,0,138318:0:0:0:0:
192,192,138318,128,0,138418:0:0:0:0:
64,192,138418,128,0,138518:0:0:0:0:
448,192,138518,128,2,138618:0:0:0:0:
320,192,138518,1,0,0:0:0:0:
192,192,138618,128,0,138718:0:0:0:0:
320,192,138718,128,0,138818:0:0:0:0:
192,192,138818,128,0,138918:0:0:0:0:
320,192,138918,128,2,139018:0:0:0:0:
64,192,138918,1,0,0:0:0:0:
448,192,139018,128,0,139118:0:0:0:0:
64,192,139118,128,0,139218:0:0:0:0:
448,192,139218,128,0,139318:0:0:0:0:
64,192,139318,1,8,0:0:0:0:
192,192,139318,1,2,0:0:0:0:
320,192,139368,1,0,0:0:0:0:
448,192,139418,1,0,0:0:0:0:
64,192,139468,1,0,0:0:0:0:
192,192,139518,1,0,0:0:0:0:
320,192,139568,1,0,0:0:0:0:
448,192,139618,1,0,0:0:0:0:
64,192,139668,1,0,0:0:0:0:
192,192,139718,1,0,0:0:0:0:
448,192,139768,1,0,0:0:0:0:
320,192,139818,1,0,0:0:0:0:
64,192,139868,1,0,0:0:0:0:
448,192,139918,1,0,0:0:0:0:
192,192,139968,1,0,0:0:0:0:
64,192,140018,1,0,0:0:0:0:
448,192,140068,1,0,0:0:0:0:
64,192,140218,1,0,0:0:0:0:
320,192,140318,1,0,0:0:0:0:
192,192,140418,1,0,0:0:0:0:
64,192,140518,1,0,0:0:0:0:
448,192,140518,1,0,0:0:0:0:
320,192,140568,1,0,0:0:0:0:
192,192,140618,1,0,0:0:0:0:
64,192,140668,1,0,0:0:0:0:
448,192,140718,1,0,0:0:0:0:
192,192,140818,1,0,0:0:0:0:
320,192,140918,1,2,0:0:0:0:
448,192,140918,1,0,0:0:0:0:
64,192,141118,1,0,0:0:0:0:
448,192,141118,1,2,0:0:0:0:
64,192,141318,1,0,0:0:0:0:
192,192,141318,1,2,0:0:0:0:
320,192,141518,1,0,0:0:0:0:
192,192,141618,1,0,0:0:0:0:
320,192,141718,1,8,0:0:0:0:
448,192,141718,1,2,0:0:0:0:
64,192,141718,1,0,0:0:0:0:
320,192,141818,1,2,0:0:0:0:
64,192,141918,1,0,0:0:0:0:
192,192,141918,1,2,0:0:0:0:
448,192,141918,1,0,0:0:0:0:
64,192,142018,1,2,0:0:0:0:
192,192,142118,1,0,0:0:0:0:
448,192,142118,128,8,142318:0:0:0:0:
320,192,142118,128,2,142218:0:0:0:0:
64,192,142218,128,0,142318:0:0:0:0:
192,192,142318,128,0,142518:0:0:0:0:
320,192,142318,128,0,142418:0:0:0:0:
320,192,142518,1,8,0:0:0:0:
448,192,142518,1,0,0:0:0:50:cheer.wav
64,192,142518,128,2,142918:0:0:0:0:
320,192,142718,1,0,0:0:0:0:
192,192,142718,1,0,0:0:0:0:
448,192,142818,1,0,0:0:0:0:
192,192,142918,1,2,0:0:0:0:
320,192,142918,1,0,0:0:0:0:
448,192,143018,1,0,0:0:0:0:
320,192,143118,1,0,0:0:0:0:
64,192,143118,1,0,0:0:0:0:
192,192,143218,1,0,0:0:0:0:
448,192,143318,1,2,0:0:0:0:
320,192,143318,128,0,143518:0:0:0:0:
192,192,143418,1,0,0:0:0:0:
448,192,143518,128,0,143618:0:0:0:0:
64,192,143518,1,0,0:0:0:0:
192,192,143618,128,0,143718:0:0:0:0:
64,192,143718,1,2,0:0:0:0:
448,192,143718,128,0,143918:0:0:0:0:
320,192,143818,1,0,0:0:0:0:
192,192,143918,128,0,144018:0:0:0:0:
64,192,143918,1,0,0:0:0:0:
320,192,144018,128,0,144118:0:0:0:0:
448,192,144118,1,0,0:0:0:0:
192,192,144118,128,2,144318:0:0:0:0:
64,192,144218,1,0,0:0:0:0:
448,192,144318,128,0,144718:0:0:0:0:
320,192,144318,1,0,0:0:0:0:
192,192,144418,1,0,0:0:0:0:
64,192,144518,1,2,0:0:0:0:
320,192,144518,1,0,0:0:0:0:
192,192,144618,1,0,0:0:0:0:
64,192,144718,1,0,0:0:0:0:
320,192,144718,128,0,144918:0:0:0:0:
192,192,144818,1,0,0:0:0:0:
448,192,144918,1,0,0:0:0:0:
64,192,144918,128,2,145318:0:0:0:0:
320,192,145018,1,0,0:0:0:0:
448,192,145118,1,0,0:0:0:0:
192,192,145118,1,0,0:0:0:0:
320,192,145218,1,0,0:0:0:0:
192,192,145318,1,0,0:0:0:0:
448,192,145318,128,2,145718:0:0:0:0:
320,192,145418,1,0,0:0:0:0:
64,192,145518,1,0,0:0:0:0:
192,192,145518,1,0,0:0:0:0:
320,192,145618,1,0,0:0:0:0:
64,192,145718,1,0,0:0:0:0:
192,192,145718,128,2,145818:0:0:0:0:
320,192,145818,128,0,145918:0:0:0:0:
448,192,145918,128,0,146318:0:0:0:0:
192,192,145918,1,0,0:0:0:0:
64,192,146018,1,0,0:0:0:0:
192,192,146118,1,0,0:0:0:0:
320,192,146118,1,2,0:0:0:0:
64,192,146218,1,0,0:0:0:0:
192,192,146318,128,0,146418:0:0:0:0:
320,192,146318,1,0,0:0:0:0:
64,192,146418,128,0,146718:0:0:0:0:
320,192,146518,1,0,0:0:0:0:
448,192,146518,1,2,0:0:0:0:
192,192,146618,1,0,0:0:0:0:
320,192,146718,1,0,0:0:0:0:
448,192,146718,1,0,0:0:0:0:
192,192,146818,1,0,0:0:0:0:
448,192,146918,1,2,0:0:0:0:
64,192,146918,1,0,0:0:0:0:
192,192,147018,1,0,0:0:0:0:
320,192,147068,1,0,0:0:0:0:
448,192,147118,1,0,0:0:0:0:
64,192,147118,1,0,0:0:0:0:
192,192,147218,1,0,0:0:0:0:
320,192,147318,1,0,0:0:0:0:
448,192,147318,128,2,147718:0:0:0:0:
192,192,147418,1,0,0:0:0:0:
64,192,147518,1,0,0:0:0:0:
320,192,147518,1,0,0:0:0:0:
192,192,147618,1,0,0:0:0:0:
64,192,147718,128,2,148118:0:0:0:0:
320,192,147718,1,0,0:0:0:0:
448,192,147818,1,0,0:0:0:0:
320,192,147918,1,0,0:0:0:0:
192,192,147918,1,0,0:0:0:0:
448,192,148018,1,0,0:0:0:0:
192,192,148118,128,2,148318:0:0:0:0:
320,192,148118,1,0,0:0:0:0:
64,192,148218,1,0,0:0:0:0:
448,192,148318,128,0,148518:0:0:0:0:
320,192,148318,1,0,0:0:0:0:
192,192,148418,1,0,0:0:0:0:
64,192,148518,1,2,0:0:0:0:
320,192,148518,128,0,148818:0:0:0:0:
192,192,148618,1,0,0:0:0:0:
448,192,148718,1,0,0:0:0:0:
192,192,148818,128,0,148918:0:0:0:0:
320,192,148918,1,4,0:0:0:0:
64,192,148918,1,8,0:0:0:0:
448,192,148918,128,2,149218:0:0:0:0:
320,192,149118,1,0,0:0:0:0:
192,192,149118,1,0,0:0:0:0:
64,192,149218,128,0,149318:0:0:0:0:
448,192,149318,1,0,0:0:0:0:
320,192,149318,128,2,149418:0:0:0:0:
64,192,149418,128,0,149618:0:0:0:0:
448,192,149518,1,0,0:0:0:0:
192,192,149518,1,0,0:0:0:0:
320,192,149618,128,0,149718:0:0:0:0:
448,192,149718,1,2,0:0:0:0:
192,192,149718,128,0,149818:0:0:0:0:
320,192,149818,128,0,149918:0:0:0:0:
448,192,149918,128,0,150018:0:0:0:0:
64,192,149918,1,0,0:0:0:0:
192,192,150018,128,0,150318:0:0:0:0:
64,192,150118,1,2,0:0:0:0:
320,192,150118,1,0,0:0:0:0:
448,192,150218,1,0,0:0:0:0:
64,192,150318,128,0,150418:0:0:0:0:
320,192,150318,1,0,0:0:0:0:
448,192,150418,128,0,150518:0:0:0:0:
64,192,150518,1,0,0:0:0:0:
192,192,150518,128,2,150618:0:0:0:0:
320,192,150618,128,0,150718:0:0:0:0:
64,192,150718,1,0,0:0:0:0:
448,192,150718,128,0,150918:0:0:0:0:
192,192,150818,1,0,0:0:0:0:
64,192,150918,1,0,0:0:0:0:
320,192,150918,128,2,151018:0:0:0:0:
192,192,151018,128,0,151118:0:0:0:0:
320,192,151118,128,0,151218:0:0:0:0:
448,192,151118,1,0,0:0:0:0:
64,192,151218,128,0,151318:0:0:0:0:
448,192,151318,1,2,0:0:0:0:
192,192,151318,128,0,151518:0:0:0:0:
64,192,151418,1,0,0:0:0:0:
320,192,151518,128,0,151718:0:0:0:0:
448,192,151518,1,0,0:0:0:0:
192,192,151618,1,0,0:0:0:0:
448,192,151718,128,2,151918:0:0:0:0:
64,192,151718,1,0,0:0:0:0:
192,192,151818,1,0,0:0:0:0:
320,192,151918,128,0,152018:0:0:0:0:
64,192,151918,1,0,0:0:0:0:
192,192,152018,128,0,152118:0:0:0:0:
448,192,152118,1,0,0:0:0:0:
64,192,152118,128,2,152318:0:0:0:0:
448,192,152318,1,0,0:0:0:0:
320,192,152368,1,0,0:0:0:0:
192,192,152418,1,0,0:0:0:0:
64,192,152468,1,0,0:0:0:0:
320,192,152518,1,0,0:0:0:0:
448,192,152518,128,2,152618:0:0:0:0:
192,192,152618,128,0,152718:0:0:0:0:
64,192,152718,128,0,153118:0:0:0:0:
320,192,152718,1,0,0:0:0:0:
448,192,152818,1,0,0:0:0:0:
320,192,152918,1,2,0:0:0:0:
192,192,152918,1,0,0:0:0:0:
448,192,153018,1,0,0:0:0:0:
320,192,153118,1,0,0:0:0:0:
192,192,153118,1,0,0:0:0:0:
64,192,153218,1,0,0:0:0:0:
320,192,153318,1,2,0:0:0:0:
448,192,153318,1,0,0:0:0:0:
192,192,153418,1,0,0:0:0:0:
64,192,153518,1,0,0:0:0:0:
448,192,153518,1,0,0:0:0:0:
192,192,153618,1,0,0:0:0:0:
64,192,153718,128,2,154118:0:0:0:0:
448,192,153718,1,0,0:0:0:0:
320,192,153818,1,0,0:0:0:0:
192,192,153918,1,0,0:0:0:0:
448,192,153918,1,0,0:0:0:0:
320,192,154018,1,0,0:0:0:0:
448,192,154118,128,2,154218:0:0:0:0:
192,192,154118,1,0,0:0:0:0:
64,192,154218,128,0,154318:0:0:0:0:
320,192,154318,128,0,154518:0:0:0:0:
192,192,154318,1,0,0:0:0:0:
448,192,154418,1,0,0:0:0:0:
64,192,154518,128,2,154718:0:0:0:0:
192,192,154518,1,0,0:0:0:0:
448,192,154618,1,0,0:0:0:0:
320,192,154718,128,0,154818:0:0:0:0:
448,192,154818,128,0,154918:0:0:0:0:
192,192,154918,1,2,0:0:0:0:
64,192,154918,128,0,155118:0:0:0:0:
320,192,155018,1,0,0:0:0:0:
192,192,155118,1,0,0:0:0:0:
448,192,155118,128,0,155318:0:0:0:0:
192,192,155318,1,0,0:0:0:50:cheer.wav
320,192,155318,1,2,0:0:0:0:
64,192,155318,128,8,155518:0:0:0:0:
448,192,155518,1,0,0:0:0:0:
320,192,155568,1,0,0:0:0:0:
192,192,155618,1,0,0:0:0:0:
64,192,155668,1,0,0:0:0:0:
448,192,155718,128,2,155818:0:0:0:0:
320,192,155718,1,0,0:0:0:0:
64,192,155818,128,0,155918:0:0:0:0:
448,192,155918,128,0,156018:0:0:0:0:
320,192,155918,1,0,0:0:0:0:
192,192,156018,128,0,156318:0:0:0:0:
320,192,156118,1,0,0:0:0:0:
448,192,156118,1,2,0:0:0:0:
64,192,156218,1,0,0:0:0:0:
320,192,156318,1,0,0:0:0:0:
448,192,156318,128,0,156518:0:0:0:0:
192,192,156418,1,0,0:0:0:0:
320,192,156518,128,0,156618:0:0:0:0:
64,192,156518,1,2,0:0:0:0:
192,192,156618,128,0,156918:0:0:0:0:
64,192,156718,1,0,0:0:0:0:
448,192,156718,1,0,0:0:0:0:
320,192,156818,1,0,0:0:0:0:
64,192,156918,1,0,0:0:0:0:
448,192,156918,128,2,157018:0:0:0:0:
320,192,157018,128,0,157118:0:0:0:0:
448,192,157118,128,0,157218:0:0:0:0:
192,192,157118,1,0,0:0:0:0:
64,192,157218,128,0,157318:0:0:0:0:
192,192,157318,1,0,0:0:0:0:
320,192,157318,128,2,157518:0:0:0:0:
64,192,157418,1,0,0:0:0:0:
192,192,157518,128,0,157618:0:0:0:0:
448,192,157518,1,0,0:0:0:0:
64,192,157618,128,0,157718:0:0:0:0:
448,192,157718,1,0,0:0:0:0:
320,192,157718,128,2,157918:0:0:0:0:
192,192,157818,1,0,0:0:0:0:
448,192,157918,128,0,158118:0:0:0:0:
64,192,157918,1,0,0:0:0:0:
320,192,158018,1,0,0:0:0:0:
192,192,158118,128,2,158318:0:0:0:0:
64,192,158118,1,0,0:0:0:0:
320,192,158218,1,0,0:0:0:0:
64,192,158318,128,0,158418:0:0:0:0:
448,192,158318,1,0,0:0:0:0:
320,192,158418,128,0,158518:0:0:0:0:
64,192,158518,1,0,0:0:0:0:
448,192,158518,128,2,159018:0:0:0:0:
192,192,158618,1,0,0:0:0:0:
320,192,158718,1,0,0:0:0:0:
64,192,158718,1,0,0:0:0:0:
192,192,158818,1,0,0:0:0:0:
320,192,158918,1,2,0:0:0:0:
64,192,158918,1,0,0:0:0:0:
192,192,159018,1,0,0:0:0:0:
64,192,159118,128,0,159318:0:0:0:0:
320,192,159118,1,0,0:0:0:0:
448,192,159218,1,0,0:0:0:0:
192,192,159318,1,2,0:0:0:0:
320,192,159318,128,0,159418:0:0:0:0:
448,192,159418,128,0,159618:0:0:0:0:
64,192,159518,1,0,0:0:0:0:
320,192,159518,1,0,0:0:0:0:
192,192,159618,128,0,159718:0:0:0:0:
320,192,159718,128,2,159918:0:0:0:0:
64,192,159718,1,0,0:0:0:0:
192,192,159818,1,0,0:0:0:0:
64,192,159918,128,0,160018:0:0:0:0:
448,192,159918,1,0,0:0:0:0:
192,192,160018,128,0,160118:0:0:0:0:
320,192,160118,128,2,160418:0:0:0:0:
448,192,160118,1,0,0:0:0:0:
192,192,160218,1,0,0:0:0:0:
64,192,160318,1,0,0:0:0:0:
448,192,160318,1,0,0:0:0:0:
192,192,160418,128,0,160618:0:0:0:0:
448,192,160518,1,2,0:0:0:0:
64,192,160518,1,0,0:0:0:0:
320,192,160618,128,0,160918:0:0:0:0:
448,192,160718,1,0,0:0:0:0:
192,192,160718,1,0,0:0:0:0:
64,192,160818,1,0,0:0:0:0:
192,192,160918,1,0,0:0:0:0:
448,192,160918,128,2,161018:0:0:0:0:
320,192,161018,128,0,161118:0:0:0:0:
64,192,161118,128,0,161218:0:0:0:0:
192,192,161118,1,0,0:0:0:0:
320,192,161218,128,0,161318:0:0:0:0:
448,192,161318,1,0,0:0:0:0:
64,192,161318,128,2,161418:0:0:0:0:
192,192,161418,128,0,161518:0:0:0:0:
448,192,161518,128,0,161718:0:0:0:0:
320,192,161518,1,0,0:0:0:0:
320,192,161718,1,8,0:0:0:0:
192,192,161718,1,4,0:0:0:0:
64,192,161718,128,2,162018:0:0:0:0:
448,192,161918,1,0,0:0:0:0:
192,192,161918,1,0,0:0:0:0:
320,192,162018,1,0,0:0:0:0:
192,192,162118,1,0,0:0:0:0:
448,192,162118,1,2,0:0:0:0:
64,192,162218,128,0,162318:0:0:0:0:
192,192,162318,128,0,162418:0:0:0:0:
320,192,162318,1,0,0:0:0:0:
448,192,162418,128,0,162518:0:0:0:0:
320,192,162518,128,2,162718:0:0:0:0:
64,192,162518,1,0,0:0:0:0:
192,192,162618,1,0,0:0:0:0:
64,192,162718,128,0,162918:0:0:0:0:
448,192,162718,1,0,0:0:0:0:
320,192,162818,1,0,0:0:0:0:
192,192,162918,1,0,0:0:0:0:
448,192,162918,128,2,163018:0:0:0:0:
320,192,163018,128,0,163118:0:0:0:0:
448,192,163118,128,0,163218:0:0:0:0:
192,192,163118,1,0,0:0:0:0:
64,192,163218,128,0,163318:0:0:0:0:
320,192,163318,128,2,163418:0:0:0:0:
448,192,163318,1,0,0:0:0:0:
192,192,163418,128,0,163518:0:0:0:0:
448,192,163518,128,0,163618:0:0:0:0:
64,192,163518,1,0,0:0:0:0:
192,192,163618,128,0,163718:0:0:0:0:
64,192,163718,1,0,0:0:0:0:
448,192,163718,1,2,0:0:0:0:
320,192,163818,128,0,163918:0:0:0:0:
448,192,163918,128,0,164018:0:0:0:0:
64,192,163918,1,0,0:0:0:0:
192,192,164018,128,0,164218:0:0:0:0:
64,192,164118,1,2,0:0:0:0:
448,192,164118,1,0,0:0:0:0:
320,192,164218,128,0,164318:0:0:0:0:
448,192,164318,128,0,164418:0:0:0:0:
192,192,164318,1,0,0:0:0:0:
64,192,164418,128,0,164518:0:0:0:0:
448,192,164518,1,0,0:0:0:0:
320,192,164518,128,2,164618:0:0:0:0:
192,192,164618,128,0,164718:0:0:0:0:
448,192,164718,128,0,164818:0:0:0:0:
64,192,164818,128,0,164918:0:0:0:0:
192,192,164918,1,2,0:0:0:0:
320,192,164918,1,4,0:0:0:0:
448,192,164968,1,0,0:0:0:0:
64,192,165018,1,0,0:0:0:0:
192,192,165068,1,0,0:0:0:0:
320,192,165118,1,0,0:0:0:0:
448,192,165168,1,0,0:0:0:0:
192,192,165218,1,0,0:0:0:0:
64,192,165268,1,0,0:0:0:0:
320,192,165318,1,2,0:0:0:0:
448,192,165368,1,0,0:0:0:0:
64,192,165418,1,0,0:0:0:0:
192,192,165468,1,0,0:0:0:0:
320,192,165518,1,0,0:0:0:0:
64,192,165568,1,0,0:0:0:0:
192,192,165618,1,0,0:0:0:0:
448,192,165668,1,0,0:0:0:0:
320,192,165718,1,2,0:0:0:0:
64,192,165768,1,0,0:0:0:0:
192,192,165818,1,0,0:0:0:0:
320,192,165868,1,0,0:0:0:0:
448,192,165918,1,0,0:0:0:0:
192,192,165968,1,0,0:0:0:0:
64,192,166018,1,0,0:0:0:0:
448,192,166068,1,0,0:0:0:0:
320,192,166118,1,2,0:0:0:0:
192,192,166168,1,0,0:0:0:0:
64,192,166218,1,0,0:0:0:0:
320,192,166268,1,0,0:0:0:0:
448,192,166318,1,0,0:0:0:0:
64,192,166368,1,0,0:0:0:0:
192,192,166418,1,0,0:0:0:0:
320,192,166468,1,0,0:0:0:0:
448,192,166518,1,2,0:0:0:0:
64,192,166518,1,0,0:0:0:0:
192,192,166618,1,0,0:0:0:0:
448,192,166718,1,0,0:0:0:0:
320,192,166718,128,0,166918:0:0:0:0:
192,192,166818,1,0,0:0:0:0:
64,192,166918,128,0,167018:0:0:0:0:
448,192,166918,1,2,0:0:0:0:
192,192,167018,128,0,167218:0:0:0:0:
448,192,167118,1,0,0:0:0:0:
64,192,167118,1,0,0:0:0:0:
320,192,167218,128,0,167318:0:0:0:0:
448,192,167318,128,2,167518:0:0:0:0:
192,192,167318,1,0,0:0:0:0:
320,192,167418,1,0,0:0:0:0:
64,192,167518,128,0,167718:0:0:0:0:
192,192,167518,1,0,0:0:0:0:
448,192,167618,1,0,0:0:0:0:
320,192,167718,128,0,167918:0:0:0:0:
192,192,167718,1,2,0:0:0:0:
448,192,167818,1,0,0:0:0:0:
192,192,167918,128,0,168118:0:0:0:0:
64,192,167918,1,0,0:0:0:0:
320,192,168018,1,0,0:0:0:0:
64,192,168118,5,2,0:0:0:0:
448,192,168118,128,0,168218:0:0:0:45:cheer.wav
448,192,168518,128,0,168618:0:0:0:0:
448,192,168918,128,0,169018:0:0:0:0:
448,192,169318,128,0,169418:0:0:0:0:
448,192,169718,128,0,169818:0:0:0:0:
448,192,170118,128,0,170218:0:0:0:0:
448,192,170518,128,0,170618:0:0:0:0:
448,192,170918,128,0,171018:0:0:0:0:
448,192,171118,128,0,171218:0:0:0:0:
448,192,171318,128,0,171518:0:0:0:0:
64,192,171718,1,0,0:0:0:0:
64,192,171851,1,0,0:0:0:0:
64,192,171984,1,0,0:0:0:0:
64,192,172118,128,0,172318:0:0:0:0:
64,192,172518,1,0,0:0:0:0:
64,192,172651,1,0,0:0:0:0:
64,192,172784,1,0,0:0:0:0:
64,192,172918,128,0,173184:0:0:0:0:
320,192,173184,128,0,173318:0:0:0:0:
192,192,173318,1,0,0:0:0:0:
192,192,173451,1,0,0:0:0:0:
192,192,173584,1,0,0:0:0:0:
192,192,173718,128,0,173918:0:0:0:0:
448,192,173918,128,0,174118:0:0:0:0:
64,192,174118,128,0,174318:0:0:0:0:
320,192,174318,128,0,174518:0:0:0:0:
192,192,174518,1,0,0:0:0:0:
192,192,174651,1,0,0:0:0:0:
192,192,174784,1,0,0:0:0:0:
320,192,174918,1,0,0:0:0:0:
448,192,174918,1,8,0:0:0:0:
64,192,174918,1,0,0:0:0:0:
320,192,175051,1,0,0:0:0:0:
320,192,175184,1,0,0:0:0:0:
448,192,175251,1,0,0:0:0:0:
64,192,175318,1,8,0:0:0:0:
192,192,175318,1,0,0:0:0:0:
64,192,175451,1,0,0:0:0:0:
64,192,175584,1,0,0:0:0:0:
320,192,175718,1,8,0:0:0:0:
192,192,175718,1,0,0:0:0:0:
448,192,175718,1,0,0:0:0:0:
448,192,175851,1,0,0:0:0:0:
448,192,175984,1,0,0:0:0:0:
320,192,176118,1,8,0:0:0:0:
192,192,176118,1,0,0:0:0:0:
192,192,176251,1,0,0:0:0:0:
192,192,176384,1,0,0:0:0:0:
320,192,176451,1,0,0:0:0:0:
64,192,176518,1,0,0:0:0:0:
192,192,176518,1,0,0:0:0:0:
448,192,176518,1,8,0:0:0:0:
320,192,176718,1,0,0:0:0:0:
192,192,176784,1,0,0:0:0:0:
320,192,176851,1,0,0:0:0:0:
448,192,176918,1,8,0:0:0:0:
64,192,176918,1,0,0:0:0:0:
64,192,177051,1,0,0:0:0:0:
64,192,177184,1,0,0:0:0:0:
192,192,177318,1,0,0:0:0:0:
320,192,177318,1,8,0:0:0:0:
448,192,177318,1,0,0:0:0:0:
64,192,177384,1,0,0:0:0:0:
448,192,177451,1,0,0:0:0:0:
64,192,177518,1,0,0:0:0:0:
192,192,177584,1,0,0:0:0:0:
320,192,177651,1,0,0:0:0:0:
64,192,177718,1,0,0:0:0:0:
448,192,177718,1,8,0:0:0:0:
448,192,177851,1,0,0:0:0:0:
448,192,177984,1,0,0:0:0:0:
192,192,178118,1,8,0:0:0:0:
320,192,178118,1,0,0:0:0:0:
448,192,178118,1,0,0:0:0:0:
192,192,178251,1,0,0:0:0:0:
192,192,178384,1,0,0:0:0:0:
320,192,178451,1,0,0:0:0:0:
64,192,178518,1,8,0:0:0:0:
448,192,178518,1,0,0:0:0:0:
448,192,178651,1,0,0:0:0:0:
448,192,178784,1,0,0:0:0:0:
64,192,178918,1,0,0:0:0:0:
320,192,178918,1,0,0:0:0:0:
448,192,178918,1,8,0:0:0:0:
64,192,179051,1,0,0:0:0:0:
64,192,179184,1,0,0:0:0:0:
320,192,179318,1,8,0:0:0:0:
448,192,179318,1,0,0:0:0:0:
192,192,179418,1,8,0:0:0:0:
64,192,179418,1,0,0:0:0:0:
320,192,179518,1,8,0:0:0:0:
448,192,179518,1,0,0:0:0:0:
192,192,179618,1,8,0:0:0:0:
64,192,179718,1,0,0:0:0:0:
448,192,179718,1,8,0:0:0:0:
320,192,179818,1,8,0:0:0:0:
192,192,179818,1,0,0:0:0:0:
448,192,179918,1,8,0:0:0:0:
64,192,179918,1,0,0:0:0:0:
192,192,180018,1,8,0:0:0:0:
448,192,180118,1,2,0:0:0:0:
320,192,180118,1,8,0:0:0:0:
64,192,180118,1,0,0:0:0:0:
192,192,180243,1,8,0:0:0:0:
64,192,180343,1,0,0:0:0:0:
320,192,180343,1,8,0:0:0:0:
448,192,180343,1,2,0:0:0:0:
192,192,180443,1,8,0:0:0:0:
448,192,180518,128,8,180818:0:0:0:0:
320,192,180518,128,2,180818:0:0:0:0:
64,192,180518,128,0,180818:0:0:0:0:
64,192,180918,1,0,0:0:0:0:
320,192,180918,1,2,0:0:0:0:
448,192,180918,1,0,0:0:0:0:
320,192,181051,1,2,0:0:0:0:
448,192,181051,1,0,0:0:0:0:
448,192,181184,1,0,0:0:0:0:
320,192,181184,1,2,0:0:0:0:
192,192,181318,1,2,0:0:0:0:
64,192,181318,1,8,0:0:0:0:
448,192,181318,1,0,0:0:0:0:
64,192,181451,1,0,0:0:0:0:
192,192,181451,1,2,0:0:0:0:
192,192,181584,1,2,0:0:0:0:
64,192,181584,1,0,0:0:0:0:
192,192,181718,1,2,0:0:0:0:
448,192,181718,1,0,0:0:0:0:
448,192,181851,1,0,0:0:0:0:
192,192,181851,1,2,0:0:0:0:
192,192,181984,1,2,0:0:0:0:
448,192,181984,1,0,0:0:0:0:
320,192,182118,1,0,0:0:0:0:
64,192,182118,1,2,0:0:0:0:
448,192,182118,1,8,0:0:0:0:
320,192,182251,1,0,0:0:0:0:
448,192,182251,1,2,0:0:0:0:
448,192,182384,1,2,0:0:0:0:
320,192,182384,1,0,0:0:0:0:
320,192,182518,1,0,0:0:0:0:
64,192,182518,1,2,0:0:0:0:
64,192,182651,1,2,0:0:0:0:
320,192,182651,1,0,0:0:0:0:
320,192,182784,1,0,0:0:0:0:
64,192,182784,1,2,0:0:0:0:
64,192,182918,1,2,0:0:0:0:
320,192,182918,1,0,0:0:0:0:
448,192,182918,1,8,0:0:0:0:
192,192,183118,1,0,0:0:0:0:
448,192,183118,1,2,0:0:0:0:
64,192,183218,1,2,0:0:0:0:
320,192,183318,1,2,0:0:0:0:
448,192,183318,1,0,0:0:0:0:
320,192,183451,1,2,0:0:0:0:
448,192,183451,1,0,0:0:0:0:
448,192,183584,1,0,0:0:0:0:
320,192,183584,1,2,0:0:0:0:
448,192,183718,1,0,0:0:0:0:
192,192,183718,1,2,0:0:0:0:
64,192,183718,1,8,0:0:0:0:
320,192,183784,1,0,0:0:0:0:
448,192,183851,1,0,0:0:0:0:
64,192,183918,1,0,0:0:0:0:
192,192,183984,1,0,0:0:0:0:
320,192,184051,1,0,0:0:0:0:
448,192,184118,1,0,0:0:0:0:
64,192,184118,1,2,0:0:0:0:
64,192,184251,1,2,0:0:0:0:
448,192,184251,1,0,0:0:0:0:
448,192,184384,1,0,0:0:0:0:
64,192,184384,1,2,0:0:0:0:
64,192,184518,1,0,0:0:0:0:
192,192,184518,1,8,0:0:0:0:
320,192,184518,1,2,0:0:0:0:
320,192,184651,1,2,0:0:0:0:
192,192,184651,1,0,0:0:0:0:
192,192,184784,1,0,0:0:0:0:
320,192,184784,1,2,0:0:0:0:
448,192,184918,1,0,0:0:0:0:
320,192,184918,1,2,0:0:0:0:
320,192,185051,1,2,0:0:0:0:
448,192,185051,1,0,0:0:0:0:
448,192,185184,1,0,0:0:0:0:
320,192,185184,1,2,0:0:0:0:
192,192,185318,1,8,0:0:0:0:
64,192,185318,1,2,0:0:0:0:
448,192,185318,1,0,0:0:0:0:
64,192,185451,1,2,0:0:0:0:
192,192,185451,1,0,0:0:0:0:
192,192,185584,1,0,0:0:0:0:
64,192,185584,1,2,0:0:0:0:
448,192,185718,128,0,185984:0:0:0:0:
320,192,185718,128,2,185984:0:0:0:0:
64,192,185851,1,0,0:0:0:0:
192,192,185984,1,0,0:0:0:0:
64,192,186118,1,0,0:0:0:0:
448,192,186118,1,8,0:0:0:0:
320,192,186118,128,2,186318:0:0:0:0:
192,192,186318,1,0,0:0:0:0:
320,192,186418,1,0,0:0:0:0:
448,192,186518,1,2,0:0:0:0:
64,192,186518,1,0,0:0:0:0:
192,192,186584,1,0,0:0:0:0:
320,192,186651,1,2,0:0:0:0:
448,192,186651,1,0,0:0:0:0:
320,192,186784,1,2,0:0:0:0:
448,192,186784,1,0,0:0:0:0:
320,192,186918,1,2,0:0:0:0:
448,192,186918,1,0,0:0:0:0:
192,192,186984,1,0,0:0:0:0:
64,192,187051,1,0,0:0:0:0:
448,192,187118,1,0,0:0:0:0:
320,192,187184,1,0,0:0:0:0:
192,192,187251,1,0,0:0:0:0:
64,192,187318,1,2,0:0:0:0:
320,192,187318,1,0,0:0:0:0:
448,192,187318,1,8,0:0:0:0:
64,192,187451,1,2,0:0:0:0:
320,192,187451,1,0,0:0:0:0:
320,192,187584,1,0,0:0:0:0:
64,192,187584,1,2,0:0:0:0:
192,192,187718,1,0,0:0:0:0:
448,192,187718,1,8,0:0:0:0:
64,192,187718,1,2,0:0:0:0:
192,192,187851,1,2,0:0:0:0:
448,192,187851,1,0,0:0:0:0:
448,192,187984,1,0,0:0:0:0:
192,192,187984,1,2,0:0:0:0:
64,192,188118,1,0,0:0:0:0:
192,192,188118,1,2,0:0:0:0:
64,192,188251,1,0,0:0:0:0:
192,192,188251,1,2,0:0:0:0:
192,192,188384,1,2,0:0:0:0:
64,192,188384,1,0,0:0:0:0:
320,192,188518,1,2,0:0:0:0:
448,192,188518,1,0,0:0:0:0:
64,192,188518,1,8,0:0:0:0:
320,192,188651,1,2,0:0:0:0:
448,192,188651,1,0,0:0:0:0:
448,192,188784,1,0,0:0:0:0:
320,192,188784,1,2,0:0:0:0:
64,192,188918,1,2,0:0:0:0:
448,192,188918,1,0,0:0:0:0:
448,192,189051,1,0,0:0:0:0:
64,192,189051,1,2,0:0:0:0:
64,192,189184,1,2,0:0:0:0:
448,192,189184,1,0,0:0:0:0:
192,192,189318,1,8,0:0:0:0:
64,192,189318,1,2,0:0:0:0:
320,192,189318,1,0,0:0:0:0:
320,192,189518,1,2,0:0:0:0:
448,192,189518,1,0,0:0:0:0:
192,192,189618,1,2,0:0:0:0:
320,192,189718,1,2,0:0:0:0:
448,192,189718,1,0,0:0:0:0:
320,192,189851,1,2,0:0:0:0:
448,192,189851,1,0,0:0:0:0:
448,192,189984,1,0,0:0:0:0:
320,192,189984,1,2,0:0:0:0:
192,192,190118,1,2,0:0:0:0:
64,192,190118,1,8,0:0:0:0:
448,192,190118,1,0,0:0:0:0:
320,192,190184,1,0,0:0:0:0:
448,192,190251,1,0,0:0:0:0:
64,192,190318,1,0,0:0:0:0:
192,192,190384,1,0,0:0:0:0:
320,192,190451,1,0,0:0:0:0:
448,192,190518,1,2,0:0:0:0:
64,192,190518,1,0,0:0:0:0:
448,192,190651,1,2,0:0:0:0:
64,192,190651,1,0,0:0:0:0:
448,192,190784,1,2,0:0:0:0:
64,192,190784,1,0,0:0:0:0:
320,192,190918,1,2,0:0:0:0:
448,192,190918,1,8,0:0:0:0:
64,192,190918,1,0,0:0:0:0:
320,192,191051,1,2,0:0:0:0:
448,192,191051,1,0,0:0:0:0:
320,192,191184,1,2,0:0:0:0:
448,192,191184,1,0,0:0:0:0:
192,192,191318,1,2,0:0:0:0:
64,192,191318,1,0,0:0:0:0:
192,192,191451,1,2,0:0:0:0:
64,192,191451,1,0,0:0:0:0:
192,192,191584,1,2,0:0:0:0:
64,192,191584,1,0,0:0:0:0:
320,192,191718,1,2,0:0:0:0:
64,192,191718,1,8,0:0:0:0:
448,192,191718,1,0,0:0:0:0:
448,192,191851,1,2,0:0:0:0:
320,192,191851,1,0,0:0:0:0:
448,192,191984,1,2,0:0:0:0:
320,192,191984,1,0,0:0:0:0:
192,192,192118,1,2,0:0:0:0:
64,192,192118,1,0,0:0:0:0:
192,192,192251,1,2,0:0:0:0:
64,192,192251,1,0,0:0:0:0:
192,192,192384,1,2,0:0:0:0:
64,192,192384,1,0,0:0:0:0:
448,192,192518,1,2,0:0:0:0:
64,192,192518,1,8,0:0:0:0:
192,192,192518,1,0,0:0:0:0:
320,192,192584,1,0,0:0:0:0:
192,192,192651,1,0,0:0:0:0:
448,192,192718,1,0,0:0:0:0:
320,192,192718,1,2,0:0:0:0:
64,192,192818,1,0,0:0:0:0:
192,192,192818,1,2,0:0:0:0:
320,192,192918,1,2,0:0:0:0:
448,192,192918,1,0,0:0:0:0:
320,192,193051,1,2,0:0:0:0:
448,192,193051,1,0,0:0:0:0:
320,192,193184,1,2,0:0:0:0:
448,192,193184,1,0,0:0:0:0:
320,192,193318,1,2,0:0:0:0:
448,192,193318,1,8,0:0:0:0:
64,192,193318,1,0,0:0:0:0:
192,192,193384,1,0,0:0:0:0:
64,192,193451,1,0,0:0:0:0:
320,192,193518,1,0,0:0:0:0:
192,192,193584,1,0,0:0:0:0:
448,192,193651,1,0,0:0:0:0:
64,192,193718,1,2,0:0:0:0:
192,192,193718,1,4,0:0:0:0:
320,192,193718,1,8,0:0:0:0:
64,192,193851,1,2,0:0:0:0:
192,192,193851,1,0,0:0:0:0:
192,192,193984,1,0,0:0:0:0:
64,192,193984,1,2,0:0:0:0:
320,192,194118,1,0,0:0:0:0:
448,192,194118,1,8,0:0:0:0:
64,192,194118,1,2,0:0:0:0:
320,192,194251,1,0,0:0:0:0:
448,192,194251,1,2,0:0:0:0:
448,192,194384,1,2,0:0:0:0:
320,192,194384,1,0,0:0:0:0:
192,192,194518,1,0,0:0:0:0:
448,192,194518,1,2,0:0:0:0:
448,192,194651,1,2,0:0:0:0:
192,192,194651,1,0,0:0:0:0:
192,192,194784,1,0,0:0:0:0:
448,192,194784,1,2,0:0:0:0:
64,192,194918,1,0,0:0:0:0:
192,192,194918,1,2,0:0:0:0:
320,192,194918,1,8,0:0:0:0:
320,192,195051,1,2,0:0:0:0:
64,192,195051,1,0,0:0:0:0:
64,192,195184,1,0,0:0:0:0:
320,192,195184,1,2,0:0:0:0:
192,192,195318,1,0,0:0:0:0:
320,192,195318,1,2,0:0:0:0:
320,192,195451,1,2,0:0:0:0:
192,192,195451,1,0,0:0:0:0:
192,192,195584,1,0,0:0:0:0:
320,192,195584,1,2,0:0:0:0:
64,192,195718,1,0,0:0:0:0:
448,192,195718,1,8,0:0:0:0:
320,192,195718,1,2,0:0:0:0:
192,192,195918,1,0,0:0:0:0:
320,192,195918,1,2,0:0:0:0:
448,192,196018,1,2,0:0:0:0:
192,192,196118,1,0,0:0:0:0:
320,192,196118,1,2,0:0:0:0:
192,192,196251,1,0,0:0:0:0:
320,192,196251,1,2,0:0:0:0:
320,192,196384,1,2,0:0:0:0:
192,192,196384,1,0,0:0:0:0:
320,192,196518,1,2,0:0:0:0:
448,192,196518,1,0,0:0:0:0:
64,192,196518,1,0,0:0:0:0:
192,192,196584,1,0,0:0:0:0:
320,192,196651,1,0,0:0:0:0:
448,192,196718,1,0,0:0:0:0:
64,192,196784,1,0,0:0:0:0:
192,192,196851,1,0,0:0:0:0:
320,192,196918,1,0,0:0:0:0:
448,192,196918,1,2,0:0:0:0:
320,192,197051,1,0,0:0:0:0:
448,192,197051,1,2,0:0:0:0:
320,192,197184,1,0,0:0:0:0:
448,192,197184,1,2,0:0:0:0:
192,192,197318,1,8,0:0:0:0:
64,192,197318,1,0,0:0:0:0:
448,192,197318,1,2,0:0:0:0:
192,192,197451,1,0,0:0:0:0:
64,192,197451,1,2,0:0:0:0:
64,192,197584,1,2,0:0:0:0:
192,192,197584,1,0,0:0:0:0:
448,192,197718,1,0,0:0:0:0:
64,192,197718,1,2,0:0:0:0:
64,192,197851,1,2,0:0:0:0:
448,192,197851,1,0,0:0:0:0:
448,192,197984,1,0,0:0:0:0:
64,192,197984,1,2,0:0:0:0:
192,192,198118,1,2,0:0:0:0:
320,192,198118,1,8,0:0:0:0:
448,192,198118,1,0,0:0:0:0:
320,192,198251,1,0,0:0:0:0:
192,192,198251,1,2,0:0:0:0:
192,192,198384,1,2,0:0:0:0:
320,192,198384,1,0,0:0:0:0:
192,192,198518,1,2,0:0:0:0:
64,192,198518,1,0,0:0:0:0:
64,192,198651,1,0,0:0:0:0:
192,192,198651,1,2,0:0:0:0:
192,192,198784,1,2,0:0:0:0:
64,192,198784,1,0,0:0:0:0:
64,192,198918,1,0,0:0:0:0:
320,192,198918,1,2,0:0:0:0:
448,192,198918,1,8,0:0:0:0:
192,192,199118,1,2,0:0:0:0:
448,192,199118,1,0,0:0:0:0:
64,192,199218,1,2,0:0:0:0:
192,192,199318,1,2,0:0:0:0:
448,192,199318,1,0,0:0:0:0:
192,192,199451,1,2,0:0:0:0:
448,192,199451,1,0,0:0:0:0:
448,192,199584,1,0,0:0:0:0:
192,192,199584,1,2,0:0:0:0:
64,192,199718,1,2,0:0:0:0:
320,192,199718,1,8,0:0:0:0:
448,192,199784,1,0,0:0:0:0:
192,192,199851,1,0,0:0:0:0:
320,192,199918,1,0,0:0:0:0:
448,192,199984,1,0,0:0:0:0:
64,192,200051,1,0,0:0:0:0:
192,192,200118,1,0,0:0:0:0:
320,192,200118,1,2,0:0:0:0:
448,192,200218,1,0,0:0:0:0:
320,192,200318,1,0,0:0:0:0:
64,192,200318,1,0,0:0:0:0:
192,192,200418,1,0,0:0:0:0:
64,192,200518,1,0,0:0:0:0:
320,192,200518,1,2,0:0:0:0:
448,192,200518,1,8,0:0:0:0:
192,192,200618,1,0,0:0:0:0:
64,192,200718,1,0,0:0:0:0:
448,192,200718,1,0,0:0:0:0:
320,192,200818,1,0,0:0:0:0:
192,192,200818,1,0,0:0:0:0:
64,192,200918,1,2,0:0:0:0:
448,192,200918,128,0,201118:0:0:0:0:
320,192,201018,128,0,201118:0:0:0:0:
64,192,201118,1,0,0:0:0:0:
192,192,201118,1,0,0:0:0:0:
448,192,201218,1,0,0:0:0:0:
320,192,201318,1,10,0:0:0:0:
192,192,201318,1,0,0:0:0:0:
64,192,201418,1,0,0:0:0:0:
448,192,201418,1,0,0:0:0:0:
192,192,201518,1,0,0:0:0:0:
320,192,201518,1,0,0:0:0:0:
64,192,201618,1,0,0:0:0:0:
448,192,201618,1,0,0:0:0:0:
192,192,201718,1,2,0:0:0:0:
320,192,201718,1,0,0:0:0:0:
448,192,201818,1,0,0:0:0:0:
64,192,201918,1,0,0:0:0:0:
192,192,201918,1,0,0:0:0:0:
320,192,202018,1,0,0:0:0:0:
64,192,202118,1,0,0:0:0:0:
192,192,202118,1,2,0:0:0:0:
448,192,202118,1,8,0:0:0:0:
320,192,202218,1,0,0:0:0:0:
448,192,202318,1,0,0:0:0:0:
192,192,202318,1,0,0:0:0:0:
320,192,202418,1,0,0:0:0:0:
64,192,202418,1,0,0:0:0:0:
192,192,202518,1,2,0:0:0:0:
448,192,202518,128,0,202718:0:0:0:0:
320,192,202618,128,0,202718:0:0:0:0:
64,192,202718,1,0,0:0:0:0:
192,192,202718,1,0,0:0:0:0:
320,192,202818,1,0,0:0:0:0:
64,192,202918,1,0,0:0:0:0:
448,192,202918,1,8,0:0:0:0:
320,192,203018,1,0,0:0:0:0:
192,192,203018,1,0,0:0:0:0:
64,192,203118,1,0,0:0:0:0:
448,192,203118,1,0,0:0:0:0:
320,192,203218,1,0,0:0:0:0:
192,192,203318,128,2,203718:0:0:0:0:
64,192,203318,1,0,0:0:0:0:
448,192,203518,128,0,203718:0:0:0:0:
64,192,203718,1,0,0:0:0:0:
320,192,203718,1,8,0:0:0:0:
192,192,203918,1,0,0:0:0:0:
448,192,203918,1,0,0:0:0:0:
320,192,204018,1,0,0:0:0:0:
64,192,204118,1,2,0:0:0:0:
448,192,204118,128,0,204318:0:0:0:0:
320,192,204218,128,0,204318:0:0:0:0:
192,192,204318,1,0,0:0:0:0:
320,192,204418,1,0,0:0:0:0:
64,192,204518,1,0,0:0:0:0:
448,192,204518,128,8,204718:0:0:0:0:
192,192,204618,1,0,0:0:0:0:
320,192,204718,1,0,0:0:0:0:
192,192,204818,1,0,0:0:0:0:
64,192,204918,1,2,0:0:0:0:
448,192,204918,1,0,0:0:0:0:
320,192,205118,1,2,0:0:0:0:
192,192,205118,1,0,0:0:0:0:
64,192,205318,1,0,0:0:0:0:
320,192,205318,1,2,0:0:0:0:
448,192,205318,1,8,0:0:0:0:
448,192,205518,1,0,0:0:0:0:
192,192,205518,1,0,0:0:0:0:
64,192,205618,1,0,0:0:0:0:
320,192,205618,1,0,0:0:0:0:
192,192,205718,1,2,0:0:0:0:
448,192,205718,128,0,205918:0:0:0:0:
320,192,205818,128,0,205918:0:0:0:0:
192,192,205918,1,0,0:0:0:0:
320,192,206018,1,0,0:0:0:0:
448,192,206118,1,0,0:0:0:0:
64,192,206118,128,0,206251:0:0:0:0:
192,192,206184,128,0,206318:0:0:0:0:
320,192,206251,128,0,206384:0:0:0:0:
448,192,206318,128,0,206451:0:0:0:0:
64,192,206418,128,0,206518:0:0:0:0:
192,192,206518,1,4,0:0:0:0:
320,192,206518,1,8,0:0:0:0:
448,192,206518,1,2,0:0:0:0:
448,192,206818,1,0,0:0:0:0:
448,192,207118,1,0,0:0:0:0:
448,192,207418,1,0,0:0:0:0:
320,192,207718,1,0,0:0:0:0:
64,192,208118,1,0,0:0:0:0:
64,192,208418,1,0,0:0:0:0:
64,192,208718,1,0,0:0:0:0:
64,192,209018,1,0,0:0:0:0:
64,192,209318,1,0,0:0:0:0:
320,192,209718,1,0,0:0:0:0:
320,192,210018,1,0,0:0:0:0:
320,192,210318,1,0,0:0:0:0:
320,192,210618,1,0,0:0:0:0:
192,192,210918,1,0,0:0:0:0:
320,192,211218,1,0,0:0:0:0:
192,192,211318,1,0,0:0:0:0:
192,192,211618,1,0,0:0:0:0:
192,192,211918,1,0,0:0:0:0:
192,192,212218,1,0,0:0:0:0:
192,192,212518,1,0,0:0:0:0:
320,192,212918,1,0,0:0:0:0:
448,192,213018,1,0,0:0:0:0:
448,192,213218,1,0,0:0:0:0:
320,192,213318,1,0,0:0:0:0:
320,192,213518,1,0,0:0:0:0:
448,192,213618,1,0,0:0:0:0:
448,192,213818,1,0,0:0:0:0:
320,192,213918,1,0,0:0:0:0:
192,192,214118,1,0,0:0:0:0:
448,192,214318,1,0,0:0:0:0:
192,192,214518,1,0,0:0:0:0:
64,192,214618,1,0,0:0:0:0:
64,192,214818,1,0,0:0:0:0:
192,192,214918,1,0,0:0:0:0:
192,192,215118,1,0,0:0:0:0:
64,192,215218,1,0,0:0:0:0:
64,192,215418,1,0,0:0:0:0:
192,192,215518,1,0,0:0:0:0:
192,192,215718,1,0,0:0:0:0:
320,192,216118,1,0,0:0:0:0:
192,192,216218,1,0,0:0:0:0:
192,192,216418,1,0,0:0:0:0:
320,192,216518,1,0,0:0:0:0:
320,192,216718,1,0,0:0:0:0:
192,192,216818,1,0,0:0:0:0:
192,192,217018,1,0,0:0:0:0:
320,192,217118,1,0,0:0:0:0:
448,192,217318,1,0,0:0:0:0:
320,192,217518,1,0,0:0:0:0:
192,192,217618,1,0,0:0:0:0:
64,192,217718,128,0,219318:0:0:0:0:
448,192,217818,1,0,0:0:0:0:
320,192,218018,1,0,0:0:0:0:
192,192,218118,1,0,0:0:0:0:
320,192,218318,1,0,0:0:0:0:
448,192,218418,1,0,0:0:0:0:
320,192,218618,1,0,0:0:0:0:
192,192,218718,1,0,0:0:0:0:
320,192,218918,1,0,0:0:0:0:
448,192,219118,1,0,0:0:0:0:
192,192,219318,1,0,0:0:0:0:
320,192,219318,1,0,0:0:0:0:
448,192,219618,1,0,0:0:0:0:
64,192,219918,1,0,0:0:0:0:
320,192,220018,1,0,0:0:0:0:
192,192,220118,1,0,0:0:0:0:
320,192,220318,1,0,0:0:0:0:
64,192,220418,1,0,0:0:0:0:
192,192,220518,1,0,0:0:0:0:
448,192,220918,1,0,0:0:0:0:
448,192,221218,1,0,0:0:0:0:
192,192,221518,1,0,0:0:0:0:
64,192,221618,1,0,0:0:0:0:
320,192,221718,1,0,0:0:0:0:
448,192,221918,1,0,0:0:0:0:
64,192,222118,128,0,223318:0:0:0:0:
448,192,222518,1,0,0:0:0:0:
448,192,222818,1,0,0:0:0:0:
320,192,223118,1,0,0:0:0:0:
192,192,223318,1,0,0:0:0:0:
320,192,223518,1,0,0:0:0:0:
64,192,223718,1,0,0:0:0:0:
320,192,224018,1,0,0:0:0:0:
448,192,224118,1,0,0:0:0:0:
192,192,224118,1,0,0:0:0:0:
448,192,224418,1,0,0:0:0:0:
192,192,224418,1,0,0:0:0:0:
192,192,224718,1,0,0:0:0:0:
448,192,224718,1,0,0:0:0:0:
320,192,224818,1,0,0:0:0:0:
64,192,224918,1,0,0:0:0:0:
192,192,225018,1,0,0:0:0:0:
448,192,225018,1,0,0:0:0:0:
192,192,225318,1,0,0:0:0:0:
448,192,225318,1,0,0:0:0:0:
192,192,225718,1,0,0:0:0:0:
64,192,225718,1,0,0:0:0:0:
64,192,226018,1,0,0:0:0:0:
192,192,226018,1,0,0:0:0:0:
192,192,226318,1,0,0:0:0:0:
64,192,226318,1,0,0:0:0:0:
448,192,226418,1,0,0:0:0:0:
320,192,226518,1,0,0:0:0:0:
192,192,226618,1,0,0:0:0:0:
64,192,226618,1,0,0:0:0:0:
192,192,226918,1,0,0:0:0:0:
64,192,226918,1,0,0:0:0:0:
448,192,227318,1,0,0:0:0:0:
320,192,227318,1,0,0:0:0:0:
448,192,227618,1,0,0:0:0:0:
320,192,227618,1,0,0:0:0:0:
320,192,227918,1,0,0:0:0:0:
448,192,227918,1,0,0:0:0:0:
64,192,228018,1,0,0:0:0:0:
192,192,228118,1,0,0:0:0:0:
320,192,228218,1,0,0:0:0:0:
448,192,228218,1,0,0:0:0:0:
320,192,228518,1,0,0:0:0:0:
64,192,228518,128,0,229318:0:0:0:0:
192,192,228918,1,0,0:0:0:0:
448,192,228918,1,0,0:0:0:0:
448,192,229218,1,0,0:0:0:0:
192,192,229218,1,0,0:0:0:0:
448,192,229518,1,0,0:0:0:0:
192,192,229518,1,0,0:0:0:0:
64,192,229618,1,0,0:0:0:0:
320,192,229718,1,0,0:0:0:0:
448,192,229818,1,0,0:0:0:0:
192,192,229818,1,0,0:0:0:0:
320,192,230118,1,0,0:0:0:0:
64,192,230118,1,0,0:0:0:0:
64,192,230418,1,0,0:0:0:0:
320,192,230418,1,0,0:0:0:0:
192,192,230518,1,0,0:0:0:0:
320,192,230518,1,8,0:0:0:0:
448,192,230518,1,2,0:0:0:0:
64,192,232118,1,2,0:0:0:0:
192,192,232118,1,8,0:0:0:0:
320,192,232118,1,0,0:0:0:0:
448,192,232118,1,4,0:0:0:0:
320,192,232318,1,0,0:0:0:0:
192,192,232418,1,0,0:0:0:0:
64,192,232518,1,0,0:0:0:0:
448,192,232518,1,0,0:0:0:0:
192,192,232718,1,0,0:0:0:0:
320,192,232818,1,0,0:0:0:0:
448,192,232918,1,0,0:0:0:0:
64,192,232918,1,0,0:0:0:0:
192,192,233118,1,0,0:0:0:0:
320,192,233218,1,0,0:0:0:0:
448,192,233318,1,0,0:0:0:0:
192,192,233318,1,0,0:0:0:0:
320,192,233518,1,0,0:0:0:0:
64,192,233618,1,0,0:0:0:0:
192,192,233718,1,0,0:0:0:0:
448,192,233718,1,0,0:0:0:0:
320,192,233818,1,0,0:0:0:0:
64,192,233918,1,0,0:0:0:0:
192,192,234018,1,0,0:0:0:0:
448,192,234118,1,0,0:0:0:0:
320,192,234118,1,0,0:0:0:0:
192,192,234318,1,0,0:0:0:0:
64,192,234418,1,0,0:0:0:0:
320,192,234518,1,0,0:0:0:0:
448,192,234518,1,0,0:0:0:0:
192,192,234618,1,0,0:0:0:0:
448,192,234718,1,0,0:0:0:0:
320,192,234818,1,0,0:0:0:0:
192,192,234918,1,0,0:0:0:0:
64,192,234918,128,0,235718:0:0:0:0:
320,192,235118,1,0,0:0:0:0:
448,192,235218,1,0,0:0:0:0:
192,192,235318,1,0,0:0:0:0:
448,192,235418,1,0,0:0:0:0:
320,192,235518,1,0,0:0:0:0:
448,192,235618,1,0,0:0:0:0:
192,192,235718,1,0,0:0:0:0:
320,192,235718,1,0,0:0:0:0:
64,192,235918,1,0,0:0:0:0:
448,192,236018,1,0,0:0:0:0:
192,192,236118,1,0,0:0:0:0:
320,192,236118,1,0,0:0:0:0:
320,192,236318,1,0,0:0:0:0:
192,192,236418,1,0,0:0:0:0:
64,192,236518,1,0,0:0:0:0:
448,192,236518,1,0,0:0:0:0:
192,192,236718,1,0,0:0:0:0:
320,192,236818,1,0,0:0:0:0:
448,192,236918,1,0,0:0:0:0:
64,192,236918,1,0,0:0:0:0:
192,192,237018,1,0,0:0:0:0:
64,192,237118,1,0,0:0:0:0:
192,192,237218,1,0,0:0:0:0:
320,192,237318,1,0,0:0:0:0:
448,192,237318,1,0,0:0:0:0:
320,192,237518,1,0,0:0:0:0:
192,192,237618,1,0,0:0:0:0:
320,192,237718,1,0,0:0:0:0:
448,192,237718,1,0,0:0:0:0:
64,192,237818,1,0,0:0:0:0:
192,192,237918,128,2,238018:0:0:0:0:
320,192,237918,128,0,238018:0:0:0:0:
448,192,237918,128,0,238018:0:0:0:0:
448,192,238118,128,0,238218:0:0:0:0:
320,192,238118,128,0,238218:0:0:0:0:
192,192,238118,128,2,238218:0:0:0:0:
192,192,238318,128,2,238418:0:0:0:0:
320,192,238318,128,0,238418:0:0:0:0:
448,192,238318,128,0,238418:0:0:0:0:
192,192,238518,128,2,238618:0:0:0:0:
64,192,238518,128,0,238618:0:0:0:0:
320,192,238518,128,0,238618:0:0:0:0:
192,192,238918,1,0,0:0:0:0:
64,192,238918,1,0,0:0:0:0:
448,192,239118,1,0,0:0:0:0:
320,192,239218,1,0,0:0:0:0:
64,192,239318,1,0,0:0:0:0:
192,192,239318,1,0,0:0:0:0:
448,192,239418,1,0,0:0:0:0:
320,192,239518,1,0,0:0:0:0:
64,192,239618,1,0,0:0:0:0:
320,192,239718,1,0,0:0:0:0:
448,192,239718,1,0,0:0:0:0:
64,192,239918,1,0,0:0:0:0:
192,192,240018,1,0,0:0:0:0:
320,192,240118,1,0,0:0:0:0:
448,192,240118,1,0,0:0:0:0:
64,192,240218,1,0,0:0:0:0:
320,192,240318,1,0,0:0:0:0:
192,192,240418,1,0,0:0:0:0:
64,192,240518,1,0,0:0:0:0:
448,192,240518,1,0,0:0:0:0:
64,192,240718,1,0,0:0:0:0:
192,192,240818,1,0,0:0:0:0:
64,192,240918,1,0,0:0:0:0:
448,192,240918,1,0,0:0:0:0:
320,192,241018,1,0,0:0:0:0:
192,192,241118,1,0,0:0:0:0:
448,192,241218,1,0,0:0:0:0:
64,192,241318,128,0,242118:0:0:0:0:
320,192,241518,1,0,0:0:0:0:
192,192,241618,1,0,0:0:0:0:
320,192,241718,1,0,0:0:0:0:
448,192,241718,1,0,0:0:0:0:
192,192,241818,1,0,0:0:0:0:
448,192,241918,1,0,0:0:0:0:
192,192,242018,1,0,0:0:0:0:
448,192,242118,1,0,0:0:0:0:
320,192,242118,1,0,0:0:0:0:
320,192,242318,1,0,0:0:0:0:
64,192,242418,1,0,0:0:0:0:
192,192,242518,1,0,0:0:0:0:
320,192,242518,1,0,0:0:0:0:
64,192,242618,1,0,0:0:0:0:
448,192,242718,1,0,0:0:0:0:
64,192,242818,1,0,0:0:0:0:
192,192,242918,1,0,0:0:0:0:
320,192,242918,1,0,0:0:0:0:
448,192,243118,1,0,0:0:0:0:
320,192,243218,1,0,0:0:0:0:
192,192,243318,1,0,0:0:0:0:
64,192,243318,1,0,0:0:0:0:
320,192,243418,1,0,0:0:0:0:
192,192,243518,1,0,0:0:0:0:
448,192,243618,1,0,0:0:0:0:
192,192,243718,1,0,0:0:0:0:
64,192,243718,1,0,0:0:0:0:
320,192,243918,1,0,0:0:0:0:
192,192,244018,1,0,0:0:0:0:
320,192,244118,128,0,244318:0:0:0:0:
64,192,244118,128,0,244218:0:0:0:0:
448,192,244318,128,0,244418:0:0:0:0:
192,192,244318,128,0,244518:0:0:0:0:
448,192,244518,1,2,0:0:0:0:
448,192,244618,1,2,0:0:0:0:
64,192,244718,128,0,244818:0:0:0:0:
192,192,244718,1,2,0:0:0:0:
64,192,244918,1,4,0:0:0:0:
192,192,244918,1,0,0:0:0:0:
320,192,244918,1,8,0:0:0:0:
448,192,244918,1,2,0:0:0:0:
320,192,245018,1,0,0:0:0:0:
192,192,245118,1,0,0:0:0:0:
448,192,245218,1,0,0:0:0:0:
320,192,245318,1,0,0:0:0:0:
64,192,245318,1,0,0:0:0:0:
192,192,245418,1,0,0:0:0:0:
448,192,245518,128,0,245618:0:0:0:0:
320,192,245518,1,0,0:0:0:0:
64,192,245618,1,0,0:0:0:0:
320,192,245718,1,0,0:0:0:0:
192,192,245718,1,0,0:0:0:0:
64,192,245818,1,0,0:0:0:0:
192,192,245918,1,0,0:0:0:0:
448,192,245918,128,0,246018:0:0:0:0:
320,192,246018,1,0,0:0:0:0:
192,192,246118,1,0,0:0:0:0:
64,192,246118,1,0,0:0:0:0:
320,192,246218,1,0,0:0:0:0:
64,192,246318,128,0,246418:0:0:0:0:
448,192,246318,1,0,0:0:0:0:
192,192,246418,1,0,0:0:0:0:
320,192,246518,1,0,0:0:0:0:
448,192,246518,1,0,0:0:0:0:
192,192,246618,1,0,0:0:0:0:
64,192,246718,128,0,246818:0:0:0:0:
448,192,246718,1,0,0:0:0:0:
320,192,246818,1,0,0:0:0:0:
192,192,246918,1,0,0:0:0:0:
64,192,246918,1,0,0:0:0:0:
448,192,247018,1,0,0:0:0:0:
320,192,247118,128,0,247218:0:0:0:0:
64,192,247118,1,0,0:0:0:0:
192,192,247218,1,0,0:0:0:0:
448,192,247318,1,0,0:0:0:0:
64,192,247318,1,0,0:0:0:0:
192,192,247418,1,0,0:0:0:0:
320,192,247518,128,0,247618:0:0:0:0:
448,192,247518,1,0,0:0:0:0:
192,192,247618,1,0,0:0:0:0:
64,192,247718,1,0,0:0:0:0:
448,192,247718,1,0,0:0:0:0:
320,192,247818,1,0,0:0:0:0:
192,192,247918,128,0,248018:0:0:0:0:
64,192,247918,1,0,0:0:0:0:
320,192,248018,1,0,0:0:0:0:
448,192,248118,1,0,0:0:0:0:
64,192,248118,1,0,0:0:0:0:
320,192,248218,1,0,0:0:0:0:
192,192,248318,128,0,248418:0:0:0:0:
448,192,248318,1,0,0:0:0:0:
64,192,248418,1,0,0:0:0:0:
320,192,248518,1,0,0:0:0:0:
448,192,248518,1,0,0:0:0:0:
192,192,248618,1,0,0:0:0:0:
448,192,248718,128,0,248818:0:0:0:0:
64,192,248718,1,0,0:0:0:0:
320,192,248818,1,0,0:0:0:0:
192,192,248918,1,0,0:0:0:0:
64,192,248918,1,0,0:0:0:0:
320,192,249018,1,0,0:0:0:0:
448,192,249118,128,0,249218:0:0:0:0:
192,192,249118,1,0,0:0:0:0:
64,192,249218,1,0,0:0:0:0:
320,192,249318,1,0,0:0:0:0:
448,192,249318,1,0,0:0:0:0:
64,192,249418,1,0,0:0:0:0:
192,192,249518,128,0,249618:0:0:0:0:
448,192,249518,1,0,0:0:0:0:
320,192,249618,1,0,0:0:0:0:
64,192,249718,1,0,0:0:0:0:
448,192,249718,1,0,0:0:0:0:
320,192,249818,1,0,0:0:0:0:
192,192,249918,128,0,250018:0:0:0:0:
64,192,249918,1,0,0:0:0:0:
448,192,250018,1,0,0:0:0:0:
320,192,250118,1,0,0:0:0:0:
64,192,250118,1,0,0:0:0:0:
192,192,250218,1,0,0:0:0:0:
64,192,250318,128,0,250418:0:0:0:0:
448,192,250318,1,0,0:0:0:0:
320,192,250418,1,0,0:0:0:0:
192,192,250518,1,0,0:0:0:0:
64,192,250518,1,0,0:0:0:0:
320,192,250618,1,0,0:0:0:0:
64,192,250718,128,0,250818:0:0:0:0:
448,192,250718,1,0,0:0:0:0:
192,192,250818,1,0,0:0:0:0:
320,192,250918,1,0,0:0:0:0:
448,192,250918,1,0,0:0:0:0:
192,192,251018,1,0,0:0:0:0:
320,192,251118,128,0,251218:0:0:0:0:
64,192,251118,1,0,0:0:0:0:
192,192,251218,1,0,0:0:0:0:
64,192,251318,1,0,0:0:0:0:
448,192,251318,1,0,0:0:0:0:
320,192,251368,1,0,0:0:0:0:
192,192,251418,1,0,0:0:0:0:
64,192,251468,1,0,0:0:0:0:
320,192,251518,1,0,0:0:0:0:
448,192,251568,1,0,0:0:0:0:
64,192,251618,1,0,0:0:0:0:
192,192,251668,1,0,0:0:0:0:
448,192,251718,1,0,0:0:0:0:
320,192,251768,1,0,0:0:0:0:
192,192,251818,1,0,0:0:0:0:
64,192,251868,1,0,0:0:0:0:
320,192,251918,1,0,0:0:0:0:
448,192,251968,1,0,0:0:0:0:
64,192,252018,1,0,0:0:0:0:
192,192,252068,1,0,0:0:0:0:
448,192,252118,1,0,0:0:0:0:
320,192,252168,1,0,0:0:0:0:
64,192,252218,1,0,0:0:0:0:
192,192,252268,1,0,0:0:0:0:
448,192,252318,1,0,0:0:0:0:
320,192,252368,1,0,0:0:0:0:
192,192,252418,1,0,0:0:0:0:
64,192,252468,1,0,0:0:0:0:
448,192,252518,1,0,0:0:0:0:
320,192,252568,1,0,0:0:0:0:
64,192,252618,1,0,0:0:0:0:
192,192,252668,1,0,0:0:0:0:
448,192,252718,1,0,0:0:0:0:
320,192,252768,1,0,0:0:0:0:
192,192,252818,1,0,0:0:0:0:
64,192,252868,1,0,0:0:0:0:
320,192,252918,1,0,0:0:0:0:
448,192,252968,1,0,0:0:0:0:
192,192,253018,1,0,0:0:0:0:
64,192,253068,1,0,0:0:0:0:
320,192,253118,1,0,0:0:0:0:
448,192,253168,1,0,0:0:0:0:
64,192,253218,1,0,0:0:0:0:
192,192,253268,1,0,0:0:0:0:
448,192,253318,1,0,0:0:0:0:
320,192,253368,1,0,0:0:0:0:
192,192,253418,1,0,0:0:0:0:
64,192,253468,1,0,0:0:0:0:
320,192,253518,1,0,0:0:0:0:
448,192,253568,1,0,0:0:0:0:
64,192,253618,1,0,0:0:0:0:
192,192,253668,1,0,0:0:0:0:
448,192,253718,1,0,0:0:0:0:
320,192,253768,1,0,0:0:0:0:
192,192,253818,1,0,0:0:0:0:
64,192,253868,1,0,0:0:0:0:
448,192,253918,1,0,0:0:0:0:
320,192,253968,1,0,0:0:0:0:
64,192,254018,1,0,0:0:0:0:
448,192,254068,1,0,0:0:0:0:
192,192,254118,1,0,0:0:0:0:
320,192,254168,1,0,0:0:0:0:
64,192,254218,1,0,0:0:0:0:
192,192,254268,1,0,0:0:0:0:
448,192,254318,1,0,0:0:0:0:
320,192,254368,1,0,0:0:0:0:
64,192,254418,1,0,0:0:0:0:
192,192,254468,1,0,0:0:0:0:
320,192,254518,128,0,255118:0:0:0:0:
448,192,254518,1,0,0:0:0:0:
448,192,255318,128,0,256118:0:0:0:0:
64,192,255718,128,0,256118:0:0:0:0:
192,192,256118,1,0,0:0:0:0:
320,192,256118,1,8,0:0:0:0:
448,192,256218,1,8,0:0:0:0:
64,192,256218,1,0,0:0:0:0:
192,192,256318,1,0,0:0:0:0:
320,192,256318,1,8,0:0:0:0:
448,192,256418,1,8,0:0:0:0:
64,192,256518,1,0,0:0:0:0:
320,192,256518,1,8,0:0:0:0:
448,192,256618,1,8,0:0:0:0:
192,192,256618,1,0,0:0:0:0:
64,192,256718,1,0,0:0:0:0:
320,192,256718,1,8,0:0:0:0:
192,192,256818,1,8,0:0:0:0:
448,192,256918,1,0,0:0:0:0:
64,192,256918,1,8,0:0:0:0:
192,192,257018,1,8,0:0:0:0:
320,192,257018,1,0,0:0:0:0:
448,192,257118,1,0,0:0:0:0:
64,192,257118,1,0,0:0:0:0:
320,192,257218,1,8,0:0:0:0:
448,192,257318,128,0,257618:0:0:0:0:
320,192,257384,128,0,257618:0:0:0:0:
192,192,257451,128,0,257618:0:0:0:0:
64,192,257718,1,8,0:0:0:0:
192,192,257718,1,2,0:0:0:0:
320,192,257718,1,4,0:0:0:0:
448,192,257718,1,0,0:0:0:0:
64,192,257918,1,0,0:0:0:0:
192,192,257918,1,2,0:0:0:0:
448,192,257918,1,0,0:0:0:0:
64,192,258118,128,8,258218:0:0:0:0:
192,192,258118,128,2,258218:0:0:0:0:
448,192,258118,128,0,258218:0:0:0:0:
320,192,258218,1,0,0:0:0:0:
192,192,258318,1,0,0:0:0:0:
64,192,258318,1,0,0:0:0:0:
320,192,258418,1,0,0:0:0:0:
448,192,258418,1,0,0:0:0:0:
192,192,258518,1,2,0:0:0:0:
64,192,258518,128,0,258718:0:0:0:0:
448,192,258518,1,0,0:0:0:0:
320,192,258618,128,0,258718:0:0:0:0:
192,192,258718,1,0,0:0:0:0:
448,192,258718,1,0,0:0:0:0:
320,192,258818,1,0,0:0:0:0:
64,192,258818,1,0,0:0:0:0:
192,192,258918,1,2,0:0:0:0:
448,192,258918,1,0,0:0:0:0:
320,192,259018,1,0,0:0:0:0:
64,192,259018,1,0,0:0:0:0:
448,192,259118,1,0,0:0:0:0:
192,192,259118,1,0,0:0:0:0:
320,192,259218,1,0,0:0:0:0:
64,192,259218,1,0,0:0:0:0:
192,192,259318,1,2,0:0:0:0:
64,192,259318,1,0,0:0:0:0:
448,192,259318,128,8,259518:0:0:0:0:
320,192,259418,128,0,259518:0:0:0:0:
64,192,259518,1,0,0:0:0:0:
192,192,259518,1,2,0:0:0:0:
320,192,259618,1,0,0:0:0:0:
64,192,259718,128,0,259818:0:0:0:0:
448,192,259718,128,2,259818:0:0:0:0:
192,192,259718,128,8,259818:0:0:0:0:
320,192,259818,1,0,0:0:0:0:
448,192,259918,128,0,260018:0:0:0:0:
64,192,259918,128,0,260018:0:0:0:0:
320,192,260018,1,0,0:0:0:0:
192,192,260018,1,0,0:0:0:0:
64,192,260118,1,0,0:0:0:0:
448,192,260118,128,2,260318:0:0:0:0:
320,192,260218,128,0,260318:0:0:0:0:
64,192,260318,1,0,0:0:0:0:
192,192,260318,1,0,0:0:0:0:
448,192,260418,1,0,0:0:0:0:
320,192,260418,1,0,0:0:0:0:
192,192,260518,1,2,0:0:0:0:
64,192,260518,1,0,0:0:0:0:
320,192,260618,1,0,0:0:0:0:
448,192,260618,1,0,0:0:0:0:
192,192,260718,1,0,0:0:0:0:
64,192,260718,1,0,0:0:0:0:
448,192,260918,1,0,0:0:0:0:
64,192,260918,128,2,261118:0:0:0:0:
320,192,260918,1,8,0:0:0:0:
192,192,261018,128,0,261118:0:0:0:0:
320,192,261118,1,2,0:0:0:0:
192,192,261218,1,0,0:0:0:0:
448,192,261318,128,2,261418:0:0:0:0:
64,192,261318,128,0,261418:0:0:0:0:
320,192,261318,128,8,261418:0:0:0:0:
192,192,261418,1,0,0:0:0:0:
448,192,261518,128,0,261618:0:0:0:0:
320,192,261518,128,0,261618:0:0:0:0:
64,192,261618,1,0,0:0:0:0:
192,192,261618,1,0,0:0:0:0:
320,192,261718,1,2,0:0:0:0:
448,192,261718,128,0,261918:0:0:0:0:
64,192,261818,128,0,261918:0:0:0:0:
192,192,261918,1,0,0:0:0:0:
320,192,261918,1,0,0:0:0:0:
64,192,262018,1,0,0:0:0:0:
448,192,262018,1,0,0:0:0:0:
320,192,262118,1,2,0:0:0:0:
192,192,262118,1,0,0:0:0:0:
64,192,262218,1,0,0:0:0:0:
448,192,262218,1,0,0:0:0:0:
192,192,262318,1,0,0:0:0:0:
320,192,262318,1,0,0:0:0:0:
448,192,262418,1,0,0:0:0:0:
64,192,262418,1,0,0:0:0:0:
192,192,262518,1,0,0:0:0:0:
448,192,262518,1,8,0:0:0:0:
320,192,262518,128,2,262718:0:0:0:0:
64,192,262618,128,0,262718:0:0:0:0:
448,192,262718,1,2,0:0:0:0:
192,192,262718,1,0,0:0:0:0:
64,192,262918,128,0,263018:0:0:0:0:
320,192,262918,128,2,263018:0:0:0:0:
192,192,262918,1,8,0:0:0:0:
448,192,263018,1,0,0:0:0:0:
64,192,263118,128,0,263218:0:0:0:0:
192,192,263118,128,0,263218:0:0:0:0:
320,192,263218,1,0,0:0:0:0:
448,192,263218,1,0,0:0:0:0:
64,192,263318,1,0,0:0:0:0:
192,192,263318,128,2,263518:0:0:0:0:
320,192,263418,128,0,263518:0:0:0:0:
448,192,263518,1,0,0:0:0:0:
192,192,263618,1,0,0:0:0:0:
448,192,263718,128,0,263918:0:0:0:0:
64,192,263718,128,0,263818:0:0:0:0:
64,192,263918,128,0,264118:0:0:0:0:
320,192,263918,128,0,264018:0:0:0:0:
192,192,264118,1,4,0:0:0:0:
320,192,264118,1,8,0:0:0:0:
448,192,264118,1,2,0:0:0:0:
192,192,264318,1,2,0:0:0:0:
64,192,264518,128,0,264618:0:0:0:0:
320,192,264518,128,2,264618:0:0:0:0:
448,192,264518,128,8,264618:0:0:0:0:
192,192,264618,1,0,0:0:0:0:
64,192,264718,1,0,0:0:0:0:
448,192,264718,1,0,0:0:0:0:
320,192,264818,1,0,0:0:0:0:
192,192,264818,1,0,0:0:0:0:
64,192,264918,1,0,0:0:0:0:
448,192,264918,128,2,265118:0:0:0:0:
320,192,265018,128,0,265118:0:0:0:0:
64,192,265118,1,0,0:0:0:0:
192,192,265118,1,0,0:0:0:0:
448,192,265218,1,0,0:0:0:0:
320,192,265218,1,0,0:0:0:0:
192,192,265318,1,2,0:0:0:0:
64,192,265318,1,0,0:0:0:0:
448,192,265418,1,0,0:0:0:0:
320,192,265418,1,0,0:0:0:0:
192,192,265518,1,0,0:0:0:0:
64,192,265518,1,0,0:0:0:0:
448,192,265618,1,0,0:0:0:0:
320,192,265618,1,0,0:0:0:0:
64,192,265718,1,0,0:0:0:0:
320,192,265718,1,2,0:0:0:0:
192,192,265718,128,8,265918:0:0:0:0:
448,192,265818,128,0,265918:0:0:0:0:
64,192,265918,1,0,0:0:0:0:
320,192,265918,1,2,0:0:0:0:
320,192,266118,128,2,266218:0:0:0:0:
448,192,266118,128,8,266218:0:0:0:0:
64,192,266118,128,0,266218:0:0:0:0:
192,192,266218,1,0,0:0:0:0:
64,192,266318,128,0,266418:0:0:0:0:
320,192,266318,128,0,266418:0:0:0:0:
448,192,266418,1,0,0:0:0:0:
192,192,266418,1,0,0:0:0:0:
64,192,266518,1,0,0:0:0:0:
320,192,266518,128,2,266718:0:0:0:0:
192,192,266618,128,0,266718:0:0:0:0:
64,192,266718,1,0,0:0:0:0:
448,192,266718,1,0,0:0:0:0:
320,192,266818,1,0,0:0:0:0:
192,192,266818,1,0,0:0:0:0:
448,192,266918,1,2,0:0:0:0:
64,192,266918,1,0,0:0:0:0:
320,192,267018,1,0,0:0:0:0:
192,192,267018,1,0,0:0:0:0:
448,192,267118,1,0,0:0:0:0:
64,192,267118,1,0,0:0:0:0:
448,192,267318,1,2,0:0:0:0:
64,192,267318,1,8,0:0:0:0:
192,192,267384,1,0,0:0:0:0:
320,192,267451,1,0,0:0:0:0:
64,192,267518,1,2,0:0:0:0:
448,192,267518,1,0,0:0:0:0:
192,192,267584,1,0,0:0:0:0:
320,192,267651,1,0,0:0:0:0:
448,192,267718,1,8,0:0:0:0:
64,192,267718,1,2,0:0:0:0:
192,192,267718,1,0,0:0:0:0:
320,192,267784,1,0,0:0:0:0:
64,192,267851,1,0,0:0:0:0:
192,192,267918,1,0,0:0:0:0:
448,192,267918,1,0,0:0:0:0:
320,192,267984,1,0,0:0:0:0:
64,192,268051,1,0,0:0:0:0:
192,192,268118,1,0,0:0:0:0:
320,192,268118,1,2,0:0:0:0:
448,192,268184,1,0,0:0:0:0:
192,192,268251,1,0,0:0:0:0:
64,192,268318,1,0,0:0:0:0:
448,192,268318,1,0,0:0:0:0:
320,192,268384,1,0,0:0:0:0:
192,192,268451,1,0,0:0:0:0:
320,192,268518,1,2,0:0:0:0:
448,192,268518,1,0,0:0:0:0:
64,192,268518,1,0,0:0:0:0:
192,192,268584,1,0,0:0:0:0:
448,192,268651,1,0,0:0:0:0:
320,192,268718,1,0,0:0:0:0:
64,192,268718,1,0,0:0:0:0:
192,192,268818,1,0,0:0:0:0:
320,192,268918,1,8,0:0:0:0:
64,192,268918,1,0,0:0:0:0:
448,192,268918,128,2,269518:0:0:0:0:
192,192,269118,1,0,0:0:0:0:
64,192,269318,1,0,0:0:0:0:
320,192,269318,1,2,0:0:0:0:
192,192,269518,128,0,269618:0:0:0:0:
320,192,269618,128,0,269718:0:0:0:0:
448,192,269718,128,0,270018:0:0:0:0:
64,192,269918,1,0,0:0:0:0:
64,192,270118,1,0,0:0:0:0:
192,192,270118,1,4,0:0:0:0:
320,192,270118,1,2,0:0:0:0:
448,192,270118,1,8,0:0:0:0:
64,192,270518,1,0,0:0:0:0:
192,192,270518,1,2,0:0:0:0:
320,192,270518,1,8,0:0:0:0:
448,192,270518,1,0,0:0:0:0:
64,192,270718,1,0,0:0:0:0:
320,192,270718,1,2,0:0:0:0:
448,192,270718,1,0,0:0:0:0:
64,192,270918,128,8,271018:0:0:0:0:
320,192,270918,128,2,271018:0:0:0:0:
192,192,270918,128,0,271018:0:0:0:0:
448,192,271018,1,0,0:0:0:0:
64,192,271118,1,0,0:0:0:0:
320,192,271118,128,0,271218:0:0:0:0:
192,192,271218,128,0,271318:0:0:0:0:
320,192,271318,1,2,0:0:0:0:
64,192,271318,128,0,271518:0:0:0:0:
448,192,271318,1,0,0:0:0:0:
320,192,271418,128,0,271518:0:0:0:0:
448,192,271518,1,0,0:0:0:0:
192,192,271518,128,0,271618:0:0:0:0:
320,192,271618,1,0,0:0:0:0:
64,192,271618,1,0,0:0:0:0:
192,192,271718,1,0,0:0:0:0:
448,192,271718,1,2,0:0:0:0:
320,192,271818,1,0,0:0:0:0:
64,192,271818,1,0,0:0:0:0:
64,192,271918,1,0,0:0:0:0:
192,192,271918,128,0,272018:0:0:0:0:
320,192,272018,128,0,272118:0:0:0:0:
192,192,272118,1,8,0:0:0:0:
64,192,272118,1,0,0:0:0:0:
448,192,272118,128,2,272318:0:0:0:0:
320,192,272218,128,0,272318:0:0:0:0:
192,192,272318,1,2,0:0:0:0:
64,192,272318,128,0,272418:0:0:0:0:
320,192,272418,128,0,272518:0:0:0:0:
64,192,272518,128,0,272618:0:0:0:0:
448,192,272518,128,8,272618:0:0:0:0:
192,192,272518,128,2,272618:0:0:0:0:
320,192,272618,1,0,0:0:0:0:
192,192,272718,128,0,272818:0:0:0:0:
64,192,272718,128,0,272818:0:0:0:0:
320,192,272818,1,0,0:0:0:0:
448,192,272818,1,0,0:0:0:0:
64,192,272918,1,0,0:0:0:0:
448,192,272918,128,2,273118:0:0:0:0:
320,192,273018,128,0,273118:0:0:0:0:
64,192,273118,1,0,0:0:0:0:
192,192,273118,1,0,0:0:0:0:
448,192,273218,128,0,273318:0:0:0:0:
320,192,273318,1,2,0:0:0:0:
64,192,273318,1,0,0:0:0:0:
192,192,273418,1,0,0:0:0:0:
448,192,273418,1,0,0:0:0:0:
64,192,273518,1,0,0:0:0:0:
320,192,273518,128,0,273618:0:0:0:0:
192,192,273618,128,0,273718:0:0:0:0:
64,192,273718,1,0,0:0:0:0:
448,192,273718,128,8,273918:0:0:0:0:
320,192,273718,1,2,0:0:0:0:
192,192,273818,128,0,273918:0:0:0:0:
320,192,273918,1,2,0:0:0:0:
64,192,274018,1,0,0:0:0:0:
448,192,274118,128,8,274218:0:0:0:0:
192,192,274118,128,0,274218:0:0:0:0:
320,192,274118,128,2,274218:0:0:0:0:
64,192,274218,1,0,0:0:0:0:
448,192,274318,128,0,274418:0:0:0:0:
64,192,274418,1,2,0:0:0:0:
192,192,274418,1,0,0:0:0:0:
320,192,274418,1,0,0:0:0:0:
448,192,274518,1,0,0:0:0:0:
64,192,274618,1,2,0:0:0:0:
192,192,274618,1,0,0:0:0:0:
320,192,274618,1,0,0:0:0:0:
448,192,274718,128,0,274818:0:0:0:0:
64,192,274818,128,0,274918:0:0:0:0:
192,192,274918,1,0,0:0:0:0:
448,192,274918,1,2,0:0:0:0:
64,192,275018,1,0,0:0:0:0:
320,192,275018,1,0,0:0:0:0:
192,192,275118,1,0,0:0:0:0:
448,192,275118,128,2,275218:0:0:0:0:
320,192,275218,128,0,275318:0:0:0:0:
192,192,275318,1,8,0:0:0:0:
448,192,275318,1,2,0:0:0:0:
64,192,275318,128,0,275518:0:0:0:0:
320,192,275418,128,0,275518:0:0:0:0:
448,192,275518,1,2,0:0:0:0:
192,192,275518,128,0,275618:0:0:0:0:
320,192,275618,128,0,275718:0:0:0:0:
64,192,275718,128,0,275818:0:0:0:0:
448,192,275718,128,2,275818:0:0:0:0:
192,192,275718,1,8,0:0:0:0:
320,192,275818,1,0,0:0:0:0:
64,192,275918,128,0,276018:0:0:0:0:
192,192,276018,1,0,0:0:0:0:
320,192,276018,1,2,0:0:0:0:
448,192,276018,1,0,0:0:0:0:
64,192,276118,1,0,0:0:0:0:
192,192,276218,1,0,0:0:0:0:
448,192,276218,1,0,0:0:0:0:
320,192,276218,128,2,276318:0:0:0:0:
64,192,276318,128,0,276418:0:0:0:0:
192,192,276418,1,0,0:0:0:0:
448,192,276518,128,2,276718:0:0:0:0:
320,192,276518,128,0,276618:0:0:0:0:
64,192,276718,128,0,276918:0:0:0:0:
192,192,276718,128,0,276818:0:0:0:0:
192,192,276918,1,4,0:0:0:0:
320,192,276918,1,2,0:0:0:0:
448,192,276918,1,8,0:0:0:0:
64,192,277018,1,0,0:0:0:0:
320,192,277118,1,0,0:0:0:0:
192,192,277218,1,0,0:0:0:0:
64,192,277318,1,0,0:0:0:0:
448,192,277318,1,8,0:0:0:0:
320,192,277318,1,2,0:0:0:0:
192,192,277418,1,0,0:0:0:0:
448,192,277518,1,0,0:0:0:0:
64,192,277518,1,0,0:0:0:0:
192,192,277618,1,0,0:0:0:0:
320,192,277718,1,2,0:0:0:0:
448,192,277718,1,0,0:0:0:0:
64,192,277718,128,0,277918:0:0:0:0:
192,192,277818,128,0,277918:0:0:0:0:
320,192,277918,1,0,0:0:0:0:
448,192,277918,1,0,0:0:0:0:
192,192,278018,1,0,0:0:0:0:
320,192,278118,1,0,0:0:0:0:
448,192,278118,1,2,0:0:0:0:
64,192,278118,1,0,0:0:0:0:
448,192,278218,1,0,0:0:0:0:
192,192,278218,1,0,0:0:0:0:
64,192,278318,1,0,0:0:0:0:
320,192,278318,1,0,0:0:0:0:
448,192,278418,1,0,0:0:0:0:
64,192,278518,1,8,0:0:0:0:
192,192,278518,1,2,0:0:0:0:
320,192,278518,128,0,278718:0:0:0:0:
448,192,278618,128,0,278718:0:0:0:0:
64,192,278718,1,0,0:0:0:0:
192,192,278718,1,2,0:0:0:0:
320,192,278818,1,0,0:0:0:0:
192,192,278918,128,8,279018:0:0:0:0:
448,192,278918,128,2,279018:0:0:0:0:
64,192,278918,128,0,279018:0:0:0:0:
320,192,279018,1,0,0:0:0:0:
64,192,279118,128,0,279218:0:0:0:0:
192,192,279118,128,0,279218:0:0:0:0:
320,192,279218,1,0,0:0:0:0:
448,192,279218,1,0,0:0:0:0:
64,192,279318,1,0,0:0:0:0:
192,192,279318,1,2,0:0:0:0:
448,192,279418,1,0,0:0:0:0:
320,192,279418,1,0,0:0:0:0:
64,192,279518,1,0,0:0:0:0:
192,192,279518,1,0,0:0:0:0:
320,192,279618,1,0,0:0:0:0:
448,192,279718,1,0,0:0:0:0:
192,192,279718,1,2,0:0:0:0:
64,192,279718,1,0,0:0:0:0:
192,192,279818,1,0,0:0:0:0:
320,192,279818,1,0,0:0:0:0:
64,192,279918,1,0,0:0:0:0:
448,192,279918,1,0,0:0:0:0:
320,192,280018,1,0,0:0:0:0:
192,192,280118,1,2,0:0:0:0:
64,192,280118,1,0,0:0:0:0:
448,192,280218,1,0,0:0:0:0:
320,192,280268,1,0,0:0:0:0:
192,192,280318,1,0,0:0:0:0:
64,192,280318,1,0,0:0:0:0:
320,192,280418,1,0,0:0:0:0:
448,192,280518,1,2,0:0:0:0:
192,192,280518,1,0,0:0:0:0:
64,192,280518,1,8,0:0:0:0:
320,192,280618,1,0,0:0:0:0:
64,192,280718,1,0,0:0:0:0:
448,192,280718,1,0,0:0:0:0:
320,192,280818,1,0,0:0:0:0:
192,192,280818,1,0,0:0:0:0:
64,192,280918,1,0,0:0:0:0:
448,192,280918,1,2,0:0:0:0:
192,192,281018,1,0,0:0:0:0:
320,192,281068,1,0,0:0:0:0:
448,192,281118,1,0,0:0:0:0:
64,192,281118,1,0,0:0:0:0:
320,192,281218,1,0,0:0:0:0:
192,192,281318,1,0,0:0:0:0:
448,192,281318,1,2,0:0:0:0:
64,192,281318,1,0,0:0:0:0:
320,192,281418,1,0,0:0:0:0:
448,192,281418,1,0,0:0:0:0:
192,192,281518,1,0,0:0:0:0:
64,192,281518,1,0,0:0:0:0:
320,192,281618,1,0,0:0:0:0:
192,192,281718,1,8,0:0:0:0:
64,192,281718,1,0,0:0:0:0:
448,192,281718,128,2,281918:0:0:0:0:
192,192,281918,128,0,282018:0:0:0:0:
320,192,282018,128,0,282118:0:0:0:0:
64,192,282118,128,2,282318:0:0:0:0:
192,192,282318,128,0,282518:0:0:0:0:
320,192,282518,1,0,0:0:0:0:
448,192,282518,1,2,0:0:0:0:
448,192,282618,1,2,0:0:0:0:
320,192,282618,1,0,0:0:0:0:
192,192,282718,1,2,0:0:0:0:
64,192,282718,1,0,0:0:0:0:
64,192,282818,1,0,0:0:0:0:
192,192,282818,1,2,0:0:0:0:
448,192,282918,128,0,283218:0:0:0:0:
64,192,282918,128,8,283218:0:0:0:0:
192,192,282918,128,2,283118:0:0:0:0:
320,192,282918,128,4,283118:0:0:0:0:
64,192,283318,1,0,0:0:0:0:
192,192,283318,1,0,0:0:0:0:
448,192,283318,128,0,283418:0:0:0:0:
320,192,283318,128,2,283418:0:0:0:0:
192,192,283518,1,0,0:0:0:0:
320,192,283618,1,0,0:0:0:0:
448,192,283618,1,0,0:0:0:0:
64,192,283718,128,0,283818:0:0:0:0:
192,192,283718,128,2,283818:0:0:0:0:
448,192,283718,1,0,0:0:0:0:
320,192,283818,1,0,0:0:0:0:
448,192,283918,1,0,0:0:0:0:
64,192,284018,1,0,0:0:0:0:
192,192,284018,1,0,0:0:0:0:
448,192,284118,128,0,284218:0:0:0:0:
320,192,284118,128,2,284218:0:0:0:0:
192,192,284118,1,0,0:0:0:0:
64,192,284218,1,0,0:0:0:0:
192,192,284318,1,0,0:0:0:0:
448,192,284418,1,0,0:0:0:0:
320,192,284418,1,0,0:0:0:0:
64,192,284518,128,0,284618:0:0:0:0:
192,192,284518,128,2,284618:0:0:0:0:
320,192,284518,1,0,0:0:0:0:
448,192,284618,1,0,0:0:0:0:
320,192,284718,1,0,0:0:0:0:
192,192,284818,1,0,0:0:0:0:
64,192,284818,1,0,0:0:0:0:
448,192,284918,128,2,285018:0:0:0:0:
64,192,284918,128,0,285018:0:0:0:0:
320,192,284918,1,0,0:0:0:0:
320,192,285118,1,0,0:0:0:0:
448,192,285218,1,0,0:0:0:0:
64,192,285218,1,0,0:0:0:0:
192,192,285318,128,0,285418:0:0:0:0:
320,192,285318,128,2,285418:0:0:0:0:
64,192,285318,1,0,0:0:0:0:
448,192,285418,1,0,0:0:0:0:
320,192,285518,1,0,0:0:0:0:
192,192,285618,1,0,0:0:0:0:
64,192,285618,1,0,0:0:0:0:
448,192,285718,128,2,285818:0:0:0:0:
64,192,285718,128,0,285818:0:0:0:0:
320,192,285718,1,0,0:0:0:0:
192,192,285818,1,0,0:0:0:0:
448,192,285918,1,0,0:0:0:0:
320,192,285918,1,0,0:0:0:0:
192,192,286018,1,0,0:0:0:0:
64,192,286018,1,0,0:0:0:0:
192,192,286118,128,2,286218:0:0:0:0:
320,192,286118,128,0,286218:0:0:0:0:
448,192,286118,1,0,0:0:0:0:
64,192,286218,1,0,0:0:0:0:
320,192,286318,1,0,0:0:0:0:
448,192,286418,1,0,0:0:0:0:
192,192,286418,1,0,0:0:0:0:
64,192,286518,128,0,286618:0:0:0:0:
320,192,286518,128,2,286618:0:0:0:0:
192,192,286518,1,0,0:0:0:0:
448,192,286718,1,0,0:0:0:0:
64,192,286818,1,0,0:0:0:0:
192,192,286818,1,0,0:0:0:0:
192,192,286918,128,0,287018:0:0:0:0:
448,192,286918,128,2,287018:0:0:0:0:
320,192,286918,1,0,0:0:0:0:
64,192,287018,1,0,0:0:0:0:
448,192,287118,1,0,0:0:0:0:
320,192,287218,1,0,0:0:0:0:
192,192,287218,1,0,0:0:0:0:
64,192,287318,128,0,287418:0:0:0:0:
320,192,287318,128,2,287418:0:0:0:0:
448,192,287318,1,0,0:0:0:0:
192,192,287418,1,0,0:0:0:0:
64,192,287518,1,0,0:0:0:0:
320,192,287618,1,0,0:0:0:0:
448,192,287618,1,0,0:0:0:0:
192,192,287718,128,2,287818:0:0:0:0:
448,192,287718,128,0,287818:0:0:0:0:
64,192,287718,1,0,0:0:0:0:
64,192,287918,1,0,0:0:0:0:
192,192,288018,1,0,0:0:0:0:
320,192,288018,1,0,0:0:0:0:
320,192,288118,128,2,288318:0:0:0:0:
448,192,288118,128,0,288318:0:0:0:0:
64,192,288118,128,0,288318:0:0:0:0:
192,192,288318,128,0,288418:0:0:0:0:
320,192,288418,128,0,288518:0:0:0:0:
64,192,288518,128,0,288718:0:0:0:0:
192,192,288518,128,2,288718:0:0:0:0:
448,192,288618,1,0,0:0:0:0:
320,192,288718,1,0,0:0:0:0:
192,192,288818,1,0,0:0:0:0:
64,192,288818,1,0,0:0:0:0:
64,192,288918,128,0,289118:0:0:0:0:
448,192,288918,128,2,289118:0:0:0:0:
320,192,288918,1,0,0:0:0:0:
192,192,289118,1,0,0:0:0:0:
320,192,289218,1,0,0:0:0:0:
448,192,289318,1,8,0:0:0:0:
64,192,289318,1,0,0:0:0:0:
192,192,289418,1,8,0:0:0:0:
320,192,289518,1,0,0:0:0:0:
192,192,289618,1,0,0:0:0:0:
448,192,289718,1,0,0:0:0:0:
64,192,289718,128,0,289818:0:0:0:0:
320,192,289718,128,2,289818:0:0:0:0:
448,192,289918,1,0,0:0:0:0:
320,192,290018,1,0,0:0:0:0:
192,192,290118,128,0,290218:0:0:0:0:
448,192,290118,128,2,290218:0:0:0:0:
64,192,290118,1,0,0:0:0:0:
320,192,290218,1,0,0:0:0:0:
448,192,290318,1,0,0:0:0:0:
192,192,290418,1,0,0:0:0:0:
64,192,290518,128,0,290618:0:0:0:0:
320,192,290518,128,2,290618:0:0:0:0:
448,192,290518,1,0,0:0:0:0:
192,192,290618,1,0,0:0:0:0:
448,192,290718,1,0,0:0:0:0:
320,192,290818,1,0,0:0:0:0:
448,192,290918,128,0,291018:0:0:0:0:
192,192,290918,128,2,291018:0:0:0:0:
64,192,290918,1,0,0:0:0:0:
320,192,291018,1,0,0:0:0:0:
64,192,291118,1,0,0:0:0:0:
448,192,291218,1,0,0:0:0:0:
320,192,291318,128,0,291418:0:0:0:0:
192,192,291318,128,2,291418:0:0:0:0:
64,192,291318,1,0,0:0:0:0:
448,192,291418,1,0,0:0:0:0:
192,192,291518,1,0,0:0:0:0:
320,192,291618,1,0,0:0:0:0:
64,192,291718,128,0,291818:0:0:0:0:
448,192,291718,128,2,291818:0:0:0:0:
192,192,291718,1,0,0:0:0:0:
320,192,291818,1,0,0:0:0:0:
448,192,291918,1,0,0:0:0:0:
64,192,292018,1,0,0:0:0:0:
192,192,292118,128,0,292218:0:0:0:0:
320,192,292118,128,2,292218:0:0:0:0:
448,192,292118,1,0,0:0:0:0:
64,192,292218,1,0,0:0:0:0:
320,192,292318,1,0,0:0:0:0:
192,192,292418,1,0,0:0:0:0:
448,192,292518,128,0,292618:0:0:0:0:
64,192,292518,128,2,292618:0:0:0:0:
320,192,292518,1,0,0:0:0:0:
192,192,292618,1,0,0:0:0:0:
320,192,292718,1,0,0:0:0:0:
192,192,292818,1,0,0:0:0:0:
64,192,292918,1,0,0:0:0:0:
320,192,292918,1,2,0:0:0:0:
448,192,292984,1,0,0:0:0:0:
192,192,293051,1,0,0:0:0:0:
320,192,293118,1,0,0:0:0:0:
448,192,293184,1,0,0:0:0:0:
192,192,293251,1,0,0:0:0:0:
64,192,293318,1,0,0:0:0:0:
448,192,293318,1,2,0:0:0:0:
320,192,293384,1,0,0:0:0:0:
192,192,293451,1,0,0:0:0:0:
64,192,293518,1,0,0:0:0:0:
320,192,293584,1,0,0:0:0:0:
448,192,293651,1,0,0:0:0:0:
192,192,293718,1,2,0:0:0:0:
64,192,293718,1,0,0:0:0:0:
320,192,293784,1,0,0:0:0:0:
448,192,293851,1,0,0:0:0:0:
192,192,293918,1,0,0:0:0:0:
64,192,293918,1,0,0:0:0:0:
320,192,294018,1,0,0:0:0:0:
448,192,294018,1,0,0:0:0:0:
192,192,294118,1,2,0:0:0:0:
64,192,294118,1,0,0:0:0:0:
320,192,294218,1,0,0:0:0:0:
192,192,294318,1,0,0:0:0:0:
320,192,294418,1,0,0:0:0:0:
448,192,294518,128,2,294618:0:0:0:0:
192,192,294518,128,0,294618:0:0:0:0:
64,192,294518,1,0,0:0:0:0:
320,192,294618,1,0,0:0:0:0:
448,192,294718,1,0,0:0:0:0:
192,192,294818,1,0,0:0:0:0:
64,192,294918,128,0,295118:0:0:0:0:
320,192,294918,128,2,295118:0:0:0:0:
448,192,294918,1,0,0:0:0:0:
192,192,295118,128,0,295318:0:0:0:0:
320,192,295218,128,0,295318:0:0:0:0:
448,192,295318,128,2,295718:0:0:0:0:
64,192,295418,1,0,0:0:0:0:
320,192,295518,1,0,0:0:0:0:
64,192,295618,1,0,0:0:0:0:
192,192,295718,1,2,0:0:0:0:
320,192,295718,128,0,295918:0:0:0:0:
64,192,295918,1,0,0:0:0:0:
320,192,296018,1,0,0:0:0:0:
192,192,296118,1,0,0:0:0:0:
64,192,296118,1,2,0:0:0:0:
448,192,296118,1,8,0:0:0:0:
320,192,296218,1,0,0:0:0:0:
64,192,296318,1,0,0:0:0:0:
192,192,296418,1,0,0:0:0:0:
448,192,296518,128,2,296618:0:0:0:0:
320,192,296518,1,0,0:0:0:0:
64,192,296618,1,0,0:0:0:0:
192,192,296718,1,0,0:0:0:0:
320,192,296818,1,0,0:0:0:0:
64,192,296918,128,2,297018:0:0:0:0:
192,192,296918,1,0,0:0:0:0:
448,192,297018,1,0,0:0:0:0:
320,192,297118,1,0,0:0:0:0:
192,192,297218,1,0,0:0:0:0:
448,192,297318,128,2,297518:0:0:0:0:
320,192,297318,1,0,0:0:0:0:
192,192,297518,128,0,297718:0:0:0:0:
64,192,297718,1,2,0:0:0:0:
320,192,297718,128,0,297818:0:0:0:0:
448,192,297918,1,0,0:0:0:0:
320,192,298018,1,0,0:0:0:0:
192,192,298118,128,0,298218:0:0:0:0:
64,192,298118,1,2,0:0:0:0:
320,192,298218,1,0,0:0:0:0:
448,192,298318,1,0,0:0:0:0:
64,192,298418,1,0,0:0:0:0:
320,192,298518,128,2,298618:0:0:0:0:
192,192,298518,1,0,0:0:0:0:
448,192,298618,1,0,0:0:0:0:
192,192,298718,1,0,0:0:0:0:
64,192,298718,1,0,0:0:0:0:
320,192,298818,1,0,0:0:0:0:
448,192,298818,1,0,0:0:0:0:
192,192,298918,128,2,299018:0:0:0:0:
64,192,298918,1,0,0:0:0:0:
448,192,299018,1,0,0:0:0:0:
320,192,299118,1,0,0:0:0:0:
192,192,299218,1,0,0:0:0:0:
448,192,299318,1,2,0:0:0:0:
64,192,299318,128,0,299418:0:0:0:0:
192,192,299518,1,0,0:0:0:0:
320,192,299618,1,0,0:0:0:0:
64,192,299718,1,0,0:0:0:0:
448,192,299718,128,2,299818:0:0:0:0:
192,192,299818,1,0,0:0:0:0:
448,192,299918,1,0,0:0:0:0:
192,192,300018,1,0,0:0:0:0:
320,192,300118,1,0,0:0:0:0:
64,192,300118,128,2,300218:0:0:0:0:
448,192,300218,1,0,0:0:0:0:
192,192,300318,1,0,0:0:0:0:
320,192,300418,1,0,0:0:0:0:
64,192,300518,1,0,0:0:0:0:
448,192,300518,128,2,300718:0:0:0:0:
192,192,300718,128,0,300918:0:0:0:0:
64,192,300918,1,0,0:0:0:0:
320,192,300918,128,2,301018:0:0:0:0:
192,192,301118,1,0,0:0:0:0:
320,192,301218,128,0,301318:0:0:0:0:
64,192,301318,128,0,301418:0:0:0:0:
448,192,301318,1,2,0:0:0:0:
192,192,301418,1,0,0:0:0:0:
448,192,301518,1,0,0:0:0:0:
192,192,301618,1,0,0:0:0:0:
320,192,301718,128,2,301918:0:0:0:0:
64,192,301718,1,0,0:0:0:0:
448,192,301918,1,0,0:0:0:0:
64,192,302118,1,2,0:0:0:0:
192,192,302218,1,0,0:0:0:0:
320,192,302318,1,0,0:0:0:0:
192,192,302418,1,0,0:0:0:0:
64,192,302518,1,0,0:0:0:0:
320,192,302518,1,8,0:0:0:0:
448,192,302518,128,2,302618:0:0:0:0:
192,192,302718,1,0,0:0:0:0:
448,192,302818,1,0,0:0:0:0:
192,192,302918,1,0,0:0:0:0:
320,192,302918,1,2,0:0:0:0:
64,192,303018,128,0,303118:0:0:0:0:
320,192,303118,1,0,0:0:0:0:
192,192,303218,1,0,0:0:0:0:
320,192,303318,128,2,303418:0:0:0:0:
448,192,303318,1,0,0:0:0:0:
64,192,303418,1,0,0:0:0:0:
192,192,303518,1,0,0:0:0:0:
320,192,303618,1,0,0:0:0:0:
64,192,303718,128,2,303818:0:0:0:0:
448,192,303718,1,0,0:0:0:0:
320,192,303918,1,0,0:0:0:0:
192,192,304018,128,0,304118:0:0:0:0:
64,192,304118,1,4,0:0:0:0:
320,192,304118,1,8,0:0:0:0:
448,192,304118,1,2,0:0:0:0:
64,192,304318,1,0,0:0:0:0:
448,192,304318,128,0,304418:0:0:0:0:
320,192,304418,1,0,0:0:0:0:
192,192,304518,1,0,0:0:0:0:
448,192,304518,1,2,0:0:0:0:
64,192,304618,128,0,304718:0:0:0:0:
320,192,304718,1,0,0:0:0:0:
192,192,304818,1,0,0:0:0:0:
64,192,304918,1,0,0:0:0:0:
320,192,304918,1,2,0:0:0:0:
448,192,305018,1,0,0:0:0:0:
192,192,305118,1,0,0:0:0:0:
320,192,305218,1,0,0:0:0:0:
448,192,305318,1,2,0:0:0:0:
64,192,305318,1,0,0:0:0:0:
192,192,305418,1,0,0:0:0:0:
64,192,305518,1,0,0:0:0:0:
320,192,305618,1,0,0:0:0:0:
192,192,305718,1,2,0:0:0:0:
64,192,305718,1,8,0:0:0:0:
320,192,305768,1,0,0:0:0:0:
448,192,305818,1,0,0:0:0:0:
64,192,305868,1,0,0:0:0:0:
192,192,305918,1,0,0:0:0:0:
320,192,305968,1,0,0:0:0:0:
448,192,306018,1,0,0:0:0:0:
64,192,306068,1,0,0:0:0:0:
192,192,306118,1,0,0:0:0:0:
448,192,306218,1,0,0:0:0:0:
320,192,306318,1,0,0:0:0:0:
448,192,306418,1,0,0:0:0:0:
64,192,306618,1,0,0:0:0:0:
192,192,306718,1,0,0:0:0:0:
64,192,306818,1,0,0:0:0:0:
192,192,306918,128,0,307118:0:0:0:0:
320,192,307118,128,0,307318:0:0:0:0:
64,192,307318,1,0,0:0:0:0:
448,192,307318,1,2,0:0:0:0:
64,192,307518,1,0,0:0:0:0:
192,192,307518,1,2,0:0:0:0:
320,192,307718,128,2,307818:0:0:0:0:
448,192,307718,128,8,307818:0:0:0:0:
64,192,307718,128,0,307818:0:0:0:0:
192,192,307918,1,0,0:0:0:0:
320,192,308018,1,0,0:0:0:0:
192,192,308118,1,2,0:0:0:0:
64,192,308118,128,8,308318:0:0:0:0:
448,192,308118,1,0,0:0:0:0:
448,192,308218,128,0,308318:0:0:0:0:
192,192,308318,1,0,0:0:0:0:
320,192,308418,1,0,0:0:0:0:
448,192,308518,1,0,0:0:0:0:
64,192,308518,1,2,0:0:0:0:
192,192,308518,1,8,0:0:0:0:
320,192,308618,1,0,0:0:0:0:
64,192,308718,1,0,0:0:0:0:
448,192,308718,1,0,0:0:0:0:
192,192,308818,1,0,0:0:0:0:
320,192,308918,128,2,309268:0:0:0:0:
64,192,308918,128,4,309218:0:0:0:0:
448,192,308918,128,8,309318:0:0:0:0:
