osu file format v14

[General]
AudioFilename: audio.ogg
AudioLeadIn: 0
PreviewTime: 89818
Countdown: 0
SampleSet: Drum
StackLeniency: 0.7
Mode: 2
LetterboxInBreaks: 0
WidescreenStoryboard: 0

[Editor]
Bookmarks: 21018,46618,72218,97818,110618,123418,136218,155418,179418,200218,229018,245018,264218,283418
DistanceSpacing: 1.3
BeatDivisor: 8
GridSize: 16
TimelineZoom: 4.099999

[Metadata]
Title:You're Beautiful
TitleUnicode:You're Beautiful
Artist:lapix
ArtistUnicode:lapix
Creator:Mniam
Version:GG Yummy Tammy's Mesmerizing Collaboration
Source:
Tags:osu!catch world cup cwc2023 SF Semifinals TB Tiebreaker Jieryagtama JeirYagtama GiGas 4rcher- Archer Instrumental Electronic EDM psystyle bizzare nation Massive New Krew
BeatmapID:4167727
BeatmapSetID:2004114

[Difficulty]
HPDrainRate:5.7
CircleSize:4.1
OverallDifficulty:9.7
ApproachRate:9.7
SliderMultiplier:2
SliderTickRate:2

[Events]
//Background and Video events
0,0,"GG YUMMY TAMMY_4.png",0,0
//Break Periods
//Storyboard Layer 0 (Background)
//Storyboard Layer 1 (Fail)
//Storyboard Layer 2 (Pass)
//Storyboard Layer 3 (Foreground)
//Storyboard Layer 4 (Overlay)
//Storyboard Sound Samples

[TimingPoints]
218,400,4,2,21,30,1,0
618,-100,4,2,21,40,0,0
1018,-100,4,2,21,50,0,0
1418,-66.6666666666667,4,2,22,60,0,0
1618,-30.03003003003,4,2,22,60,0,0
1818,-100,4,3,22,60,0,0
2418,-100,4,3,21,50,0,0
3218,-100,4,3,22,50,0,0
4018,-100,4,3,21,50,0,0
5018,-100,4,3,22,50,0,0
5618,-100,4,3,21,50,0,0
6418,-100,4,3,22,50,0,0
6818,-100,4,3,21,50,0,0
6918,-100,4,3,22,50,0,0
7118,-100,4,3,21,50,0,0
7218,-100,4,3,22,50,0,0
7318,-100,4,3,21,50,0,0
7418,-100,4,3,22,50,0,0
7618,-100,4,3,21,50,0,0
8018,-100,4,3,22,50,0,0
8818,-100,4,3,21,50,0,0
9618,-100,4,3,22,50,0,0
10418,-100,4,3,21,50,0,0
11018,-55.5555555555556,4,3,22,50,0,0
11418,-50,4,2,22,60,0,0
11618,-30.03003003003,4,2,22,60,0,0
11818,-21.9298245614035,4,2,22,60,0,0
12018,-100,4,2,22,60,0,0
12518,-42.7350427350427,4,2,22,60,0,0
12818,-100,4,2,22,60,0,0
13418,-30.03003003003,4,2,22,60,0,0
13618,-100,4,2,22,50,0,0
14618,-66.6666666666667,4,2,22,60,0,0
16218,-66.6666666666667,4,2,22,30,0,0
21018,-100,4,2,22,40,0,0
25818,-76.9230769230769,4,2,22,40,0,0
26618,-100,4,2,22,50,0,0
27018,-66.6666666666667,4,2,22,50,0,0
27418,-76.9230769230769,4,2,22,60,0,0
34618,-66.6666666666667,4,2,22,60,0,0
35418,-76.9230769230769,4,2,22,70,0,0
40818,-76.9230769230769,4,2,21,50,0,0
42418,-55.5555555555556,4,2,21,50,0,0
42818,-55.5555555555556,4,1,2,50,0,0
43218,-55.5555555555556,4,2,21,50,0,0
44018,-66.6666666666667,4,2,21,40,0,0
45418,-35.7142857142857,4,2,21,50,0,0
45818,-66.6666666666667,4,2,21,60,0,0
46618,-66.6666666666667,4,2,22,70,0,0
47218,-66.6666666666667,4,2,21,50,0,0
50418,-66.6666666666667,4,2,21,40,0,0
53018,-58.8235294117647,4,2,22,60,0,0
53318,-58.8235294117647,4,2,21,50,0,0
56218,-58.8235294117647,4,2,22,50,0,0
56518,-58.8235294117647,4,2,21,50,0,0
59418,-58.8235294117647,4,2,22,60,0,0
59718,-58.8235294117647,4,2,21,50,0,0
62618,-58.8235294117647,4,2,22,50,0,0
62918,-58.8235294117647,4,2,21,50,0,0
64218,-58.8235294117647,4,2,21,40,0,0
65818,-58.8235294117647,4,2,22,70,0,0
65918,-58.8235294117647,4,3,20,40,0,0
71618,-58.8235294117647,4,3,20,60,0,0
72218,-100,4,3,20,50,0,0
75018,-33.3333333333333,4,3,20,50,0,0
75418,-100,4,3,20,50,0,0
77818,-30.03003003003,4,2,22,40,0,0
78018,-21.9298245614035,4,2,22,40,0,0
78618,-33.3333333333333,4,2,22,70,0,0
78818,-100,4,2,22,60,0,0
85018,-53.1914893617021,4,2,22,70,0,0
88218,-100,4,2,22,60,0,0
89818,-100,4,1,20,90,0,0
91018,-41.6666666666667,4,1,19,90,0,0
91418,-100,4,2,22,80,0,1
93018,-25,4,2,22,80,0,1
93218,-25,4,1,2,80,0,1
93418,-25,4,2,2,80,0,1
93618,-100,4,2,22,80,0,1
94618,-25,4,2,22,80,0,1
94818,-25,4,1,2,80,0,1
95018,-25,4,2,2,80,0,1
95218,-100,4,2,22,80,0,1
96218,-25,4,2,22,80,0,1
96418,-25,4,1,2,80,0,1
96618,-25,4,2,2,80,0,1
96818,-100,4,2,22,80,0,1
97418,-50,4,2,22,80,0,1
97818,-100,4,2,22,80,0,1
99418,-25,4,2,22,80,0,1
99618,-25,4,1,2,80,0,1
99818,-25,4,2,2,80,0,1
100018,-25,4,2,22,80,0,1
100318,-66.6666666666667,4,2,22,80,0,1
101018,-28.5714285714286,4,2,22,80,0,1
101218,-28.5714285714286,4,1,2,80,0,1
101318,-28.5714285714286,4,2,22,80,0,1
101418,-100,4,2,22,80,0,1
101918,-71.4285714285714,4,2,22,80,0,1
102618,-30.3030303030303,4,2,22,80,0,1
103418,-62.5,4,2,22,80,0,1
103818,-30.3030303030303,4,2,22,80,0,1
104218,-71.4285714285714,4,2,22,80,0,1
105818,-31.25,4,2,22,80,0,1
106018,-31.25,4,1,2,80,0,1
106118,-31.25,4,2,22,80,0,1
106418,-31.25,4,1,2,80,0,1
106518,-31.25,4,2,22,80,0,1
106718,-71.4285714285714,4,2,22,80,0,1
107218,-71.4285714285714,4,1,2,80,0,1
107318,-71.4285714285714,4,2,22,80,0,1
107418,-30.3030303030303,4,2,22,80,0,1
107618,-30.3030303030303,4,1,2,80,0,1
107818,-30.3030303030303,4,2,22,80,0,1
108018,-71.4285714285714,4,2,22,80,0,1
109918,-31.25,4,2,22,80,0,1
110218,-71.4285714285714,4,2,22,80,0,1
110618,-50,4,2,22,80,0,1
112218,-37.037037037037,4,2,22,80,0,1
112418,-37.037037037037,4,1,2,80,0,1
112593,-37.037037037037,4,2,22,80,0,1
112618,-38.4615384615385,4,2,22,80,0,1
113018,-71.4285714285714,4,2,22,80,0,1
116218,-71.4285714285714,4,1,20,80,0,1
116618,-71.4285714285714,4,2,21,80,0,1
117018,-71.4285714285714,4,2,22,80,0,1
121418,-35.7142857142857,4,2,22,80,0,1
122218,-71.4285714285714,4,2,22,80,0,1
123418,-31.25,4,2,22,80,0,1
123618,-31.25,4,1,2,80,0,1
123818,-31.25,4,2,2,80,0,1
124018,-31.25,4,2,22,80,0,1
125218,-31.25,4,1,2,80,0,1
125418,-31.25,4,2,2,80,0,1
125618,-31.25,4,2,22,80,0,1
126018,-31.25,4,1,2,80,0,1
126118,-31.25,4,2,22,80,0,1
126418,-31.25,4,1,2,80,0,1
126518,-31.25,4,2,22,80,0,1
126818,-31.25,4,1,2,80,0,1
127018,-31.25,4,2,2,80,0,1
127218,-31.25,4,2,22,80,0,1
127618,-31.25,4,1,2,80,0,1
127818,-31.25,4,2,2,80,0,1
128018,-31.25,4,2,22,80,0,1
128418,-31.25,4,1,2,80,0,1
128518,-31.25,4,2,22,80,0,1
129618,-31.25,4,1,2,80,0,1
129818,-66.6666666666667,4,2,22,70,0,0
130418,-56.4971751412429,4,2,22,70,0,0
132618,-66.6666666666667,4,2,22,70,0,0
133018,-56.4971751412429,4,2,22,70,0,0
135818,-66.6666666666667,4,2,22,70,0,0
141418,-32.258064516129,4,2,22,70,0,0
141818,-100,4,2,22,70,0,0
142618,-47.6190476190476,4,2,22,80,0,1
143418,-66.6666666666667,4,2,22,80,0,1
143818,-71.4285714285714,4,2,22,80,0,1
146618,-55.5555555555556,4,2,22,80,0,1
146818,-55.5555555555556,4,1,2,80,0,1
146918,-55.5555555555556,4,2,22,80,0,1
147018,-66.6666666666667,4,2,22,80,0,1
147418,-47.6190476190476,4,2,22,80,0,1
148218,-66.6666666666667,4,2,22,80,0,1
148743,-35.7142857142857,4,2,22,80,0,1
149018,-47.6190476190476,4,2,22,80,0,1
149818,-66.6666666666667,4,2,22,80,0,1
151593,-35.7142857142857,4,2,22,5,0,1
151618,-35.7142857142857,4,2,22,80,0,1
151793,-35.7142857142857,4,2,22,5,0,1
151818,-33.3333333333333,4,2,22,80,0,1
152618,-66.6666666666667,4,2,22,80,0,1
153818,-50,4,2,22,80,0,1
154018,-50,4,1,2,80,0,1
154118,-50,4,2,22,80,0,1
154218,-66.6666666666667,4,2,22,80,0,1
155418,-30.03003003003,4,2,22,80,0,1
155618,-53.1914893617021,4,2,22,80,0,1
162018,-53.1914893617021,4,1,2,80,0,1
162118,-53.1914893617021,4,2,22,80,0,1
165018,-30.03003003003,4,2,22,80,0,1
165218,-30.03003003003,4,1,2,80,0,1
165418,-30.03003003003,4,2,2,80,0,1
165618,-53.1914893617021,4,2,22,80,0,1
168218,-53.1914893617021,4,2,22,80,0,0
168618,-53.1914893617021,4,2,21,50,0,0
170018,-50,4,2,21,50,0,0
170218,-53.1914893617021,4,2,21,50,0,0
173018,-100,4,2,21,60,0,0
174218,-21.9298245614035,4,2,22,70,0,0
174418,-30.03003003003,4,2,21,70,0,0
174618,-100,4,2,21,60,0,0
179418,-66.6666666666667,4,1,20,50,0,0
181018,-66.6666666666667,4,2,20,80,0,0
192218,-31.25,4,2,20,80,0,0
193018,-66.6666666666667,4,2,20,80,0,0
200218,-81.3008130081301,4,2,20,60,0,0
200318,-81.3008130081301,4,2,20,40,0,0
201418,-64.5161290322581,4,2,20,40,0,0
201818,-81.3008130081301,4,2,20,50,0,0
203018,-64.5161290322581,4,2,20,50,0,0
203418,-81.3008130081301,4,2,20,60,0,0
204618,-64.5161290322581,4,2,20,60,0,0
205018,-81.3008130081301,4,2,20,70,0,0
206618,-74.0740740740741,4,2,22,80,0,0
206918,-74.0740740740741,4,2,22,70,0,0
207218,-74.0740740740741,4,2,22,60,0,0
207518,-74.0740740740741,4,2,22,50,0,0
207818,-74.0740740740741,4,2,22,40,0,0
208218,-100,4,2,22,40,0,0
217818,-66.6666666666667,4,2,22,50,0,0
219418,-100,4,2,22,60,0,0
219518,-100,4,2,22,40,0,0
225818,-100,4,2,22,50,0,0
229018,-76.9230769230769,4,2,22,60,0,0
232218,-76.9230769230769,4,2,22,70,0,0
232318,-76.9230769230769,4,3,20,50,0,0
237418,-35.7142857142857,4,3,20,50,0,0
238018,-35.7142857142857,4,3,20,70,0,0
238618,-35.7142857142857,4,3,20,60,0,0
239818,-66.6666666666667,4,3,20,60,0,0
241418,-33.3333333333333,4,3,20,60,0,0
241818,-66.6666666666667,4,3,20,60,0,0
243018,-83.3333333333333,4,3,20,60,0,0
243418,-66.6666666666667,4,3,20,60,0,0
244218,-30.03003003003,4,2,22,60,0,0
244418,-21.9298245614035,4,2,22,60,0,0
245018,-66.6666666666667,4,2,22,70,0,0
251418,-66.6666666666667,4,2,22,80,0,0
254618,-66.6666666666667,4,2,22,70,0,0
256218,-66.6666666666667,4,1,20,100,0,0
257418,-31.25,4,1,19,100,0,0
257818,-66.6666666666667,4,2,22,90,0,1
264018,-33.3333333333333,4,2,22,90,0,1
264218,-53.1914893617021,4,2,22,90,0,1
270218,-33.3333333333333,4,2,22,90,0,1
270618,-53.1914893617021,4,2,22,90,0,1
282618,-53.1914893617021,4,1,20,90,0,1
283018,-33.3333333333333,4,2,21,90,0,1
283418,-76.9230769230769,4,2,22,70,0,0
283618,-76.9230769230769,4,1,2,70,0,0
283718,-76.9230769230769,4,2,22,70,0,0
285218,-76.9230769230769,4,1,2,70,0,0
285318,-76.9230769230769,4,2,22,70,0,0
286018,-76.9230769230769,4,1,20,70,0,0
286218,-62.5,4,1,20,70,0,0
286318,-62.5,4,2,22,70,0,0
286618,-76.9230769230769,4,2,22,70,0,0
286818,-76.9230769230769,4,1,2,70,0,0
286918,-76.9230769230769,4,2,22,70,0,0
290018,-76.9230769230769,4,1,2,70,0,0
290118,-76.9230769230769,4,2,22,70,0,0
294843,-33.3333333333333,4,2,22,70,0,0
295218,-76.9230769230769,4,2,22,70,0,0
296418,-76.9230769230769,4,1,2,70,0,0
296518,-76.9230769230769,4,2,22,70,0,0
297018,-76.9230769230769,4,2,22,60,0,0
298018,-76.9230769230769,4,1,2,60,0,0
298118,-76.9230769230769,4,2,22,60,0,0
298818,-76.9230769230769,4,1,20,60,0,0
299118,-76.9230769230769,4,2,22,60,0,0
299618,-76.9230769230769,4,1,2,60,0,0
299718,-76.9230769230769,4,2,22,60,0,0
300418,-76.9230769230769,4,1,2,60,0,0
300518,-76.9230769230769,4,2,22,60,0,0
301818,-33.3333333333333,4,2,22,60,0,0
302018,-33.3333333333333,4,1,2,60,0,0
302218,-33.3333333333333,4,2,2,60,0,0
302418,-33.3333333333333,4,1,2,60,0,0
302518,-33.3333333333333,4,2,22,60,0,0
302618,-76.9230769230769,4,2,22,60,0,0
305818,-76.9230769230769,4,2,22,70,0,0
307418,-76.9230769230769,4,2,22,50,0,0
308218,-76.9230769230769,4,1,20,60,0,0
308618,-76.9230769230769,4,2,22,70,0,0
309018,-76.9230769230769,4,1,19,80,0,0
312218,-76.9230769230769,4,1,19,40,0,0

[Colours]
Combo1 : 255,193,9
Combo2 : 223,255,0
Combo3 : 255,236,6
Combo4 : 192,192,192

[HitObjects]
175,281,218,6,0,L|172:202,1,75,2|0,0:0|0:0,0:0:0:0:
266,191,418,2,0,L|269:112,1,75,2|0,0:0|0:0,0:0:0:0:
94,96,618,2,0,L|15:93,1,75,2|0,0:0|0:0,0:0:0:0:
113,183,818,2,0,L|116:104,1,75,2|0,0:0|0:0,0:0:0:0:
210,60,1018,2,0,L|289:63,1,75,2|0,0:0|0:0,0:0:0:0:
191,111,1218,2,0,L|270:114,1,75,2|0,0:0|0:0,0:0:0:0:
91,215,1418,6,0,L|14:213,1,75.0000028610231,2|0,0:3|0:0,0:0:0:0:
238,192,1618,2,0,B|323:165|399:200|399:200|361:199|317:226,1,249.750006097412,6|0,0:0|0:0,0:0:0:0:
141,280,1818,5,6,1:3:0:0:
71,277,1918,1,2,0:0:0:0:
141,280,2018,1,2,0:0:0:0:
71,277,2118,1,2,0:0:0:0:
141,280,2218,1,10,0:0:0:0:
321,213,2418,5,2,0:0:0:0:
201,204,2518,1,2,0:0:0:0:
321,213,2618,1,2,0:0:0:0:
201,204,2718,1,2,0:0:0:0:
321,213,2818,1,2,0:0:0:0:
401,321,3018,1,10,0:0:0:0:
221,315,3218,1,2,0:0:0:0:
401,321,3418,5,2,0:0:0:0:
471,318,3518,1,2,0:0:0:0:
401,321,3618,1,2,0:0:0:0:
471,318,3718,1,2,0:0:0:0:
401,321,3818,1,10,0:0:0:0:
221,213,4018,5,2,0:0:0:0:
341,204,4118,1,2,0:0:0:0:
221,213,4218,1,2,0:0:0:0:
341,204,4318,1,2,0:0:0:0:
221,213,4418,1,2,0:0:0:0:
41,258,4618,2,0,B|15:208|15:208|107:187,1,150,10|0,0:0|0:0,0:0:0:0:
371,280,5018,5,2,2:3:0:0:
441,277,5118,1,2,0:0:0:0:
371,280,5218,1,2,0:0:0:0:
441,277,5318,1,2,0:0:0:0:
371,280,5418,1,10,0:0:0:0:
191,213,5618,5,2,0:0:0:0:
311,204,5718,1,2,0:0:0:0:
191,213,5818,1,2,0:0:0:0:
311,204,5918,1,2,0:0:0:0:
191,213,6018,1,2,0:0:0:0:
111,321,6218,1,10,0:0:0:0:
291,315,6418,1,2,0:0:0:0:
111,321,6618,5,2,0:0:0:0:
41,318,6718,1,2,0:0:0:0:
166,275,6818,1,2,0:0:0:0:
96,272,6918,1,2,0:0:0:0:
166,275,7018,1,10,0:0:0:0:
291,227,7118,1,2,0:0:0:0:
221,222,7218,5,2,0:0:0:0:
341,177,7318,1,2,0:0:0:0:
346,105,7418,1,2,0:0:0:0:
146,220,7618,1,2,0:0:0:0:
346,105,7818,2,0,B|351:211,1,100,10|2,0:0|0:0,0:0:0:0:
51,327,8218,5,2,2:3:0:0:
121,324,8318,1,2,0:0:0:0:
51,327,8418,1,2,0:0:0:0:
121,324,8518,1,2,0:0:0:0:
51,327,8618,1,10,0:0:0:0:
231,203,8818,5,2,0:0:0:0:
111,194,8918,1,2,0:0:0:0:
231,203,9018,1,2,0:0:0:0:
111,194,9118,1,2,0:0:0:0:
231,203,9218,1,2,0:0:0:0:
51,209,9418,1,10,0:0:0:0:
231,203,9618,1,2,0:0:0:0:
411,287,9818,5,2,0:0:0:0:
341,284,9918,1,2,0:0:0:0:
411,287,10018,1,2,0:0:0:0:
341,284,10118,1,2,0:0:0:0:
411,287,10218,1,10,0:0:0:0:
231,193,10418,5,2,0:0:0:0:
351,184,10518,1,2,0:0:0:0:
231,193,10618,1,2,0:0:0:0:
351,184,10718,1,2,0:0:0:0:
231,193,10818,1,2,0:0:0:0:
411,186,11018,2,0,B|446:122|446:122|416:222|416:222|324:242,1,269.999991760254,10|0,0:0|0:0,0:0:0:0:
25,253,11418,6,0,P|63:204|178:169,1,175,6|0,1:0|0:0,0:0:0:0:
197,168,11618,2,0,L|488:172,1,291.375007113648,2|0,0:3|0:0,0:0:0:0:
459,170,11818,2,0,L|28:167,1,398.999995129395,2|0,0:3|0:0,0:0:0:0:
24,168,12018,1,6,1:0:0:0:
357,255,12218,5,6,1:0:0:0:
362,233,12243,1,0,0:0:0:0:
287,186,12318,1,2,2:3:0:0:
282,164,12343,1,0,0:0:0:0:
192,116,12418,1,2,2:3:0:0:
172,115,12443,1,0,0:0:0:0:
334,114,12518,2,0,B|494:114|494:114|421:88,1,234.000000892639,6|2,1:0|2:3,0:0:0:0:
172,68,12818,1,6,1:0:0:0:
277,107,13018,5,2,0:3:0:0:
282,164,13118,1,2,0:3:0:0:
29,227,13418,2,0,L|405:225,1,333.000008129883,6|2,1:0|0:1,0:0:0:0:
433,225,13718,1,2,0:1:0:0:
363,225,13818,1,2,0:1:0:0:
463,223,14018,1,2,0:1:0:0:
283,88,14218,1,2,0:1:0:0:
83,85,14418,1,2,0:1:0:0:
383,157,14618,6,0,B|465:156|552:257|474:366|381:381|381:381|250:397|217:216|217:216|191:42|384:-12,1,900.000034332277,6|2,1:2|2:3,0:0:0:0:
366,215,16218,5,2,2:3:0:0:
309,214,16518,1,2,2:3:0:0:
141,209,16818,1,2,2:3:0:0:
85,211,17118,1,2,2:3:0:0:
366,132,17418,1,2,2:3:0:0:
366,132,17818,5,2,2:3:0:0:
309,131,18118,1,2,2:3:0:0:
477,234,18418,1,2,2:3:0:0:
421,236,18718,1,2,2:3:0:0:
158,210,19018,1,2,2:3:0:0:
158,210,19418,6,0,P|185:168|295:139,1,150.000005722046,2|0,2:3|2:0,0:0:0:0:
332,141,19718,2,0,B|218:101|297:39|148:2,2,225.000008583069,2|2|2,2:3|2:3|2:3,0:0:0:0:
51,198,20618,1,2,2:3:0:0:
314,192,21018,5,2,2:0:0:0:
137,182,21218,1,0,2:0:0:0:
136,119,21318,1,2,2:0:0:0:
221,116,21618,1,2,2:0:0:0:
48,118,21818,1,0,2:0:0:0:
160,119,22018,1,0,2:0:0:0:
160,119,22218,1,2,2:0:0:0:
48,118,22418,1,0,2:0:0:0:
228,214,22618,5,2,2:0:0:0:
127,212,22818,1,0,2:0:0:0:
187,212,22918,1,2,2:0:0:0:
59,216,23218,1,2,2:0:0:0:
240,192,23418,2,0,P|164:119|59:118,1,200,0|2,2:0|2:0,0:0:0:0:
73,113,24018,1,0,2:0:0:0:
258,207,24218,5,2,2:0:0:0:
143,260,24418,1,0,2:0:0:0:
168,199,24518,1,2,2:0:0:0:
225,177,24618,1,0,2:0:0:0:
325,65,24818,1,2,2:0:0:0:
144,180,25018,1,0,2:0:0:0:
140,128,25118,1,2,2:0:0:0:
136,70,25218,1,0,2:0:0:0:
322,86,25418,1,2,2:0:0:0:
136,70,25618,1,0,2:0:0:0:
403,131,25818,6,0,P|346:165|264:174,1,129.999994049073,2|0,2:0|2:0,0:0:0:0:
179,51,26118,2,0,L|363:133,1,194.999991073609,2|2,2:0|2:0,0:0:0:0:
176,140,26618,1,0,2:0:0:0:
76,136,26818,1,0,2:0:0:0:
235,183,27018,2,0,L|60:16,1,225.000008583069,2|0,2:0|0:0,0:0:0:0:
271,56,27418,6,0,L|404:59,1,129.999994049073,6|0,2:0|2:0,0:0:0:0:
288,79,27718,2,0,P|286:131|411:172,1,194.999991073609,2|2,2:0|2:0,0:0:0:0:
229,186,28218,1,2,2:0:0:0:
340,186,28418,1,0,2:0:0:0:
229,186,28618,1,2,2:0:0:0:
154,184,28818,1,0,0:0:0:0:
473,170,29018,5,2,2:0:0:0:
372,165,29218,1,0,2:0:0:0:
411,165,29318,1,2,2:0:0:0:
411,165,29618,1,2,2:0:0:0:
207,205,29818,2,0,L|180:63,1,129.999994049073,2|2,2:0|2:0,0:0:0:0:
476,81,30218,1,2,2:0:0:0:
476,81,30418,1,0,0:0:0:0:
476,81,30518,1,0,0:0:0:0:
292,90,30618,6,0,L|160:127,1,129.999994049073,2|0,2:0|2:0,0:0:0:0:
291,184,30918,2,0,P|367:178|421:59,1,194.999991073609,2|2,2:0|2:0,0:0:0:0:
204,66,31418,2,0,L|355:63,1,129.999994049073,2|2,2:0|2:0,0:0:0:0:
46,238,31818,2,0,L|40:40,1,194.999991073609,2|0,2:0|0:0,0:0:0:0:
214,188,32218,6,0,L|221:39,1,129.999994049073,2|0,2:0|2:0,0:0:0:0:
50,67,32518,2,0,P|80:107|245:102,1,194.999991073609,2|2,2:0|2:0,0:0:0:0:
17,136,33018,1,0,2:0:0:0:
42,96,33118,1,2,2:0:0:0:
240,100,33318,1,0,2:0:0:0:
265,60,33418,1,2,2:0:0:0:
138,52,33618,1,0,0:0:0:0:
455,187,33818,6,0,L|428:47,1,129.999994049073,2|0,2:0|2:0,0:0:0:0:
261,130,34118,2,0,P|264:56|361:-16,1,194.999991073609,2|2,2:0|2:0,0:0:0:0:
177,59,34618,2,0,L|302:142,3,150.000005722046,2|0|2|0,2:0|2:0|2:0|0:0,0:0:0:0:
37,185,35418,6,0,L|64:45,1,129.999994049073,2|0,2:0|2:0,0:0:0:0:
235,131,35718,2,0,P|160:132|97:18,1,194.999991073609,2|2,2:0|2:0,0:0:0:0:
146,38,36118,1,0,2:0:0:0:
198,35,36218,1,2,2:0:0:0:
256,34,36318,1,0,2:0:0:0:
146,38,36518,1,0,2:0:0:0:
328,78,36618,1,2,2:0:0:0:
133,89,36818,1,0,0:0:0:0:
390,197,37018,6,0,L|395:60,1,129.999994049073,2|0,2:0|2:0,0:0:0:0:
197,61,37318,2,0,L|387:153,1,194.999991073609,2|2,2:0|2:0,0:0:0:0:
196,119,37818,1,2,2:0:0:0:
314,117,38018,1,2,2:0:0:0:
27,169,38218,2,0,L|54:20,1,129.999994049073,2|0,2:0|0:0,0:0:0:0:
231,44,38518,1,0,0:0:0:0:
431,44,38618,6,0,P|445:133|314:171,1,194.999991073609,2|0,1:0|0:0,0:0:0:0:
230,187,39218,1,0,0:0:0:0:
443,333,39418,2,0,B|494:255|494:255|194:39,1,454.999979171754
418,173,40218,5,6,1:0:0:0:
160,179,40818,2,0,L|243:179,2,64.9999970245363,2|2|2,0:0|0:0|0:0,0:0:0:0:
312,179,41218,1,2,0:0:0:0:
115,133,41418,1,2,0:0:0:0:
266,130,41618,2,0,L|170:122,1,64.9999970245363,2|2,0:0|0:0,0:0:0:0:
387,171,41818,2,0,L|469:173,2,64.9999970245363,2|2|2,0:0|0:0|0:0,0:0:0:0:
221,186,42118,2,0,L|76:189,1,129.999994049073,2|0,1:2|0:0,0:0:0:0:
366,297,42418,2,0,B|367:172|367:172|153:69|153:69|331:70|331:70|134:66,1,719.999978027344,2|2,0:0|0:0,0:0:0:0:
462,227,43418,6,0,P|465:189|220:79,1,359.999989013672,2|0,1:2|0:0,0:0:0:0:
396,79,44018,2,0,L|312:74,1,75.0000028610231,2|2,0:0|0:0,0:0:0:0:
118,95,44218,2,0,L|279:96,1,150.000005722046,2|2,0:0|0:0,0:0:0:0:
44,59,44618,2,0,L|193:57,1,150.000005722046,2|2,0:0|0:0,0:0:0:0:
137,56,44918,1,2,0:0:0:0:
326,141,45018,1,2,0:0:0:0:
410,141,45118,1,2,0:0:0:0:
341,122,45218,1,2,0:0:0:0:
406,117,45318,1,2,0:0:0:0:
156,114,45418,6,0,L|457:117,1,279.999991455078,2|2,1:2|0:0,0:0:0:0:
58,162,45818,2,0,L|78:205,2,37.5000014305115,2|0|0,0:0|0:0|0:0,0:0:0:0:
350,168,46018,2,0,L|384:204,2,37.5000014305115,2|0|0,0:0|0:0|0:0,0:0:0:0:
120,148,46218,2,0,L|114:65,1,75.0000028610231,2|0,1:2|1:2,0:0:0:0:
372,68,46418,2,0,L|471:63,1,75.0000028610231,2|0,1:2|1:0,0:0:0:0:
77,16,46618,6,0,P|199:41|266:332,1,450.000017166138,6|2,1:0|0:0,0:0:0:0:
179,319,47318,1,2,0:0:0:0:
279,317,47418,2,0,P|337:287|354:191,1,150.000005722046,2|2,0:0|0:0,0:0:0:0:
175,200,47818,2,0,P|130:160|185:96,1,150.000005722046,2|2,0:0|0:0,0:0:0:0:
247,97,48118,1,2,0:0:0:0:
322,97,48218,1,2,0:0:0:0:
247,97,48318,1,2,0:0:0:0:
172,96,48418,1,2,0:0:0:0:
401,239,48518,6,0,P|443:165|394:137,1,150.000005722046,2|0,1:2|0:0,0:0:0:0:
184,236,48818,2,0,P|275:194|169:78,1,300.000011444092,2|2,0:0|0:0,0:0:0:0:
76,75,49318,1,0,0:0:0:0:
181,74,49418,1,2,0:0:0:0:
99,74,49518,1,0,0:0:0:0:
175,74,49618,1,2,0:0:0:0:
104,74,49718,1,0,0:0:0:0:
394,195,49818,6,0,B|256:192|256:192|256:29,1,300.000011444092,2|0,1:2|0:0,0:0:0:0:
256,30,50418,1,2,0:0:0:0:
355,30,50518,1,2,0:0:0:0:
256,30,50618,1,2,0:0:0:0:
420,28,50818,1,2,0:0:0:0:
256,30,51018,1,2,0:0:0:0:
401,160,51218,2,0,L|311:119,1,75.0000028610231,2|2,0:0|0:0,0:0:0:0:
493,123,51418,5,2,0:0:0:0:
332,128,51518,2,0,L|230:127,2,75.0000028610231,2|2|2,0:0|0:0|0:0,0:0:0:0:
124,143,51818,2,0,L|24:143,1,75.0000028610231,2|2,1:2|0:0,0:0:0:0:
124,143,52018,2,0,B|276:141|276:141|202:209,1,225.000008583069,2|0,0:0|0:0,0:0:0:0:
24,187,52418,5,2,0:0:0:0:
63,188,52468,1,0,0:0:0:0:
222,190,52618,1,2,0:0:0:0:
183,191,52668,1,0,0:0:0:0:
24,187,52818,1,2,1:2:0:0:
63,188,52868,1,0,0:0:0:0:
371,194,53018,6,0,L|153:195,1,170.000003242493,6|0,1:0|0:0,0:0:0:0:
298,196,53318,1,8,0:1:0:0:
114,194,53418,1,8,1:2:0:0:
114,194,53618,5,10,0:1:0:0:
191,195,53718,1,2,0:0:0:0:
407,198,53818,2,0,P|465:164|396:109,1,170.000003242493,10|2,1:2|0:0,0:0:0:0:
325,103,54118,1,8,0:1:0:0:
142,103,54218,2,0,L|355:99,1,170.000003242493,10|10,1:2|0:1,0:0:0:0:
394,100,54518,1,0,0:0:0:0:
215,219,54618,6,0,L|128:140,2,85.0000016212464,10|2|2,1:2|0:0|0:0,0:0:0:0:
385,217,54918,2,0,L|151:221,1,170.000003242493,10|0,0:1|0:0,0:0:0:0:
414,294,55218,2,0,P|492:266|389:197,1,255.000004863739,10|0,0:1|0:0,0:0:0:0:
212,185,55618,1,2,0:0:0:0:
295,186,55718,1,8,0:1:0:0:
120,168,55818,1,10,1:2:0:0:
36,172,55918,1,0,0:0:0:0:
212,185,56018,1,10,0:1:0:0:
314,186,56118,1,0,0:0:0:0:
120,168,56218,6,0,L|347:168,1,170.000003242493,2|0,1:2|0:0,0:0:0:0:
381,166,56518,1,8,0:1:0:0:
187,263,56618,1,8,1:2:0:0:
187,263,56818,5,10,0:1:0:0:
272,263,56918,1,2,0:0:0:0:
79,265,57018,2,0,P|15:227|102:107,1,255.000004863739,10|8,1:2|0:1,0:0:0:0:
252,109,57418,2,0,L|106:216,1,170.000003242493,10|10,1:2|0:1,0:0:0:0:
197,214,57718,1,2,0:0:0:0:
357,213,57818,6,0,L|457:157,3,85.0000016212464,10|2|2|10,1:2|0:0|0:0|0:1,0:0:0:0:
272,154,58218,2,0,L|196:98,1,85.0000016212464,10|0,1:2|0:0,0:0:0:0:
369,98,58418,2,0,L|445:42,1,85.0000016212464,10|0,0:1|0:0,0:0:0:0:
192,47,58618,1,8,1:2:0:0:
192,47,58818,1,2,1:2:0:0:
242,49,58868,1,0,0:0:0:0:
292,49,58918,1,0,1:0:0:0:
121,154,59018,2,0,L|33:218,1,85.0000016212464,10|0,0:1|1:0,0:0:0:0:
221,197,59218,2,0,L|309:261,1,85.0000016212464,10|0,1:2|1:0,0:0:0:0:
27,261,59418,6,0,P|14:193|161:99,1,255.000004863739,6|8,1:0|0:1,0:0:0:0:
315,98,59818,1,8,1:2:0:0:
315,98,60018,6,0,L|207:99,1,85.0000016212464,10|2,0:1|0:0,0:0:0:0:
445,99,60218,2,0,P|505:132|439:187,1,170.000003242493,8|2,1:2|0:0,0:0:0:0:
362,181,60518,1,8,0:1:0:0:
202,180,60618,2,0,L|377:130,1,170.000003242493,10|10,1:2|0:1,0:0:0:0:
442,119,60918,1,2,0:0:0:0:
261,138,61018,6,0,L|348:59,2,85.0000016212464,10|2|2,1:2|0:0|0:0,0:0:0:0:
79,189,61318,2,0,P|27:152|104:92,1,170.000003242493,10|0,0:1|0:0,0:0:0:0:
248,81,61618,2,0,L|-1:198,1,255.000004863739,10|0,0:1|0:0,0:0:0:0:
196,205,62018,2,0,L|127:128,1,85.0000016212464,2|8,0:0|0:1,0:0:0:0:
299,124,62218,2,0,L|299:27,1,85.0000016212464,10|0,1:2|0:0,0:0:0:0:
462,37,62418,2,0,L|462:122,1,85.0000016212464,10|0,0:1|0:0,0:0:0:0:
257,263,62618,6,0,B|256:92|256:92|361:91,1,255.000004863739,2|8,1:2|0:1,0:0:0:0:
164,91,63018,1,8,1:2:0:0:
164,91,63218,6,0,L|272:88,1,85.0000016212464,8|0,0:1|0:0,0:0:0:0:
50,209,63418,2,0,L|223:155,1,170.000003242493,10|2,1:2|0:0,0:0:0:0:
136,153,63718,1,8,0:1:0:0:
321,211,63818,2,0,P|381:192|329:129,1,170.000003242493,10|10,1:2|0:1,0:0:0:0:
248,130,64118,1,0,0:0:0:0:
87,135,64218,6,0,L|-13:79,3,85.0000016212464,2|2|2|2,1:2|1:2|1:2|1:2,0:0:0:0:
189,116,64618,2,0,L|277:66,1,85.0000016212464,2|0,1:2|0:0,0:0:0:0:
429,60,64818,2,0,P|487:94|418:252,1,255.000004863739,2|8,1:2|1:0,0:0:0:0:
256,226,65218,5,0,0:0:0:0:
256,226,65318,1,0,1:0:0:0:
160,178,65418,1,10,1:0:0:0:
250,179,65518,1,0,1:0:0:0:
344,179,65618,1,2,1:2:0:0:
297,178,65668,1,0,1:0:0:0:
250,179,65718,1,0,1:0:0:0:
356,179,65768,1,0,1:0:0:0:
463,182,65818,5,6,1:0:0:0:
392,181,65918,1,0,0:0:0:0:
459,115,66018,1,0,0:0:0:0:
395,114,66118,1,0,0:0:0:0:
462,51,66218,1,8,3:0:0:0:
453,246,66418,5,2,0:0:0:0:
337,244,66518,1,2,0:0:0:0:
456,179,66618,1,10,3:0:0:0:
340,177,66718,1,2,0:0:0:0:
459,115,66818,1,2,0:0:0:0:
256,194,67018,2,0,L|258:21,1,170.000003242493,10|2,3:0|0:0,0:0:0:0:
56,182,67418,5,10,3:0:0:0:
126,182,67518,1,2,0:0:0:0:
53,115,67618,1,2,0:0:0:0:
123,115,67718,1,2,0:0:0:0:
50,51,67818,1,10,3:0:0:0:
59,246,68018,5,2,0:0:0:0:
175,243,68118,1,2,0:0:0:0:
56,179,68218,1,10,3:0:0:0:
172,176,68318,1,2,0:0:0:0:
53,115,68418,1,2,0:0:0:0:
378,184,68618,2,0,L|187:185,1,170.000003242493,10|0,3:0|0:0,0:0:0:0:
378,184,69018,5,8,3:0:0:0:
310,184,69118,1,2,0:0:0:0:
240,184,69218,1,2,0:0:0:0:
310,184,69318,1,2,0:0:0:0:
378,184,69418,1,10,3:0:0:0:
378,184,69618,5,2,0:0:0:0:
280,187,69718,1,2,0:0:0:0:
182,187,69818,1,10,3:0:0:0:
280,187,69918,1,2,0:0:0:0:
378,184,70018,1,2,0:0:0:0:
190,187,70218,2,0,L|192:14,1,170.000003242493,10|2,3:0|0:0,0:0:0:0:
19,188,70618,5,10,3:0:0:0:
86,188,70718,1,2,0:0:0:0:
157,188,70818,1,2,0:0:0:0:
86,188,70918,1,2,0:0:0:0:
19,188,71018,1,10,3:0:0:0:
19,188,71218,5,2,0:0:0:0:
129,191,71318,1,2,0:0:0:0:
19,188,71418,1,8,3:0:0:0:
19,188,71618,5,4,0:0:0:0:
129,191,71668,1,0,0:0:0:0:
157,191,71718,1,0,0:0:0:0:
157,191,71818,1,4,0:0:0:0:
267,194,71868,1,0,0:0:0:0:
295,194,71918,1,0,0:0:0:0:
295,194,72018,1,4,0:0:0:0:
405,197,72068,1,0,0:0:0:0:
433,197,72118,1,0,0:0:0:0:
233,193,72218,5,12,3:0:0:0:
163,141,72318,1,0,0:0:0:0:
163,141,72418,1,2,0:0:0:0:
93,86,72518,1,2,0:0:0:0:
163,141,72618,1,10,3:0:0:0:
163,141,72818,5,2,0:0:0:0:
283,110,72918,1,2,0:0:0:0:
283,110,73018,1,10,3:0:0:0:
403,107,73118,1,2,0:0:0:0:
283,110,73218,1,2,0:0:0:0:
98,198,73418,2,0,L|94:91,1,100,10|2,3:0|0:0,0:0:0:0:
279,192,73818,5,10,3:0:0:0:
349,140,73918,1,2,0:0:0:0:
349,140,74018,1,2,0:0:0:0:
419,85,74118,1,2,0:0:0:0:
349,140,74218,1,10,3:0:0:0:
349,140,74418,5,2,0:0:0:0:
229,109,74518,1,2,0:0:0:0:
229,109,74618,1,10,3:0:0:0:
109,106,74718,1,2,0:0:0:0:
229,109,74818,1,2,0:0:0:0:
414,190,75018,2,0,L|73:190,1,300.000011444092,10|0,3:0|0:0,0:0:0:0:
300,190,75418,5,10,3:0:0:0:
375,190,75518,1,0,0:0:0:0:
338,125,75618,1,2,0:0:0:0:
375,59,75718,1,2,0:0:0:0:
300,60,75818,1,10,3:0:0:0:
300,190,76018,5,2,0:0:0:0:
420,192,76118,1,2,0:0:0:0:
360,127,76218,1,10,3:0:0:0:
420,60,76318,1,2,0:0:0:0:
300,60,76418,1,2,0:0:0:0:
115,195,76618,2,0,L|111:90,1,100,10|0,3:0|0:0,0:0:0:0:
296,196,77018,5,10,3:0:0:0:
221,196,77118,1,2,0:0:0:0:
259,132,77218,1,2,0:0:0:0:
221,65,77318,1,2,0:0:0:0:
296,66,77418,1,10,3:0:0:0:
296,196,77618,5,2,0:0:0:0:
176,198,77718,1,2,0:0:0:0:
296,196,77818,6,0,L|5:200,1,291.375007113648,2|0,2:0|0:0,0:0:0:0:
34,198,78018,2,0,L|433:195,1,398.999995129395,2|0,0:0|0:0,0:0:0:0:
469,196,78218,5,2,0:0:0:0:
367,197,78318,1,0,0:0:0:0:
469,196,78418,1,2,0:0:0:0:
481,104,78518,1,0,0:0:0:0:
368,95,78618,6,0,L|50:94,1,300.000011444092,6|2,1:0|0:0,0:0:0:0:
43,167,78918,1,2,0:0:0:0:
218,284,79018,5,10,0:0:0:0:
288,269,79118,1,0,0:0:0:0:
318,210,79218,1,2,0:0:0:0:
288,269,79318,1,2,0:0:0:0:
88,273,79418,5,2,0:0:0:0:
58,214,79518,1,2,0:0:0:0:
88,273,79618,1,2,0:0:0:0:
158,288,79718,1,0,0:0:0:0:
358,336,79818,5,10,0:0:0:0:
428,329,79918,1,0,0:0:0:0:
418,266,80018,1,2,0:0:0:0:
348,259,80118,1,2,0:0:0:0:
148,266,80218,5,2,2:0:0:0:
78,247,80318,1,2,0:0:0:0:
148,266,80418,1,2,0:0:0:0:
158,182,80518,1,2,0:0:0:0:
358,267,80618,5,10,0:0:0:0:
428,248,80718,1,0,0:0:0:0:
358,267,80818,1,2,0:0:0:0:
348,183,80918,1,2,0:0:0:0:
148,266,81018,5,2,0:0:0:0:
78,247,81118,1,2,0:0:0:0:
148,266,81218,1,2,0:0:0:0:
78,247,81318,1,2,0:0:0:0:
278,202,81418,5,10,0:0:0:0:
348,183,81518,1,0,0:0:0:0:
278,202,81618,1,2,0:0:0:0:
348,183,81718,1,2,0:0:0:0:
148,185,81818,5,2,2:0:0:0:
203,121,81918,1,2,0:0:0:0:
285,81,82018,1,2,0:0:0:0:
395,89,82118,1,2,0:0:0:0:
195,57,82218,5,10,0:0:0:0:
305,49,82318,1,0,0:0:0:0:
388,89,82418,1,2,0:0:0:0:
443,152,82518,1,2,0:0:0:0:
243,234,82618,5,2,0:0:0:0:
343,230,82718,1,2,0:0:0:0:
443,226,82818,1,2,0:0:0:0:
343,230,82918,1,2,0:0:0:0:
143,238,83018,5,10,0:0:0:0:
243,234,83118,1,0,0:0:0:0:
143,238,83218,1,2,0:0:0:0:
43,242,83318,1,2,0:0:0:0:
243,154,83418,5,2,2:0:0:0:
143,162,83518,1,2,0:0:0:0:
243,154,83618,1,2,0:0:0:0:
253,68,83718,1,2,0:0:0:0:
53,157,83818,5,10,0:0:0:0:
153,165,83918,1,0,0:0:0:0:
53,157,84018,1,2,0:0:0:0:
43,71,84118,1,2,0:0:0:0:
243,234,84218,5,2,0:0:0:0:
143,239,84318,1,2,0:0:0:0:
243,234,84418,1,2,0:0:0:0:
143,239,84518,1,2,0:0:0:0:
343,229,84618,5,10,0:0:0:0:
243,234,84718,1,0,0:0:0:0:
343,229,84818,1,2,0:0:0:0:
243,234,84918,1,2,0:0:0:0:
484,149,85018,6,0,L|376:143,1,93.9999985656739,2|2,2:0|0:0,0:0:0:0:
202,129,85218,2,0,L|92:122,1,93.9999985656739,2|0,0:0|0:0,0:0:0:0:
298,64,85418,2,0,L|188:57,1,93.9999985656739,10|0,0:0|0:0,0:0:0:0:
19,129,85618,2,0,L|129:122,1,93.9999985656739,2|0,0:0|0:0,0:0:0:0:
303,127,85818,6,0,L|193:120,1,93.9999985656739,2|2,0:0|0:0,0:0:0:0:
399,79,86018,2,0,L|509:72,1,93.9999985656739,2|0,0:0|0:0,0:0:0:0:
303,127,86218,2,0,L|193:120,1,93.9999985656739,10|0,0:0|0:0,0:0:0:0:
19,129,86418,2,0,L|129:122,1,93.9999985656739,2|0,0:0|0:0,0:0:0:0:
303,127,86618,6,0,L|193:120,1,93.9999985656739,2|2,2:0|0:0,0:0:0:0:
399,79,86818,2,0,L|509:72,1,93.9999985656739,2|0,0:0|0:0,0:0:0:0:
303,93,87018,2,0,L|397:87,1,93.9999985656739,10|0,0:0|0:0,0:0:0:0:
206,114,87218,2,0,L|316:107,1,93.9999985656739,2|0,0:0|0:0,0:0:0:0:
88,336,87418,5,2,0:0:0:0:
47,321,87468,1,0,0:0:0:0:
22,284,87518,1,2,0:0:0:0:
16,238,87568,1,0,0:0:0:0:
29,200,87618,1,2,0:0:0:0:
61,165,87668,1,0,0:0:0:0:
106,144,87718,1,0,0:0:0:0:
161,139,87768,1,0,0:0:0:0:
311,144,87818,5,10,0:0:0:0:
374,145,87868,1,0,0:0:0:0:
422,144,87918,1,0,0:0:0:0:
374,145,87968,1,0,0:0:0:0:
311,144,88018,1,2,0:0:0:0:
374,145,88068,1,0,0:0:0:0:
422,144,88118,1,0,0:0:0:0:
374,145,88168,1,0,0:0:0:0:
216,123,88218,6,0,L|204:383,1,250,0|0,1:0|0:0,0:0:0:0:
254,121,88818,2,0,P|325:102|295:335,1,450
104,323,89818,5,8,1:0:0:0:
44,319,89918,1,0,1:0:0:0:
104,323,90018,1,0,1:0:0:0:
44,319,90118,1,0,1:0:0:0:
244,230,90218,5,8,1:0:0:0:
254,162,90318,1,0,1:0:0:0:
144,153,90418,1,0,1:0:0:0:
134,85,90518,1,0,1:0:0:0:
334,96,90618,5,8,1:0:0:0:
454,96,90718,1,8,1:0:0:0:
334,96,90818,1,0,1:0:0:0:
454,96,90918,1,8,1:0:0:0:
214,33,91018,6,0,B|150:49|150:49|110:109|145:152|112:222|112:222|144:273|106:286|126:344,1,359.999989013672,10|0,1:0|0:0,0:0:0:0:
350,341,91418,6,0,L|352:323,1,12.5,6|0,1:0|0:0,0:0:0:0:
89,338,91618,2,0,L|87:320,1,12.5,2|0,0:0|0:0,0:0:0:0:
420,267,91818,2,0,L|422:249,1,12.5,10|0,1:2|0:0,0:0:0:0:
159,212,92018,5,2,0:0:0:0:
259,205,92118,1,0,0:0:0:0:
84,219,92218,1,2,1:0:0:0:
79,144,92318,1,2,1:0:0:0:
239,133,92418,1,0,0:0:0:0:
399,122,92518,1,0,0:0:0:0:
199,317,92618,6,0,L|197:299,1,12.5,10|0,1:2|0:0,0:0:0:0:
367,317,92718,2,0,L|369:299,1,12.5
199,317,92818,2,0,L|197:299,1,12.5
329,316,92918,2,0,L|331:298,1,12.5
143,360,93018,6,0,B|183:173|322:8|322:8|141:112|49:297|49:297|466:277,1,1200,2|2,1:2|0:0,0:0:0:0:
346,262,93718,1,0,0:0:0:0:
171,250,93818,1,2,1:2:0:0:
346,198,93918,1,2,1:0:0:0:
381,147,94018,1,0,0:0:0:0:
346,198,94118,1,0,0:0:0:0:
121,181,94218,6,0,L|119:163,1,12.5,10|0,1:2|0:0,0:0:0:0:
270,174,94318,2,0,L|272:156,1,12.5
121,181,94418,2,0,L|119:163,1,12.5
191,180,94518,2,0,L|193:162,1,12.5
353,361,94618,6,0,B|313:174|174:9|174:9|355:113|447:298|447:298|49:278,1,1200,2|2,1:0|0:0,0:0:0:0:
150,265,95318,1,0,0:0:0:0:
325,250,95418,1,2,1:0:0:0:
275,194,95518,1,2,1:0:0:0:
100,184,95618,1,0,0:0:0:0:
150,141,95718,1,0,0:0:0:0:
350,89,95818,6,0,L|352:71,1,12.5,10|0,1:2|0:0,0:0:0:0:
182,89,95918,2,0,L|180:71,1,12.5
350,89,96018,2,0,L|352:71,1,12.5
220,88,96118,2,0,L|218:70,1,12.5
406,101,96218,6,0,B|209:214|34:82|34:82|246:-40|406:96|406:96|406:111|406:111|365:142|310:161|310:161|366:164|414:201|407:337|266:339,1,1200,2|2,1:0|0:0,0:0:0:0:
383,339,96918,1,0,0:0:0:0:
203,335,97018,5,2,1:0:0:0:
303,332,97118,1,2,1:0:0:0:
128,280,97218,1,0,0:0:0:0:
28,274,97318,1,0,0:0:0:0:
228,217,97418,2,0,B|308:201|308:201|236:193,1,150,10|0,1:2|0:0,0:0:0:0:
90,217,97618,2,0,B|10:201|10:201|82:193,1,150,2|0,0:0|0:0,0:0:0:0:
327,217,97818,6,0,L|304:216,1,12.5,6|0,1:0|0:0,0:0:0:0:
206,261,98018,1,2,0:0:0:0:
300,263,98118,1,0,0:0:0:0:
60,147,98218,2,0,L|29:148,1,25,10|0,1:2|0:0,0:0:0:0:
60,147,98418,5,2,0:0:0:0:
154,147,98518,1,0,0:0:0:0:
331,145,98618,1,2,1:0:0:0:
150,93,98718,2,0,L|115:91,2,25,2|0|0,1:0|0:0|0:0,0:0:0:0:
243,95,98918,1,0,0:0:0:0:
58,234,99018,6,0,L|35:233,1,12.5,10|0,1:2|0:0,0:0:0:0:
234,237,99118,2,0,L|257:236,1,12.5
174,186,99218,2,0,L|151:185,1,12.5
234,237,99318,2,0,L|257:236,1,12.5
54,85,99418,6,0,B|355:347|355:347|187:12|187:12|186:39|186:39|480:319,1,1200,2|2,1:0|0:0,0:0:0:0:
367,77,100118,1,0,0:0:0:0:
124,81,100218,5,2,1:0:0:0:
222,85,100318,1,2,1:0:0:0:
237,123,100368,1,0,0:0:0:0:
222,155,100418,1,0,0:0:0:0:
190,168,100468,1,0,0:0:0:0:
141,170,100518,1,0,0:0:0:0:
385,171,100618,5,10,1:2:0:0:
294,173,100718,1,0,0:0:0:0:
385,171,100818,1,0,0:0:0:0:
294,173,100918,1,0,0:0:0:0:
490,178,101018,6,0,B|297:338|297:338|216:273|216:273|353:86,1,525.00000500679,2|0,1:0|0:0,0:0:0:0:
158,145,101418,6,0,L|135:144,1,12.5,10|0,1:2|0:0,0:0:0:0:
158,145,101618,1,2,0:0:0:0:
257,144,101718,1,0,0:0:0:0:
451,145,101818,1,2,1:0:0:0:
368,144,101918,1,2,1:0:0:0:
335,152,101968,1,0,0:0:0:0:
319,182,102018,1,0,0:0:0:0:
332,214,102068,1,0,0:0:0:0:
364,225,102118,1,0,0:0:0:0:
485,229,102218,6,0,L|457:243,1,17.4999994659424,10|0,1:2|0:0,0:0:0:0:
331,234,102318,2,0,L|303:248,1,17.4999994659424
177,239,102418,2,0,L|149:253,1,17.4999994659424
23,244,102518,2,0,L|-5:258,1,17.4999994659424
194,317,102618,6,0,B|400:56|400:56|185:333,2,660.000006294251,2|10|10,1:0|0:2|0:2,0:0:0:0:
149,311,103468,1,0,0:0:0:0:
119,294,103518,1,0,0:0:0:0:
109,259,103568,1,0,0:0:0:0:
72,212,103618,1,2,0:3:0:0:
110,175,103668,1,0,0:0:0:0:
120,145,103718,1,0,0:0:0:0:
150,132,103768,1,0,0:0:0:0:
204,125,103818,6,0,B|481:302|481:302|370:71,1,495.000004720688,10|0,2:0|0:0,0:0:0:0:
198,66,104218,6,0,L|181:80,1,17.4999994659424,6|0,1:0|0:0,0:0:0:0:
311,81,104418,2,0,L|195:82,1,69.9999978637696,2|0,0:0|0:0,0:0:0:0:
449,77,104618,1,10,1:2:0:0:
449,77,104818,5,2,0:0:0:0:
333,78,104918,1,0,0:0:0:0:
162,81,105018,1,2,1:0:0:0:
364,154,105118,1,2,1:0:0:0:
376,122,105168,1,0,0:0:0:0:
365,89,105218,1,0,0:0:0:0:
335,72,105268,1,0,0:0:0:0:
302,79,105318,1,0,0:0:0:0:
146,219,105418,6,0,L|119:220,1,17.4999994659424,10|0,1:2|0:0,0:0:0:0:
320,222,105518,2,0,L|347:223,1,17.4999994659424
182,148,105618,2,0,L|155:149,1,17.4999994659424
237,118,105718,2,0,L|264:119,1,17.4999994659424
88,317,105818,6,0,B|257:357|394:313|394:313|451:277|321:154,1,480,2|0,1:2|0:0,0:0:0:0:
437,188,106218,2,0,B|268:228|131:184|131:184|74:148|192:22,1,480,10|0,1:2|0:0,0:0:0:0:
268,29,106618,1,2,1:2:0:0:
65,59,106718,2,0,L|0:60,2,34.9999989318848,2|0|0,1:0|0:0|0:0,0:0:0:0:
164,55,106918,1,0,0:0:0:0:
352,61,107018,2,0,P|264:89|246:205,1,209.999993591309,10|0,1:2|0:0,0:0:0:0:
450,338,107418,6,0,B|150:175|150:175|492:83,1,660.000006294251,2|10,1:0|1:2,0:0:0:0:
428,56,107843,1,0,0:0:0:0:
293,169,108018,1,2,0:0:0:0:
384,166,108118,1,2,1:0:0:0:
186,172,108218,5,0,0:0:0:0:
391,200,108318,2,0,L|435:199,2,34.9999989318848,2|0|0,1:0|0:0|0:0,0:0:0:0:
297,201,108518,1,0,0:0:0:0:
128,202,108618,1,10,1:2:0:0:
297,201,108718,1,0,0:0:0:0:
205,200,108818,1,0,0:0:0:0:
297,201,108918,1,0,0:0:0:0:
108,130,109018,5,2,1:0:0:0:
16,131,109118,1,0,0:0:0:0:
270,164,109218,6,0,L|252:164,1,17.4999994659424,2|0,0:0|0:0,0:0:0:0:
168,135,109318,2,0,L|185:135,1,17.4999994659424
342,61,109418,2,0,L|324:61,1,17.4999994659424,10|0,1:2|0:0,0:0:0:0:
186,60,109518,2,0,L|203:60,1,17.4999994659424
353,106,109618,5,2,0:0:0:0:
445,107,109718,1,2,1:0:0:0:
252,119,109818,1,0,0:0:0:0:
84,119,109918,2,0,L|467:128,1,320,2|0,1:0|0:0,0:0:0:0:
197,268,110218,6,0,L|300:206,1,104.999996795654,10|0,1:2|0:0,0:0:0:0:
431,202,110418,2,0,L|328:140,1,104.999996795654,2|0,0:0|0:0,0:0:0:0:
143,226,110618,1,6,1:0:0:0:
94,229,110668,6,0,L|96:28,1,200
143,226,110918,1,0,0:0:0:0:
362,42,111018,6,0,L|155:42,2,200,10|0|2,1:2|0:0|1:0,0:0:0:0:
272,40,111518,1,0,1:0:0:0:
362,42,111618,1,0,0:0:0:0:
452,47,111718,1,0,0:0:0:0:
269,136,111818,1,10,1:2:0:0:
373,136,111918,1,0,0:0:0:0:
269,136,112018,1,0,0:0:0:0:
373,136,112118,1,0,0:0:0:0:
171,209,112218,6,0,B|155:120|155:120|256:98|398:99|398:99|213:82,1,506.250001931191,2|0,1:0|0:0,0:0:0:0:
227,83,112618,2,0,L|514:80,1,259.999988098145,10|0,1:2|0:0,0:0:0:0:
480,141,112918,1,0,0:0:0:0:
253,219,113018,2,0,L|242:124,1,69.9999978637696,2|0,1:0|1:0,0:0:0:0:
457,145,113218,1,0,0:0:0:0:
367,137,113318,1,0,0:0:0:0:
193,204,113418,2,0,L|169:197,1,17.4999994659424,10|0,1:2|0:0,0:0:0:0:
386,197,113518,2,0,L|413:192,1,17.4999994659424
242,145,113618,2,0,L|231:130,1,17.4999994659424
311,129,113718,2,0,L|322:116,1,17.4999994659424
170,117,113818,6,0,L|41:187,2,139.999995727539,2|2|10,1:0|0:0|1:2,0:0:0:0:
104,122,114318,1,0,0:0:0:0:
109,191,114418,1,2,0:0:0:0:
174,190,114518,1,0,0:0:0:0:
344,196,114618,6,0,L|349:167,1,17.4999994659424,2|0,1:0|0:0,0:0:0:0:
296,165,114718,2,0,L|290:133,1,17.4999994659424,2|0,1:0|0:0,0:0:0:0:
393,100,114818,2,0,L|404:73,1,17.4999994659424
247,67,114918,2,0,L|236:40,1,17.4999994659424
402,124,115018,1,10,1:2:0:0:
313,120,115118,1,0,0:0:0:0:
402,124,115218,1,0,0:0:0:0:
407,137,115318,1,0,0:0:0:0:
197,143,115418,5,2,1:0:0:0:
101,141,115518,1,2,0:0:0:0:
313,115,115618,2,0,L|317:41,1,69.9999978637696,2|2,0:0|0:0,0:0:0:0:
72,36,115818,1,2,0:0:0:0:
377,48,116018,2,0,L|360:132,1,69.9999978637696,2|0,0:0|0:0,0:0:0:0:
153,114,116218,5,10,0:0:0:0:
59,115,116318,1,8,0:0:0:0:
153,114,116418,1,8,0:0:0:0:
59,115,116518,1,8,0:0:0:0:
338,140,116618,5,10,0:1:0:0:
369,112,116643,1,0,0:0:0:0:
328,129,116668,1,0,0:0:0:0:
350,99,116693,1,0,0:0:0:0:
311,119,116718,1,0,0:0:0:0:
330,87,116743,1,0,0:0:0:0:
294,111,116768,1,0,0:0:0:0:
313,82,116793,1,0,0:0:0:0:
289,92,116818,1,2,0:0:0:0:
76,114,116918,1,2,0:0:0:0:
289,285,117018,6,0,L|434:288,1,139.999995727539,6|0,1:0|0:0,0:0:0:0:
255,255,117318,1,0,0:0:0:0:
79,240,117418,2,0,L|133:95,1,139.999995727539,8|2,1:2|2:0,0:0:0:0:
303,109,117718,1,2,2:0:0:0:
127,108,117818,5,2,1:0:0:0:
195,109,117918,1,2,2:0:0:0:
195,109,118018,1,2,2:0:0:0:
22,108,118118,1,0,0:0:0:0:
203,227,118218,2,0,L|234:192,2,34.9999989318848,10|0|0,1:2|0:0|0:0,0:0:0:0:
31,226,118418,2,0,L|62:186,2,34.9999989318848
268,275,118618,6,0,L|228:141,1,139.999995727539,2|0,1:0|0:0,0:0:0:0:
52,141,118918,1,0,0:0:0:0:
227,140,119018,2,0,L|374:142,1,139.999995727539,8|2,1:2|0:0,0:0:0:0:
263,130,119318,1,0,0:0:0:0:
448,168,119418,5,2,1:0:0:0:
464,125,119468,1,0,0:0:0:0:
446,82,119518,1,2,1:0:0:0:
398,81,119568,1,0,0:0:0:0:
279,80,119618,1,2,1:0:0:0:
168,79,119718,1,2,1:0:0:0:
380,158,119818,1,10,1:2:0:0:
473,156,119918,1,0,0:0:0:0:
248,118,120018,1,2,0:0:0:0:
341,113,120118,1,0,0:0:0:0:
111,269,120218,6,0,L|103:128,1,139.999995727539,2|0,1:0|0:0,0:0:0:0:
276,132,120518,1,0,0:0:0:0:
451,250,120618,2,0,L|310:244,1,139.999995727539,8|2,1:2|0:0,0:0:0:0:
112,250,120918,1,0,0:0:0:0:
316,221,121018,6,0,L|317:145,1,69.9999978637696,2|0,1:0|0:0,0:0:0:0:
146,130,121218,2,0,L|230:130,1,69.9999978637696
377,160,121418,2,0,L|81:161,1,279.999991455078,8|2,1:2|0:0,0:0:0:0:
99,238,121718,1,0,0:0:0:0:
284,237,121818,5,2,1:0:0:0:
293,272,121868,1,0,0:0:0:0:
280,306,121918,1,0,0:0:0:0:
248,325,121968,1,0,0:0:0:0:
212,321,122018,1,0,0:0:0:0:
25,324,122118,1,0,0:0:0:0:
200,315,122218,2,0,L|230:350,2,34.9999989318848,10|0|0,1:2|0:0|0:0,0:0:0:0:
39,301,122418,2,0,L|59:333,2,34.9999989318848,2|0|0,0:0|0:0|0:0,0:0:0:0:
252,244,122618,5,2,1:0:0:0:
284,237,122643,1,0,0:0:0:0:
252,244,122668,1,0,0:0:0:0:
220,243,122693,1,0,0:0:0:0:
188,241,122718,1,0,0:0:0:0:
51,97,122818,1,2,0:0:0:0:
19,89,122843,1,0,0:0:0:0:
51,97,122868,1,0,0:0:0:0:
83,96,122893,1,0,0:0:0:0:
114,94,122918,1,0,0:0:0:0:
302,79,123018,5,10,1:2:0:0:
399,79,123118,1,0,1:0:0:0:
293,56,123218,1,2,1:0:0:0:
399,47,123318,1,0,1:0:0:0:
117,266,123418,6,0,B|410:81|410:81|486:112|513:289|375:310|375:310|232:10,1,960,6|2,1:0|0:0,0:0:0:0:
352,29,124118,1,2,0:0:0:0:
249,31,124218,1,2,1:0:0:0:
341,30,124318,1,2,0:0:0:0:
256,32,124418,1,2,0:0:0:0:
332,30,124518,1,2,0:0:0:0:
260,33,124618,2,0,B|24:220|248:323,1,320,10|0,1:2|0:0,0:0:0:0:
289,285,124918,1,0,0:0:0:0:
472,288,125018,6,0,B|154:290|154:290|218:145|218:145|154:289|154:289|152:109|152:109|153:306,1,960,2|2,1:0|0:0,0:0:0:0:
236,270,125718,1,0,0:0:0:0:
332,266,125818,2,0,P|136:282|112:21,1,480,2|0,1:0|0:0,0:0:0:0:
111,264,126218,2,0,P|307:280|331:19,1,480,8|0,1:2|1:0,0:0:0:0:
121,39,126618,6,0,B|382:220|382:220|330:373|330:373|380:221|380:221|49:223,1,960,2|2,1:0|0:0,0:0:0:0:
168,223,127318,1,0,0:0:0:0:
349,216,127418,2,0,B|252:87|252:87|349:213|349:213|251:86|251:86|351:216|351:216|24:210,1,960,2|2,1:0|0:0,0:0:0:0:
132,216,128118,1,2,0:0:0:0:
290,301,128218,2,0,P|94:285|47:14,1,480,2|0,1:0|0:0,0:0:0:0:
188,40,128618,6,0,B|461:194|461:194|304:205,1,320,10|2,1:2|0:0,0:0:0:0:
388,209,128868,1,0,0:0:0:0:
357,280,128918,1,2,0:0:0:0:
397,346,128968,1,0,0:0:0:0:
466,353,129018,5,2,1:0:0:0:
371,354,129118,1,2,0:0:0:0:
464,313,129218,1,2,0:0:0:0:
368,313,129318,1,2,0:0:0:0:
146,352,129418,6,0,B|80:336|24:278|-12:217|-12:100|-13:98|-13:98|311:99,1,640,8|6,1:2|1:0,0:0:0:0:
401,97,129918,1,2,0:3:0:0:
306,98,130018,1,2,0:3:0:0:
401,97,130118,1,2,0:3:0:0:
192,159,130218,2,0,L|188:60,1,75.0000028610231,10|0,1:2|0:0,0:0:0:0:
404,212,130418,6,0,L|492:209,1,88.5000028696061,2|2,0:0|0:0,0:0:0:0:
254,253,130618,2,0,L|363:250,1,88.5000028696061,2|2,1:0|0:0,0:0:0:0:
146,218,130818,2,0,L|38:218,1,88.5000028696061,2|0,0:0|0:0,0:0:0:0:
291,119,131018,2,0,L|399:120,1,88.5000028696061,10|0,1:2|0:0,0:0:0:0:
276,98,131218,2,0,L|273:203,1,88.5000028696061,2|0,0:0|0:0,0:0:0:0:
55,98,131418,5,2,1:0:0:0:
149,97,131518,1,0,0:3:0:0:
55,98,131618,1,0,0:3:0:0:
149,97,131718,1,0,0:3:0:0:
353,135,131818,2,0,L|444:136,1,88.5000028696061,10|0,1:2|0:0,0:0:0:0:
202,165,132018,6,0,L|201:63,1,88.5000028696061,2|2,0:0|0:0,0:0:0:0:
22,55,132218,2,0,L|144:56,1,88.5000028696061,2|2,1:0|0:0,0:0:0:0:
276,56,132418,2,0,L|171:56,1,88.5000028696061,2|2,0:0|0:0,0:0:0:0:
395,199,132618,6,0,P|295:154|400:62,1,300.000011444092,10|2,1:2|1:0,0:0:0:0:
494,61,133118,1,2,0:3:0:0:
397,28,133218,2,0,L|509:29,1,88.5000028696061,2|2,0:3|0:3,0:0:0:0:
290,31,133418,2,0,L|288:136,1,88.5000028696061,10|0,1:2|0:0,0:0:0:0:
106,182,133618,6,0,L|17:180,1,88.5000028696061,2|2,0:0|0:0,0:0:0:0:
238,191,133818,2,0,L|131:189,1,88.5000028696061,2|2,1:0|0:0,0:0:0:0:
352,185,134018,2,0,L|351:82,1,88.5000028696061,2|0,0:0|0:0,0:0:0:0:
97,87,134218,2,0,L|196:87,1,88.5000028696061,10|0,1:2|0:0,0:0:0:0:
79,91,134418,2,0,L|78:193,1,88.5000028696061,2|0,0:0|0:0,0:0:0:0:
273,211,134618,6,0,L|166:212,3,88.5000028696061,2|2|2|2,1:0|0:3|0:3|0:3,0:0:0:0:
394,80,135018,2,0,L|482:80,1,88.5000028696061,10|0,1:2|0:0,0:0:0:0:
286,81,135218,1,2,0:0:0:0:
107,84,135318,1,2,0:0:0:0:
286,81,135418,5,2,1:0:0:0:
379,76,135518,1,2,0:0:0:0:
167,82,135618,1,2,0:0:0:0:
71,81,135718,1,2,0:0:0:0:
288,192,135818,2,0,B|457:192|457:192|456:192|435:191,1,150.000005722046,10|2,1:2|0:0,0:0:0:0:
155,196,136218,5,6,1:0:0:0:
54,196,136318,1,2,0:3:0:0:
155,165,136418,1,2,0:3:0:0:
79,111,136518,1,2,0:3:0:0:
282,132,136618,1,10,1:2:0:0:
302,58,136718,1,0,0:0:0:0:
198,59,136818,1,2,0:0:0:0:
302,58,136918,1,2,0:0:0:0:
84,52,137018,5,2,1:0:0:0:
179,45,137118,1,2,0:0:0:0:
84,52,137218,1,2,0:0:0:0:
182,42,137318,1,0,0:0:0:0:
368,162,137418,1,10,1:2:0:0:
367,85,137518,1,0,0:0:0:0:
168,89,137618,1,2,0:0:0:0:
262,84,137718,1,0,0:0:0:0:
479,198,137818,5,2,1:0:0:0:
380,200,137918,1,2,0:3:0:0:
479,167,138018,1,2,0:3:0:0:
404,128,138118,1,2,0:3:0:0:
207,168,138218,1,10,1:2:0:0:
111,162,138318,1,0,0:0:0:0:
304,101,138418,1,2,0:0:0:0:
208,105,138518,1,2,0:0:0:0:
14,112,138618,5,2,1:0:0:0:
114,104,138718,1,2,0:0:0:0:
280,96,138818,1,2,0:0:0:0:
376,89,138918,1,2,0:0:0:0:
94,72,139018,1,10,1:2:0:0:
188,65,139118,1,0,0:0:0:0:
356,59,139218,1,2,0:0:0:0:
449,52,139318,1,0,0:0:0:0:
116,257,139418,5,6,1:0:0:0:
130,219,139468,1,0,0:0:0:0:
152,186,139518,1,0,0:0:0:0:
181,158,139568,1,0,0:0:0:0:
215,138,139618,1,0,0:0:0:0:
253,125,139668,1,0,0:0:0:0:
293,121,139718,1,0,0:0:0:0:
332,126,139768,1,0,0:0:0:0:
168,198,139818,5,0,0:0:0:0:
118,198,139868,1,0,0:0:0:0:
77,180,139918,1,0,0:0:0:0:
57,148,139968,1,0,0:0:0:0:
70,107,140018,1,0,0:0:0:0:
158,101,140118,1,0,0:0:0:0:
321,104,140218,5,0,0:0:0:0:
414,101,140318,1,0,0:0:0:0:
326,148,140418,1,0,0:0:0:0:
313,68,140518,1,0,0:0:0:0:
487,73,140618,5,0,0:0:0:0:
443,68,140668,1,0,0:0:0:0:
398,65,140718,1,0,0:0:0:0:
220,51,140818,1,0,0:0:0:0:
179,50,140868,1,0,0:0:0:0:
220,51,140918,1,0,0:0:0:0:
397,116,141018,5,2,1:0:0:0:
95,124,141218,1,2,0:0:0:0:
389,175,141418,2,0,L|41:171,1,310.000002365112,2|2,1:0|0:0,0:0:0:0:
155,171,141718,1,0,0:0:0:0:
372,129,141818,5,2,1:0:0:0:
282,127,141918,1,0,0:0:0:0:
486,68,142018,1,2,0:0:0:0:
387,67,142118,1,0,0:0:0:0:
201,102,142218,5,2,1:0:0:0:
289,101,142318,1,0,0:0:0:0:
109,216,142418,1,2,0:0:0:0:
17,218,142518,1,0,0:0:0:0:
296,214,142618,6,0,P|376:182|287:157,1,209.999993591309,6|0,1:0|0:0,0:0:0:0:
142,133,142918,1,0,0:0:0:0:
304,138,143018,2,0,P|384:106|295:81,1,209.999993591309,8|0,1:2|0:0,0:0:0:0:
198,55,143318,1,0,0:0:0:0:
415,95,143418,6,0,L|249:93,1,150.000005722046,2|2,1:0|0:0,0:0:0:0:
347,95,143718,1,2,0:0:0:0:
141,205,143818,1,10,1:2:0:0:
54,204,143918,1,0,0:0:0:0:
275,158,144018,1,2,0:0:0:0:
186,158,144118,1,0,0:0:0:0:
399,249,144218,6,0,L|402:168,1,69.9999978637696,2|0,1:0|0:0,0:0:0:0:
214,180,144418,1,2,0:0:0:0:
303,178,144518,1,0,0:0:0:0:
95,192,144618,1,8,1:2:0:0:
110,120,144718,1,0,0:0:0:0:
204,108,144818,1,2,0:0:0:0:
112,95,144918,1,2,0:0:0:0:
366,246,145018,6,0,P|362:179|290:149,1,139.999995727539,2|0,1:0|0:0,0:0:0:0:
110,120,145318,1,0,0:0:0:0:
323,123,145418,1,10,1:2:0:0:
245,105,145518,1,0,0:0:0:0:
155,123,145618,1,0,0:0:0:0:
233,117,145718,1,0,0:0:0:0:
46,200,145818,6,0,L|36:107,1,69.9999978637696,2|0,1:0|0:0,0:0:0:0:
223,137,146018,2,0,L|224:41,1,69.9999978637696,2|0,0:0|0:0,0:0:0:0:
399,75,146218,1,8,1:2:0:0:
492,72,146318,1,0,0:0:0:0:
399,75,146418,1,2,0:0:0:0:
223,67,146518,1,2,0:0:0:0:
432,174,146618,6,0,L|111:140,1,269.999991760254,2|0,1:0|0:0,0:0:0:0:
346,189,147018,2,0,L|340:88,1,75.0000028610231,10|2,1:2|0:0,0:0:0:0:
130,100,147218,2,0,L|211:95,1,75.0000028610231,2|0,0:0|0:0,0:0:0:0:
405,242,147418,6,0,P|354:174|232:167,1,209.999993591309,2|0,1:0|0:0,0:0:0:0:
65,170,147718,1,0,0:0:0:0:
232,225,147818,2,0,P|319:209|401:115,1,209.999993591309,10|0,1:2|0:0,0:0:0:0:
232,104,148118,1,0,0:0:0:0:
51,105,148218,5,2,1:0:0:0:
141,100,148318,1,0,0:0:0:0:
331,149,148418,2,0,L|325:65,1,75.0000028610231,2|0,0:0|0:0,0:0:0:0:
117,164,148618,2,0,L|108:130,1,18.7500007152558,8|0,1:2|0:0,0:0:0:0:
287,112,148718,1,0,0:0:0:0:
323,114,148743,2,0,L|63:107,1,244.999992523194
287,210,149018,6,0,P|390:195|405:84,1,209.999993591309,6|0,1:0|0:0,0:0:0:0:
327,97,149318,1,2,0:0:0:0:
123,133,149418,2,0,L|121:92,1,26.2499991989136,10|0,1:2|0:0,0:0:0:0:
307,131,149518,1,2,0:0:0:0:
284,130,149543,2,0,P|178:101|138:36,1,183.749994392395
347,46,149818,5,2,1:0:0:0:
249,43,149918,1,2,0:0:0:0:
340,44,150018,1,2,0:0:0:0:
257,43,150118,1,0,0:0:0:0:
471,212,150218,2,0,L|472:49,1,150.000005722046,10|2,1:2|0:0,0:0:0:0:
288,79,150518,1,2,0:0:0:0:
98,87,150618,5,2,1:0:0:0:
196,83,150718,1,2,0:0:0:0:
98,87,150818,2,0,L|94:169,1,75.0000028610231,2|0,0:0|0:0,0:0:0:0:
332,172,151018,1,10,1:2:0:0:
428,167,151118,1,0,0:0:0:0:
338,170,151218,1,2,0:0:0:0:
420,161,151318,1,2,0:0:0:0:
217,157,151418,6,0,L|218:298,1,131.25000500679,2|0,1:0|0:0,0:0:0:0:
217,288,151618,2,0,L|489:281,1,244.999992523194,2|0,0:0|0:0,0:0:0:0:
461,281,151818,2,0,L|146:283,1,300.000011444092,10|2,1:2|0:0,0:0:0:0:
384,275,152118,1,2,0:0:0:0:
168,248,152218,5,2,1:0:0:0:
195,205,152268,1,0,0:0:0:0:
233,186,152318,1,0,0:0:0:0:
292,176,152368,1,0,0:0:0:0:
420,161,152418,1,2,0:0:0:0:
393,118,152468,1,0,0:0:0:0:
355,99,152518,1,0,0:0:0:0:
296,89,152568,1,0,0:0:0:0:
124,131,152618,6,0,L|118:53,1,75.0000028610231,10|2,1:2|0:0,0:0:0:0:
298,44,152818,1,2,0:0:0:0:
204,46,152918,1,0,0:0:0:0:
388,195,153018,1,2,1:0:0:0:
479,193,153118,1,0,0:0:0:0:
485,118,153218,1,0,0:0:0:0:
395,111,153318,1,0,0:0:0:0:
216,113,153418,5,8,1:2:0:0:
300,107,153518,1,0,0:0:0:0:
394,98,153618,1,2,0:0:0:0:
310,90,153718,1,2,0:0:0:0:
124,224,153818,6,0,P|207:191|96:75,1,300,0|0,1:0|0:0,0:0:0:0:
334,116,154218,1,10,1:2:0:0:
426,115,154318,1,0,0:0:0:0:
206,54,154418,1,2,0:0:0:0:
299,54,154518,1,0,0:0:0:0:
77,176,154618,2,0,L|69:96,1,75.0000028610231,2|0,1:0|0:0,0:0:0:0:
267,107,154818,1,2,0:0:0:0:
362,101,154918,1,0,0:0:0:0:
140,68,155018,1,10,1:2:0:0:
232,66,155118,1,0,0:0:0:0:
462,56,155218,1,2,0:0:0:0:
370,54,155318,1,0,0:0:0:0:
96,184,155418,6,0,L|456:184,1,333.000008129883,6|0,1:0|0:0,0:0:0:0:
334,167,155718,1,2,0:0:0:0:
100,153,155818,1,10,1:2:0:0:
194,147,155918,1,2,0:0:0:0:
109,125,156018,1,2,0:0:0:0:
184,121,156118,1,2,0:0:0:0:
367,119,156218,1,2,1:0:0:0:
148,202,156318,2,0,P|100:295|145:353,1,187.999997131348
249,349,156618,1,10,1:2:0:0:
50,329,156718,2,0,P|53:261|151:202,1,187.999997131348,2|0,0:0|0:0,0:0:0:0:
378,201,157018,6,0,L|484:189,1,93.9999985656739,2|2,1:0|0:0,0:0:0:0:
370,224,157218,2,0,L|364:333,1,93.9999985656739,2|2,0:0|0:0,0:0:0:0:
176,185,157418,2,0,L|259:134,1,93.9999985656739,10|0,1:2|0:0,0:0:0:0:
352,107,157618,1,2,0:0:0:0:
164,96,157718,1,2,0:0:0:0:
376,38,157818,2,0,L|392:152,1,93.9999985656739,2|2,1:0|0:0,0:0:0:0:
184,107,158018,2,0,L|78:117,1,93.9999985656739,2|0,0:0|0:0,0:0:0:0:
290,195,158218,2,0,L|396:205,1,93.9999985656739,10|0,1:2|0:0,0:0:0:0:
194,256,158418,1,2,0:0:0:0:
382,255,158518,1,2,0:0:0:0:
112,340,158618,6,0,L|233:339,1,93.9999985656739,2|0,1:0|0:0,0:0:0:0:
414,340,158818,2,0,P|456:288|358:232,1,187.999997131348,2|10,0:0|1:2,0:0:0:0:
289,224,159118,1,2,0:0:0:0:
485,119,159218,2,0,L|385:111,1,93.9999985656739,2|0,0:0|0:0,0:0:0:0:
98,340,159418,2,0,P|56:288|154:232,1,187.999997131348,2|0,1:0|0:0,0:0:0:0:
223,224,159718,1,2,0:0:0:0:
31,118,159818,2,0,L|24:235,1,93.9999985656739,10|0,1:2|0:0,0:0:0:0:
124,123,160018,2,0,L|7:116,1,93.9999985656739,2|2,0:0|0:0,0:0:0:0:
312,168,160218,6,0,L|429:161,2,93.9999985656739,2|0|0,1:0|0:0|0:0,0:0:0:0:
121,183,160518,2,0,L|238:176,1,93.9999985656739,2|10,0:0|1:2,0:0:0:0:
11,103,160718,2,0,L|128:96,1,93.9999985656739
199,86,160918,1,0,0:0:0:0:
388,136,161018,2,0,L|271:129,1,93.9999985656739,2|2,1:0|0:0,0:0:0:0:
106,196,161218,2,0,L|209:190,1,93.9999985656739,2|2,0:0|0:0,0:0:0:0:
106,196,161418,1,10,1:2:0:0:
291,183,161518,1,2,0:0:0:0:
475,172,161618,2,0,L|481:278,1,93.9999985656739,2|0,0:0|0:0,0:0:0:0:
213,309,161818,6,0,B|104:305|104:305|56:370|56:370|81:281,1,281.999995697022,6|0,1:0|0:0,0:0:0:0:
275,190,162218,2,0,L|369:192,2,93.9999985656739,10|0|2,1:2|0:0|0:0,0:0:0:0:
468,182,162518,1,2,0:0:0:0:
269,109,162618,2,0,L|163:110,1,93.9999985656739,2|0,1:0|0:0,0:0:0:0:
363,89,162818,2,0,L|469:90,1,93.9999985656739,2|0,0:0|0:0,0:0:0:0:
250,134,163018,2,0,P|211:176|264:228,1,140.999997848511,10|0,1:2|0:0,0:0:0:0:
431,226,163218,2,0,L|442:121,1,93.9999985656739,2|2,0:0|0:0,0:0:0:0:
154,55,163418,6,0,L|260:56,1,93.9999985656739,2|2,1:0|0:0,0:0:0:0:
56,129,163618,2,0,L|162:130,1,93.9999985656739,2|2,0:0|0:0,0:0:0:0:
343,172,163818,1,10,1:2:0:0:
143,213,163918,2,0,L|37:214,1,93.9999985656739,2|0,0:0|0:0,0:0:0:0:
245,290,164118,2,0,L|139:291,2,93.9999985656739,2|2|2,0:0|1:0|0:0,0:0:0:0:
444,287,164418,2,0,L|338:288,1,93.9999985656739,2|2,0:0|0:0,0:0:0:0:
149,298,164618,2,0,L|148:192,1,93.9999985656739,10|2,1:2|0:0,0:0:0:0:
347,222,164818,2,0,L|354:117,1,93.9999985656739,2|2,0:0|0:0,0:0:0:0:
75,35,165018,6,0,B|408:32|408:32|77:73|77:73|265:349,1,999.000024389649,2|2,1:0|0:0,0:0:0:0:
74,334,165718,1,2,0:0:0:0:
264,347,165818,2,0,L|357:347,1,93.9999985656739,2|2,1:0|0:0,0:0:0:0:
170,293,166018,2,0,P|116:223|177:161,1,187.999997131348,2|10,0:0|1:2,0:0:0:0:
270,164,166318,1,0,0:0:0:0:
173,161,166418,2,0,L|68:161,1,93.9999985656739
339,161,166618,6,0,L|444:161,1,93.9999985656739,0|0,1:0|0:0,0:0:0:0:
247,212,166818,2,0,L|247:317,1,93.9999985656739,2|0,0:0|0:0,0:0:0:0:
57,210,167018,1,10,1:2:0:0:
247,212,167118,2,0,L|437:213,1,187.999997131348,2|2,0:0|0:0,0:0:0:0:
229,131,167418,2,0,L|124:131,1,93.9999985656739,2|0,1:0|0:0,0:0:0:0:
325,87,167618,2,0,L|430:87,1,93.9999985656739,2|0,0:0|0:0,0:0:0:0:
229,131,167818,2,0,L|219:238,1,93.9999985656739,10|0,1:2|0:0,0:0:0:0:
412,118,168018,2,0,L|422:225,1,93.9999985656739,2|0,0:0|0:0,0:0:0:0:
53,175,168218,6,0,L|440:187,2,375.999994262695,6|10|10,1:2|0:0|0:0,0:0:0:0:
295,191,169418,2,0,L|177:350,1,187.999997131348,10|0,0:0|0:0,0:0:0:0:
313,192,169751,2,0,L|436:348,1,187.999997131348
232,113,170018,2,0,L|31:122,1,200,0|10,0:0|0:0,0:0:0:0:
79,158,170284,1,0,0:0:0:0:
158,162,170351,6,0,L|266:332,1,187.999997131348
158,162,170618,2,0,L|50:332,1,187.999997131348,10|0,0:0|0:0,0:0:0:0:
418,99,171018,6,0,L|225:104,2,187.999997131348,10|8|10,0:0|0:0|0:0,0:0:0:0:
462,119,171484,1,0,0:0:0:0:
462,119,171618,1,0,0:0:0:0:
418,99,171684,1,0,0:0:0:0:
332,89,171818,1,10,0:0:0:0:
198,92,171951,1,2,0:0:0:0:
332,89,172084,1,2,0:0:0:0:
100,105,172218,6,0,P|28:194|71:249,1,187.999997131348,10|0,0:0|0:0,0:0:0:0:
151,297,172618,1,10,0:0:0:0:
17,300,172751,1,2,0:0:0:0:
151,297,172884,1,2,0:0:0:0:
337,281,173018,6,0,L|340:202,1,75,10|0,0:0|0:0,0:0:0:0:
246,191,173218,2,0,L|243:112,1,75
418,96,173418,2,0,L|497:93,1,75,10|0,0:0|0:0,0:0:0:0:
399,183,173618,2,0,L|396:104,1,75,2|0,0:0|0:0,0:0:0:0:
302,60,173818,2,0,L|223:63,1,75,10|0,0:0|0:0,0:0:0:0:
321,111,174018,2,0,L|242:114,1,75,2|0,0:0|0:0,0:0:0:0:
31,147,174218,6,0,L|354:281,1,341.999995825195,2|0,2:0|0:0,0:0:0:0:
488,336,174418,2,0,L|257:241,1,249.750006097412,10|0,0:0|0:0,0:0:0:0:
88,182,174618,6,0,L|186:180,2,66.6666666666667,10|0|0,0:0|1:0|1:0,0:0:0:0:
214,110,175018,2,0,L|312:108,2,66.6666666666667,10|0|0,0:0|1:0|1:0,0:0:0:0:
298,78,175351,1,0,0:0:0:0:
214,110,175418,2,0,L|116:108,2,66.6666666666667,10|0|0,0:0|1:0|1:0,0:0:0:0:
88,185,175818,2,0,L|-10:183,2,66.6666666666667,10|0|0,0:0|1:0|1:0,0:0:0:0:
288,259,176218,6,0,L|386:257,2,66.6666666666667,10|0|0,0:0|1:0|1:0,0:0:0:0:
373,217,176551,1,0,1:0:0:0:
288,259,176618,2,0,L|183:261,1,100,10|0,0:0|1:0,0:0:0:0:
268,221,176884,1,0,1:0:0:0:
183,224,176951,1,0,1:0:0:0:
268,221,177018,2,0,L|366:219,2,66.6666666666667,10|0|0,0:0|1:0|1:0,0:0:0:0:
394,143,177418,2,0,L|493:144,1,100,10|0,0:0|1:0,0:0:0:0:
218,108,177818,6,0,L|120:106,2,66.6666666666667,10|0|0,0:0|1:0|1:0,0:0:0:0:
82,174,178218,2,0,L|15:172,2,66.6666666666667,10|0|0,0:0|1:0|1:0,0:0:0:0:
158,178,178551,1,0,0:0:0:0:
232,179,178618,2,0,L|330:177,2,66.6666666666667,10|0|0,0:0|1:0|1:0,0:0:0:0:
368,245,179018,2,0,L|435:243,2,66.6666666666667,10|0|0,0:0|1:0|1:0,0:0:0:0:
118,215,179418,5,8,0:0:0:0:
312,220,179518,1,0,0:0:0:0:
277,160,179618,1,0,0:0:0:0:
210,143,179718,1,0,0:0:0:0:
20,174,179818,5,8,0:0:0:0:
187,175,179918,1,0,0:0:0:0:
237,160,180018,1,0,0:0:0:0:
259,112,180118,1,0,0:0:0:0:
92,78,180218,5,8,0:0:0:0:
83,78,180243,1,0,0:0:0:0:
240,83,180318,1,8,0:0:0:0:
250,83,180343,1,0,0:0:0:0:
407,79,180418,2,0,L|309:81,1,75.0000028610231,0|8,1:0|0:0,0:0:0:0:
499,83,180618,6,0,B|499:274|499:274|365:273,1,300.000011444092,8|2,1:0|1:2,0:0:0:0:
269,277,181051,1,0,0:0:0:0:
180,274,181151,1,0,1:0:0:0:
269,277,181284,1,0,1:0:0:0:
65,212,181418,6,0,L|221:214,1,100.000003814697,10|0,1:2|1:0,0:0:0:0:
20,193,181684,1,0,1:0:0:0:
40,158,181718,1,0,0:0:0:0:
86,137,181751,1,0,0:0:0:0:
255,109,181818,6,0,L|148:177,1,100.000003814697,2|0,1:0|1:0,0:0:0:0:
369,170,182084,1,0,1:0:0:0:
170,162,182218,2,0,L|277:230,1,100.000003814697,10|0,1:2|1:0,0:0:0:0:
57,244,182484,1,0,1:0:0:0:
257,240,182618,6,0,L|257:104,1,100.000003814697,2|0,1:0|1:0,0:0:0:0:
179,118,182884,1,0,1:0:0:0:
234,117,182918,1,0,0:0:0:0:
297,112,183018,1,10,1:2:0:0:
161,109,183052,1,0,0:0:0:0:
40,109,183218,1,0,1:0:0:0:
81,115,183284,1,0,0:0:0:0:
114,116,183318,1,0,0:0:0:0:
146,115,183351,1,0,0:0:0:0:
282,81,183418,6,0,L|413:99,1,100.000003814697,2|0,1:0|1:0,0:0:0:0:
161,82,183684,1,0,1:0:0:0:
400,81,183818,5,10,1:2:0:0:
420,79,183851,1,0,0:0:0:0:
425,122,183884,1,0,0:0:0:0:
445,120,183917,1,0,0:0:0:0:
421,171,183951,1,0,0:0:0:0:
441,169,183984,1,0,0:0:0:0:
387,207,184017,1,0,0:0:0:0:
407,205,184050,1,0,0:0:0:0:
338,214,184084,1,0,0:0:0:0:
358,212,184117,1,0,0:0:0:0:
295,190,184151,1,0,0:0:0:0:
159,183,184218,6,0,L|54:181,2,100.000003814697,2|0|0,1:0|1:0|1:0,0:0:0:0:
359,188,184618,2,0,L|229:188,1,100.000003814697,10|0,1:2|1:0,0:0:0:0:
378,188,184884,1,0,1:0:0:0:
414,171,184918,1,0,0:0:0:0:
439,127,184951,1,0,0:0:0:0:
248,105,185018,6,0,L|141:173,1,100.000003814697,2|0,1:0|1:0,0:0:0:0:
362,166,185284,1,0,1:0:0:0:
163,158,185418,2,0,L|270:226,1,100.000003814697,10|0,1:2|1:0,0:0:0:0:
49,219,185684,1,0,1:0:0:0:
249,220,185818,5,2,1:0:0:0:
338,220,185851,1,0,0:0:0:0:
427,220,185884,1,0,0:0:0:0:
493,220,185951,1,0,1:0:0:0:
493,220,186084,1,0,1:0:0:0:
298,174,186218,5,10,1:2:0:0:
280,173,186251,1,0,0:0:0:0:
294,126,186284,1,0,0:0:0:0:
276,125,186317,1,0,0:0:0:0:
333,99,186351,1,0,1:0:0:0:
453,99,186418,1,0,0:0:0:0:
471,98,186451,1,0,0:0:0:0:
456,51,186484,1,0,1:0:0:0:
475,50,186517,1,0,0:0:0:0:
417,24,186551,1,0,0:0:0:0:
291,23,186618,5,2,1:0:0:0:
174,23,186651,1,0,0:0:0:0:
230,25,186751,1,0,1:0:0:0:
455,28,186884,1,0,1:0:0:0:
211,255,187018,5,10,1:2:0:0:
171,294,187051,1,0,0:0:0:0:
161,252,187084,1,0,0:0:0:0:
121,291,187117,1,0,0:0:0:0:
117,229,187151,1,0,0:0:0:0:
77,268,187184,1,0,0:0:0:0:
87,190,187217,1,0,0:0:0:0:
47,229,187250,1,0,0:0:0:0:
76,141,187284,1,0,0:0:0:0:
36,180,187317,1,0,0:0:0:0:
87,93,187351,1,0,0:0:0:0:
257,84,187418,5,6,1:2:0:0:
167,81,187551,1,0,1:0:0:0:
77,82,187684,1,0,1:0:0:0:
295,177,187818,2,0,L|402:245,1,100.000003814697,10|0,1:2|1:0,0:0:0:0:
268,249,188084,1,0,1:0:0:0:
288,214,188118,1,0,0:0:0:0:
334,193,188151,1,0,0:0:0:0:
201,188,188218,6,0,L|94:256,1,100.000003814697,2|0,1:0|1:0,0:0:0:0:
315,249,188484,1,0,1:0:0:0:
116,241,188618,2,0,L|223:309,1,100.000003814697,10|0,1:2|1:0,0:0:0:0:
400,300,188884,1,0,1:0:0:0:
201,214,189018,6,0,L|94:282,1,100.000003814697,2|0,1:0|1:0,0:0:0:0:
228,216,189284,1,0,1:0:0:0:
173,215,189318,1,0,0:0:0:0:
110,210,189418,1,10,1:2:0:0:
246,207,189452,1,0,0:0:0:0:
367,207,189618,1,0,1:0:0:0:
275,206,189684,1,0,0:0:0:0:
292,177,189718,1,0,0:0:0:0:
318,158,189751,1,0,0:0:0:0:
442,200,189818,6,0,L|524:110,1,100.000003814697,2|0,1:0|1:0,0:0:0:0:
442,200,190084,1,0,1:0:0:0:
232,228,190218,5,10,1:2:0:0:
180,230,190251,1,0,0:0:0:0:
194,192,190284,1,0,0:0:0:0:
143,194,190317,1,0,0:0:0:0:
159,157,190351,1,0,0:0:0:0:
108,159,190384,1,0,0:0:0:0:
123,122,190417,1,0,0:0:0:0:
92,114,190450,1,0,0:0:0:0:
131,77,190484,1,0,0:0:0:0:
343,67,190618,6,0,L|236:135,1,100.000003814697,2|0,1:0|1:0,0:0:0:0:
457,128,190884,1,0,1:0:0:0:
258,120,191018,2,0,L|365:188,1,100.000003814697,10|0,1:2|1:0,0:0:0:0:
144,181,191284,1,0,1:0:0:0:
370,55,191418,6,0,L|263:123,1,100.000003814697,2|0,1:0|1:0,0:0:0:0:
484,116,191684,1,0,1:0:0:0:
257,95,191818,2,0,L|364:163,1,100.000003814697,10|0,1:2|1:0,0:0:0:0:
143,156,192084,1,0,1:0:0:0:
416,321,192218,6,0,B|262:39|262:39|416:323|416:323|74:326,1,960,2|0,1:0|1:0,0:0:0:0:
401,322,193018,5,2,1:0:0:0:
292,320,193151,1,0,1:0:0:0:
401,322,193284,1,0,1:0:0:0:
165,215,193418,5,10,1:2:0:0:
145,213,193451,1,0,0:0:0:0:
140,256,193484,1,0,0:0:0:0:
120,254,193517,1,0,0:0:0:0:
144,305,193551,1,0,0:0:0:0:
124,303,193584,1,0,0:0:0:0:
178,341,193617,1,0,0:0:0:0:
158,339,193650,1,0,0:0:0:0:
227,348,193684,1,0,0:0:0:0:
207,346,193717,1,0,0:0:0:0:
270,324,193751,1,0,0:0:0:0:
403,291,193818,5,6,1:2:0:0:
303,289,193951,1,0,1:0:0:0:
403,291,194084,1,0,1:0:0:0:
161,282,194218,6,0,L|317:284,1,100.000003814697,10|0,1:2|1:0,0:0:0:0:
116,263,194484,1,0,1:0:0:0:
136,228,194518,1,0,0:0:0:0:
182,207,194551,1,0,0:0:0:0:
351,179,194618,6,0,L|244:247,1,100.000003814697,2|0,1:0|1:0,0:0:0:0:
465,240,194884,1,0,1:0:0:0:
183,185,195018,2,0,L|290:253,1,100.000003814697,10|0,1:2|1:0,0:0:0:0:
70,267,195284,1,0,1:0:0:0:
315,242,195418,6,0,L|206:166,1,100.000003814697,2|0,1:0|1:0,0:0:0:0:
179,117,195684,1,0,1:0:0:0:
234,116,195718,1,0,0:0:0:0:
297,111,195818,1,10,1:2:0:0:
161,108,195852,1,0,0:0:0:0:
40,108,196018,1,0,1:0:0:0:
104,108,196084,1,0,0:0:0:0:
137,108,196118,1,0,0:0:0:0:
169,107,196151,1,0,0:0:0:0:
312,70,196218,6,0,L|443:88,1,100.000003814697,2|0,1:0|1:0,0:0:0:0:
161,81,196484,1,0,1:0:0:0:
400,80,196618,5,10,1:2:0:0:
420,78,196651,1,0,0:0:0:0:
425,121,196684,1,0,0:0:0:0:
445,119,196717,1,0,0:0:0:0:
421,170,196751,1,0,0:0:0:0:
441,168,196784,1,0,0:0:0:0:
387,206,196817,1,0,0:0:0:0:
407,204,196850,1,0,0:0:0:0:
338,213,196884,1,0,0:0:0:0:
358,211,196917,1,0,0:0:0:0:
295,189,196951,1,0,0:0:0:0:
159,182,197018,6,0,L|54:180,2,100.000003814697,2|0|0,1:0|1:0|1:0,0:0:0:0:
359,187,197418,2,0,L|229:187,1,100.000003814697,10|0,1:2|1:0,0:0:0:0:
378,187,197684,1,0,1:0:0:0:
414,170,197718,1,0,0:0:0:0:
439,126,197751,1,0,0:0:0:0:
248,104,197818,6,0,L|141:172,1,100.000003814697,2|0,1:0|1:0,0:0:0:0:
362,165,198084,1,0,1:0:0:0:
163,157,198218,2,0,L|270:225,1,100.000003814697,10|0,1:2|1:0,0:0:0:0:
49,218,198484,1,0,1:0:0:0:
255,222,198618,6,0,L|364:146,1,100.000003814697,2|0,1:0|1:0,0:0:0:0:
279,129,198884,1,0,1:0:0:0:
224,128,198918,1,0,0:0:0:0:
273,91,199018,1,10,1:2:0:0:
409,88,199052,1,0,0:0:0:0:
409,88,199218,1,0,1:0:0:0:
344,86,199284,1,0,0:0:0:0:
310,86,199318,1,0,0:0:0:0:
278,88,199351,1,0,0:0:0:0:
142,70,199418,6,0,L|13:68,1,100.000003814697,2|0,1:0|1:0,0:0:0:0:
42,68,199684,1,0,1:0:0:0:
256,195,199818,5,10,1:2:0:0:
296,234,199851,1,0,0:0:0:0:
306,192,199884,1,0,0:0:0:0:
346,231,199917,1,0,0:0:0:0:
350,169,199951,1,0,0:0:0:0:
390,208,199984,1,0,0:0:0:0:
380,130,200017,1,0,0:0:0:0:
420,169,200050,1,0,0:0:0:0:
391,81,200084,1,0,0:0:0:0:
431,120,200117,1,0,0:0:0:0:
380,33,200151,1,0,0:0:0:0:
175,260,200218,6,0,L|101:251,1,61.5000009384155,6|0,1:2|1:0,0:0:0:0:
88,197,200418,2,0,L|116:256,1,61.5000009384155,2|2,3:0|3:0,0:0:0:0:
239,264,200618,2,0,L|301:264,1,61.5000009384155,8|0,1:2|1:0,0:0:0:0:
239,264,200818,2,0,L|232:183,1,61.5000009384155,2|2,3:0|3:0,0:0:0:0:
351,161,201018,1,0,1:0:0:0:
233,163,201118,2,0,L|186:206,2,61.5000009384155,0|2|0,0:0|3:0|0:0,0:0:0:0:
439,167,201418,2,0,L|339:158,1,77.5000005912781,8|0,1:2|0:0,0:0:0:0:
156,164,201618,2,0,L|260:162,1,77.5000005912781,2|2,3:0|3:0,0:0:0:0:
468,272,201818,6,0,L|495:216,1,61.5000009384155,0|0,1:0|0:0,0:0:0:0:
468,272,202018,2,0,L|407:279,1,61.5000009384155,2|0,3:0|0:0,0:0:0:0:
284,283,202218,2,0,L|222:279,1,61.5000009384155,8|0,1:2|0:0,0:0:0:0:
162,275,202418,2,0,L|223:279,1,61.5000009384155,2|2,3:0|3:0,0:0:0:0:
104,158,202618,1,0,1:0:0:0:
222,160,202718,2,0,L|269:203,2,61.5000009384155,0|2|0,3:0|3:0|3:0,0:0:0:0:
20,84,203018,2,0,L|117:81,1,77.5000005912781,8|0,1:2|3:0,0:0:0:0:
309,74,203218,2,0,L|413:72,1,77.5000005912781,0|0,3:0|3:0,0:0:0:0:
144,242,203418,6,0,L|78:237,1,61.5000009384155,0|0,1:0|0:0,0:0:0:0:
83,237,203618,2,0,L|145:241,1,61.5000009384155,2|0,3:0|0:0,0:0:0:0:
267,242,203818,2,0,L|326:279,1,61.5000009384155,8|0,1:2|0:0,0:0:0:0:
199,188,204018,2,0,L|141:151,1,61.5000009384155,2|2,3:0|3:0,0:0:0:0:
339,132,204218,2,0,L|267:131,1,61.5000009384155,0|0,1:0|3:0,0:0:0:0:
161,120,204418,2,0,L|153:52,1,61.5000009384155,2|0,3:0|3:0,0:0:0:0:
352,43,204618,2,0,L|263:41,1,77.5000005912781,8|0,1:2|0:0,0:0:0:0:
474,166,204818,2,0,L|391:162,1,77.5000005912781,0|0,3:0|0:0,0:0:0:0:
136,313,205018,6,0,B|89:311|89:311|122:241,1,123.000001876831,0|2,1:0|3:0,0:0:0:0:
334,209,205418,2,0,L|248:114,1,123.000001876831,8|2,1:2|3:0,0:0:0:0:
208,70,205718,1,0,3:0:0:0:
327,29,205818,1,0,1:0:0:0:
208,24,205918,1,0,3:0:0:0:
266,43,206018,2,0,L|270:130,1,61.5000009384155,2|0,3:0|3:0,0:0:0:0:
24,194,206218,1,8,1:2:0:0:
201,189,206318,1,0,3:0:0:0:
306,189,206418,1,0,3:0:0:0:
344,216,206518,1,0,0:0:0:0:
129,157,206618,6,0,B|56:156|-22:246|48:344|131:358|131:358|249:372|279:209|279:209|302:53|126:17,1,810.000003089905,6|2,1:2|2:3,0:0:0:0:
135,213,208218,5,2,2:3:0:0:
210,214,208518,1,2,2:3:0:0:
463,210,208818,1,2,2:3:0:0:
388,211,209118,1,2,2:3:0:0:
135,130,209418,1,2,2:3:0:0:
135,130,209818,5,2,2:3:0:0:
60,130,210118,1,2,2:3:0:0:
313,83,210418,1,2,2:3:0:0:
238,83,210718,1,2,2:3:0:0:
491,137,211018,1,2,2:3:0:0:
491,137,211318,5,0,2:0:0:0:
371,135,211418,1,2,2:3:0:0:
296,138,211718,1,2,2:3:0:0:
42,135,212018,1,2,2:3:0:0:
117,138,212318,1,2,2:3:0:0:
371,236,212618,1,2,2:3:0:0:
371,236,213018,5,2,2:3:0:0:
346,202,213118,2,0,L|226:204,1,100,0|2,2:0|2:3,0:0:0:0:
126,206,213418,1,0,2:0:0:0:
231,278,213618,1,2,2:3:0:0:
180,278,213718,2,0,P|192:225|232:205,1,100,0|2,2:0|2:3,0:0:0:0:
350,209,214018,1,0,2:0:0:0:
270,159,214218,1,2,2:3:0:0:
450,136,214418,1,0,2:0:0:0:
349,130,214618,5,2,2:3:0:0:
324,99,214718,2,0,L|444:101,1,100,0|2,2:0|2:3,0:0:0:0:
304,74,215018,1,0,2:0:0:0:
195,186,215218,1,2,2:3:0:0:
246,186,215318,2,0,L|257:61,1,100,0|2,2:0|2:3,0:0:0:0:
133,60,215618,1,0,2:0:0:0:
44,54,215818,1,2,2:3:0:0:
44,54,216218,5,2,2:3:0:0:
69,88,216318,2,0,L|189:86,1,100,0|2,2:0|2:3,0:0:0:0:
289,84,216618,1,0,2:0:0:0:
184,12,216818,1,2,2:3:0:0:
235,12,216918,2,0,P|223:65|183:85,1,100,0|2,2:0|2:3,0:0:0:0:
65,81,217218,1,0,2:0:0:0:
145,131,217418,1,2,2:3:0:0:
345,143,217618,1,0,2:0:0:0:
145,7,217818,6,0,B|-14:-10|-15:384|141:356|141:356|369:330|102:113|390:94|390:94|497:205|350:268,1,1125.00004291535,2|0,2:3|0:0,0:0:0:0:
148,263,219418,6,0,L|316:256,2,150,6|2|2,2:0|2:0|2:0,0:0:0:0:
249,225,220118,1,0,2:0:0:0:
347,213,220218,2,0,B|278:181|278:181|404:167,1,200,2|2,2:0|2:0,0:0:0:0:
63,86,221018,6,0,L|231:79,2,150,2|2|2,2:0|2:0|2:0,0:0:0:0:
263,169,221818,2,0,L|143:160,1,100,2|2,2:0|2:0,0:0:0:0:
471,278,222218,2,0,L|475:151,1,100,2|0,2:0|0:0,0:0:0:0:
276,110,222618,6,0,L|444:103,2,150,2|2|2,2:0|2:0|2:0,0:0:0:0:
76,145,223418,2,0,B|8:73|8:73|133:99,1,200,2|2,2:0|2:0,0:0:0:0:
445,206,224218,6,0,L|277:199,2,150,2|2|2,2:0|2:0|2:0,0:0:0:0:
245,190,225018,2,0,L|65:176,1,150,2|0,2:0|2:0,0:0:0:0:
84,148,225418,1,2,2:0:0:0:
421,104,225818,6,0,L|253:111,2,150,2|2|2,2:0|2:0|2:0,0:0:0:0:
221,245,226618,2,0,L|161:241,1,50,2|0,2:0|2:0,0:0:0:0:
426,229,227018,1,2,2:0:0:0:
326,214,227218,1,0,0:0:0:0:
126,194,227418,6,0,L|27:189,1,100,2|0,2:0|2:0,0:0:0:0:
81,150,227718,1,2,2:0:0:0:
27,189,227818,2,0,L|126:194,1,100,0|2,2:0|2:0,0:0:0:0:
327,204,228218,2,0,B|334:150,1,50,2|0,2:0|2:0,0:0:0:0:
232,82,228518,1,0,2:0:0:0:
426,271,228618,2,0,L|430:144,1,100,2|0,2:0|0:0,0:0:0:0:
121,200,229018,6,0,L|107:70,1,129.999994049073,2|0,2:0|2:0,0:0:0:0:
214,83,229318,2,0,L|85:84,1,129.999994049073,2|0,2:0|2:0,0:0:0:0:
146,81,229618,1,2,2:0:0:0:
85,84,229718,1,0,2:0:0:0:
292,93,229918,2,0,L|294:257,1,129.999994049073,0|0,2:0|2:0,0:0:0:0:
89,202,230218,2,0,L|237:198,1,129.999994049073,2|0,2:0|0:0,0:0:0:0:
162,201,230518,1,0,0:0:0:0:
377,211,230618,6,0,P|324:112|234:84,2,194.999991073609,2|0|0,1:0|0:0|0:0,0:0:0:0:
158,157,231418,2,0,P|184:223|294:290,1,194.999991073609
345,292,231818,2,0,P|405:231|313:162,1,194.999991073609
153,225,232218,5,6,1:0:0:0:
156,174,232318,1,2,0:0:0:0:
151,121,232418,1,2,0:0:0:0:
223,115,232518,1,2,0:0:0:0:
149,103,232618,1,10,3:0:0:0:
343,124,232818,5,2,0:0:0:0:
226,125,232918,1,2,0:0:0:0:
343,124,233018,1,10,3:0:0:0:
226,125,233118,1,2,0:0:0:0:
230,53,233218,1,2,0:0:0:0:
340,48,233318,1,0,0:0:0:0:
177,196,233418,6,0,L|168:66,1,129.999994049073,10|2,3:0|0:0,0:0:0:0:
371,193,233818,5,10,3:0:0:0:
353,105,233918,1,2,0:0:0:0:
280,86,234018,1,2,0:0:0:0:
354,68,234118,1,2,0:0:0:0:
280,69,234218,1,10,3:0:0:0:
59,84,234418,5,2,0:0:0:0:
157,64,234518,1,2,0:0:0:0:
59,67,234618,1,10,3:0:0:0:
157,42,234718,1,2,0:0:0:0:
255,34,234818,1,2,0:0:0:0:
154,20,234918,1,0,0:0:0:0:
355,220,235018,6,0,L|361:75,1,129.999994049073,10|0,3:0|0:0,0:0:0:0:
151,145,235418,5,8,3:0:0:0:
151,76,235518,1,2,0:0:0:0:
228,73,235618,1,2,0:0:0:0:
231,146,235718,1,2,0:0:0:0:
151,145,235818,1,10,3:0:0:0:
371,147,236018,5,2,0:0:0:0:
273,147,236118,1,2,0:0:0:0:
173,146,236218,1,10,3:0:0:0:
268,139,236318,1,2,0:0:0:0:
173,130,236418,1,2,0:0:0:0:
271,118,236518,1,0,0:0:0:0:
97,201,236618,2,0,L|73:25,1,129.999994049073,10|2,3:0|0:0,0:0:0:0:
299,192,237018,5,10,3:0:0:0:
312,113,237118,1,2,0:0:0:0:
386,108,237218,1,2,0:0:0:0:
311,92,237318,1,2,0:0:0:0:
386,87,237418,2,0,L|69:81,1,279.999991455078,10|2,3:0|0:0,0:0:0:0:
178,83,237718,1,2,0:0:0:0:
108,64,237818,1,8,3:0:0:0:
38,62,237918,1,2,0:0:0:0:
42,164,238018,5,4,0:0:0:0:
152,167,238068,1,0,0:0:0:0:
180,167,238118,1,0,0:0:0:0:
180,167,238218,1,4,0:0:0:0:
290,170,238268,1,0,0:0:0:0:
318,170,238318,1,0,0:0:0:0:
318,170,238418,1,4,0:0:0:0:
428,173,238468,1,0,0:0:0:0:
456,173,238518,1,0,0:0:0:0:
293,243,238618,5,12,3:0:0:0:
220,239,238718,1,0,0:0:0:0:
293,243,238818,1,2,0:0:0:0:
220,239,238918,1,2,0:0:0:0:
293,214,239018,1,10,3:0:0:0:
292,149,239218,5,2,0:0:0:0:
172,118,239318,1,2,0:0:0:0:
172,118,239418,1,10,3:0:0:0:
52,115,239518,1,2,0:0:0:0:
172,118,239618,1,2,0:0:0:0:
376,195,239818,2,0,L|373:20,1,150.000005722046,10|2,3:0|0:0,0:0:0:0:
174,197,240218,5,10,3:0:0:0:
247,193,240318,1,2,0:0:0:0:
174,197,240418,1,2,0:0:0:0:
247,193,240518,1,2,0:0:0:0:
174,168,240618,1,10,3:0:0:0:
175,103,240818,5,2,0:0:0:0:
295,72,240918,1,2,0:0:0:0:
295,72,241018,1,10,3:0:0:0:
415,69,241118,1,2,0:0:0:0:
295,72,241218,1,2,0:0:0:0:
109,141,241418,2,0,L|499:146,1,300.000011444092,10|0,3:0|0:0,0:0:0:0:
238,204,241818,5,10,3:0:0:0:
233,119,241918,1,0,0:0:0:0:
309,117,242018,1,2,0:0:0:0:
233,119,242118,1,2,0:0:0:0:
146,116,242218,1,10,3:0:0:0:
148,63,242418,5,2,0:0:0:0:
263,60,242518,1,2,0:0:0:0:
200,59,242618,1,10,3:0:0:0:
263,60,242718,1,2,0:0:0:0:
170,32,242818,1,2,0:0:0:0:
373,154,243018,2,0,L|373:284,1,119.999996337891,10|0,3:0|0:0,0:0:0:0:
162,255,243418,5,10,3:0:0:0:
167,170,243518,1,2,0:0:0:0:
91,168,243618,1,2,0:0:0:0:
167,170,243718,1,2,0:0:0:0:
254,167,243818,1,10,3:0:0:0:
188,119,244018,1,2,0:0:0:0:
302,117,244118,1,2,0:0:0:0:
311,189,244218,6,0,L|20:193,1,291.375007113648,2|0,2:0|0:0,0:0:0:0:
49,191,244418,2,0,L|448:188,1,398.999995129395,2|0,0:0|0:0,0:0:0:0:
484,189,244618,5,2,0:0:0:0:
382,190,244718,1,0,0:0:0:0:
484,189,244818,1,2,0:0:0:0:
496,97,244918,1,0,0:0:0:0:
139,195,245018,5,6,1:0:0:0:
198,198,245118,1,2,0:0:0:0:
257,198,245218,1,2,0:0:0:0:
198,198,245318,1,2,0:0:0:0:
139,195,245418,1,10,0:0:0:0:
323,126,245618,1,2,0:0:0:0:
435,126,245718,1,2,0:0:0:0:
323,126,245818,1,2,0:0:0:0:
435,126,245918,1,2,0:0:0:0:
323,126,246018,2,0,L|324:245,1,75.0000028610231,2|0,0:0|0:0,0:0:0:0:
145,203,246218,5,10,0:0:0:0:
278,208,246418,2,0,L|185:193,1,75.0000028610231,2|2,0:0|0:0,0:0:0:0:
392,211,246618,5,2,2:0:0:0:
392,211,246718,1,2,0:0:0:0:
472,212,246818,1,2,0:0:0:0:
472,212,246918,1,2,0:0:0:0:
392,211,247018,1,10,0:0:0:0:
195,207,247218,5,2,0:0:0:0:
284,210,247318,1,2,0:0:0:0:
373,208,247418,1,2,0:0:0:0:
284,210,247518,1,2,0:0:0:0:
373,208,247618,1,2,0:0:0:0:
284,210,247718,1,2,0:0:0:0:
452,155,247818,5,10,0:0:0:0:
353,150,248018,2,0,L|458:151,1,75.0000028610231,2|2,0:0|0:0,0:0:0:0:
244,170,248218,5,2,2:0:0:0:
174,170,248318,1,2,0:0:0:0:
247,103,248418,1,2,0:0:0:0:
177,103,248518,1,2,0:0:0:0:
250,39,248618,1,10,0:0:0:0:
241,234,248818,5,2,0:0:0:0:
142,233,248918,1,2,0:0:0:0:
244,167,249018,1,2,0:0:0:0:
145,166,249118,1,2,0:0:0:0:
244,167,249218,1,2,0:0:0:0:
341,167,249318,1,2,0:0:0:0:
145,166,249418,5,10,0:0:0:0:
256,150,249618,2,0,L|165:105,1,75.0000028610231,2|2,0:0|0:0,0:0:0:0:
378,188,249818,5,2,2:0:0:0:
448,188,249918,1,2,0:0:0:0:
375,121,250018,1,2,0:0:0:0:
445,121,250118,1,2,0:0:0:0:
372,57,250218,1,10,0:0:0:0:
378,188,250418,5,2,0:0:0:0:
477,187,250518,1,2,0:0:0:0:
375,121,250618,1,2,0:0:0:0:
474,120,250718,1,2,0:0:0:0:
372,57,250818,1,2,0:0:0:0:
474,120,250918,1,2,0:0:0:0:
254,56,251018,5,10,0:0:0:0:
254,56,251218,2,0,L|254:150,1,75.0000028610231,2|2,0:0|0:0,0:0:0:0:
433,192,251418,2,0,L|372:190,1,37.5000014305115,2|0,2:0|0:0,0:0:0:0:
288,195,251518,2,0,L|227:193,1,37.5000014305115,2|0,0:0|0:0,0:0:0:0:
143,195,251618,2,0,L|144:141,3,37.5000014305115,2|0|0|0,0:0|0:0|0:0|0:0,0:0:0:0:
250,139,251818,2,0,L|311:137,1,37.5000014305115,10|0,0:0|0:0,0:0:0:0:
398,140,251918,2,0,L|459:138,1,37.5000014305115
324,139,252018,2,0,L|325:71,3,37.5000014305115,2|0|0|0,0:0|0:0|0:0|0:0,0:0:0:0:
214,91,252218,6,0,L|144:91,1,37.5000014305115,2|0,0:0|0:0,0:0:0:0:
287,91,252318,2,0,L|357:91,1,37.5000014305115,2|0,0:0|0:0,0:0:0:0:
435,89,252418,2,0,L|435:152,3,37.5000014305115,2|0|0|0,0:0|0:0|0:0|0:0,0:0:0:0:
324,131,252618,2,0,L|257:131,1,37.5000014305115,10|0,0:0|0:0,0:0:0:0:
175,131,252718,2,0,L|121:129,1,37.5000014305115
283,143,252818,2,0,L|283:197,3,37.5000014305115,2|0|0|0,0:0|0:0|0:0|0:0,0:0:0:0:
171,202,253018,6,0,L|104:203,1,37.5000014305115,2|0,2:0|0:0,0:0:0:0:
22,200,253118,2,0,L|89:201,1,37.5000014305115,2|0,0:0|0:0,0:0:0:0:
171,202,253218,2,0,L|170:138,3,37.5000014305115,2|0|0|0,0:0|0:0|0:0|0:0,0:0:0:0:
282,155,253418,2,0,L|338:154,1,37.5000014305115,10|0,0:0|0:0,0:0:0:0:
428,158,253518,2,0,L|484:157,1,37.5000014305115
354,157,253618,2,0,L|354:87,3,37.5000014305115,2|0|0|0,0:0|0:0|0:0|0:0,0:0:0:0:
244,101,253818,6,0,L|183:100,1,37.5000014305115,2|0,0:0|0:0,0:0:0:0:
97,98,253918,2,0,L|158:97,1,37.5000014305115,2|0,0:0|0:0,0:0:0:0:
244,101,254018,2,0,L|305:100,1,37.5000014305115,2|0,0:0|0:0,0:0:0:0:
390,102,254118,2,0,L|451:101,1,37.5000014305115
318,101,254218,6,0,L|257:100,1,37.5000014305115,10|0,0:0|0:0,0:0:0:0:
388,101,254318,2,0,L|449:100,1,37.5000014305115
311,80,254418,2,0,L|250:79,1,37.5000014305115,2|0,0:0|0:0,0:0:0:0:
389,78,254518,2,0,L|450:77,1,37.5000014305115
256,26,254618,6,0,P|154:73|91:327,1,375.000014305115,0|0,1:0|0:0,0:0:0:0:
181,311,255218,6,0,B|283:294|305:246|289:190|250:137|178:106|178:106|313:106|433:124|452:197|428:347,1,675.000025749208
134,187,256218,6,0,L|26:186,1,75.0000028610231,10|0,1:0|1:0,0:0:0:0:
134,187,256418,2,0,L|208:186,1,75.0000028610231,0|0,1:0|1:0,0:0:0:0:
368,193,256618,6,0,L|277:176,1,75.0000028610231,10|0,1:0|1:0,0:0:0:0:
401,182,256818,2,0,L|404:91,1,75.0000028610231,0|0,1:0|1:0,0:0:0:0:
226,92,257018,5,10,1:0:0:0:
127,90,257118,1,8,1:0:0:0:
226,92,257218,1,0,1:0:0:0:
127,90,257318,1,8,1:0:0:0:
393,265,257418,6,0,B|255:318|123:283|81:170|95:155|95:155|194:31,1,480,10|0,1:0|0:0,0:0:0:0:
333,68,257818,5,6,1:0:0:0:
232,67,257918,1,0,0:0:0:0:
333,68,258018,1,2,0:0:0:0:
232,68,258118,1,0,0:0:0:0:
406,84,258218,5,10,1:2:0:0:
450,82,258243,1,0,0:0:0:0:
296,199,258318,1,0,0:0:0:0:
268,195,258343,1,0,0:0:0:0:
205,145,258418,1,2,0:0:0:0:
184,126,258443,1,0,0:0:0:0:
137,38,258518,1,0,0:0:0:0:
137,38,258543,1,0,0:0:0:0:
314,39,258618,5,2,1:0:0:0:
143,53,258718,2,0,L|80:89,2,37.5000014305115,2|0|0,1:0|0:0|0:0,0:0:0:0:
320,62,258918,1,0,0:0:0:0:
135,61,259018,6,0,L|36:64,1,75.0000028610231,10|0,1:2|0:0,0:0:0:0:
239,152,259218,2,0,L|240:60,1,75.0000028610231
400,79,259418,5,2,1:2:0:0:
239,77,259518,2,0,L|175:71,2,37.5000014305115,0|0|2,0:0|0:0|0:0,0:0:0:0:
317,81,259718,1,0,0:0:0:0:
142,186,259818,5,10,1:2:0:0:
135,165,259843,1,0,0:0:0:0:
297,179,259918,1,0,0:0:0:0:
304,158,259943,1,0,0:0:0:0:
154,132,260018,1,2,0:0:0:0:
147,111,260043,1,0,0:0:0:0:
298,126,260118,1,0,0:0:0:0:
305,105,260143,1,0,0:0:0:0:
150,279,260218,5,2,1:2:0:0:
56,280,260318,1,2,1:0:0:0:
82,243,260368,1,0,0:0:0:0:
124,228,260418,1,0,0:0:0:0:
225,227,260518,1,0,0:0:0:0:
416,202,260618,5,10,1:2:0:0:
460,200,260643,1,0,0:0:0:0:
389,162,260718,1,0,0:0:0:0:
361,158,260743,1,0,0:0:0:0:
440,169,260818,1,0,0:0:0:0:
471,157,260843,1,0,0:0:0:0:
386,131,260918,1,0,0:0:0:0:
366,125,260943,1,0,0:0:0:0:
190,109,261018,5,2,1:0:0:0:
348,113,261118,1,0,0:0:0:0:
393,87,261168,1,0,0:0:0:0:
416,33,261218,1,2,0:0:0:0:
318,24,261318,1,0,0:0:0:0:
496,29,261418,6,0,L|497:127,1,75.0000028610231,10|0,1:2|0:0,0:0:0:0:
309,108,261618,1,2,0:0:0:0:
398,108,261718,1,0,0:0:0:0:
208,181,261818,5,2,1:0:0:0:
385,183,261918,2,0,L|447:182,2,37.5000014305115,2|0|0,1:0|0:0|0:0,0:0:0:0:
300,183,262118,1,0,0:0:0:0:
137,189,262218,5,10,1:2:0:0:
130,168,262243,1,0,0:0:0:0:
29,143,262318,1,0,0:0:0:0:
22,122,262343,1,0,0:0:0:0:
191,123,262418,1,0,0:0:0:0:
198,102,262443,1,0,0:0:0:0:
299,80,262518,1,0,0:0:0:0:
306,59,262543,1,0,0:0:0:0:
173,266,262618,5,2,1:0:0:0:
12,269,262718,1,0,0:0:0:0:
37,229,262768,1,0,0:0:0:0:
90,210,262818,1,2,0:0:0:0:
193,205,262918,1,0,0:0:0:0:
373,204,263018,5,10,1:2:0:0:
380,183,263043,1,0,0:0:0:0:
218,197,263118,1,0,0:0:0:0:
211,176,263143,1,0,0:0:0:0:
361,150,263218,1,2,0:0:0:0:
368,129,263243,1,0,0:0:0:0:
217,144,263318,1,0,0:0:0:0:
210,123,263343,1,0,0:0:0:0:
387,94,263418,6,0,L|492:93,1,75.0000028610231,2|2,1:0|1:0,0:0:0:0:
507,94,263568,1,0,0:0:0:0:
461,93,263618,1,0,0:0:0:0:
387,94,263718,1,0,0:0:0:0:
213,92,263818,6,0,L|75:92,1,112.500004291535,10|0,1:2|0:0,0:0:0:0:
71,89,264018,2,0,L|322:93,1,225.000008583069,2|0,0:0|0:0,0:0:0:0:
444,226,264218,6,0,L|326:222,1,93.9999985656739,6|0,1:0|0:0,0:0:0:0:
444,226,264418,2,0,L|326:222,1,93.9999985656739,2|0,0:0|0:0,0:0:0:0:
163,220,264618,2,0,L|159:192,1,23.4999996414185,10|0,1:2|0:0,0:0:0:0:
246,133,264718,1,0,0:0:0:0:
397,122,264818,1,2,0:0:0:0:
229,69,264918,1,0,0:0:0:0:
416,54,265018,6,0,L|429:153,1,93.9999985656739,2|2,1:0|1:0,0:0:0:0:
335,143,265218,2,0,L|438:147,1,93.9999985656739
206,244,265418,2,0,L|204:220,1,23.4999996414185,10|0,1:2|0:0,0:0:0:0:
374,244,265518,2,0,L|377:220,1,23.4999996414185
206,244,265618,2,0,L|203:217,1,23.4999996414185
336,243,265718,2,0,L|339:217,1,23.4999996414185
154,309,265818,6,0,L|52:301,1,93.9999985656739,2|0,1:0|0:0,0:0:0:0:
264,278,266018,2,0,L|256:176,1,93.9999985656739,2|0,0:0|0:0,0:0:0:0:
454,139,266218,1,10,1:2:0:0:
296,125,266318,1,0,0:0:0:0:
93,134,266418,1,2,0:0:0:0:
251,120,266518,1,0,0:0:0:0:
39,60,266618,6,0,L|138:22,1,93.9999985656739,2|2,1:0|1:0,0:0:0:0:
143,84,266818,1,0,0:0:0:0:
127,26,266918,1,0,0:0:0:0:
322,176,267018,2,0,L|242:244,1,93.9999985656739,10|0,1:2|0:0,0:0:0:0:
442,185,267218,2,0,L|450:83,1,93.9999985656739
209,114,267418,6,0,L|123:154,1,93.9999985656739,2|0,1:0|0:0,0:0:0:0:
302,173,267618,2,0,L|396:224,1,93.9999985656739,2|0,0:0|0:0,0:0:0:0:
191,198,267818,2,0,L|285:147,1,93.9999985656739,10|0,1:2|0:0,0:0:0:0:
86,186,268018,2,0,L|78:84,1,93.9999985656739,2|0,0:0|0:0,0:0:0:0:
267,321,268218,6,0,L|173:270,1,93.9999985656739,2|0,1:0|1:0,0:0:0:0:
169,368,268418,2,0,L|187:264,1,93.9999985656739
409,271,268618,2,0,L|411:247,1,23.4999996414185,10|0,1:2|0:0,0:0:0:0:
241,271,268718,2,0,L|238:247,1,23.4999996414185
409,271,268818,2,0,L|412:244,1,23.4999996414185
279,270,268918,2,0,L|276:244,1,23.4999996414185
479,295,269018,6,0,B|288:293|288:293|381:267,1,281.999995697022,2|0,1:0|0:0,0:0:0:0:
472,215,269418,2,0,B|281:217|281:217|278:312,1,281.999995697022,10|0,0:2|0:0,0:0:0:0:
186,345,269818,2,0,B|377:343|377:343|284:317,1,281.999995697022,10|0,0:2|0:0,0:0:0:0:
87,272,270218,2,0,B|389:270|389:270|395:115,1,450.000017166138,10|0,2:0|0:0,0:0:0:0:
131,67,270618,6,0,L|17:61,1,93.9999985656739,6|0,1:0|0:0,0:0:0:0:
210,81,270818,2,0,L|214:199,1,93.9999985656739,2|0,0:0|0:0,0:0:0:0:
401,76,271018,2,0,L|495:71,1,93.9999985656739,10|2,1:2|0:0,0:0:0:0:
322,90,271218,2,0,L|319:183,1,93.9999985656739,2|0,0:0|0:0,0:0:0:0:
125,199,271418,6,0,L|25:162,1,93.9999985656739,2|2,1:0|1:0,0:0:0:0:
213,267,271618,2,0,L|106:299,1,93.9999985656739,2|0,0:0|0:0,0:0:0:0:
359,332,271818,2,0,L|361:308,1,23.4999996414185,10|0,1:2|0:0,0:0:0:0:
191,332,271918,2,0,L|188:308,1,23.4999996414185,2|0,0:0|0:0,0:0:0:0:
359,332,272018,2,0,L|362:305,1,23.4999996414185,2|0,0:0|0:0,0:0:0:0:
229,331,272118,2,0,L|226:305,1,23.4999996414185
401,352,272218,6,0,L|495:344,1,93.9999985656739,2|2,1:2|0:0,0:0:0:0:
291,321,272418,2,0,L|299:219,1,93.9999985656739,2|0,0:0|0:0,0:0:0:0:
101,182,272618,1,10,1:2:0:0:
259,168,272718,1,2,0:0:0:0:
462,177,272818,1,2,0:0:0:0:
304,163,272918,1,0,0:0:0:0:
90,139,273018,6,0,L|202:145,2,93.9999985656739,2|2|2,1:2|1:0|0:0,0:0:0:0:
259,168,273318,1,0,0:0:0:0:
462,177,273418,2,0,L|369:190,1,93.9999985656739,10|2,1:2|0:0,0:0:0:0:
190,200,273618,2,0,L|183:304,1,93.9999985656739,2|0,0:0|0:0,0:0:0:0:
396,320,273818,5,2,1:0:0:0:
209,308,273918,2,0,L|251:223,1,93.9999985656739,2|2,0:0|0:0,0:0:0:0:
159,195,274118,1,0,0:0:0:0:
346,135,274218,2,0,L|245:130,2,93.9999985656739,10|2|2,1:2|0:0|0:0,0:0:0:0:
110,93,274518,6,0,L|99:191,1,93.9999985656739,4|2,1:0|0:0,0:0:0:0:
381,214,274718,2,0,L|444:296,2,93.9999985656739,6|2|0,1:0|0:0|0:0,0:0:0:0:
160,147,275018,2,0,L|158:123,1,23.4999996414185,10|0,1:2|0:0,0:0:0:0:
328,147,275118,2,0,L|331:123,1,23.4999996414185,2|0,0:0|0:0,0:0:0:0:
160,147,275218,2,0,L|157:120,1,23.4999996414185,2|0,0:0|0:0,0:0:0:0:
290,146,275318,2,0,L|293:120,1,23.4999996414185
106,179,275418,5,2,1:0:0:0:
264,165,275518,1,2,0:0:0:0:
462,117,275618,1,2,0:0:0:0:
304,103,275718,1,0,0:0:0:0:
65,69,275818,1,10,1:2:0:0:
223,55,275918,1,2,0:0:0:0:
162,100,276018,1,2,0:0:0:0:
402,93,276118,6,0,L|413:191,1,93.9999985656739,4|2,1:0|0:0,0:0:0:0:
131,214,276318,2,0,L|68:296,2,93.9999985656739,6|2|0,1:0|0:0|0:0,0:0:0:0:
441,206,276618,1,10,1:2:0:0:
24,191,276818,1,2,0:0:0:0:
495,271,277018,6,0,L|472:179,1,93.9999985656739,6|0,1:0|0:0,0:0:0:0:
419,131,277218,2,0,L|319:94,1,93.9999985656739
151,133,277418,2,0,L|267:132,1,93.9999985656739,10|0,1:2|0:0,0:0:0:0:
157,135,277618,2,0,L|267:132,1,93.9999985656739
44,234,277818,2,0,L|144:197,1,93.9999985656739,2|0,1:0|1:0,0:0:0:0:
218,160,278018,2,0,L|318:123,1,93.9999985656739
127,309,278218,2,0,L|27:272,1,93.9999985656739,10|0,1:2|0:0,0:0:0:0:
235,264,278418,2,0,L|135:227,1,93.9999985656739
401,216,278618,6,0,L|301:179,1,93.9999985656739,2|0,1:0|0:0,0:0:0:0:
122,105,278818,2,0,L|22:68,1,93.9999985656739
224,149,279018,1,10,1:2:0:0:
393,145,279118,1,0,0:0:0:0:
224,149,279218,2,0,L|324:112,1,93.9999985656739
16,192,279418,1,2,1:0:0:0:
176,193,279518,1,0,1:0:0:0:
336,192,279618,1,0,0:0:0:0:
496,192,279718,1,0,0:0:0:0:
165,301,279818,1,10,1:2:0:0:
349,296,279918,1,0,0:0:0:0:
165,301,280018,1,0,0:0:0:0:
349,296,280118,1,0,0:0:0:0:
115,100,280218,6,0,L|15:63,1,93.9999985656739,0|0,1:0|0:0,0:0:0:0:
125,193,280418,2,0,L|114:90,1,93.9999985656739
301,240,280618,2,0,L|414:248,1,93.9999985656739,8|0,1:2|0:0,0:0:0:0:
301,240,280818,2,0,L|414:248,1,93.9999985656739
193,148,281018,2,0,L|306:156,1,93.9999985656739,0|0,1:0|1:0,0:0:0:0:
302,215,281218,1,0,0:0:0:0:
287,154,281318,1,0,0:0:0:0:
71,98,281418,2,0,L|69:74,1,23.4999996414185,8|0,1:2|0:0,0:0:0:0:
239,98,281518,2,0,L|242:74,1,23.4999996414185
71,98,281618,2,0,L|68:71,1,23.4999996414185
201,97,281718,2,0,L|204:71,1,23.4999996414185
34,191,281818,5,2,1:0:0:0:
222,199,281918,1,2,0:0:0:0:
305,201,282018,1,2,0:0:0:0:
24,234,282218,1,2,0:0:0:0:
365,126,282418,2,0,P|436:183|361:217,1,187.999997131348,2|10,0:0|0:0,0:0:0:0:
289,218,282718,1,8,0:0:0:0:
103,204,282818,1,8,0:0:0:0:
196,211,282918,1,8,0:0:0:0:
380,223,283018,6,0,B|81:199|81:199|65:32,1,450.000017166138,10|2,0:1|0:0,0:0:0:0:
413,273,283418,6,0,P|454:210|379:104,1,194.999991073609,6|0,1:0|0:0,0:0:0:0:
236,108,283818,2,0,L|343:183,2,129.999994049073,10|0|2,1:2|0:0|1:0,0:0:0:0:
132,115,284318,1,0,0:0:0:0:
236,108,284418,1,0,0:0:0:0:
340,101,284518,1,0,0:0:0:0:
131,135,284618,2,0,L|144:228,1,64.9999970245363,10|0,1:2|0:0,0:0:0:0:
323,205,284818,2,0,L|303:295,1,64.9999970245363
99,273,285018,6,0,P|40:235|136:172,1,194.999991073609,2|0,1:0|0:0,0:0:0:0:
271,153,285418,2,0,L|142:153,1,129.999994049073,10|0,1:2|0:0,0:0:0:0:
430,200,285818,2,0,L|436:129,1,64.9999970245363,2|0,1:0|0:0,0:0:0:0:
271,108,286018,1,8,0:0:0:0:
108,112,286118,1,8,0:0:0:0:
331,88,286218,2,0,L|438:86,1,80,10|0,1:2|0:0,0:0:0:0:
212,65,286418,2,0,L|103:60,1,80
355,210,286618,6,0,P|313:155|183:154,1,194.999991073609,2|0,1:0|0:0,0:0:0:0:
364,178,287018,1,10,1:2:0:0:
369,85,287218,1,0,0:0:0:0:
310,83,287318,1,0,0:0:0:0:
135,162,287418,6,0,L|307:160,1,129.999994049073,2|0,1:0|0:0,0:0:0:0:
439,160,287718,1,0,0:0:0:0:
265,160,287818,2,0,L|246:79,1,64.9999970245363,10|0,1:2|0:0,0:0:0:0:
426,113,288018,2,0,L|408:31,1,64.9999970245363
147,168,288218,5,2,1:0:0:0:
137,135,288268,1,0,0:0:0:0:
147,168,288318,1,0,0:0:0:0:
185,181,288368,1,0,0:0:0:0:
245,180,288418,1,0,0:0:0:0:
167,138,288518,1,0,0:0:0:0:
339,109,288618,5,10,1:2:0:0:
241,96,288718,1,0,0:0:0:0:
142,109,288818,1,0,0:0:0:0:
241,96,288918,1,0,0:0:0:0:
410,70,289018,2,0,L|384:97,2,32.4999985122681,2|0|0,1:0|0:0|0:0,0:0:0:0:
106,44,289218,2,0,L|131:69,2,32.4999985122681
326,67,289418,1,10,1:2:0:0:
241,68,289518,1,0,0:0:0:0:
319,67,289618,1,0,0:0:0:0:
261,67,289718,1,0,0:0:0:0:
63,206,289818,6,0,P|134:140|229:143,1,194.999991073609,6|0,1:0|0:0,0:0:0:0:
395,141,290218,1,10,1:2:0:0:
266,139,290418,1,0,0:0:0:0:
329,140,290518,1,0,0:0:0:0:
170,179,290618,5,2,1:0:0:0:
100,65,290718,1,0,0:0:0:0:
167,60,290818,1,0,0:0:0:0:
239,60,290918,1,0,0:0:0:0:
62,87,291018,2,0,L|75:180,1,64.9999970245363,10|0,1:2|0:0,0:0:0:0:
243,158,291218,2,0,L|223:248,1,64.9999970245363
40,256,291418,6,0,L|40:237,1,16.2499992561341,2|0,1:0|0:0,0:0:0:0:
118,232,291518,1,0,0:0:0:0:
286,183,291618,2,0,L|270:180,1,16.2499992561341
212,173,291718,1,0,0:0:0:0:
381,208,291818,2,0,L|388:75,1,129.999994049073,10|0,1:2|0:0,0:0:0:0:
314,70,292118,1,0,0:0:0:0:
107,158,292218,6,0,L|247:155,1,129.999994049073,2|0,1:0|0:0,0:0:0:0:
436,157,292518,1,0,0:0:0:0:
264,198,292618,2,0,L|196:200,1,64.9999970245363,10|0,1:2|0:0,0:0:0:0:
381,208,292818,2,0,L|400:134,1,64.9999970245363
203,273,293018,5,2,1:0:0:0:
172,267,293068,1,0,0:0:0:0:
149,244,293118,1,0,0:0:0:0:
144,213,293168,1,0,0:0:0:0:
157,184,293218,1,0,0:0:0:0:
185,168,293268,1,0,0:0:0:0:
305,165,293318,1,0,0:0:0:0:
141,185,293418,6,0,L|239:96,1,129.999994049073,10|0,1:2|0:0,0:0:0:0:
408,94,293718,1,0,0:0:0:0:
224,173,293818,1,2,1:0:0:0:
266,175,293868,1,0,0:0:0:0:
305,165,293918,1,0,0:0:0:0:
334,132,293968,1,0,0:0:0:0:
323,81,294018,1,0,0:0:0:0:
274,50,294068,1,0,0:0:0:0:
154,53,294118,1,0,0:0:0:0:
330,105,294218,6,0,L|397:102,1,64.9999970245363,10|0,1:2|0:0,0:0:0:0:
157,127,294418,2,0,L|150:61,1,64.9999970245363
358,137,294618,2,0,L|368:115,1,16.2499992561341,2|0,1:0|0:0,0:0:0:0:
50,128,294818,1,0,0:0:0:0:
38,102,294843,6,0,L|322:103,1,262.500010013581,0|10,0:0|1:2,0:0:0:0:
336,102,295068,1,0,0:0:0:0:
372,101,295118,1,0,0:0:0:0:
93,98,295218,2,0,L|53:97,2,32.4999985122681
269,163,295418,2,0,L|200:163,1,64.9999970245363,2|0,1:0|0:0,0:0:0:0:
382,129,295618,2,0,L|313:129,1,64.9999970245363
130,127,295818,2,0,L|96:57,3,64.9999970245363,10|0|0|0,1:2|0:0|0:0|0:0,0:0:0:0:
306,171,296218,6,0,L|108:166,1,194.999991073609,6|0,1:2|0:0,0:0:0:0:
300,133,296618,1,10,1:2:0:0:
182,121,296818,1,0,0:0:0:0:
192,69,296918,1,0,0:0:0:0:
382,111,297018,5,2,1:0:0:0:
363,59,297118,1,0,0:0:0:0:
300,56,297218,1,0,0:0:0:0:
124,59,297318,1,0,0:0:0:0:
322,120,297418,2,0,L|249:112,1,64.9999970245363,10|0,1:2|0:0,0:0:0:0:
60,113,297618,2,0,L|133:105,1,64.9999970245363
320,197,297818,6,0,P|443:129|444:85,1,194.999991073609,2|0,1:0|0:0,0:0:0:0:
284,97,298218,2,0,L|216:96,1,64.9999970245363,10|0,1:2|0:0,0:0:0:0:
386,53,298418,2,0,L|316:52,1,64.9999970245363
127,77,298618,6,0,L|126:59,1,16.2499992561341,2|0,1:0|0:0,0:0:0:0:
131,176,298818,1,8,0:0:0:0:
325,169,298918,1,8,0:0:0:0:
131,176,299018,2,0,L|109:169,1,16.2499992561341,10|0,1:0|0:0,0:0:0:0:
426,136,299218,2,0,L|445:129,1,16.2499992561341
443,88,299318,1,0,0:0:0:0:
231,64,299418,6,0,L|431:59,1,194.999991073609,2|0,1:0|0:0,0:0:0:0:
251,158,299818,2,0,L|245:92,1,64.9999970245363,10|0,1:2|0:0,0:0:0:0:
316,91,300018,1,0,0:0:0:0:
486,90,300118,1,0,0:0:0:0:
298,91,300218,6,0,L|100:84,1,194.999991073609,2|0,1:0|0:0,0:0:0:0:
315,107,300618,2,0,L|299:175,1,64.9999970245363,10|0,1:2|0:0,0:0:0:0:
103,169,300818,2,0,L|182:172,1,64.9999970245363
365,156,301018,6,0,L|232:156,1,129.999994049073,2|0,1:0|0:0,0:0:0:0:
59,155,301318,1,0,0:0:0:0:
226,260,301418,2,0,P|213:184|165:149,1,129.999994049073,10|0,1:2|0:0,0:0:0:0:
66,115,301718,1,0,0:0:0:0:
271,272,301818,2,0,B|270:-2|270:-2|18:150|18:150|475:146|475:146|436:141,1,1050.00004005432,2|0,1:0|0:0,0:0:0:0:
276,147,302618,5,6,1:0:0:0:
261,95,302718,1,0,0:0:0:0:
318,78,302818,1,0,0:0:0:0:
485,76,302918,1,0,0:0:0:0:
318,78,303018,2,0,L|251:78,1,64.9999970245363,10|0,1:2|0:0,0:0:0:0:
417,119,303218,2,0,L|403:183,1,64.9999970245363
209,174,303418,5,2,1:0:0:0:
241,146,303518,1,0,0:0:0:0:
286,128,303618,1,0,0:0:0:0:
461,126,303718,1,0,0:0:0:0:
258,116,303818,2,0,L|258:38,1,64.9999970245363,10|0,1:2|0:0,0:0:0:0:
463,68,304018,2,0,L|390:71,1,64.9999970245363
200,213,304218,5,6,1:0:0:0:
175,160,304318,1,0,0:0:0:0:
198,111,304418,1,0,0:0:0:0:
259,95,304518,1,0,0:0:0:0:
481,176,304618,1,10,1:2:0:0:
464,117,304718,1,0,0:0:0:0:
398,95,304818,1,0,0:0:0:0:
228,91,304918,1,0,0:0:0:0:
52,97,305018,6,0,L|130:100,1,64.9999970245363,2|0,1:0|0:0,0:0:0:0:
317,97,305218,2,0,L|396:94,1,64.9999970245363
166,150,305418,2,0,L|244:153,1,64.9999970245363,10|0,1:2|0:0,0:0:0:0:
408,152,305618,1,0,0:0:0:0:
481,150,305718,1,0,0:0:0:0:
232,229,305818,6,0,L|227:203,4,16.2499992561341,6|0|0|0|0,1:0|0:0|0:0|0:0|0:0,0:0:0:0:
310,230,306018,1,0,0:0:0:0:
232,229,306118,1,2,0:0:0:0:
53,238,306218,2,0,L|58:163,1,64.9999970245363,0|2,0:0|0:0,0:0:0:0:
155,177,306418,2,0,L|160:102,1,64.9999970245363,2|0,0:0|0:0,0:0:0:0:
344,148,306618,1,2,0:0:0:0:
273,148,306718,1,0,0:0:0:0:
271,76,306818,1,0,0:0:0:0:
343,70,306918,1,0,0:0:0:0:
123,74,307018,6,0,L|98:43,2,32.4999985122681,2|0|0,0:0|0:0|0:0,0:0:0:0:
341,60,307218,2,0,L|314:29,2,32.4999985122681,2|0|0,0:0|0:0|0:0,0:0:0:0:
102,198,307418,6,0,L|111:128,1,64.9999970245363,2|0,1:0|0:0,0:0:0:0:
207,132,307618,2,0,L|216:62,1,64.9999970245363
34,75,307818,2,0,L|100:110,1,64.9999970245363,8|0,1:2|0:0,0:0:0:0:
177,68,308018,1,2,0:0:0:0:
360,66,308118,1,2,0:0:0:0:
120,132,308218,6,0,L|196:124,1,64.9999970245363,10|8,1:0|0:0,0:0:0:0:
433,102,308418,2,0,L|363:95,1,64.9999970245363,8|8,0:0|0:0,0:0:0:0:
67,192,308618,1,12,1:0:0:0:
134,193,308718,1,0,1:0:0:0:
55,153,308818,1,0,1:0:0:0:
138,146,308918,1,0,1:0:0:0:
465,142,309018,1,6,1:0:0:0:
256,192,309118,12,0,312218,0:0:0:0:
