osu file format v14

[General]
AudioFilename: audio.mp3
AudioLeadIn: 0
PreviewTime: -1
Countdown: 1
SampleSet: Normal
StackLeniency: 0.7
Mode: 1
LetterboxInBreaks: 0
WidescreenStoryboard: 0

[Editor]
DistanceSpacing: 0.3
BeatDivisor: 4
GridSize: 4
TimelineZoom: 2.2

[Metadata]
Title:Ultra Funktion Pt.2
TitleUnicode:Ultra Funktion Pt.2
Artist:lapix
ArtistUnicode:lapix
Creator:goheegy
Version:lol
Source:
Tags:
BeatmapID:1330797
BeatmapSetID:630396

[Difficulty]
HPDrainRate:3
CircleSize:5
OverallDifficulty:6
ApproachRate:5
SliderMultiplier:1.4
SliderTickRate:1

[Events]
//Background and Video events
0,0,"f9769d93657e22d648ef1c598e2008c3.jpg",0,0
//Break Periods
//Storyboard Layer 0 (Background)
//Storyboard Layer 1 (Fail)
//Storyboard Layer 2 (Pass)
//Storyboard Layer 3 (Foreground)
//Storyboard Sound Samples

[TimingPoints]
1004,375,4,1,1,100,1,0
1004,-111.111111111111,4,1,1,100,0,0
13004,-100,4,1,1,100,0,0
25004,-50,4,1,1,100,0,0
25066,-100,4,1,1,100,0,0
25754,-50,4,1,1,100,0,0
25846,-100,4,1,1,100,0,0
26503,-50,4,1,1,100,0,0
26597,-100,4,1,1,100,0,0
26878,-50,4,1,1,100,0,0
26971,-100,4,1,1,100,0,0
27253,-50,4,1,1,100,0,0
27346,-100,4,1,1,100,0,0
27440,-44.4444444444445,4,1,1,100,0,0
27534,-100,4,1,1,100,0,0
27628,-40,4,1,1,100,0,0
27721,-36.3636363636364,4,1,1,100,0,0
27815,-33.3333333333333,4,1,1,100,0,0
27909,-30.7692307692308,4,1,1,100,0,0
28003,-28.5714285714286,4,1,1,100,0,0
28379,-100,4,1,1,100,0,0
28566,-50,4,1,1,100,0,0
28660,-100,4,1,1,100,0,0
28941,-50,4,1,1,100,0,0
29035,-100,4,1,1,100,0,0
29316,-50,4,1,1,100,0,0
29410,-100,4,1,1,100,0,0
29691,-50,4,1,1,100,0,0
29785,-100,4,1,1,100,0,0
30066,-50,4,1,1,100,0,0
30160,-100,4,1,1,100,0,0
32129,-90.9090909090909,4,1,1,100,0,0
32254,-90.9090909090909,4,1,1,100,0,0
32441,-100,4,1,1,100,0,0
33441,-90.9090909090909,4,1,1,100,0,0
33566,-100,4,1,1,100,0,0
35129,-90.9090909090909,4,1,1,100,0,0
35254,-83.3333333333333,4,1,1,100,0,0
35441,-100,4,1,1,100,0,0
36441,-90.9090909090909,4,1,1,100,0,0
36566,-100,4,1,1,100,0,0
38129,-90.9090909090909,4,1,1,100,0,0
38254,-83.3333333333333,4,1,1,100,0,0
38441,-100,4,1,1,100,0,0
39441,-90.9090909090909,4,1,1,100,0,0
39566,-100,4,1,1,100,0,0
41129,-90.9090909090909,4,1,1,100,0,0
41254,-83.3333333333333,4,1,1,100,0,0
41441,-100,4,1,1,100,0,0
42441,-90.9090909090909,4,1,1,100,0,0
42566,-100,4,1,1,100,0,0
44129,-90.9090909090909,4,1,1,100,0,0
44254,-83.3333333333333,4,1,1,100,0,0
44441,-100,4,1,1,100,0,0
45441,-90.9090909090909,4,1,1,100,0,0
45566,-100,4,1,1,100,0,0
47129,-90.9090909090909,4,1,1,100,0,0
47254,-83.3333333333333,4,1,1,100,0,0
47441,-100,4,1,1,100,0,0
48441,-90.9090909090909,4,1,1,100,0,0
48566,-100,4,1,1,100,0,0
50129,-90.9090909090909,4,1,1,100,0,0
50254,-83.3333333333333,4,1,1,100,0,0
50441,-100,4,1,1,100,0,0
51441,-90.9090909090909,4,1,1,100,0,0
51566,-100,4,1,1,100,0,0
53129,-90.9090909090909,4,1,1,100,0,0
53254,-83.3333333333333,4,1,1,100,0,0
53441,-100,4,1,1,100,0,0
54441,-95.2380952380952,4,1,1,100,0,0
54629,-90.9090909090909,4,1,1,100,0,0
54691,-83.3333333333333,4,1,1,100,0,0
54754,-76.9230769230769,4,1,1,100,0,0
54816,-71.4285714285714,4,1,1,100,0,0
54879,-66.6666666666667,4,1,1,100,0,0
54941,-62.5,4,1,1,100,0,0
55004,-25,4,1,1,100,0,0
55191,-100,4,1,1,100,0,0
62504,-40,4,1,1,100,0,0
64004,-100,4,1,1,100,0,0
65504,-40,4,1,1,100,0,0
65691,-100,4,1,1,100,0,0
65754,-40,4,1,1,100,0,0
65941,-100,4,1,1,100,0,0
66004,-40,4,1,1,100,0,0
66254,-100,4,1,1,100,0,0
66316,-40,4,1,1,100,0,0
66504,-100,4,1,1,100,0,0
66566,-40,4,1,1,100,0,0
67004,-100,4,1,1,100,0,0
68504,-40,4,1,1,100,0,0
70004,-100,4,1,1,100,0,0
71504,-40,4,1,1,100,0,0
71691,-100,4,1,1,100,0,0
71754,-40,4,1,1,100,0,0
71941,-100,4,1,1,100,0,0
72004,-40,4,1,1,100,0,0
72254,-100,4,1,1,100,0,0
72316,-40,4,1,1,100,0,0
72525,-100,4,1,1,100,0,0
72566,-40,4,1,1,100,0,0
72816,-100,4,1,1,100,0,0
74504,-66.6666666666667,4,1,1,100,0,0
74597,-100,4,1,1,100,0,0
74785,-66.6666666666667,4,1,1,100,0,0
74879,-100,4,1,1,100,0,0
75066,-66.6666666666667,4,1,1,100,0,0
75160,-100,4,1,1,100,0,0
75347,-66.6666666666667,4,1,1,100,0,0
75441,-100,4,1,1,100,0,0
75629,-66.6666666666667,4,1,1,100,0,0
75722,-100,4,1,1,100,0,0
77504,-66.6666666666667,4,1,1,100,0,0
77597,-100,4,1,1,100,0,0
77785,-66.6666666666667,4,1,1,100,0,0
77879,-100,4,1,1,100,0,0
78066,-66.6666666666667,4,1,1,100,0,0
78160,-100,4,1,1,100,0,0
78347,-66.6666666666667,4,1,1,100,0,0
78441,-100,4,1,1,100,0,0
78629,-66.6666666666667,4,1,1,100,0,0
78722,-100,4,1,1,100,0,0
79754,-99.009900990099,4,1,1,100,0,0
79847,-98.0392156862745,4,1,1,100,0,0
79941,-97.0873786407767,4,1,1,100,0,0
80504,-96.1538461538461,4,1,1,100,0,0
80597,-95.2380952380952,4,1,1,100,0,0
80691,-94.3396226415094,4,1,1,100,0,0
81254,-93.4579439252336,4,1,1,100,0,0
81347,-92.5925925925926,4,1,1,100,0,0
81441,-91.743119266055,4,1,1,100,0,0
82004,-90.9090909090909,4,1,1,100,0,0
82379,-89.2857142857143,4,1,1,100,0,0
82754,-87.719298245614,4,1,1,100,0,0
83129,-86.2068965517241,4,1,1,100,0,0
83504,-84.7457627118644,4,1,1,100,0,0
84441,-100,4,1,1,100,0,0
84629,-50,4,1,1,100,0,0
85004,-100,4,1,1,100,0,1
95504,-83.3333333333333,4,1,1,100,0,0
95879,-71.4285714285714,4,1,1,100,0,0
96254,-62.5,4,1,1,100,0,0
96629,-55.5555555555556,4,1,1,100,0,0
97004,-100,4,1,1,100,0,0
99816,-100,4,1,1,100,0,1
109004,-100,4,1,1,100,0,0
116504,-95.2380952380952,4,1,1,100,0,0
118004,-90.9090909090909,4,1,1,100,0,0
119504,-86.9565217391304,4,1,1,100,0,0
121004,-111.111111111111,4,1,1,100,0,0
133004,-100,4,1,1,100,0,0
143410,-25,4,1,1,100,0,0
144347,-100,4,1,1,100,0,0
163004,-50,4,1,1,100,0,0
163097,-100,4,1,1,100,0,0
163754,-50,4,1,1,100,0,0
163847,-100,4,1,1,100,0,0
164504,-50,4,1,1,100,0,0
164691,-100,4,1,1,100,0,0
164879,-50,4,1,1,100,0,0
165066,-100,4,1,1,100,0,0
165254,-50,4,1,1,100,0,0
165441,-100,4,1,1,100,0,0
165535,-95.2380952380952,4,1,1,100,0,0
165629,-90.9090909090909,4,1,1,100,0,0
165722,-86.9565217391304,4,1,1,100,0,0
165816,-83.3333333333333,4,1,1,100,0,0
165910,-25,4,1,1,100,0,0
167222,-100,4,1,1,100,0,0
167504,-40,4,1,1,100,0,0
167879,-50,4,1,1,100,0,0
168254,-66.6666666666667,4,1,1,100,0,0
168629,-100,4,1,1,100,0,0
193379,-90.9090909090909,4,1,1,100,0,0
193454,-100,4,1,1,100,0,0
193671,-90.9090909090909,4,1,1,100,0,0
193847,-100,4,1,1,100,0,0
194129,-90.9090909090909,4,1,1,100,0,0
194222,-100,4,1,1,100,0,0
194504,-90.9090909090909,4,1,1,100,0,0
194597,-100,4,1,1,100,0,0
194879,-90.9090909090909,4,1,1,100,0,0
194972,-100,4,1,1,100,0,0
195254,-90.9090909090909,4,1,1,100,0,0
195347,-100,4,1,1,100,0,0
195629,-90.9090909090909,4,1,1,100,0,0
195722,-100,4,1,1,100,0,0
196004,-90.9090909090909,4,1,1,100,0,0
196097,-100,4,1,1,100,0,0
196379,-90.9090909090909,4,1,1,100,0,0
196472,-100,4,1,1,100,0,0
196754,-90.9090909090909,4,1,1,100,0,0
196847,-100,4,1,1,100,0,0
197129,-90.9090909090909,4,1,1,100,0,0
197222,-100,4,1,1,100,0,0
197504,-90.9090909090909,4,1,1,100,0,0
197597,-100,4,1,1,100,0,0
197879,-90.9090909090909,4,1,1,100,0,0
197972,-100,4,1,1,100,0,0
198254,-90.9090909090909,4,1,1,100,0,0
198347,-100,4,1,1,100,0,0
198629,-90.9090909090909,4,1,1,100,0,0
198722,-100,4,1,1,100,0,0
199004,-90.9090909090909,4,1,1,100,0,0
199097,-100,4,1,1,100,0,0
199379,-90.9090909090909,4,1,1,100,0,0
199472,-100,4,1,1,100,0,0
199754,-90.9090909090909,4,1,1,100,0,0
199847,-100,4,1,1,100,0,0
200129,-90.9090909090909,4,1,1,100,0,0
200222,-100,4,1,1,100,0,0
200504,-90.9090909090909,4,1,1,100,0,0
200597,-100,4,1,1,100,0,0
200879,-90.9090909090909,4,1,1,100,0,0
200972,-100,4,1,1,100,0,0
201254,-90.9090909090909,4,1,1,100,0,0
201347,-100,4,1,1,100,0,0
202004,-90.9090909090909,4,1,1,100,0,0
202097,-100,4,1,1,100,0,0
202379,-90.9090909090909,4,1,1,100,0,0
202472,-100,4,1,1,100,0,0
202754,-90.9090909090909,4,1,1,100,0,0
202847,-100,4,1,1,100,0,0
203129,-90.9090909090909,4,1,1,100,0,0
203222,-100,4,1,1,100,0,0
203504,-90.9090909090909,4,1,1,100,0,0
203691,-100,4,1,1,100,0,0
203879,-90.9090909090909,4,1,1,100,0,0
204066,-100,4,1,1,100,0,0
204254,-90.9090909090909,4,1,1,100,0,0
204441,-100,4,1,1,100,0,0
204629,-90.9090909090909,4,1,1,100,0,0
204722,-100,4,1,1,100,0,0
205004,-90.9090909090909,4,1,1,100,0,0
205097,-100,4,1,1,100,0,0
205379,-90.9090909090909,4,1,1,100,0,0
205472,-100,4,1,1,100,0,0
205754,-90.9090909090909,4,1,1,100,0,0
205847,-100,4,1,1,100,0,0
206129,-90.9090909090909,4,1,1,100,0,0
206222,-100,4,1,1,100,0,0
206504,-90.9090909090909,4,1,1,100,0,0
206597,-100,4,1,1,100,0,0
206879,-90.9090909090909,4,1,1,100,0,0
206972,-100,4,1,1,100,0,0
207254,-90.9090909090909,4,1,1,100,0,0
207347,-100,4,1,1,100,0,0
207629,-90.9090909090909,4,1,1,100,0,0
207722,-100,4,1,1,100,0,0
208004,-90.9090909090909,4,1,1,100,0,0
208097,-100,4,1,1,100,0,0
208379,-90.9090909090909,4,1,1,100,0,0
208472,-100,4,1,1,100,0,0
208754,-90.9090909090909,4,1,1,100,0,0
208847,-100,4,1,1,100,0,0
209129,-90.9090909090909,4,1,1,100,0,0
209222,-100,4,1,1,100,0,0
209504,-90.9090909090909,4,1,1,100,0,0
209597,-100,4,1,1,100,0,0
209879,-90.9090909090909,4,1,1,100,0,0
209972,-100,4,1,1,100,0,0
210254,-90.9090909090909,4,1,1,100,0,0
210347,-100,4,1,1,100,0,0
210629,-90.9090909090909,4,1,1,100,0,0
210722,-100,4,1,1,100,0,0
211004,-90.9090909090909,4,1,1,100,0,0
211097,-100,4,1,1,100,0,0
211379,-90.9090909090909,4,1,1,100,0,0
211472,-100,4,1,1,100,0,0
216250,-90.9090909090909,4,1,1,100,0,0
217089,-100,4,1,1,100,0,0
217379,-90.9090909090909,4,1,1,100,0,0
217465,-100,4,1,1,100,0,0
217754,-90.9090909090909,4,1,1,100,0,0
217841,-100,4,1,1,100,0,0
218129,-90.9090909090909,4,1,1,100,0,0
218216,-100,4,1,1,100,0,0
218504,-90.9090909090909,4,1,1,100,0,0
218591,-100,4,1,1,100,0,0
218879,-90.9090909090909,4,1,1,100,0,0
218956,-100,4,1,1,100,0,0
219254,-90.9090909090909,4,1,1,100,0,0
219331,-100,4,1,1,100,0,0
219629,-90.9090909090909,4,1,1,100,0,0
219709,-100,4,1,1,100,0,0
220004,-90.9090909090909,4,1,1,100,0,0
220088,-100,4,1,1,100,0,0
220379,-90.9090909090909,4,1,1,100,0,0
220464,-100,4,1,1,100,0,0
220754,-90.9090909090909,4,1,1,100,0,0
220838,-100,4,1,1,100,0,0
221129,-90.9090909090909,4,1,1,100,0,0
221213,-100,4,1,1,100,0,0
221504,-90.9090909090909,4,1,1,100,0,0
221588,-100,4,1,1,100,0,0
221879,-90.9090909090909,4,1,1,100,0,0
221963,-100,4,1,1,100,0,0
222254,-90.9090909090909,4,1,1,100,0,0
222339,-100,4,1,1,100,0,0
222629,-90.9090909090909,4,1,1,100,0,0
222713,-100,4,1,1,100,0,0
223004,-90.9090909090909,4,1,1,100,0,0
223089,-100,4,1,1,100,0,0
223379,-90.9090909090909,4,1,1,100,0,0
223464,-100,4,1,1,100,0,0
223754,-90.9090909090909,4,1,1,100,0,0
223838,-100,4,1,1,100,0,0
224129,-90.9090909090909,4,1,1,100,0,0
224213,-100,4,1,1,100,0,0
224504,-90.9090909090909,4,1,1,100,0,0
224588,-100,4,1,1,100,0,0
224879,-90.9090909090909,4,1,1,100,0,0
224963,-100,4,1,1,100,0,0
225254,-90.9090909090909,4,1,1,100,0,0
225338,-100,4,1,1,100,0,0
225629,-90.9090909090909,4,1,1,100,0,0
225710,-100,4,1,1,100,0,0
226004,-90.9090909090909,4,1,1,100,0,0
226086,-100,4,1,1,100,0,0
226379,-90.9090909090909,4,1,1,100,0,0
226463,-100,4,1,1,100,0,0
226754,-90.9090909090909,4,1,1,100,0,0
226835,-100,4,1,1,100,0,0
227129,-90.9090909090909,4,1,1,100,0,0
227209,-100,4,1,1,100,0,0
227504,-90.9090909090909,4,1,1,100,0,0
227585,-100,4,1,1,100,0,0
227879,-90.9090909090909,4,1,1,100,0,0
227963,-100,4,1,1,100,0,0
228254,-90.9090909090909,4,1,1,100,0,0
228338,-100,4,1,1,100,0,0
228629,-90.9090909090909,4,1,1,100,0,0
228708,-100,4,1,1,100,0,0
229004,-90.9090909090909,4,1,1,100,0,0
229089,-100,4,1,1,100,0,0
229379,-90.9090909090909,4,1,1,100,0,0
229559,-100,4,1,1,100,0,0
229754,-90.9090909090909,4,1,1,100,0,0
229838,-100,4,1,1,100,0,0
230129,-90.9090909090909,4,1,1,100,0,0
230316,-100,4,1,1,100,0,0
230504,-90.9090909090909,4,1,1,100,0,0
230597,-100,4,1,1,100,0,0
230879,-90.9090909090909,4,1,1,100,0,0
231066,-100,4,1,1,100,0,0
231254,-90.9090909090909,4,1,1,100,0,0
231347,-100,4,1,1,100,0,0
231629,-90.9090909090909,4,1,1,100,0,0
231816,-100,4,1,1,100,0,0
232004,-90.9090909090909,4,1,1,100,0,0
232097,-100,4,1,1,100,0,0
232379,-90.9090909090909,4,1,1,100,0,0
232566,-100,4,1,1,100,0,0
232754,-90.9090909090909,4,1,1,100,0,0
232847,-100,4,1,1,100,0,0
233129,-90.9090909090909,4,1,1,100,0,0
233316,-100,4,1,1,100,0,0
233504,-90.9090909090909,4,1,1,100,0,0
233597,-100,4,1,1,100,0,0
233879,-90.9090909090909,4,1,1,100,0,0
234066,-100,4,1,1,100,0,0
234254,-90.9090909090909,4,1,1,100,0,0
234347,-100,4,1,1,100,0,0
234629,-90.9090909090909,4,1,1,100,0,0
234816,-100,4,1,1,100,0,0
235004,-90.9090909090909,4,1,1,100,0,0
235097,-100,4,1,1,100,0,0
235379,-90.9090909090909,4,1,1,100,0,0
235566,-100,4,1,1,100,0,0
241004,-50,4,1,1,100,0,0

[HitObjects]
240,184,1004,5,0,0:0:0:0:
240,184,1379,1,8,0:0:0:0:
240,184,1754,1,8,0:0:0:0:
240,184,1847,1,0,0:0:0:0:
240,184,2035,1,8,0:0:0:0:
216,248,2316,1,0,0:0:0:0:
216,248,2410,1,8,0:0:0:0:
208,236,2597,1,8,0:0:0:0:
208,236,2644,1,8,0:0:0:0:
224,164,2879,1,0,0:0:0:0:
216,264,3066,1,8,0:0:0:0:
216,264,3160,1,0,0:0:0:0:
240,252,3347,1,0,0:0:0:0:
240,252,3441,1,0,0:0:0:0:
240,252,3535,1,8,0:0:0:0:
240,252,3629,1,0,0:0:0:0:
240,192,4004,1,0,0:0:0:0:
240,192,4379,1,8,0:0:0:0:
192,136,4754,1,8,0:0:0:0:
192,136,4847,1,0,0:0:0:0:
192,136,5035,1,8,0:0:0:0:
192,136,5222,1,8,0:0:0:0:
192,136,5316,1,8,0:0:0:0:
192,136,5410,1,0,0:0:0:0:
280,176,5504,1,8,0:0:0:0:
344,136,5597,1,0,0:0:0:0:
344,136,5785,1,0,0:0:0:0:
224,96,5972,1,0,0:0:0:0:
224,96,6160,1,8,0:0:0:0:
248,176,6254,1,0,0:0:0:0:
248,176,6347,1,8,0:0:0:0:
248,176,6441,1,0,0:0:0:0:
192,120,6535,1,0,0:0:0:0:
72,192,6629,1,0,0:0:0:0:
184,160,6722,1,8,0:0:0:0:
184,160,6816,1,0,0:0:0:0:
168,180,7004,1,0,0:0:0:0:
168,180,7379,1,8,0:0:0:0:
204,180,7754,1,8,0:0:0:0:
204,180,7847,1,0,0:0:0:0:
204,180,8035,1,8,0:0:0:0:
204,180,8316,1,8,0:0:0:0:
204,180,8410,1,0,0:0:0:0:
264,172,8597,1,8,0:0:0:0:
264,172,8644,1,8,0:0:0:0:
284,108,8879,1,8,0:0:0:0:
184,180,9066,1,8,0:0:0:0:
184,180,9160,1,0,0:0:0:0:
228,160,9347,1,0,0:0:0:0:
228,160,9441,1,0,0:0:0:0:
228,160,9535,1,8,0:0:0:0:
228,160,9629,1,0,0:0:0:0:
228,168,9816,1,0,0:0:0:0:
228,168,9910,1,8,0:0:0:0:
188,180,10004,1,0,0:0:0:0:
332,204,10379,1,8,0:0:0:0:
280,240,10754,1,8,0:0:0:0:
280,240,10847,1,0,0:0:0:0:
280,240,11035,1,8,0:0:0:0:
236,212,11222,1,8,0:0:0:0:
236,212,11316,1,0,0:0:0:0:
236,212,11410,1,0,0:0:0:0:
236,212,11597,1,0,0:0:0:0:
236,212,11785,1,8,0:0:0:0:
236,212,11879,1,0,0:0:0:0:
236,212,12066,1,0,0:0:0:0:
236,212,12160,1,8,0:0:0:0:
224,200,12347,1,8,0:0:0:0:
224,200,12441,1,0,0:0:0:0:
224,200,12535,1,8,0:0:0:0:
224,200,12629,1,8,0:0:0:0:
220,200,12722,1,0,0:0:0:0:
240,244,13004,1,0,0:0:0:0:
240,244,13379,1,8,0:0:0:0:
200,160,13754,1,8,0:0:0:0:
200,160,13847,1,0,0:0:0:0:
200,160,14035,1,8,0:0:0:0:
200,160,14316,1,0,0:0:0:0:
200,160,14410,1,8,0:0:0:0:
200,160,14597,1,8,0:0:0:0:
224,196,14644,1,8,0:0:0:0:
200,160,14879,1,0,0:0:0:0:
200,160,15160,1,0,0:0:0:0:
216,176,15347,1,0,0:0:0:0:
216,176,15441,1,8,0:0:0:0:
216,176,15535,1,0,0:0:0:0:
216,176,15629,1,0,0:0:0:0:
188,232,16004,1,0,0:0:0:0:
188,232,16379,1,8,0:0:0:0:
188,232,16754,1,8,0:0:0:0:
188,232,16847,1,0,0:0:0:0:
168,204,17035,1,8,0:0:0:0:
212,236,17222,1,8,0:0:0:0:
212,236,17316,1,8,0:0:0:0:
212,236,17410,1,0,0:0:0:0:
212,236,17504,1,8,0:0:0:0:
100,224,17597,1,0,0:0:0:0:
100,224,17785,1,0,0:0:0:0:
208,96,17879,1,8,0:0:0:0:
208,96,17972,1,0,0:0:0:0:
168,160,18160,1,8,0:0:0:0:
168,152,18254,1,0,0:0:0:0:
244,172,18347,1,8,0:0:0:0:
244,172,18441,1,0,0:0:0:0:
244,172,18535,1,8,0:0:0:0:
244,172,18629,1,0,0:0:0:0:
244,172,18722,1,0,0:0:0:0:
244,172,18816,1,8,0:0:0:0:
232,168,18910,1,0,0:0:0:0:
232,268,19004,1,0,0:0:0:0:
224,192,19379,1,8,0:0:0:0:
224,192,19754,1,8,0:0:0:0:
224,192,19847,1,0,0:0:0:0:
224,192,20035,1,8,0:0:0:0:
224,184,20316,1,8,0:0:0:0:
224,184,20410,1,8,0:0:0:0:
224,184,20597,1,8,0:0:0:0:
176,236,20644,1,8,0:0:0:0:
208,108,20879,1,0,0:0:0:0:
208,108,21066,1,8,0:0:0:0:
208,108,21160,1,0,0:0:0:0:
216,116,21347,1,8,0:0:0:0:
216,116,21441,1,0,0:0:0:0:
216,116,21535,1,8,0:0:0:0:
216,116,21629,1,0,0:0:0:0:
212,116,22004,1,0,0:0:0:0:
200,188,22379,1,8,0:0:0:0:
200,188,22754,1,8,0:0:0:0:
200,188,22847,1,0,0:0:0:0:
200,188,23035,1,8,0:0:0:0:
200,188,23222,1,8,0:0:0:0:
200,188,23316,1,0,0:0:0:0:
200,188,23410,1,8,0:0:0:0:
200,188,23504,1,8,0:0:0:0:
200,188,23691,1,8,0:0:0:0:
200,188,23785,1,8,0:0:0:0:
200,188,23879,1,0,0:0:0:0:
200,188,23972,1,8,0:0:0:0:
244,212,24160,1,0,0:0:0:0:
244,212,24254,1,8,0:0:0:0:
244,212,24347,1,0,0:0:0:0:
244,212,24441,1,8,0:0:0:0:
244,212,24535,1,0,0:0:0:0:
244,212,24629,1,8,0:0:0:0:
176,40,24722,1,0,0:0:0:0:
252,216,25004,1,4,0:0:0:0:
192,244,25097,1,8,0:0:0:0:
192,244,25191,1,0,0:0:0:0:
192,244,25285,1,8,0:0:0:0:
192,244,25379,1,0,0:0:0:0:
192,244,25472,1,8,0:0:0:0:
252,216,25754,1,4,0:0:0:0:
180,164,25847,1,8,0:0:0:0:
180,164,25941,1,0,0:0:0:0:
180,164,26035,1,8,0:0:0:0:
180,164,26129,1,0,0:0:0:0:
180,164,26222,1,8,0:0:0:0:
252,216,26504,1,4,0:0:0:0:
260,176,26597,1,8,0:0:0:0:
260,176,26691,1,0,0:0:0:0:
252,216,26879,1,4,0:0:0:0:
224,168,26972,1,8,0:0:0:0:
224,168,27066,1,0,0:0:0:0:
252,216,27254,1,4,0:0:0:0:
196,168,27347,1,8,0:0:0:0:
252,216,27441,1,4,0:0:0:0:
196,168,27535,1,8,0:0:0:0:
252,216,27629,1,4,0:0:0:0:
252,216,27722,1,4,0:0:0:0:
252,216,27816,1,4,0:0:0:0:
252,216,27910,1,4,0:0:0:0:
252,216,28004,1,4,0:0:0:0:
80,216,28379,1,0,0:0:0:0:
120,224,28472,1,0,0:0:0:0:
140,232,28566,1,8,0:0:0:0:
220,240,28660,1,0,0:0:0:0:
300,252,28754,1,0,0:0:0:0:
300,252,28847,1,0,0:0:0:0:
300,252,28941,1,8,0:0:0:0:
300,252,29035,1,0,0:0:0:0:
300,252,29129,1,0,0:0:0:0:
300,252,29222,1,0,0:0:0:0:
264,256,29316,1,8,0:0:0:0:
264,256,29410,1,0,0:0:0:0:
264,256,29504,1,0,0:0:0:0:
264,256,29597,1,0,0:0:0:0:
264,256,29691,1,8,0:0:0:0:
264,256,29785,1,0,0:0:0:0:
264,256,29879,1,0,0:0:0:0:
264,256,29972,1,0,0:0:0:0:
264,256,30066,1,8,0:0:0:0:
264,256,30160,1,0,0:0:0:0:
264,256,30254,1,8,0:0:0:0:
188,140,30629,1,8,0:0:0:0:
216,288,31004,1,8,0:0:0:0:
216,288,31097,1,8,0:0:0:0:
216,288,31191,1,0,0:0:0:0:
216,288,31285,1,8,0:0:0:0:
216,288,31379,1,0,0:0:0:0:
248,220,31472,1,8,0:0:0:0:
256,180,31566,1,0,0:0:0:0:
256,180,31613,1,0,0:0:0:0:
256,180,31660,1,0,0:0:0:0:
208,280,31754,1,8,0:0:0:0:
160,300,31847,1,8,0:0:0:0:
216,188,31941,1,0,0:0:0:0:
216,188,32035,1,8,0:0:0:0:
216,188,32129,1,0,0:0:0:0:
216,188,32175,1,0,0:0:0:0:
256,148,32316,1,8,0:0:0:0:
208,136,32363,1,8,0:0:0:0:
200,256,32504,1,0,0:0:0:0:
200,256,32597,1,0,0:0:0:0:
200,256,32691,1,8,0:0:0:0:
200,256,32785,1,8,0:0:0:0:
200,256,32879,1,0,0:0:0:0:
200,256,32972,1,0,0:0:0:0:
200,256,33066,1,8,0:0:0:0:
200,256,33160,1,8,0:0:0:0:
200,256,33254,1,0,0:0:0:0:
336,120,33347,1,0,0:0:0:0:
272,188,33441,1,8,0:0:0:0:
272,188,33488,1,8,0:0:0:0:
336,120,33629,1,0,0:0:0:0:
196,164,33816,1,0,0:0:0:0:
236,208,34004,1,8,0:0:0:0:
236,208,34097,1,8,0:0:0:0:
236,208,34191,1,0,0:0:0:0:
236,208,34285,1,8,0:0:0:0:
236,208,34379,1,0,0:0:0:0:
236,208,34472,1,8,0:0:0:0:
200,192,34566,1,0,0:0:0:0:
200,192,34613,1,0,0:0:0:0:
200,192,34660,1,0,0:0:0:0:
200,172,34754,1,8,0:0:0:0:
200,172,34847,1,8,0:0:0:0:
200,172,34941,1,0,0:0:0:0:
288,184,35035,1,8,0:0:0:0:
188,196,35129,1,0,0:0:0:0:
188,196,35175,1,0,0:0:0:0:
188,196,35316,1,8,0:0:0:0:
188,196,35363,1,8,0:0:0:0:
276,256,35504,1,0,0:0:0:0:
276,256,35597,1,8,0:0:0:0:
276,256,35691,1,0,0:0:0:0:
276,256,35785,1,0,0:0:0:0:
276,256,35879,1,8,0:0:0:0:
276,256,35972,1,0,0:0:0:0:
252,272,36066,1,8,0:0:0:0:
252,272,36160,1,8,0:0:0:0:
252,272,36254,1,0,0:0:0:0:
252,272,36347,1,0,0:0:0:0:
252,272,36441,1,8,0:0:0:0:
252,272,36488,1,8,0:0:0:0:
88,168,36629,1,0,0:0:0:0:
280,304,37004,1,8,0:0:0:0:
280,304,37097,1,8,0:0:0:0:
280,304,37191,1,0,0:0:0:0:
280,304,37285,1,0,0:0:0:0:
280,304,37379,1,8,0:0:0:0:
280,304,37472,1,8,0:0:0:0:
220,224,37566,1,0,0:0:0:0:
220,224,37613,1,0,0:0:0:0:
220,224,37660,1,0,0:0:0:0:
300,184,37754,1,8,0:0:0:0:
300,184,37847,1,8,0:0:0:0:
236,208,37941,1,8,0:0:0:0:
236,208,38035,1,8,0:0:0:0:
240,148,38129,1,0,0:0:0:0:
240,148,38175,1,0,0:0:0:0:
240,148,38316,1,8,0:0:0:0:
240,148,38363,1,8,0:0:0:0:
228,248,38504,1,0,0:0:0:0:
228,248,38597,1,0,0:0:0:0:
228,248,38691,1,8,0:0:0:0:
228,248,38785,1,0,0:0:0:0:
228,248,38879,1,8,0:0:0:0:
228,216,38941,1,8,0:0:0:0:
228,216,39004,1,8,0:0:0:0:
228,248,39066,1,0,0:0:0:0:
228,248,39160,1,0,0:0:0:0:
228,248,39254,1,8,0:0:0:0:
228,248,39347,1,0,0:0:0:0:
228,248,39441,1,8,0:0:0:0:
164,152,39488,1,8,0:0:0:0:
228,248,39629,1,0,0:0:0:0:
256,180,40004,1,8,0:0:0:0:
256,180,40066,1,8,0:0:0:0:
256,180,40129,1,8,0:0:0:0:
256,180,40191,1,0,0:0:0:0:
216,216,40285,1,0,0:0:0:0:
216,216,40379,1,8,0:0:0:0:
216,216,40472,1,8,0:0:0:0:
184,188,40566,1,0,0:0:0:0:
184,188,40613,1,0,0:0:0:0:
184,188,40660,1,0,0:0:0:0:
356,180,40754,1,8,0:0:0:0:
356,180,40847,1,8,0:0:0:0:
356,180,40941,1,0,0:0:0:0:
356,180,41035,1,8,0:0:0:0:
252,148,41129,1,0,0:0:0:0:
252,148,41175,1,0,0:0:0:0:
252,148,41316,1,8,0:0:0:0:
252,148,41363,1,8,0:0:0:0:
240,236,41504,1,0,0:0:0:0:
240,236,41597,1,0,0:0:0:0:
240,236,41691,1,8,0:0:0:0:
240,236,41785,1,0,0:0:0:0:
240,236,41879,1,8,0:0:0:0:
160,196,41941,1,8,0:0:0:0:
160,196,42004,1,8,0:0:0:0:
240,236,42066,1,0,0:0:0:0:
240,236,42160,1,0,0:0:0:0:
240,236,42254,1,0,0:0:0:0:
272,128,42347,1,8,0:0:0:0:
276,188,42441,1,0,0:0:0:0:
276,188,42488,1,0,0:0:0:0:
276,188,42535,1,0,0:0:0:0:
224,228,42629,1,8,0:0:0:0:
180,188,43004,1,8,0:0:0:0:
180,188,43066,1,8,0:0:0:0:
180,188,43129,1,8,0:0:0:0:
180,188,43191,1,0,0:0:0:0:
128,160,43285,1,0,0:0:0:0:
128,160,43379,1,8,0:0:0:0:
128,160,43472,1,8,0:0:0:0:
200,132,43566,1,0,0:0:0:0:
200,132,43613,1,0,0:0:0:0:
200,132,43660,1,0,0:0:0:0:
232,164,43754,1,8,0:0:0:0:
232,164,43847,1,8,0:0:0:0:
232,164,43941,1,0,0:0:0:0:
232,164,44035,1,8,0:0:0:0:
200,132,44129,1,0,0:0:0:0:
200,132,44175,1,0,0:0:0:0:
200,132,44316,1,8,0:0:0:0:
200,132,44363,1,8,0:0:0:0:
232,164,44504,1,0,0:0:0:0:
232,164,44597,1,0,0:0:0:0:
232,164,44691,1,0,0:0:0:0:
232,164,44785,1,0,0:0:0:0:
232,164,44879,1,8,0:0:0:0:
112,164,44941,1,8,0:0:0:0:
112,164,45004,1,8,0:0:0:0:
232,164,45066,1,0,0:0:0:0:
232,164,45160,1,0,0:0:0:0:
232,164,45254,1,8,0:0:0:0:
232,164,45347,1,0,0:0:0:0:
240,104,45441,1,8,0:0:0:0:
240,104,45488,1,8,0:0:0:0:
216,160,45629,1,0,0:0:0:0:
252,192,46004,1,8,0:0:0:0:
252,192,46066,1,8,0:0:0:0:
252,192,46129,1,0,0:0:0:0:
252,192,46191,1,0,0:0:0:0:
228,152,46285,1,8,0:0:0:0:
228,152,46379,1,0,0:0:0:0:
228,152,46472,1,8,0:0:0:0:
248,148,46566,1,0,0:0:0:0:
248,148,46613,1,0,0:0:0:0:
248,148,46660,1,0,0:0:0:0:
228,152,46754,1,8,0:0:0:0:
228,152,46847,1,8,0:0:0:0:
228,152,46941,1,8,0:0:0:0:
228,152,47035,1,8,0:0:0:0:
248,148,47129,1,0,0:0:0:0:
248,148,47175,1,0,0:0:0:0:
248,148,47316,1,8,0:0:0:0:
248,148,47363,1,8,0:0:0:0:
264,136,47504,1,0,0:0:0:0:
216,148,47597,1,0,0:0:0:0:
264,136,47691,1,8,0:0:0:0:
228,152,47785,1,8,0:0:0:0:
264,136,47879,1,0,0:0:0:0:
264,136,47941,1,0,0:0:0:0:
264,136,48004,1,0,0:0:0:0:
264,136,48066,1,0,0:0:0:0:
224,156,48160,1,8,0:0:0:0:
224,156,48254,1,8,0:0:0:0:
224,156,48347,1,0,0:0:0:0:
224,156,48441,1,8,0:0:0:0:
248,148,48488,1,8,0:0:0:0:
224,156,48629,1,0,0:0:0:0:
252,192,49004,1,8,0:0:0:0:
252,192,49066,1,8,0:0:0:0:
252,192,49129,1,8,0:0:0:0:
252,192,49191,1,0,0:0:0:0:
228,152,49285,1,0,0:0:0:0:
228,152,49379,1,8,0:0:0:0:
228,152,49472,1,8,0:0:0:0:
248,148,49566,1,0,0:0:0:0:
248,148,49613,1,0,0:0:0:0:
248,148,49660,1,0,0:0:0:0:
228,152,49754,1,8,0:0:0:0:
228,152,49847,1,8,0:0:0:0:
228,152,49941,1,8,0:0:0:0:
228,152,50035,1,8,0:0:0:0:
248,148,50129,1,0,0:0:0:0:
248,148,50175,1,0,0:0:0:0:
248,148,50316,1,8,0:0:0:0:
248,148,50363,1,8,0:0:0:0:
264,136,50504,1,0,0:0:0:0:
216,148,50597,1,0,0:0:0:0:
264,136,50691,1,8,0:0:0:0:
228,152,50785,1,0,0:0:0:0:
264,136,50879,1,8,0:0:0:0:
264,136,50941,1,8,0:0:0:0:
264,136,51004,1,8,0:0:0:0:
264,136,51066,1,0,0:0:0:0:
224,156,51160,1,0,0:0:0:0:
224,156,51254,1,8,0:0:0:0:
224,156,51347,1,0,0:0:0:0:
224,156,51441,1,8,0:0:0:0:
248,148,51488,1,8,0:0:0:0:
224,156,51629,1,0,0:0:0:0:
252,192,52004,1,8,0:0:0:0:
252,192,52066,1,8,0:0:0:0:
252,192,52129,1,8,0:0:0:0:
252,192,52191,1,0,0:0:0:0:
228,152,52285,1,8,0:0:0:0:
228,152,52379,1,0,0:0:0:0:
228,152,52472,1,8,0:0:0:0:
248,148,52566,1,0,0:0:0:0:
248,148,52613,1,0,0:0:0:0:
248,148,52660,1,0,0:0:0:0:
228,152,52754,1,8,0:0:0:0:
60,152,52816,1,8,0:0:0:0:
192,152,52879,1,8,0:0:0:0:
228,152,52941,1,0,0:0:0:0:
228,152,53035,1,8,0:0:0:0:
248,148,53129,1,0,0:0:0:0:
248,148,53175,1,0,0:0:0:0:
248,148,53316,1,8,0:0:0:0:
248,148,53363,1,8,0:0:0:0:
264,136,53504,1,0,0:0:0:0:
152,124,53566,1,8,0:0:0:0:
152,124,53629,1,8,0:0:0:0:
264,136,53691,1,0,0:0:0:0:
228,152,53785,1,0,0:0:0:0:
264,136,53879,1,8,0:0:0:0:
264,136,53941,1,8,0:0:0:0:
264,136,54004,1,8,0:0:0:0:
264,136,54066,1,0,0:0:0:0:
224,156,54160,1,0,0:0:0:0:
224,156,54254,1,8,0:0:0:0:
224,156,54347,1,0,0:0:0:0:
224,156,54441,1,8,0:0:0:0:
248,148,54488,1,8,0:0:0:0:
224,156,54629,1,8,0:0:0:0:
248,176,54691,1,8,0:0:0:0:
248,176,54754,1,8,0:0:0:0:
248,176,54816,1,8,0:0:0:0:
248,176,54879,1,8,0:0:0:0:
248,176,54941,1,8,0:0:0:0:
444,228,55004,1,4,0:0:0:0:
256,192,55005,8,0,60816,0:0:0:0:
212,172,61004,5,0,0:0:0:0:
272,224,61191,1,0,0:0:0:0:
272,224,61285,1,0,0:0:0:0:
260,228,61472,1,0,0:0:0:0:
260,228,61565,1,0,0:0:0:0:
240,252,61754,1,8,0:0:0:0:
240,252,61847,1,0,0:0:0:0:
360,324,61941,1,0,0:0:0:0:
360,324,62129,1,0,0:0:0:0:
360,324,62316,1,0,0:0:0:0:
360,324,62504,1,12,0:0:0:0:
248,220,62785,1,12,0:0:0:0:
248,220,63066,1,12,0:0:0:0:
244,216,63347,1,12,0:0:0:0:
360,324,63629,1,12,0:0:0:0:
180,324,64004,1,0,0:0:0:0:
204,300,64191,1,0,0:0:0:0:
204,300,64285,1,0,0:0:0:0:
204,300,64472,1,0,0:0:0:0:
204,300,64566,1,0,0:0:0:0:
204,300,64754,1,8,0:0:0:0:
204,300,64847,1,0,0:0:0:0:
204,300,64941,1,0,0:0:0:0:
204,300,65129,1,0,0:0:0:0:
204,300,65316,1,0,0:0:0:0:
204,300,65504,1,12,0:0:0:0:
196,156,65691,1,0,0:0:0:0:
204,300,65785,1,12,0:0:0:0:
216,152,65972,1,0,0:0:0:0:
204,300,66066,1,12,0:0:0:0:
216,152,66254,1,0,0:0:0:0:
204,300,66347,1,12,0:0:0:0:
220,216,66535,1,0,0:0:0:0:
204,300,66629,1,12,0:0:0:0:
192,236,67004,1,0,0:0:0:0:
192,236,67097,1,8,0:0:0:0:
192,236,67191,1,0,0:0:0:0:
192,236,67285,1,0,0:0:0:0:
192,236,67379,1,8,0:0:0:0:
192,236,67472,1,0,0:0:0:0:
212,156,67566,1,0,0:0:0:0:
140,240,67754,1,8,0:0:0:0:
140,240,67847,1,0,0:0:0:0:
140,240,67941,1,0,0:0:0:0:
164,208,68129,1,0,0:0:0:0:
164,208,68316,1,0,0:0:0:0:
212,240,68504,1,12,0:0:0:0:
212,240,68785,1,12,0:0:0:0:
212,240,69066,1,12,0:0:0:0:
212,240,69347,1,12,0:0:0:0:
212,240,69629,1,12,0:0:0:0:
196,232,70004,1,0,0:0:0:0:
200,232,70097,1,8,0:0:0:0:
200,232,70191,1,0,0:0:0:0:
200,232,70285,1,0,0:0:0:0:
200,232,70379,1,8,0:0:0:0:
200,232,70472,1,0,0:0:0:0:
200,224,70566,1,0,0:0:0:0:
196,176,70660,1,8,0:0:0:0:
220,176,70754,1,8,0:0:0:0:
220,176,70847,1,0,0:0:0:0:
220,176,70941,1,0,0:0:0:0:
112,172,71129,1,0,0:0:0:0:
112,172,71316,1,0,0:0:0:0:
264,272,71504,1,12,0:0:0:0:
268,200,71691,1,0,0:0:0:0:
264,272,71785,1,12,0:0:0:0:
268,200,71972,1,0,0:0:0:0:
264,272,72066,1,12,0:0:0:0:
268,200,72254,1,0,0:0:0:0:
264,272,72347,1,12,0:0:0:0:
268,200,72535,1,0,0:0:0:0:
264,272,72629,1,12,0:0:0:0:
252,172,72816,1,0,0:0:0:0:
252,172,72910,1,8,0:0:0:0:
252,232,73004,1,0,0:0:0:0:
252,232,73097,1,0,0:0:0:0:
252,232,73191,1,0,0:0:0:0:
252,232,73285,1,0,0:0:0:0:
252,232,73379,1,8,0:0:0:0:
252,232,73472,1,0,0:0:0:0:
252,232,73566,1,0,0:0:0:0:
252,232,73660,1,8,0:0:0:0:
252,232,73754,1,8,0:0:0:0:
252,232,73847,1,0,0:0:0:0:
252,232,73941,1,0,0:0:0:0:
196,160,74129,1,0,0:0:0:0:
196,172,74316,1,0,0:0:0:0:
172,276,74504,1,12,0:0:0:0:
208,212,74597,1,0,0:0:0:0:
208,212,74691,1,0,0:0:0:0:
172,276,74785,1,12,0:0:0:0:
208,212,74879,1,0,0:0:0:0:
208,212,74972,1,0,0:0:0:0:
272,272,75066,1,12,0:0:0:0:
208,212,75160,1,0,0:0:0:0:
208,212,75254,1,0,0:0:0:0:
272,272,75347,1,12,0:0:0:0:
208,212,75441,1,0,0:0:0:0:
208,212,75535,1,0,0:0:0:0:
272,272,75629,1,12,0:0:0:0:
208,212,75722,1,0,0:0:0:0:
160,372,75816,1,8,0:0:0:0:
232,248,76004,1,0,0:0:0:0:
232,248,76097,1,8,0:0:0:0:
232,248,76191,1,0,0:0:0:0:
232,248,76285,1,0,0:0:0:0:
232,248,76379,1,8,0:0:0:0:
232,248,76472,1,0,0:0:0:0:
232,248,76566,1,0,0:0:0:0:
144,176,76660,1,0,0:0:0:0:
144,176,76754,1,8,0:0:0:0:
144,176,76847,1,0,0:0:0:0:
144,176,76941,1,8,0:0:0:0:
144,176,77035,1,0,0:0:0:0:
144,176,77129,1,8,0:0:0:0:
152,140,77316,1,0,0:0:0:0:
264,168,77504,1,12,0:0:0:0:
232,208,77597,1,0,0:0:0:0:
232,208,77691,1,0,0:0:0:0:
264,168,77785,1,12,0:0:0:0:
232,208,77879,1,0,0:0:0:0:
232,208,77972,1,0,0:0:0:0:
264,168,78066,1,12,0:0:0:0:
232,208,78160,1,0,0:0:0:0:
232,208,78254,1,0,0:0:0:0:
264,168,78347,1,12,0:0:0:0:
232,208,78441,1,0,0:0:0:0:
232,208,78535,1,0,0:0:0:0:
264,168,78629,1,12,0:0:0:0:
232,208,78722,1,0,0:0:0:0:
264,168,78816,1,8,0:0:0:0:
280,208,79004,1,8,0:0:0:0:
256,272,79097,1,0,0:0:0:0:
280,208,79191,1,8,0:0:0:0:
280,208,79285,1,8,0:0:0:0:
256,272,79379,1,0,0:0:0:0:
280,208,79472,1,8,0:0:0:0:
280,208,79566,1,8,0:0:0:0:
256,272,79660,1,0,0:0:0:0:
280,208,79754,1,8,0:0:0:0:
256,272,79847,1,0,0:0:0:0:
280,208,79941,1,8,0:0:0:0:
256,272,80035,1,8,0:0:0:0:
208,184,80129,1,0,0:0:0:0:
280,208,80222,1,8,0:0:0:0:
280,208,80316,1,8,0:0:0:0:
208,184,80410,1,0,0:0:0:0:
280,208,80504,1,8,0:0:0:0:
208,184,80597,1,0,0:0:0:0:
280,208,80691,1,8,0:0:0:0:
280,208,80785,1,8,0:0:0:0:
204,192,80879,1,0,0:0:0:0:
280,208,80972,1,8,0:0:0:0:
280,208,81066,1,8,0:0:0:0:
204,192,81160,1,0,0:0:0:0:
280,208,81254,1,8,0:0:0:0:
204,192,81347,1,0,0:0:0:0:
280,208,81441,1,8,0:0:0:0:
280,208,81535,1,8,0:0:0:0:
200,196,81629,1,0,0:0:0:0:
280,208,81722,1,8,0:0:0:0:
280,208,81816,1,8,0:0:0:0:
200,196,81910,1,0,0:0:0:0:
164,128,82004,1,0,0:0:0:0:
200,196,82097,1,8,0:0:0:0:
224,224,82191,1,8,0:0:0:0:
224,224,82285,1,8,0:0:0:0:
200,164,82379,1,0,0:0:0:0:
244,200,82472,1,8,0:0:0:0:
244,200,82566,1,8,0:0:0:0:
244,200,82660,1,8,0:0:0:0:
200,164,82754,1,0,0:0:0:0:
244,200,82847,1,8,0:0:0:0:
244,200,82941,1,8,0:0:0:0:
244,200,83035,1,8,0:0:0:0:
200,164,83129,1,0,0:0:0:0:
244,200,83222,1,8,0:0:0:0:
244,200,83316,1,8,0:0:0:0:
244,200,83410,1,8,0:0:0:0:
200,164,83504,1,0,0:0:0:0:
156,168,83566,1,0,0:0:0:0:
156,168,83629,1,0,0:0:0:0:
156,168,83691,1,8,0:0:0:0:
156,168,83754,1,8,0:0:0:0:
156,168,83816,1,8,0:0:0:0:
156,168,83879,1,0,0:0:0:0:
156,168,83941,1,0,0:0:0:0:
156,168,84004,1,0,0:0:0:0:
156,168,84066,1,8,0:0:0:0:
156,168,84129,1,8,0:0:0:0:
156,168,84191,1,8,0:0:0:0:
156,168,84254,1,0,0:0:0:0:
184,160,84441,1,0,0:0:0:0:
184,160,84629,1,4,0:0:0:0:
360,364,85004,1,8,0:0:0:0:
276,292,85097,1,0,0:0:0:0:
276,292,85191,1,8,0:0:0:0:
276,292,85285,1,8,0:0:0:0:
276,292,85379,1,0,0:0:0:0:
276,292,85472,1,8,0:0:0:0:
276,292,85566,1,8,0:0:0:0:
276,292,85660,1,0,0:0:0:0:
276,292,85754,1,8,0:0:0:0:
276,292,85847,1,0,0:0:0:0:
276,292,85941,1,0,0:0:0:0:
276,292,86035,1,0,0:0:0:0:
276,292,86129,1,8,0:0:0:0:
240,248,86222,1,8,0:0:0:0:
240,248,86316,1,0,0:0:0:0:
240,248,86410,1,8,0:0:0:0:
240,248,86504,1,8,0:0:0:0:
240,248,86597,1,8,0:0:0:0:
240,248,86691,1,0,0:0:0:0:
240,248,86785,1,0,0:0:0:0:
240,248,86879,1,8,0:0:0:0:
240,248,86972,1,0,0:0:0:0:
240,248,87066,1,8,0:0:0:0:
240,248,87160,1,0,0:0:0:0:
240,248,87254,1,8,0:0:0:0:
240,248,87347,1,0,0:0:0:0:
240,248,87441,1,0,0:0:0:0:
240,248,87535,1,0,0:0:0:0:
240,248,87629,1,8,0:0:0:0:
240,248,87722,1,0,0:0:0:0:
240,248,87816,1,8,0:0:0:0:
240,248,87910,1,8,0:0:0:0:
240,248,88004,1,0,0:0:0:0:
240,248,88097,1,8,0:0:0:0:
240,248,88191,1,8,0:0:0:0:
240,248,88285,1,0,0:0:0:0:
240,248,88379,1,8,0:0:0:0:
240,248,88472,1,8,0:0:0:0:
240,248,88566,1,8,0:0:0:0:
240,248,88660,1,0,0:0:0:0:
240,248,88754,1,8,0:0:0:0:
240,248,88847,1,8,0:0:0:0:
240,248,88941,1,0,0:0:0:0:
240,248,89035,1,8,0:0:0:0:
240,248,89129,1,0,0:0:0:0:
240,248,89222,1,8,0:0:0:0:
240,248,89316,1,8,0:0:0:0:
240,248,89410,1,0,0:0:0:0:
240,248,89504,1,8,0:0:0:0:
240,248,89597,1,0,0:0:0:0:
240,248,89691,1,8,0:0:0:0:
240,248,89785,1,0,0:0:0:0:
240,248,89879,1,8,0:0:0:0:
240,248,89972,1,8,0:0:0:0:
240,248,90066,1,0,0:0:0:0:
240,248,90160,1,8,0:0:0:0:
240,248,90254,1,0,0:0:0:0:
240,248,90347,1,8,0:0:0:0:
240,248,90441,1,0,0:0:0:0:
240,248,90535,1,0,0:0:0:0:
240,248,90629,1,8,0:0:0:0:
240,248,90722,1,0,0:0:0:0:
240,248,90816,1,8,0:0:0:0:
240,248,90910,1,8,0:0:0:0:
240,248,91004,1,8,0:0:0:0:
240,248,91097,1,0,0:0:0:0:
240,248,91191,1,8,0:0:0:0:
240,248,91285,1,8,0:0:0:0:
240,248,91379,1,0,0:0:0:0:
240,248,91472,1,8,0:0:0:0:
240,248,91566,1,0,0:0:0:0:
240,248,91660,1,8,0:0:0:0:
240,248,91754,1,8,0:0:0:0:
240,248,91847,1,0,0:0:0:0:
240,248,91941,1,0,0:0:0:0:
240,248,92035,1,8,0:0:0:0:
240,248,92129,1,8,0:0:0:0:
240,248,92222,1,0,0:0:0:0:
240,248,92316,1,8,0:0:0:0:
240,248,92410,1,0,0:0:0:0:
240,248,92504,1,8,0:0:0:0:
240,248,92597,1,8,0:0:0:0:
240,248,92691,1,0,0:0:0:0:
240,248,92785,1,8,0:0:0:0:
240,248,92879,1,0,0:0:0:0:
240,248,92972,1,8,0:0:0:0:
240,248,93066,1,0,0:0:0:0:
240,248,93160,1,0,0:0:0:0:
240,248,93254,1,8,0:0:0:0:
240,248,93347,1,0,0:0:0:0:
240,248,93441,1,8,0:0:0:0:
240,248,93535,1,0,0:0:0:0:
240,248,93629,1,8,0:0:0:0:
240,248,93722,1,8,0:0:0:0:
240,248,93816,1,0,0:0:0:0:
240,248,93910,1,0,0:0:0:0:
240,248,94004,1,8,0:0:0:0:
240,248,94097,1,0,0:0:0:0:
240,248,94191,1,8,0:0:0:0:
240,248,94285,1,0,0:0:0:0:
240,248,94379,1,8,0:0:0:0:
240,248,94472,1,0,0:0:0:0:
240,248,94566,1,8,0:0:0:0:
244,244,94660,1,8,0:0:0:0:
244,244,94754,1,8,0:0:0:0:
244,244,94847,1,0,0:0:0:0:
244,244,94941,1,8,0:0:0:0:
244,244,95035,1,0,0:0:0:0:
244,244,95129,1,8,0:0:0:0:
244,244,95222,1,8,0:0:0:0:
244,244,95316,1,0,0:0:0:0:
244,244,95410,1,0,0:0:0:0:
244,244,95504,1,12,0:0:0:0:
176,180,95879,1,12,0:0:0:0:
176,180,96254,1,12,0:0:0:0:
176,180,96629,1,12,0:0:0:0:
244,244,97004,1,4,0:0:0:0:
244,244,97379,1,4,0:0:0:0:
260,224,97566,1,8,0:0:0:0:
260,224,97660,1,8,0:0:0:0:
224,188,98129,1,4,0:0:0:0:
256,224,98316,1,8,0:0:0:0:
256,224,98410,1,0,0:0:0:0:
224,188,98879,1,4,0:0:0:0:
224,188,98972,1,8,0:0:0:0:
244,232,99066,1,0,0:0:0:0:
244,232,99160,1,0,0:0:0:0:
260,164,99629,1,4,0:0:0:0:
244,232,99816,1,8,0:0:0:0:
244,232,99910,1,0,0:0:0:0:
244,232,100004,1,8,0:0:0:0:
208,268,100097,1,8,0:0:0:0:
208,268,100191,1,0,0:0:0:0:
208,268,100285,1,0,0:0:0:0:
208,268,100379,1,8,0:0:0:0:
228,188,100472,1,8,0:0:0:0:
228,188,100566,1,8,0:0:0:0:
228,188,100660,1,0,0:0:0:0:
228,188,100754,1,8,0:0:0:0:
228,188,100847,1,8,0:0:0:0:
228,188,100941,1,0,0:0:0:0:
228,188,101035,1,8,0:0:0:0:
228,188,101129,1,8,0:0:0:0:
228,188,101222,1,0,0:0:0:0:
228,188,101316,1,8,0:0:0:0:
228,188,101410,1,0,0:0:0:0:
228,188,101504,1,8,0:0:0:0:
228,188,101597,1,0,0:0:0:0:
228,188,101691,1,8,0:0:0:0:
228,188,101785,1,8,0:0:0:0:
228,188,101879,1,0,0:0:0:0:
228,188,101972,1,8,0:0:0:0:
228,188,102066,1,0,0:0:0:0:
228,188,102160,1,8,0:0:0:0:
228,188,102254,1,8,0:0:0:0:
228,188,102347,1,0,0:0:0:0:
228,188,102441,1,0,0:0:0:0:
228,188,102535,1,0,0:0:0:0:
228,188,102629,1,8,0:0:0:0:
228,188,102722,1,0,0:0:0:0:
228,188,102816,1,8,0:0:0:0:
228,188,102910,1,8,0:0:0:0:
228,188,103004,1,0,0:0:0:0:
228,188,103097,1,8,0:0:0:0:
228,188,103191,1,0,0:0:0:0:
228,188,103285,1,8,0:0:0:0:
228,188,103379,1,8,0:0:0:0:
228,188,103472,1,0,0:0:0:0:
228,188,103566,1,8,0:0:0:0:
228,188,103660,1,0,0:0:0:0:
228,188,103754,1,8,0:0:0:0:
228,188,103847,1,0,0:0:0:0:
228,188,103941,1,8,0:0:0:0:
228,188,104035,1,8,0:0:0:0:
228,188,104129,1,8,0:0:0:0:
228,188,104222,1,0,0:0:0:0:
228,188,104316,1,8,0:0:0:0:
228,188,104410,1,0,0:0:0:0:
228,188,104504,1,8,0:0:0:0:
228,188,104597,1,8,0:0:0:0:
228,188,104691,1,8,0:0:0:0:
228,188,104785,1,0,0:0:0:0:
228,188,104879,1,8,0:0:0:0:
228,188,104972,1,8,0:0:0:0:
228,188,105066,1,0,0:0:0:0:
228,188,105160,1,8,0:0:0:0:
228,188,105254,1,0,0:0:0:0:
228,188,105347,1,8,0:0:0:0:
228,188,105441,1,0,0:0:0:0:
228,188,105535,1,0,0:0:0:0:
228,188,105629,1,8,0:0:0:0:
228,188,105722,1,0,0:0:0:0:
228,188,105816,1,8,0:0:0:0:
228,188,105910,1,0,0:0:0:0:
228,188,106004,1,8,0:0:0:0:
228,188,106097,1,8,0:0:0:0:
228,188,106191,1,8,0:0:0:0:
228,188,106285,1,0,0:0:0:0:
228,188,106379,1,8,0:0:0:0:
228,188,106472,1,0,0:0:0:0:
228,188,106566,1,8,0:0:0:0:
228,188,106660,1,8,0:0:0:0:
228,188,106754,1,0,0:0:0:0:
228,188,106847,1,8,0:0:0:0:
228,188,106941,1,0,0:0:0:0:
228,188,107035,1,8,0:0:0:0:
228,188,107129,1,8,0:0:0:0:
228,188,107222,1,0,0:0:0:0:
228,188,107316,1,0,0:0:0:0:
228,188,107410,1,8,0:0:0:0:
228,188,107504,1,8,0:0:0:0:
228,188,107597,1,0,0:0:0:0:
228,188,107691,1,0,0:0:0:0:
228,188,107785,1,0,0:0:0:0:
228,188,107879,1,8,0:0:0:0:
228,188,107972,1,0,0:0:0:0:
228,188,108066,1,0,0:0:0:0:
228,188,108160,1,0,0:0:0:0:
228,188,108254,1,12,0:0:0:0:
228,188,108347,1,0,0:0:0:0:
228,188,108441,1,0,0:0:0:0:
228,188,108535,1,0,0:0:0:0:
228,188,108629,1,12,0:0:0:0:
228,188,108722,1,0,0:0:0:0:
228,188,108816,1,0,0:0:0:0:
228,188,108910,1,0,0:0:0:0:
228,188,109004,1,12,0:0:0:0:
172,208,109191,1,0,0:0:0:0:
172,208,109285,1,0,0:0:0:0:
172,208,109379,1,8,0:0:0:0:
220,176,109566,1,8,0:0:0:0:
220,176,109660,1,0,0:0:0:0:
220,176,109754,1,8,0:0:0:0:
220,176,109847,1,0,0:0:0:0:
220,176,109941,1,0,0:0:0:0:
220,176,110035,1,0,0:0:0:0:
220,176,110129,1,8,0:0:0:0:
268,208,110504,1,12,0:0:0:0:
268,264,110691,1,0,0:0:0:0:
268,264,110785,1,0,0:0:0:0:
268,264,110879,1,8,0:0:0:0:
268,264,111066,1,8,0:0:0:0:
64,244,111160,1,0,0:0:0:0:
268,264,111254,1,8,0:0:0:0:
228,224,111347,1,0,0:0:0:0:
228,224,111441,1,0,0:0:0:0:
228,224,111535,1,0,0:0:0:0:
268,264,111629,1,8,0:0:0:0:
192,332,111816,1,0,0:0:0:0:
196,320,112004,1,12,0:0:0:0:
268,264,112191,1,0,0:0:0:0:
268,264,112285,1,0,0:0:0:0:
268,264,112379,1,8,0:0:0:0:
268,264,112566,1,8,0:0:0:0:
64,244,112660,1,0,0:0:0:0:
268,264,112754,1,8,0:0:0:0:
228,224,112847,1,0,0:0:0:0:
228,224,112941,1,0,0:0:0:0:
228,224,113035,1,0,0:0:0:0:
268,264,113129,1,8,0:0:0:0:
208,148,113504,1,12,0:0:0:0:
224,156,113691,1,8,0:0:0:0:
224,156,113785,1,0,0:0:0:0:
224,156,113879,1,8,0:0:0:0:
212,168,114066,1,0,0:0:0:0:
212,168,114160,1,8,0:0:0:0:
212,168,114254,1,8,0:0:0:0:
212,168,114347,1,0,0:0:0:0:
212,168,114441,1,8,0:0:0:0:
212,168,114535,1,0,0:0:0:0:
212,168,114629,1,8,0:0:0:0:
256,248,115004,1,12,0:0:0:0:
280,180,115097,1,0,0:0:0:0:
280,132,115191,1,0,0:0:0:0:
280,132,115285,1,0,0:0:0:0:
280,132,115379,1,8,0:0:0:0:
280,132,115472,1,0,0:0:0:0:
280,132,115566,1,8,0:0:0:0:
280,132,115660,1,8,0:0:0:0:
280,132,115754,1,0,0:0:0:0:
280,132,115847,1,0,0:0:0:0:
280,132,115941,1,0,0:0:0:0:
280,132,116035,1,8,0:0:0:0:
280,132,116129,1,8,0:0:0:0:
280,132,116222,1,0,0:0:0:0:
280,132,116316,1,0,0:0:0:0:
280,180,116410,1,0,0:0:0:0:
248,176,116504,1,12,0:0:0:0:
280,180,116597,1,0,0:0:0:0:
280,180,116691,1,0,0:0:0:0:
280,180,116785,1,0,0:0:0:0:
280,180,116879,1,8,0:0:0:0:
280,180,116972,1,8,0:0:0:0:
280,180,117066,1,0,0:0:0:0:
280,180,117160,1,0,0:0:0:0:
280,180,117254,1,8,0:0:0:0:
280,180,117347,1,0,0:0:0:0:
280,180,117441,1,0,0:0:0:0:
280,180,117535,1,0,0:0:0:0:
280,180,117629,1,8,0:0:0:0:
280,180,117722,1,8,0:0:0:0:
280,180,117816,1,0,0:0:0:0:
280,180,117910,1,0,0:0:0:0:
248,176,118004,1,12,0:0:0:0:
220,152,118097,1,0,0:0:0:0:
220,152,118191,1,0,0:0:0:0:
220,152,118285,1,0,0:0:0:0:
220,152,118379,1,8,0:0:0:0:
220,152,118472,1,0,0:0:0:0:
220,152,118566,1,0,0:0:0:0:
220,152,118660,1,0,0:0:0:0:
220,152,118754,1,8,0:0:0:0:
224,184,118816,1,8,0:0:0:0:
224,184,118879,1,8,0:0:0:0:
224,184,118941,1,0,0:0:0:0:
224,184,119004,1,0,0:0:0:0:
224,184,119066,1,0,0:0:0:0:
224,184,119129,1,8,0:0:0:0:
224,184,119191,1,8,0:0:0:0:
224,184,119254,1,8,0:0:0:0:
224,184,119316,1,0,0:0:0:0:
224,184,119379,1,0,0:0:0:0:
224,184,119441,1,0,0:0:0:0:
248,176,119504,1,12,0:0:0:0:
268,208,119597,1,0,0:0:0:0:
268,208,119691,1,0,0:0:0:0:
268,208,119785,1,0,0:0:0:0:
268,208,119879,1,8,0:0:0:0:
268,208,119972,1,0,0:0:0:0:
268,208,120066,1,0,0:0:0:0:
268,208,120160,1,0,0:0:0:0:
268,208,120254,1,8,0:0:0:0:
268,188,120347,1,8,0:0:0:0:
268,192,120441,1,0,0:0:0:0:
268,188,120535,1,0,0:0:0:0:
268,188,120629,1,0,0:0:0:0:
268,188,120722,1,0,0:0:0:0:
268,188,120816,1,8,0:0:0:0:
240,184,121004,1,0,0:0:0:0:
240,184,121379,1,8,0:0:0:0:
240,184,121754,1,8,0:0:0:0:
240,184,121847,1,0,0:0:0:0:
240,184,122035,1,8,0:0:0:0:
216,248,122316,1,0,0:0:0:0:
216,248,122410,1,8,0:0:0:0:
208,236,122597,1,8,0:0:0:0:
224,164,122879,1,0,0:0:0:0:
216,264,123066,1,8,0:0:0:0:
216,264,123160,1,0,0:0:0:0:
240,252,123347,1,0,0:0:0:0:
240,252,123441,1,0,0:0:0:0:
240,252,123535,1,8,0:0:0:0:
240,252,123629,1,0,0:0:0:0:
240,192,124004,1,0,0:0:0:0:
240,192,124379,1,8,0:0:0:0:
192,136,124754,1,8,0:0:0:0:
192,136,124847,1,0,0:0:0:0:
192,136,125035,1,8,0:0:0:0:
192,136,125222,1,8,0:0:0:0:
192,136,125316,1,8,0:0:0:0:
192,136,125410,1,0,0:0:0:0:
280,176,125504,1,8,0:0:0:0:
344,136,125597,1,0,0:0:0:0:
344,136,125785,1,0,0:0:0:0:
224,96,125972,1,0,0:0:0:0:
224,96,126160,1,8,0:0:0:0:
248,176,126254,1,0,0:0:0:0:
248,176,126347,1,8,0:0:0:0:
248,176,126441,1,0,0:0:0:0:
192,120,126535,1,0,0:0:0:0:
72,192,126629,1,0,0:0:0:0:
184,160,126722,1,8,0:0:0:0:
184,160,126816,1,0,0:0:0:0:
168,180,127004,1,0,0:0:0:0:
168,180,127379,1,8,0:0:0:0:
204,180,127754,1,8,0:0:0:0:
204,180,127847,1,0,0:0:0:0:
204,180,128035,1,8,0:0:0:0:
204,180,128316,1,8,0:0:0:0:
204,180,128410,1,0,0:0:0:0:
264,172,128597,1,8,0:0:0:0:
284,108,128879,1,8,0:0:0:0:
184,180,129066,1,8,0:0:0:0:
184,180,129160,1,0,0:0:0:0:
228,160,129347,1,0,0:0:0:0:
228,160,129441,1,0,0:0:0:0:
228,160,129535,1,8,0:0:0:0:
228,160,129629,1,0,0:0:0:0:
228,168,129816,1,0,0:0:0:0:
228,168,129910,1,8,0:0:0:0:
188,180,130004,1,0,0:0:0:0:
332,204,130379,1,8,0:0:0:0:
280,240,130754,1,8,0:0:0:0:
280,240,130847,1,0,0:0:0:0:
280,240,131035,1,8,0:0:0:0:
236,212,131222,1,8,0:0:0:0:
236,212,131316,1,0,0:0:0:0:
236,212,131410,1,0,0:0:0:0:
236,212,131597,1,0,0:0:0:0:
236,212,131785,1,8,0:0:0:0:
236,212,131879,1,0,0:0:0:0:
236,212,132066,1,0,0:0:0:0:
236,212,132160,1,8,0:0:0:0:
224,200,132347,1,8,0:0:0:0:
224,200,132441,1,0,0:0:0:0:
224,200,132535,1,8,0:0:0:0:
224,200,132629,1,8,0:0:0:0:
220,200,132722,1,0,0:0:0:0:
180,172,133004,1,0,0:0:0:0:
180,172,133191,1,8,0:0:0:0:
180,172,133285,1,0,0:0:0:0:
180,172,133754,1,0,0:0:0:0:
180,172,133941,1,8,0:0:0:0:
180,172,134035,1,0,0:0:0:0:
180,172,134504,1,0,0:0:0:0:
180,172,134691,1,0,0:0:0:0:
180,172,134879,1,0,0:0:0:0:
200,108,135066,1,0,0:0:0:0:
208,128,135254,1,0,0:0:0:0:
180,172,135441,1,8,0:0:0:0:
208,112,135535,1,0,0:0:0:0:
208,116,136004,1,0,0:0:0:0:
208,116,136191,1,8,0:0:0:0:
208,116,136285,1,0,0:0:0:0:
208,200,136754,1,0,0:0:0:0:
208,200,136941,1,8,0:0:0:0:
208,200,137035,1,0,0:0:0:0:
256,244,137504,1,0,0:0:0:0:
172,244,137691,1,0,0:0:0:0:
172,244,137879,1,0,0:0:0:0:
172,244,138066,1,0,0:0:0:0:
172,244,138254,1,0,0:0:0:0:
224,232,138441,1,8,0:0:0:0:
216,236,138535,1,0,0:0:0:0:
216,224,139004,1,0,0:0:0:0:
216,224,139191,1,8,0:0:0:0:
216,224,139285,1,0,0:0:0:0:
216,224,139754,1,0,0:0:0:0:
216,224,139941,1,8,0:0:0:0:
200,228,140035,1,0,0:0:0:0:
200,228,140504,1,0,0:0:0:0:
200,228,140691,1,0,0:0:0:0:
200,228,140879,1,0,0:0:0:0:
200,228,141066,1,0,0:0:0:0:
200,228,141254,1,0,0:0:0:0:
200,228,141441,1,8,0:0:0:0:
200,228,141535,1,0,0:0:0:0:
248,236,142004,1,0,0:0:0:0:
204,168,142191,1,8,0:0:0:0:
248,236,142285,1,0,0:0:0:0:
204,168,142754,1,0,0:0:0:0:
204,168,142941,1,8,0:0:0:0:
204,168,143035,1,0,0:0:0:0:
60,216,143504,2,0,L|204:208,4,140
256,192,143925,8,0,143949,0:0:0:0:
256,192,143972,8,0,143996,0:0:0:0:
256,192,144019,8,0,144043,0:0:0:0:
256,192,144066,8,0,144089,0:0:0:0:
256,192,144113,8,0,144136,0:0:0:0:
256,192,144160,8,0,144183,0:0:0:0:
256,192,144207,8,0,144230,0:0:0:0:
176,168,145004,5,8,0:0:0:0:
176,168,145097,1,0,0:0:0:0:
176,168,145191,1,0,0:0:0:0:
176,168,145285,1,8,0:0:0:0:
176,168,145379,1,8,0:0:0:0:
176,168,145472,1,0,0:0:0:0:
256,200,145566,1,0,0:0:0:0:
256,200,145660,1,8,0:0:0:0:
256,200,145754,1,8,0:0:0:0:
256,200,145847,1,8,0:0:0:0:
256,200,145941,1,0,0:0:0:0:
256,200,146035,1,8,0:0:0:0:
256,200,146129,1,0,0:0:0:0:
256,200,146222,1,0,0:0:0:0:
256,200,146316,1,8,0:0:0:0:
256,200,146410,1,0,0:0:0:0:
256,200,146504,1,8,0:0:0:0:
256,200,146597,1,8,0:0:0:0:
256,200,146691,1,0,0:0:0:0:
256,200,146785,1,0,0:0:0:0:
256,200,146879,1,8,0:0:0:0:
256,200,146972,1,0,0:0:0:0:
256,200,147066,1,8,0:0:0:0:
256,200,147160,1,0,0:0:0:0:
256,200,147254,1,8,0:0:0:0:
256,200,147347,1,8,0:0:0:0:
256,200,147441,1,0,0:0:0:0:
256,200,147535,1,0,0:0:0:0:
256,200,147629,1,8,0:0:0:0:
260,228,148004,1,8,0:0:0:0:
260,228,148097,1,0,0:0:0:0:
260,228,148191,1,0,0:0:0:0:
260,228,148285,1,8,0:0:0:0:
260,228,148379,1,8,0:0:0:0:
260,228,148472,1,0,0:0:0:0:
260,228,148566,1,0,0:0:0:0:
260,228,148660,1,0,0:0:0:0:
260,228,148754,1,8,0:0:0:0:
260,228,148847,1,0,0:0:0:0:
260,228,148941,1,8,0:0:0:0:
260,228,149035,1,0,0:0:0:0:
260,228,149129,1,8,0:0:0:0:
260,228,149222,1,8,0:0:0:0:
272,232,149316,1,0,0:0:0:0:
272,232,149410,1,0,0:0:0:0:
272,232,149504,1,8,0:0:0:0:
296,268,149597,1,0,0:0:0:0:
296,268,149691,1,8,0:0:0:0:
296,268,149785,1,0,0:0:0:0:
296,268,149879,1,8,0:0:0:0:
296,268,149972,1,0,0:0:0:0:
296,268,150066,1,8,0:0:0:0:
296,268,150160,1,0,0:0:0:0:
296,268,150254,1,8,0:0:0:0:
296,268,150347,1,8,0:0:0:0:
296,268,150441,1,8,0:0:0:0:
296,268,150535,1,0,0:0:0:0:
296,268,150629,1,8,0:0:0:0:
296,268,150722,1,0,0:0:0:0:
296,268,150816,1,0,0:0:0:0:
296,268,150910,1,0,0:0:0:0:
296,268,151004,1,8,0:0:0:0:
296,268,151097,1,0,0:0:0:0:
296,268,151191,1,0,0:0:0:0:
296,268,151285,1,0,0:0:0:0:
296,268,151379,1,8,0:0:0:0:
296,268,151472,1,8,0:0:0:0:
296,268,151566,1,0,0:0:0:0:
296,268,151660,1,8,0:0:0:0:
296,268,151754,1,0,0:0:0:0:
296,268,151847,1,8,0:0:0:0:
296,268,151941,1,8,0:0:0:0:
296,268,152035,1,0,0:0:0:0:
296,268,152129,1,8,0:0:0:0:
296,268,152222,1,0,0:0:0:0:
296,268,152316,1,8,0:0:0:0:
296,268,152410,1,0,0:0:0:0:
296,268,152504,1,8,0:0:0:0:
296,268,152597,1,8,0:0:0:0:
296,268,152691,1,0,0:0:0:0:
296,268,152785,1,0,0:0:0:0:
296,268,152879,1,8,0:0:0:0:
296,268,152972,1,0,0:0:0:0:
296,268,153066,1,8,0:0:0:0:
296,268,153160,1,0,0:0:0:0:
296,268,153254,1,8,0:0:0:0:
296,268,153347,1,8,0:0:0:0:
296,268,153441,1,8,0:0:0:0:
296,268,153535,1,8,0:0:0:0:
296,268,153629,1,0,0:0:0:0:
296,268,154004,1,8,0:0:0:0:
296,268,154097,1,0,0:0:0:0:
296,268,154191,1,8,0:0:0:0:
296,268,154285,1,8,0:0:0:0:
296,268,154379,1,0,0:0:0:0:
296,268,154472,1,8,0:0:0:0:
296,268,154566,1,0,0:0:0:0:
296,268,154660,1,0,0:0:0:0:
296,268,154754,1,8,0:0:0:0:
296,268,154847,1,0,0:0:0:0:
296,268,154941,1,8,0:0:0:0:
296,268,155035,1,8,0:0:0:0:
296,268,155129,1,0,0:0:0:0:
296,268,155222,1,8,0:0:0:0:
296,268,155316,1,0,0:0:0:0:
296,268,155410,1,0,0:0:0:0:
296,268,155504,1,8,0:0:0:0:
296,268,155597,1,0,0:0:0:0:
296,268,155691,1,8,0:0:0:0:
296,268,155785,1,0,0:0:0:0:
296,268,155879,1,8,0:0:0:0:
296,268,155972,1,0,0:0:0:0:
296,268,156066,1,8,0:0:0:0:
296,268,156160,1,0,0:0:0:0:
296,268,156254,1,8,0:0:0:0:
296,268,156347,1,8,0:0:0:0:
296,268,156441,1,8,0:0:0:0:
296,268,156535,1,0,0:0:0:0:
296,268,156629,1,8,0:0:0:0:
296,268,156722,1,0,0:0:0:0:
296,268,156816,1,0,0:0:0:0:
172,204,157004,1,0,0:0:0:0:
328,202,157097,1,8,0:0:0:0:
172,204,157191,1,0,0:0:0:0:
328,202,157285,1,8,0:0:0:0:
172,204,157379,1,0,0:0:0:0:
172,204,157472,1,0,0:0:0:0:
238,211,157566,1,8,0:0:0:0:
172,204,157660,1,0,0:0:0:0:
172,204,157754,1,0,0:0:0:0:
238,211,157847,1,8,0:0:0:0:
172,204,157941,1,0,0:0:0:0:
172,204,158035,1,0,0:0:0:0:
238,211,158129,1,8,0:0:0:0:
172,204,158222,1,0,0:0:0:0:
172,204,158316,1,0,0:0:0:0:
238,211,158410,1,8,0:0:0:0:
146,188,158504,1,0,0:0:0:0:
146,188,158597,1,0,0:0:0:0:
228,224,158691,1,0,0:0:0:0:
253,246,158785,1,8,0:0:0:0:
160,204,158879,1,0,0:0:0:0:
160,204,158972,1,0,0:0:0:0:
253,246,159066,1,8,0:0:0:0:
220,160,159160,1,0,0:0:0:0:
208,148,159254,1,0,0:0:0:0:
253,246,159347,1,8,0:0:0:0:
172,180,159441,1,0,0:0:0:0:
172,180,159535,1,0,0:0:0:0:
253,246,159629,1,8,0:0:0:0:
172,180,159722,1,0,0:0:0:0:
172,180,159816,1,0,0:0:0:0:
172,180,160004,1,8,0:0:0:0:
171,123,160097,1,8,0:0:0:0:
228,224,160191,1,0,0:0:0:0:
253,246,160285,1,8,0:0:0:0:
160,204,160379,1,0,0:0:0:0:
160,204,160472,1,0,0:0:0:0:
253,246,160566,1,8,0:0:0:0:
220,160,160660,1,0,0:0:0:0:
208,148,160754,1,0,0:0:0:0:
253,246,160847,1,8,0:0:0:0:
172,180,160941,1,0,0:0:0:0:
172,180,161035,1,0,0:0:0:0:
253,246,161129,1,8,0:0:0:0:
172,180,161222,1,0,0:0:0:0:
172,180,161316,1,0,0:0:0:0:
110,167,161410,1,8,0:0:0:0:
110,167,161504,1,8,0:0:0:0:
110,167,161597,1,0,0:0:0:0:
228,224,161691,1,0,0:0:0:0:
253,246,161785,1,8,0:0:0:0:
160,204,161879,1,0,0:0:0:0:
160,204,161972,1,0,0:0:0:0:
253,246,162066,1,8,0:0:0:0:
220,160,162160,1,0,0:0:0:0:
208,148,162254,1,0,0:0:0:0:
249,248,162347,1,8,0:0:0:0:
172,180,162441,1,0,0:0:0:0:
172,180,162535,1,0,0:0:0:0:
249,248,162629,1,8,0:0:0:0:
172,180,162722,1,0,0:0:0:0:
172,180,162816,1,0,0:0:0:0:
216,227,163004,1,4,0:0:0:0:
219,196,163191,1,8,0:0:0:0:
219,196,163285,1,0,0:0:0:0:
219,196,163379,1,8,0:0:0:0:
219,196,163472,1,0,0:0:0:0:
219,196,163566,1,8,0:0:0:0:
216,227,163754,1,4,0:0:0:0:
219,196,163941,1,8,0:0:0:0:
219,196,164035,1,0,0:0:0:0:
219,196,164129,1,8,0:0:0:0:
219,196,164222,1,0,0:0:0:0:
219,196,164316,1,8,0:0:0:0:
216,227,164504,1,4,0:0:0:0:
22,217,164691,1,8,0:0:0:0:
216,227,164879,1,4,0:0:0:0:
32,220,165066,1,8,0:0:0:0:
216,227,165254,1,4,0:0:0:0:
198,170,165441,1,8,0:0:0:0:
198,170,165535,1,8,0:0:0:0:
198,170,165629,1,8,0:0:0:0:
198,170,165722,1,8,0:0:0:0:
198,170,165816,1,8,0:0:0:0:
256,192,166004,8,0,166027,0:0:0:0:
256,192,166050,8,0,166073,0:0:0:0:
256,192,166097,8,0,166120,0:0:0:0:
256,192,166144,8,0,166167,0:0:0:0:
256,192,166191,8,0,166215,0:0:0:0:
256,192,166238,8,0,166262,0:0:0:0:
256,192,166285,8,0,166309,0:0:0:0:
256,192,166332,8,0,166355,0:0:0:0:
199,208,166379,6,0,L|60:216,8,140
234,177,167504,1,0,0:0:0:0:
234,177,167879,1,0,0:0:0:0:
234,177,168254,1,0,0:0:0:0:
234,177,168629,1,0,0:0:0:0:
234,177,169004,1,8,0:0:0:0:
225,149,169097,1,0,0:0:0:0:
225,149,169191,1,8,0:0:0:0:
225,149,169285,1,8,0:0:0:0:
225,149,169379,1,0,0:0:0:0:
225,149,169472,1,8,0:0:0:0:
184,126,169566,1,0,0:0:0:0:
281,117,169613,1,0,0:0:0:0:
184,126,169754,1,8,0:0:0:0:
184,126,169847,1,8,0:0:0:0:
184,126,169941,1,0,0:0:0:0:
184,126,170035,1,8,0:0:0:0:
184,126,170129,1,0,0:0:0:0:
170,146,170175,1,0,0:0:0:0:
184,126,170316,1,8,0:0:0:0:
188,132,170363,1,8,0:0:0:0:
184,126,170504,1,0,0:0:0:0:
184,126,170597,1,0,0:0:0:0:
184,126,170691,1,8,0:0:0:0:
184,126,170785,1,8,0:0:0:0:
184,126,170879,1,0,0:0:0:0:
184,126,170972,1,0,0:0:0:0:
184,126,171066,1,8,0:0:0:0:
184,126,171160,1,8,0:0:0:0:
184,126,171254,1,0,0:0:0:0:
184,126,171347,1,8,0:0:0:0:
184,126,171441,1,0,0:0:0:0:
217,114,171488,1,0,0:0:0:0:
184,126,171629,1,8,0:0:0:0:
184,126,171722,1,8,0:0:0:0:
184,126,171816,1,0,0:0:0:0:
184,126,171910,1,0,0:0:0:0:
184,126,172004,1,8,0:0:0:0:
254,170,172050,1,8,0:0:0:0:
184,126,172191,1,0,0:0:0:0:
184,126,172238,1,0,0:0:0:0:
184,126,172379,1,8,0:0:0:0:
184,126,172472,1,8,0:0:0:0:
184,126,172566,1,0,0:0:0:0:
215,147,172613,1,0,0:0:0:0:
184,126,172754,1,8,0:0:0:0:
184,126,172847,1,8,0:0:0:0:
206,144,172941,1,8,0:0:0:0:
206,144,173035,1,8,0:0:0:0:
206,144,173129,1,0,0:0:0:0:
199,124,173175,1,0,0:0:0:0:
206,144,173316,1,8,0:0:0:0:
167,117,173363,1,8,0:0:0:0:
206,144,173504,1,0,0:0:0:0:
206,144,173597,1,8,0:0:0:0:
206,144,173691,1,0,0:0:0:0:
206,144,173785,1,0,0:0:0:0:
206,144,173879,1,8,0:0:0:0:
185,87,173925,1,8,0:0:0:0:
206,144,174066,1,0,0:0:0:0:
206,144,174160,1,0,0:0:0:0:
206,144,174254,1,8,0:0:0:0:
206,144,174347,1,8,0:0:0:0:
206,144,174441,1,0,0:0:0:0:
193,112,174488,1,0,0:0:0:0:
206,144,174629,1,8,0:0:0:0:
206,144,174722,1,8,0:0:0:0:
206,144,174816,1,8,0:0:0:0:
206,144,174910,1,8,0:0:0:0:
206,144,175004,1,0,0:0:0:0:
218,111,175050,1,0,0:0:0:0:
206,144,175191,1,8,0:0:0:0:
185,93,175238,1,8,0:0:0:0:
277,116,175379,1,0,0:0:0:0:
206,144,175472,1,0,0:0:0:0:
206,144,175566,1,8,0:0:0:0:
185,93,175613,1,8,0:0:0:0:
206,144,175754,1,0,0:0:0:0:
206,144,175847,1,0,0:0:0:0:
206,144,175941,1,8,0:0:0:0:
206,144,176035,1,8,0:0:0:0:
206,144,176129,1,0,0:0:0:0:
182,108,176175,1,0,0:0:0:0:
206,144,176316,1,8,0:0:0:0:
341,148,176363,1,8,0:0:0:0:
206,144,176504,1,0,0:0:0:0:
206,144,176597,1,0,0:0:0:0:
206,144,176691,1,8,0:0:0:0:
206,144,176785,1,8,0:0:0:0:
206,144,176879,1,0,0:0:0:0:
206,144,176925,1,0,0:0:0:0:
206,144,177066,1,8,0:0:0:0:
206,144,177160,1,8,0:0:0:0:
206,144,177254,1,0,0:0:0:0:
206,144,177347,1,0,0:0:0:0:
206,144,177441,1,8,0:0:0:0:
201,156,177488,1,8,0:0:0:0:
206,144,177629,1,0,0:0:0:0:
206,144,177722,1,8,0:0:0:0:
206,144,177816,1,8,0:0:0:0:
206,144,177910,1,0,0:0:0:0:
206,144,178004,1,8,0:0:0:0:
206,144,178050,1,8,0:0:0:0:
206,144,178191,1,0,0:0:0:0:
215,180,178238,1,0,0:0:0:0:
206,144,178379,1,8,0:0:0:0:
206,144,178472,1,0,0:0:0:0:
206,144,178566,1,8,0:0:0:0:
171,126,178613,1,8,0:0:0:0:
206,144,178754,1,0,0:0:0:0:
206,144,178847,1,0,0:0:0:0:
206,144,178941,1,8,0:0:0:0:
206,144,179035,1,8,0:0:0:0:
206,144,179129,1,0,0:0:0:0:
150,101,179175,1,0,0:0:0:0:
206,144,179316,1,8,0:0:0:0:
141,149,179363,1,8,0:0:0:0:
206,144,179504,1,0,0:0:0:0:
206,144,179597,1,0,0:0:0:0:
206,144,179691,1,0,0:0:0:0:
206,144,179785,1,0,0:0:0:0:
206,144,179879,1,8,0:0:0:0:
155,111,179925,1,8,0:0:0:0:
206,144,180066,1,0,0:0:0:0:
206,144,180160,1,0,0:0:0:0:
206,144,180254,1,8,0:0:0:0:
197,141,180300,1,8,0:0:0:0:
206,144,180441,1,0,0:0:0:0:
206,144,180535,1,0,0:0:0:0:
206,144,180629,1,0,0:0:0:0:
242,288,181004,1,0,0:0:0:0:
242,288,181050,1,0,0:0:0:0:
242,288,181191,1,8,0:0:0:0:
242,288,181238,1,8,0:0:0:0:
242,288,181379,1,0,0:0:0:0:
242,288,181472,1,0,0:0:0:0:
242,288,181566,1,8,0:0:0:0:
242,288,181613,1,8,0:0:0:0:
242,288,181754,1,0,0:0:0:0:
242,288,181847,1,0,0:0:0:0:
242,288,181941,1,8,0:0:0:0:
242,288,182035,1,8,0:0:0:0:
242,288,182129,1,0,0:0:0:0:
242,288,182175,1,0,0:0:0:0:
242,288,182316,1,8,0:0:0:0:
242,288,182363,1,8,0:0:0:0:
242,288,182504,1,0,0:0:0:0:
242,288,182597,1,0,0:0:0:0:
242,288,182691,1,8,0:0:0:0:
242,288,182785,1,0,0:0:0:0:
242,288,182879,1,8,0:0:0:0:
242,288,182925,1,8,0:0:0:0:
242,288,183066,1,0,0:0:0:0:
242,288,183160,1,8,0:0:0:0:
242,288,183254,1,0,0:0:0:0:
242,288,183347,1,8,0:0:0:0:
242,288,183441,1,0,0:0:0:0:
242,288,183488,1,0,0:0:0:0:
242,288,183629,1,0,0:0:0:0:
242,288,183722,1,0,0:0:0:0:
242,288,183816,1,8,0:0:0:0:
242,288,183910,1,8,0:0:0:0:
242,288,184004,1,0,0:0:0:0:
242,288,184050,1,0,0:0:0:0:
242,288,184191,1,8,0:0:0:0:
242,288,184238,1,8,0:0:0:0:
242,288,184379,1,0,0:0:0:0:
242,288,184472,1,0,0:0:0:0:
242,288,184566,1,8,0:0:0:0:
242,288,184613,1,8,0:0:0:0:
242,288,184754,1,0,0:0:0:0:
242,288,184847,1,0,0:0:0:0:
242,288,184941,1,8,0:0:0:0:
242,288,185035,1,8,0:0:0:0:
242,288,185129,1,0,0:0:0:0:
242,288,185175,1,0,0:0:0:0:
242,288,185316,1,8,0:0:0:0:
242,288,185363,1,8,0:0:0:0:
242,288,185504,1,0,0:0:0:0:
242,288,185597,1,8,0:0:0:0:
204,277,185691,1,8,0:0:0:0:
204,277,185785,1,0,0:0:0:0:
204,277,185879,1,8,0:0:0:0:
204,277,185925,1,8,0:0:0:0:
204,277,186066,1,0,0:0:0:0:
204,277,186160,1,0,0:0:0:0:
204,277,186254,1,8,0:0:0:0:
204,277,186347,1,8,0:0:0:0:
204,277,186441,1,0,0:0:0:0:
204,277,186488,1,0,0:0:0:0:
204,277,186629,1,8,0:0:0:0:
204,277,186722,1,8,0:0:0:0:
204,277,186816,1,8,0:0:0:0:
204,277,186910,1,8,0:0:0:0:
231,280,187004,1,0,0:0:0:0:
231,280,187050,1,0,0:0:0:0:
231,280,187191,1,8,0:0:0:0:
231,280,187238,1,8,0:0:0:0:
231,280,187379,1,0,0:0:0:0:
231,280,187472,1,0,0:0:0:0:
231,280,187566,1,8,0:0:0:0:
231,280,187613,1,8,0:0:0:0:
231,280,187754,1,0,0:0:0:0:
231,280,187847,1,0,0:0:0:0:
231,280,187941,1,8,0:0:0:0:
231,280,188035,1,8,0:0:0:0:
231,280,188129,1,0,0:0:0:0:
231,280,188175,1,0,0:0:0:0:
231,280,188316,1,8,0:0:0:0:
231,280,188363,1,8,0:0:0:0:
231,280,188504,1,0,0:0:0:0:
231,280,188597,1,0,0:0:0:0:
231,280,188691,1,0,0:0:0:0:
231,280,188785,1,0,0:0:0:0:
231,280,188879,1,8,0:0:0:0:
231,280,188925,1,8,0:0:0:0:
231,280,189066,1,0,0:0:0:0:
231,280,189160,1,0,0:0:0:0:
231,280,189254,1,8,0:0:0:0:
231,280,189347,1,8,0:0:0:0:
231,280,189441,1,0,0:0:0:0:
231,280,189488,1,0,0:0:0:0:
231,280,189629,1,8,0:0:0:0:
231,280,189722,1,8,0:0:0:0:
231,280,189816,1,8,0:0:0:0:
231,280,189910,1,8,0:0:0:0:
231,280,190004,1,0,0:0:0:0:
231,280,190050,1,0,0:0:0:0:
231,280,190191,1,8,0:0:0:0:
231,280,190238,1,8,0:0:0:0:
231,280,190379,1,0,0:0:0:0:
231,280,190472,1,8,0:0:0:0:
231,280,190566,1,0,0:0:0:0:
231,280,190613,1,0,0:0:0:0:
231,280,190754,1,8,0:0:0:0:
231,280,190847,1,8,0:0:0:0:
231,280,190941,1,8,0:0:0:0:
231,280,191035,1,8,0:0:0:0:
231,280,191129,1,0,0:0:0:0:
231,280,191175,1,0,0:0:0:0:
231,280,191316,1,8,0:0:0:0:
231,280,191363,1,8,0:0:0:0:
231,280,191504,1,0,0:0:0:0:
231,280,191597,1,0,0:0:0:0:
231,280,191691,1,8,0:0:0:0:
231,280,191785,1,8,0:0:0:0:
231,280,191879,1,0,0:0:0:0:
231,280,191925,1,0,0:0:0:0:
231,280,192066,1,8,0:0:0:0:
231,280,192160,1,8,0:0:0:0:
231,280,192254,1,0,0:0:0:0:
231,280,192347,1,0,0:0:0:0:
231,280,192441,1,0,0:0:0:0:
231,280,192535,1,0,0:0:0:0:
231,280,192629,1,8,0:0:0:0:
231,280,192722,1,8,0:0:0:0:
231,280,192816,1,8,0:0:0:0:
231,280,192910,1,8,0:0:0:0:
25,351,193004,1,0,0:0:0:0:
27,348,193097,1,0,0:0:0:0:
30,346,193191,1,0,0:0:0:0:
33,344,193285,1,0,0:0:0:0:
36,342,193379,1,8,0:0:0:0:
38,340,193472,1,0,0:0:0:0:
41,338,193566,1,0,0:0:0:0:
44,336,193660,1,0,0:0:0:0:
47,334,193754,1,8,0:0:0:0:
50,332,193847,1,0,0:0:0:0:
52,329,193941,1,0,0:0:0:0:
55,327,194035,1,0,0:0:0:0:
58,325,194129,1,8,0:0:0:0:
61,323,194222,1,0,0:0:0:0:
64,321,194316,1,0,0:0:0:0:
66,319,194410,1,0,0:0:0:0:
69,317,194504,1,8,0:0:0:0:
72,315,194597,1,0,0:0:0:0:
75,313,194691,1,0,0:0:0:0:
78,310,194785,1,0,0:0:0:0:
80,308,194879,1,8,0:0:0:0:
83,306,194972,1,0,0:0:0:0:
86,304,195066,1,0,0:0:0:0:
89,302,195160,1,0,0:0:0:0:
92,300,195254,1,8,0:0:0:0:
94,298,195347,1,0,0:0:0:0:
97,296,195441,1,0,0:0:0:0:
100,294,195535,1,0,0:0:0:0:
103,291,195629,1,8,0:0:0:0:
106,289,195722,1,0,0:0:0:0:
108,287,195816,1,0,0:0:0:0:
111,285,195910,1,0,0:0:0:0:
114,283,196004,1,8,0:0:0:0:
117,281,196097,1,0,0:0:0:0:
119,279,196191,1,0,0:0:0:0:
122,277,196285,1,0,0:0:0:0:
125,275,196379,1,8,0:0:0:0:
128,272,196472,1,0,0:0:0:0:
131,270,196566,1,0,0:0:0:0:
133,268,196660,1,0,0:0:0:0:
136,266,196754,1,8,0:0:0:0:
139,264,196847,1,0,0:0:0:0:
142,262,196941,1,0,0:0:0:0:
145,260,197035,1,0,0:0:0:0:
147,258,197129,1,8,0:0:0:0:
150,256,197222,1,0,0:0:0:0:
153,253,197316,1,0,0:0:0:0:
156,251,197410,1,0,0:0:0:0:
159,249,197504,1,8,0:0:0:0:
161,247,197597,1,0,0:0:0:0:
164,245,197691,1,0,0:0:0:0:
167,243,197785,1,0,0:0:0:0:
170,241,197879,1,8,0:0:0:0:
173,239,197972,1,0,0:0:0:0:
175,237,198066,1,0,0:0:0:0:
178,235,198160,1,0,0:0:0:0:
181,232,198254,1,8,0:0:0:0:
184,230,198347,1,0,0:0:0:0:
187,228,198441,1,0,0:0:0:0:
189,226,198535,1,0,0:0:0:0:
192,224,198629,1,8,0:0:0:0:
195,222,198722,1,0,0:0:0:0:
198,220,198816,1,0,0:0:0:0:
200,218,198910,1,0,0:0:0:0:
203,216,199004,1,8,0:0:0:0:
206,213,199097,1,0,0:0:0:0:
209,211,199191,1,0,0:0:0:0:
212,209,199285,1,0,0:0:0:0:
214,207,199379,1,8,0:0:0:0:
217,205,199472,1,0,0:0:0:0:
220,203,199566,1,0,0:0:0:0:
223,201,199660,1,0,0:0:0:0:
226,199,199754,1,8,0:0:0:0:
228,197,199847,1,0,0:0:0:0:
231,194,199941,1,0,0:0:0:0:
234,192,200035,1,0,0:0:0:0:
237,190,200129,1,8,0:0:0:0:
240,188,200222,1,0,0:0:0:0:
242,186,200316,1,0,0:0:0:0:
245,184,200410,1,0,0:0:0:0:
248,182,200504,1,8,0:0:0:0:
251,180,200597,1,0,0:0:0:0:
254,178,200691,1,0,0:0:0:0:
256,175,200785,1,0,0:0:0:0:
259,173,200879,1,8,0:0:0:0:
262,171,200972,1,0,0:0:0:0:
265,169,201066,1,0,0:0:0:0:
268,167,201160,1,0,0:0:0:0:
270,165,201254,1,8,0:0:0:0:
273,163,201347,1,0,0:0:0:0:
276,161,201441,1,8,0:0:0:0:
279,159,201535,1,0,0:0:0:0:
281,156,201629,1,8,0:0:0:0:
284,154,201722,1,8,0:0:0:0:
287,152,201816,1,0,0:0:0:0:
290,150,201910,1,0,0:0:0:0:
293,148,202004,1,8,0:0:0:0:
295,146,202097,1,0,0:0:0:0:
298,144,202191,1,0,0:0:0:0:
301,142,202285,1,0,0:0:0:0:
304,140,202379,1,8,0:0:0:0:
307,138,202472,1,0,0:0:0:0:
309,135,202566,1,0,0:0:0:0:
312,133,202660,1,0,0:0:0:0:
315,131,202754,1,8,0:0:0:0:
318,129,202847,1,0,0:0:0:0:
321,127,202941,1,0,0:0:0:0:
323,125,203035,1,0,0:0:0:0:
326,123,203129,1,8,0:0:0:0:
329,121,203222,1,0,0:0:0:0:
332,119,203316,1,0,0:0:0:0:
335,116,203410,1,0,0:0:0:0:
337,114,203504,1,8,0:0:0:0:
340,112,203597,1,8,0:0:0:0:
343,110,203691,1,0,0:0:0:0:
346,108,203785,1,0,0:0:0:0:
349,106,203879,1,8,0:0:0:0:
351,104,203972,1,8,0:0:0:0:
354,102,204066,1,0,0:0:0:0:
357,100,204160,1,0,0:0:0:0:
360,97,204254,1,8,0:0:0:0:
363,95,204347,1,8,0:0:0:0:
365,93,204441,1,0,0:0:0:0:
368,91,204535,1,0,0:0:0:0:
371,89,204629,1,8,0:0:0:0:
374,87,204722,1,0,0:0:0:0:
376,85,204816,1,0,0:0:0:0:
379,83,204910,1,0,0:0:0:0:
382,81,205004,1,8,0:0:0:0:
385,78,205097,1,0,0:0:0:0:
388,76,205191,1,0,0:0:0:0:
390,74,205285,1,0,0:0:0:0:
393,72,205379,1,8,0:0:0:0:
396,70,205472,1,0,0:0:0:0:
399,68,205566,1,0,0:0:0:0:
402,66,205660,1,0,0:0:0:0:
404,64,205754,1,8,0:0:0:0:
407,62,205847,1,0,0:0:0:0:
410,59,205941,1,0,0:0:0:0:
413,57,206035,1,0,0:0:0:0:
416,55,206129,1,8,0:0:0:0:
418,53,206222,1,0,0:0:0:0:
421,51,206316,1,0,0:0:0:0:
424,49,206410,1,0,0:0:0:0:
427,47,206504,1,8,0:0:0:0:
430,45,206597,1,0,0:0:0:0:
432,43,206691,1,0,0:0:0:0:
497,372,206785,1,0,0:0:0:0:
494,369,206878,1,8,0:0:0:0:
491,367,206972,1,0,0:0:0:0:
488,365,207066,1,0,0:0:0:0:
485,363,207160,1,0,0:0:0:0:
482,361,207253,1,8,0:0:0:0:
480,359,207347,1,0,0:0:0:0:
477,357,207441,1,0,0:0:0:0:
474,355,207535,1,0,0:0:0:0:
471,353,207628,1,8,0:0:0:0:
468,351,207722,1,0,0:0:0:0:
466,348,207816,1,0,0:0:0:0:
463,346,207910,1,0,0:0:0:0:
460,344,208003,1,8,0:0:0:0:
457,342,208097,1,0,0:0:0:0:
454,340,208191,1,0,0:0:0:0:
452,338,208285,1,0,0:0:0:0:
449,336,208378,1,8,0:0:0:0:
446,334,208472,1,0,0:0:0:0:
443,332,208566,1,0,0:0:0:0:
440,330,208660,1,0,0:0:0:0:
438,327,208753,1,8,0:0:0:0:
435,325,208847,1,0,0:0:0:0:
432,323,208941,1,0,0:0:0:0:
429,321,209035,1,0,0:0:0:0:
426,319,209128,1,8,0:0:0:0:
424,317,209222,1,0,0:0:0:0:
421,315,209316,1,0,0:0:0:0:
418,313,209410,1,0,0:0:0:0:
415,311,209503,1,8,0:0:0:0:
412,309,209597,1,0,0:0:0:0:
410,307,209691,1,0,0:0:0:0:
407,304,209785,1,0,0:0:0:0:
404,302,209878,1,8,0:0:0:0:
401,300,209972,1,0,0:0:0:0:
398,298,210066,1,0,0:0:0:0:
396,296,210160,1,0,0:0:0:0:
393,294,210253,1,8,0:0:0:0:
390,292,210347,1,0,0:0:0:0:
387,290,210441,1,0,0:0:0:0:
384,288,210535,1,0,0:0:0:0:
382,286,210628,1,8,0:0:0:0:
379,283,210722,1,0,0:0:0:0:
376,281,210816,1,0,0:0:0:0:
373,279,210910,1,0,0:0:0:0:
370,277,211003,1,8,0:0:0:0:
368,275,211097,1,0,0:0:0:0:
365,273,211191,1,0,0:0:0:0:
362,271,211285,1,0,0:0:0:0:
359,269,211378,1,8,0:0:0:0:
356,267,211472,1,0,0:0:0:0:
354,265,211566,1,8,0:0:0:0:
351,263,211660,1,0,0:0:0:0:
348,260,211753,1,8,0:0:0:0:
345,258,211847,1,8,0:0:0:0:
342,256,211941,1,0,0:0:0:0:
340,254,212035,1,8,0:0:0:0:
337,252,212128,1,0,0:0:0:0:
334,250,212222,1,8,0:0:0:0:
331,248,212316,1,0,0:0:0:0:
328,246,212410,1,0,0:0:0:0:
325,244,212503,1,8,0:0:0:0:
323,242,212597,1,8,0:0:0:0:
320,239,212691,1,0,0:0:0:0:
317,237,212785,1,8,0:0:0:0:
314,235,212878,1,0,0:0:0:0:
311,233,212972,1,0,0:0:0:0:
309,231,213066,1,8,0:0:0:0:
306,229,213160,1,8,0:0:0:0:
303,227,213253,1,0,0:0:0:0:
300,225,213347,1,8,0:0:0:0:
297,223,213441,1,0,0:0:0:0:
295,221,213535,1,8,0:0:0:0:
292,219,213628,1,0,0:0:0:0:
289,216,213722,1,8,0:0:0:0:
286,214,213816,1,0,0:0:0:0:
283,212,213910,1,0,0:0:0:0:
281,210,214003,1,8,0:0:0:0:
278,208,214097,1,0,0:0:0:0:
275,206,214191,1,0,0:0:0:0:
272,204,214285,1,0,0:0:0:0:
269,202,214379,1,8,0:0:0:0:
267,200,214472,1,0,0:0:0:0:
264,198,214566,1,0,0:0:0:0:
261,195,214660,1,0,0:0:0:0:
258,193,214753,1,8,0:0:0:0:
255,191,214847,1,8,0:0:0:0:
253,189,214941,1,0,0:0:0:0:
250,187,215035,1,0,0:0:0:0:
247,185,215128,1,8,0:0:0:0:
244,183,215222,1,0,0:0:0:0:
241,181,215316,1,8,0:0:0:0:
239,179,215410,1,8,0:0:0:0:
236,177,215503,1,0,0:0:0:0:
233,175,215597,1,8,0:0:0:0:
230,172,215691,1,0,0:0:0:0:
227,170,215785,1,8,0:0:0:0:
225,168,215878,1,0,0:0:0:0:
222,166,215972,1,8,0:0:0:0:
219,164,216066,1,0,0:0:0:0:
216,162,216160,1,0,0:0:0:0:
213,160,216253,1,8,0:0:0:0:
211,158,216347,1,8,0:0:0:0:
208,156,216441,1,8,0:0:0:0:
205,154,216535,1,8,0:0:0:0:
202,151,216628,1,8,0:0:0:0:
199,149,216722,1,8,0:0:0:0:
197,147,216816,1,8,0:0:0:0:
194,145,216910,1,8,0:0:0:0:
191,143,217003,1,8,0:0:0:0:
188,141,217097,1,0,0:0:0:0:
185,139,217191,1,0,0:0:0:0:
183,137,217285,1,0,0:0:0:0:
180,135,217378,1,8,0:0:0:0:
177,133,217472,1,0,0:0:0:0:
174,131,217566,1,0,0:0:0:0:
171,128,217660,1,0,0:0:0:0:
169,126,217753,1,8,0:0:0:0:
166,124,217847,1,0,0:0:0:0:
163,122,217941,1,0,0:0:0:0:
160,120,218035,1,0,0:0:0:0:
157,118,218128,1,8,0:0:0:0:
154,116,218222,1,0,0:0:0:0:
152,114,218316,1,0,0:0:0:0:
149,112,218410,1,0,0:0:0:0:
146,110,218503,1,8,0:0:0:0:
143,107,218597,1,0,0:0:0:0:
140,105,218691,1,0,0:0:0:0:
138,103,218785,1,0,0:0:0:0:
135,101,218878,1,8,0:0:0:0:
132,99,218972,1,0,0:0:0:0:
129,97,219066,1,0,0:0:0:0:
126,95,219160,1,0,0:0:0:0:
124,93,219253,1,8,0:0:0:0:
121,91,219347,1,0,0:0:0:0:
118,89,219441,1,0,0:0:0:0:
115,87,219535,1,0,0:0:0:0:
112,84,219629,1,8,0:0:0:0:
110,82,219722,1,0,0:0:0:0:
107,80,219816,1,0,0:0:0:0:
104,78,219910,1,0,0:0:0:0:
101,76,220003,1,8,0:0:0:0:
98,74,220097,1,0,0:0:0:0:
96,72,220191,1,0,0:0:0:0:
93,70,220285,1,0,0:0:0:0:
90,68,220379,1,8,0:0:0:0:
87,66,220472,1,0,0:0:0:0:
84,63,220566,1,0,0:0:0:0:
82,61,220660,1,0,0:0:0:0:
79,59,220753,1,8,0:0:0:0:
76,57,220847,1,0,0:0:0:0:
73,55,220941,1,0,0:0:0:0:
70,53,221035,1,0,0:0:0:0:
68,51,221129,1,8,0:0:0:0:
65,49,221222,1,0,0:0:0:0:
62,47,221316,1,0,0:0:0:0:
59,45,221410,1,0,0:0:0:0:
56,43,221504,1,8,0:0:0:0:
54,40,221597,1,0,0:0:0:0:
51,38,221691,1,0,0:0:0:0:
48,36,221785,1,0,0:0:0:0:
45,34,221878,1,8,0:0:0:0:
42,32,221972,1,0,0:0:0:0:
40,30,222066,1,0,0:0:0:0:
37,28,222160,1,0,0:0:0:0:
34,26,222253,1,8,0:0:0:0:
31,24,222347,1,0,0:0:0:0:
28,22,222441,1,0,0:0:0:0:
26,19,222535,1,0,0:0:0:0:
23,17,222628,1,8,0:0:0:0:
20,15,222722,1,0,0:0:0:0:
17,13,222816,1,0,0:0:0:0:
14,11,222910,1,0,0:0:0:0:
12,9,223003,1,8,0:0:0:0:
9,7,223097,1,0,0:0:0:0:
6,5,223191,1,0,0:0:0:0:
3,3,223285,1,0,0:0:0:0:
1,377,223379,1,8,0:0:0:0:
3,374,223472,1,0,0:0:0:0:
6,372,223566,1,0,0:0:0:0:
9,370,223660,1,0,0:0:0:0:
12,368,223754,1,8,0:0:0:0:
15,366,223847,1,0,0:0:0:0:
17,364,223941,1,0,0:0:0:0:
20,362,224035,1,0,0:0:0:0:
23,360,224129,1,8,0:0:0:0:
26,358,224222,1,0,0:0:0:0:
29,356,224316,1,0,0:0:0:0:
31,354,224410,1,0,0:0:0:0:
34,351,224504,1,8,0:0:0:0:
37,349,224597,1,0,0:0:0:0:
40,347,224691,1,0,0:0:0:0:
43,345,224785,1,0,0:0:0:0:
45,343,224879,1,8,0:0:0:0:
48,341,224972,1,0,0:0:0:0:
51,339,225066,1,0,0:0:0:0:
54,337,225160,1,0,0:0:0:0:
57,335,225254,1,8,0:0:0:0:
60,333,225347,1,0,0:0:0:0:
62,331,225441,1,0,0:0:0:0:
65,329,225535,1,0,0:0:0:0:
68,326,225629,1,8,0:0:0:0:
71,324,225722,1,0,0:0:0:0:
74,322,225816,1,0,0:0:0:0:
76,320,225910,1,0,0:0:0:0:
79,318,226004,1,8,0:0:0:0:
82,316,226097,1,0,0:0:0:0:
85,314,226191,1,0,0:0:0:0:
88,312,226285,1,0,0:0:0:0:
90,310,226379,1,8,0:0:0:0:
93,308,226472,1,0,0:0:0:0:
96,306,226566,1,0,0:0:0:0:
99,303,226660,1,0,0:0:0:0:
102,301,226754,1,8,0:0:0:0:
104,299,226847,1,0,0:0:0:0:
107,297,226941,1,0,0:0:0:0:
110,295,227035,1,0,0:0:0:0:
113,293,227129,1,8,0:0:0:0:
116,291,227222,1,0,0:0:0:0:
119,289,227316,1,0,0:0:0:0:
121,287,227410,1,0,0:0:0:0:
124,285,227504,1,8,0:0:0:0:
127,283,227597,1,0,0:0:0:0:
130,281,227691,1,0,0:0:0:0:
133,278,227785,1,0,0:0:0:0:
135,276,227879,1,8,0:0:0:0:
138,274,227972,1,0,0:0:0:0:
141,272,228066,1,0,0:0:0:0:
144,270,228160,1,0,0:0:0:0:
147,268,228254,1,8,0:0:0:0:
149,266,228347,1,0,0:0:0:0:
152,264,228441,1,0,0:0:0:0:
155,262,228535,1,0,0:0:0:0:
158,260,228629,1,8,0:0:0:0:
161,258,228722,1,0,0:0:0:0:
163,255,228816,1,0,0:0:0:0:
166,253,228910,1,0,0:0:0:0:
169,251,229004,1,8,0:0:0:0:
172,249,229097,1,0,0:0:0:0:
175,247,229191,1,0,0:0:0:0:
178,245,229285,1,0,0:0:0:0:
180,243,229379,1,8,0:0:0:0:
183,241,229472,1,8,0:0:0:0:
186,239,229566,1,0,0:0:0:0:
189,237,229660,1,0,0:0:0:0:
192,235,229754,1,8,0:0:0:0:
194,233,229847,1,0,0:0:0:0:
197,230,229941,1,0,0:0:0:0:
200,228,230035,1,0,0:0:0:0:
203,226,230129,1,8,0:0:0:0:
206,224,230222,1,8,0:0:0:0:
208,222,230316,1,0,0:0:0:0:
211,220,230410,1,0,0:0:0:0:
214,218,230504,1,8,0:0:0:0:
217,216,230597,1,0,0:0:0:0:
220,214,230691,1,0,0:0:0:0:
222,212,230785,1,0,0:0:0:0:
225,210,230879,1,8,0:0:0:0:
228,207,230972,1,8,0:0:0:0:
231,205,231066,1,0,0:0:0:0:
234,203,231160,1,0,0:0:0:0:
237,201,231254,1,8,0:0:0:0:
239,199,231347,1,0,0:0:0:0:
242,197,231441,1,0,0:0:0:0:
245,195,231535,1,0,0:0:0:0:
248,193,231629,1,8,0:0:0:0:
251,191,231722,1,8,0:0:0:0:
253,189,231816,1,0,0:0:0:0:
256,187,231910,1,0,0:0:0:0:
259,185,232004,1,8,0:0:0:0:
262,182,232097,1,0,0:0:0:0:
265,180,232191,1,0,0:0:0:0:
267,178,232285,1,0,0:0:0:0:
270,176,232379,1,8,0:0:0:0:
273,174,232472,1,8,0:0:0:0:
276,172,232566,1,0,0:0:0:0:
279,170,232660,1,0,0:0:0:0:
281,168,232754,1,8,0:0:0:0:
284,166,232847,1,0,0:0:0:0:
287,164,232941,1,0,0:0:0:0:
290,162,233035,1,0,0:0:0:0:
293,159,233129,1,8,0:0:0:0:
296,157,233222,1,8,0:0:0:0:
298,155,233316,1,0,0:0:0:0:
301,153,233410,1,0,0:0:0:0:
304,151,233504,1,8,0:0:0:0:
307,149,233597,1,0,0:0:0:0:
310,147,233691,1,0,0:0:0:0:
312,145,233785,1,0,0:0:0:0:
315,143,233879,1,8,0:0:0:0:
318,141,233972,1,8,0:0:0:0:
321,139,234066,1,0,0:0:0:0:
324,137,234160,1,0,0:0:0:0:
326,134,234254,1,8,0:0:0:0:
329,132,234347,1,0,0:0:0:0:
332,130,234441,1,0,0:0:0:0:
335,128,234535,1,0,0:0:0:0:
338,126,234629,1,8,0:0:0:0:
341,124,234722,1,8,0:0:0:0:
343,122,234816,1,0,0:0:0:0:
346,120,234910,1,0,0:0:0:0:
349,118,235004,1,8,0:0:0:0:
352,116,235097,1,0,0:0:0:0:
355,114,235191,1,0,0:0:0:0:
357,111,235285,1,0,0:0:0:0:
360,109,235379,1,8,0:0:0:0:
363,107,235472,1,8,0:0:0:0:
366,105,235566,1,0,0:0:0:0:
369,103,235660,1,0,0:0:0:0:
371,101,235754,1,8,0:0:0:0:
374,99,235847,1,8,0:0:0:0:
377,97,235941,1,0,0:0:0:0:
380,95,236035,1,8,0:0:0:0:
383,93,236129,1,0,0:0:0:0:
385,91,236222,1,8,0:0:0:0:
388,89,236316,1,8,0:0:0:0:
391,86,236410,1,8,0:0:0:0:
394,84,236504,1,0,0:0:0:0:
397,82,236597,1,8,0:0:0:0:
400,80,236691,1,8,0:0:0:0:
402,78,236785,1,0,0:0:0:0:
405,76,236879,1,8,0:0:0:0:
408,74,236972,1,0,0:0:0:0:
411,72,237066,1,8,0:0:0:0:
414,70,237160,1,0,0:0:0:0:
416,68,237254,1,8,0:0:0:0:
419,66,237347,1,8,0:0:0:0:
422,64,237441,1,8,0:0:0:0:
425,61,237535,1,0,0:0:0:0:
428,59,237629,1,8,0:0:0:0:
430,57,237722,1,0,0:0:0:0:
433,55,237816,1,0,0:0:0:0:
436,53,237910,1,0,0:0:0:0:
439,51,238004,1,8,0:0:0:0:
442,49,238097,1,0,0:0:0:0:
444,47,238191,1,0,0:0:0:0:
447,45,238285,1,0,0:0:0:0:
450,43,238379,1,8,0:0:0:0:
453,41,238472,1,0,0:0:0:0:
456,38,238566,1,0,0:0:0:0:
459,36,238660,1,0,0:0:0:0:
461,34,238754,1,8,0:0:0:0:
464,32,238847,1,8,0:0:0:0:
467,30,238941,1,0,0:0:0:0:
470,28,239035,1,8,0:0:0:0:
473,26,239129,1,0,0:0:0:0:
475,24,239222,1,8,0:0:0:0:
478,22,239316,1,8,0:0:0:0:
481,20,239410,1,0,0:0:0:0:
484,18,239504,1,8,0:0:0:0:
487,16,239597,1,0,0:0:0:0:
489,13,239691,1,8,0:0:0:0:
492,11,239785,1,0,0:0:0:0:
495,9,239879,1,8,0:0:0:0:
498,7,239972,1,0,0:0:0:0:
501,5,240066,1,8,0:0:0:0:
503,3,240160,1,0,0:0:0:0:
506,1,240254,1,8,0:0:0:0:
290,155,240347,1,0,0:0:0:0:
290,155,240441,1,8,0:0:0:0:
290,155,240535,1,8,0:0:0:0:
290,155,240629,1,8,0:0:0:0:
268,157,240722,1,0,0:0:0:0:
268,157,240816,1,8,0:0:0:0:
282,214,241004,1,4,0:0:0:0:
