osu file format v14

[General]
AudioFilename: audio.mp3
AudioLeadIn: 0
PreviewTime: 165417
Countdown: 0
SampleSet: None
StackLeniency: 0.2
Mode: 1
LetterboxInBreaks: 0
WidescreenStoryboard: 0

[Editor]
Bookmarks: 14144,25781,37417,49054,60690,83963,95599,118872,142144,153781,165417,177054,188690,200326,223599,246872
DistanceSpacing: 2.4
BeatDivisor: 4
GridSize: 32
TimelineZoom: 3.4

[Metadata]
Title:SYNERGY
TitleUnicode:SYNERGY
Artist:lapix
ArtistUnicode:lapix
Creator:Jaye
Version:Nov 29
Source:
Tags:November-Series remii
BeatmapID:1852639
BeatmapSetID:886225

[Difficulty]
HPDrainRate:5
CircleSize:2
OverallDifficulty:6
ApproachRate:10
SliderMultiplier:1.4
SliderTickRate:1

[Events]
//Background and Video events
0,0,"anime-white-hair-anime-girls-night-sky-stars-colorful-1080P-wallpaper-middle-size.jpg",0,0
//Break Periods
//Storyboard Layer 0 (Background)
//Storyboard Layer 1 (Fail)
//Storyboard Layer 2 (Pass)
//Storyboard Layer 3 (Foreground)
//Storyboard Sound Samples

[TimingPoints]
1054,363.636363636364,4,1,0,80,1,0
1054,-135.135135135135,4,1,0,80,0,0
12781,-133.333333333333,4,1,0,80,0,0
12872,-131.578947368421,4,1,0,80,0,0
12963,-129.87012987013,4,1,0,80,0,0
13054,-128.205128205128,4,1,0,80,0,0
13144,-126.582278481013,4,1,0,80,0,0
13235,-125,4,1,0,80,0,0
13326,-123.456790123457,4,1,0,80,0,0
13417,-121.951219512195,4,1,0,80,0,0
13508,-120.481927710843,4,1,0,80,0,0
13599,-119.047619047619,4,1,0,80,0,0
13690,-117.647058823529,4,1,0,80,0,0
13781,-116.279069767442,4,1,0,80,0,0
13872,-114.942528735632,4,1,0,80,0,0
13963,-113.636363636364,4,1,0,80,0,0
14054,-112.359550561798,4,1,0,80,0,0
14144,-111.111111111111,4,1,0,85,0,0
25054,-108.695652173913,4,1,0,85,0,0
25144,-107.52688172043,4,1,0,85,0,0
25235,-106.382978723404,4,1,0,85,0,0
25326,-105.263157894737,4,1,0,85,0,0
25417,-103.092783505155,4,1,0,85,0,0
25508,-102.040816326531,4,1,0,85,0,0
25599,-101.010101010101,4,1,0,85,0,0
25781,-66.6666666666667,4,1,0,90,0,0
25881,-100,4,1,0,90,0,0
26235,-66.6666666666667,4,1,0,90,0,0
26335,-100,4,1,0,90,0,0
26781,-66.6666666666667,4,1,0,90,0,0
26881,-100,4,1,0,90,0,0
27235,-66.6666666666667,4,1,0,90,0,0
27335,-100,4,1,0,90,0,0
28690,-66.6666666666667,4,1,0,90,0,0
28790,-100,4,1,0,90,0,0
29144,-66.6666666666667,4,1,0,90,0,0
29244,-100,4,1,0,90,0,0
29690,-66.6666666666667,4,1,0,90,0,0
29790,-100,4,1,0,90,0,0
30144,-66.6666666666667,4,1,0,90,0,0
30244,-100,4,1,0,90,0,0
31599,-66.6666666666667,4,1,0,90,0,0
31699,-100,4,1,0,90,0,0
32053,-66.6666666666667,4,1,0,90,0,0
32153,-100,4,1,0,90,0,0
32599,-66.6666666666667,4,1,0,90,0,0
32699,-100,4,1,0,90,0,0
33053,-66.6666666666667,4,1,0,90,0,0
33153,-100,4,1,0,90,0,0
34508,-66.6666666666667,4,1,0,90,0,0
34608,-100,4,1,0,90,0,0
34962,-66.6666666666667,4,1,0,90,0,0
35062,-100,4,1,0,90,0,0
35508,-66.6666666666667,4,1,0,90,0,0
35608,-100,4,1,0,90,0,0
37417,-100,4,1,0,95,0,0
49054,-142.857142857143,4,1,0,95,0,0
54872,-111.111111111111,4,1,0,95,0,0
57781,-108.695652173913,4,1,0,95,0,0
57963,-107.52688172043,4,1,0,95,0,0
58144,-106.382978723404,4,1,0,95,0,0
58326,-105.263157894737,4,1,0,95,0,0
58508,-104.166666666667,4,1,0,95,0,0
58690,-103.092783505155,4,1,0,95,0,0
58872,-102.040816326531,4,1,0,95,0,0
59054,-101.010101010101,4,1,0,95,0,0
59235,-100,4,1,0,95,0,0
60690,-80,4,1,0,100,0,1
66084,-50,4,1,0,100,0,1
66750,-80,4,1,0,100,0,1
72326,-55.5555555555556,4,1,0,100,0,0
72690,-80,4,1,0,100,0,1
77720,-50,4,1,0,100,0,1
78387,-80,4,1,0,100,0,1
83963,-133.333333333333,4,1,0,85,0,0
89720,-111.111111111111,4,1,0,85,0,0
89781,-100,4,1,0,90,0,0
95175,-90.9090909090909,4,1,0,90,0,0
95357,-83.3333333333333,4,1,0,90,0,0
95538,-76.9230769230769,4,1,0,90,0,0
95781,-86.9565217391304,4,1,0,95,0,0
101599,-64.5161290322581,4,1,0,95,0,0
104508,-86.9565217391304,4,1,0,95,0,0
106811,-80,4,1,0,95,0,0
106993,-74.0740740740741,4,1,0,95,0,0
107175,-68.9655172413793,4,1,0,95,0,0
107417,-86.9565217391304,4,1,0,95,0,0
111720,-83.3333333333333,4,1,0,95,0,0
111963,-80,4,1,0,95,0,0
112266,-76.9230769230769,4,1,0,95,0,0
112508,-74.0740740740741,4,1,0,95,0,0
113235,-76.9230769230769,4,1,0,95,0,0
118872,-66.6666666666667,4,1,0,100,0,1
123175,-62.5,4,1,0,100,0,1
123357,-58.8235294117647,4,1,0,100,0,1
123538,-55.5555555555556,4,1,0,100,0,1
123902,-62.5,4,1,0,100,0,1
124084,-58.8235294117647,4,1,0,100,0,1
124266,-55.5555555555556,4,1,0,100,0,1
124629,-66.6666666666667,4,1,0,100,0,1
134811,-62.5,4,1,0,100,0,1
134993,-58.8235294117647,4,1,0,100,0,1
135175,-55.5555555555556,4,1,0,100,0,1
135538,-62.5,4,1,0,100,0,1
135720,-58.8235294117647,4,1,0,100,0,1
135902,-55.5555555555556,4,1,0,100,0,1
136266,-66.6666666666667,4,1,0,100,0,1
142144,-66.6666666666667,4,1,0,80,0,0
142872,-70.4225352112676,4,1,0,80,0,0
143660,-74.6268656716418,4,1,0,80,0,0
144387,-79.3650793650794,4,1,0,80,0,0
145114,-84.7457627118644,4,1,0,80,0,0
145781,-90.9090909090909,4,1,0,80,0,0
146569,-98.0392156862745,4,1,0,80,0,0
147296,-106.382978723404,4,1,0,80,0,0
148023,-116.279069767442,4,1,0,80,0,0
150872,-107.52688172043,4,1,0,85,0,0
151538,-100,4,1,0,85,0,0
153781,-66.6666666666667,4,1,0,90,0,0
153881,-100,4,1,0,90,0,0
154235,-66.6666666666667,4,1,0,90,0,0
154335,-100,4,1,0,90,0,0
154781,-66.6666666666667,4,1,0,90,0,0
154881,-100,4,1,0,90,0,0
155235,-66.6666666666667,4,1,0,90,0,0
155335,-100,4,1,0,90,0,0
156690,-66.6666666666667,4,1,0,90,0,0
156790,-100,4,1,0,90,0,0
157235,-66.6666666666667,4,1,0,90,0,0
157244,-100,4,1,0,90,0,0
157690,-66.6666666666667,4,1,0,90,0,0
157790,-100,4,1,0,90,0,0
158144,-66.6666666666667,4,1,0,90,0,0
158244,-100,4,1,0,90,0,0
159599,-66.6666666666667,4,1,0,90,0,0
159699,-100,4,1,0,90,0,0
160053,-66.6666666666667,4,1,0,90,0,0
160153,-100,4,1,0,90,0,0
160599,-66.6666666666667,4,1,0,90,0,0
160699,-100,4,1,0,90,0,0
161053,-66.6666666666667,4,1,0,90,0,0
161153,-100,4,1,0,90,0,0
162508,-66.6666666666667,4,1,0,90,0,0
162608,-100,4,1,0,90,0,0
162993,-66.6666666666667,4,1,0,90,0,0
163062,-100,4,1,0,90,0,0
163508,-66.6666666666667,4,1,0,90,0,0
163608,-100,4,1,0,90,0,0
165417,-66.6666666666667,4,1,0,90,0,0
165517,-100,4,1,0,90,0,0
165871,-66.6666666666667,4,1,0,90,0,0
165971,-100,4,1,0,90,0,0
166417,-66.6666666666667,4,1,0,90,0,0
166517,-100,4,1,0,90,0,0
166871,-66.6666666666667,4,1,0,90,0,0
166971,-100,4,1,0,90,0,0
168326,-66.6666666666667,4,1,0,90,0,0
168426,-100,4,1,0,90,0,0
168811,-66.6666666666667,4,1,0,90,0,0
168880,-100,4,1,0,90,0,0
169326,-66.6666666666667,4,1,0,90,0,0
169426,-100,4,1,0,90,0,0
169780,-66.6666666666667,4,1,0,90,0,0
169880,-100,4,1,0,90,0,0
171235,-66.6666666666667,4,1,0,90,0,0
171335,-100,4,1,0,90,0,0
171689,-66.6666666666667,4,1,0,90,0,0
171789,-100,4,1,0,90,0,0
172235,-66.6666666666667,4,1,0,90,0,0
172335,-100,4,1,0,90,0,0
172689,-66.6666666666667,4,1,0,90,0,0
172789,-100,4,1,0,90,0,0
174144,-66.6666666666667,4,1,0,90,0,0
174244,-100,4,1,0,90,0,0
174629,-66.6666666666667,4,1,0,90,0,0
174698,-100,4,1,0,90,0,0
175144,-66.6666666666667,4,1,0,90,0,0
175244,-100,4,1,0,90,0,0
182872,-100,4,1,0,85,0,0
188690,-133.333333333333,4,1,0,90,0,0
194508,-111.111111111111,4,1,0,95,0,0
197417,-108.695652173913,4,1,0,95,0,0
197599,-107.52688172043,4,1,0,95,0,0
197780,-106.382978723404,4,1,0,95,0,0
197962,-105.263157894737,4,1,0,95,0,0
198144,-104.166666666667,4,1,0,95,0,0
198326,-103.092783505155,4,1,0,95,0,0
198508,-102.040816326531,4,1,0,95,0,0
198690,-101.010101010101,4,1,0,95,0,0
198872,-100,4,1,0,95,0,0
199417,-98.0392156862745,4,1,0,95,0,0
199508,-97.0873786407766,4,1,0,95,0,0
199690,-95.2380952380954,4,1,0,95,0,0
199781,-94.3396226415097,4,1,0,95,0,0
199872,-93.4579439252339,4,1,0,95,0,0
199902,-33.3333333333333,4,1,0,95,0,0
200326,-66.6666666666667,4,1,0,100,0,1
223599,-66.6666666666667,4,1,0,95,0,0
223781,-67.5675675675676,4,1,0,95,0,0
223872,-68.0272108843537,4,1,0,95,0,0
223963,-68.4931506849315,4,1,0,95,0,0
224144,-69.4444444444444,4,1,0,95,0,0
224235,-69.9300699300699,4,1,0,95,0,0
224417,-70.9219858156028,4,1,0,95,0,0
224508,-71.4285714285714,4,1,0,95,0,0
224599,-71.9424460431655,4,1,0,95,0,0
224690,-72.463768115942,4,1,0,95,0,0
224872,-73.5294117647059,4,1,0,95,0,0
225054,-74.6268656716418,4,1,0,95,0,0
225144,-75.187969924812,4,1,0,95,0,0
225235,-75.7575757575758,4,1,0,95,0,0
225326,-76.3358778625954,4,1,0,95,0,0
225417,-76.9230769230769,4,1,0,95,0,0
225599,-78.125,4,1,0,95,0,0
225781,-79.3650793650794,4,1,0,95,0,0
225872,-80,4,1,0,95,0,0
225963,-80.6451612903226,4,1,0,95,0,0
226054,-81.3008130081301,4,1,0,95,0,0
226144,-81.9672131147541,4,1,0,95,0,0
226326,-83.3333333333333,4,1,0,95,0,0
226508,-84.7457627118644,4,1,0,95,0,0
235417,-85.4700854700855,4,1,0,95,0,0
235508,-86.2068965517241,4,1,0,95,0,0
235599,-86.9565217391304,4,1,0,95,0,0
235781,-88.4955752212389,4,1,0,95,0,0
235872,-89.2857142857143,4,1,0,95,0,0
235963,-90.9090909090909,4,1,0,95,0,0
236144,-91.743119266055,4,1,0,90,0,0
236235,-92.5925925925926,4,1,0,90,0,0
236326,-93.4579439252336,4,1,0,90,0,0
236508,-95.2380952380952,4,1,0,90,0,0
236690,-97.0873786407767,4,1,0,90,0,0
236781,-98.0392156862745,4,1,0,90,0,0
236871,-99.009900990099,4,1,0,90,0,0
236962,-100,4,1,0,90,0,0
237053,-101.010101010101,4,1,0,90,0,0
237235,-103.092783505155,4,1,0,90,0,0
237417,-105.263157894737,4,1,0,90,0,0
246872,-105.263157894737,4,1,0,85,0,0
252326,-106.382978723404,4,1,0,85,0,0
252417,-107.52688172043,4,1,0,85,0,0
252508,-108.695652173913,4,1,0,85,0,0
252599,-109.89010989011,4,1,0,85,0,0
252690,-111.111111111111,4,1,0,80,0,0
261054,-112.359550561798,4,1,0,80,0,0
261144,-113.636363636364,4,1,0,80,0,0
261235,-114.942528735632,4,1,0,80,0,0
261326,-116.279069767442,4,1,0,80,0,0
261417,-117.647058823529,4,1,0,75,0,0
263963,-119.047619047619,4,1,0,75,0,0
264054,-120.481927710843,4,1,0,75,0,0
264144,-121.951219512195,4,1,0,75,0,0
264235,-123.456790123457,4,1,0,75,0,0
264326,-125,4,1,0,70,0,0
269054,-133.333333333333,4,1,0,85,0,0

[HitObjects]
256,192,2508,5,0,0:0:0:0:
256,192,2872,1,8,0:0:0:0:
256,192,3235,1,8,0:0:0:0:
256,192,3599,1,8,0:0:0:0:
256,192,3963,1,0,0:0:0:0:
256,192,4327,1,8,0:0:0:0:
256,192,4690,1,8,0:0:0:0:
256,192,5054,1,8,0:0:0:0:
256,192,5235,1,0,0:0:0:0:
256,192,5326,1,8,0:0:0:0:
256,192,5417,1,0,0:0:0:0:
256,192,5781,1,8,0:0:0:0:
256,192,6144,1,8,0:0:0:0:
256,192,6508,1,8,0:0:0:0:
256,192,6872,1,0,0:0:0:0:
256,192,7236,1,8,0:0:0:0:
256,192,7599,1,8,0:0:0:0:
256,192,7963,1,8,0:0:0:0:
256,192,8054,1,8,0:0:0:0:
256,192,8144,1,0,0:0:0:0:
256,192,8235,1,8,0:0:0:0:
256,192,8326,1,0,0:0:0:0:
256,192,8690,1,8,0:0:0:0:
256,192,9053,1,8,0:0:0:0:
256,192,9417,1,8,0:0:0:0:
256,192,9781,1,0,0:0:0:0:
256,192,10145,1,8,0:0:0:0:
256,192,10508,1,8,0:0:0:0:
256,192,10872,1,8,0:0:0:0:
256,192,11235,1,0,0:0:0:0:
256,192,11599,1,8,0:0:0:0:
256,192,11962,1,8,0:0:0:0:
256,192,12326,1,8,0:0:0:0:
256,192,12690,1,0,0:0:0:0:
256,192,12781,1,0,0:0:0:0:
256,192,12872,1,8,0:0:0:0:
256,192,12963,1,0,0:0:0:0:
256,192,13054,1,8,0:0:0:0:
256,192,13144,1,8,0:0:0:0:
256,192,13235,1,0,0:0:0:0:
256,192,13326,1,8,0:0:0:0:
256,192,13417,1,0,0:0:0:0:
256,192,13508,1,0,0:0:0:0:
256,192,13599,1,8,0:0:0:0:
256,192,13690,1,0,0:0:0:0:
256,192,13781,1,8,0:0:0:0:
256,192,13872,1,8,0:0:0:0:
256,192,13963,1,0,0:0:0:0:
256,192,14054,1,8,0:0:0:0:
256,192,14144,1,0,0:0:0:0:
256,192,14326,1,0,0:0:0:0:
256,192,14508,1,8,0:0:0:0:
256,192,14690,1,8,0:0:0:0:
256,192,14781,1,0,0:0:0:0:
256,192,14963,1,0,0:0:0:0:
256,192,15054,1,8,0:0:0:0:
256,192,15235,1,8,0:0:0:0:
256,192,15417,1,0,0:0:0:0:
256,192,15508,1,8,0:0:0:0:
256,192,15599,1,0,0:0:0:0:
256,192,15781,1,0,0:0:0:0:
256,192,15963,1,8,0:0:0:0:
256,192,16054,1,8,0:0:0:0:
256,192,16145,1,0,0:0:0:0:
256,192,16236,1,0,0:0:0:0:
256,192,16418,1,0,0:0:0:0:
256,192,16509,1,8,0:0:0:0:
256,192,16690,1,8,0:0:0:0:
256,192,17054,1,0,0:0:0:0:
256,192,17235,1,0,0:0:0:0:
256,192,17417,1,8,0:0:0:0:
256,192,17599,1,8,0:0:0:0:
256,192,17690,1,0,0:0:0:0:
256,192,17872,1,0,0:0:0:0:
256,192,17963,1,8,0:0:0:0:
256,192,18144,1,8,0:0:0:0:
256,192,18326,1,0,0:0:0:0:
256,192,18417,1,8,0:0:0:0:
256,192,18508,1,0,0:0:0:0:
256,192,18690,1,0,0:0:0:0:
256,192,18872,1,8,0:0:0:0:
256,192,18963,1,8,0:0:0:0:
256,192,19054,1,0,0:0:0:0:
256,192,19145,1,0,0:0:0:0:
256,192,19327,1,0,0:0:0:0:
256,192,19418,1,8,0:0:0:0:
256,192,19599,1,8,0:0:0:0:
256,192,19690,1,8,0:0:0:0:
256,192,19781,1,0,0:0:0:0:
256,192,19963,1,0,0:0:0:0:
256,192,20144,1,0,0:0:0:0:
256,192,20326,1,8,0:0:0:0:
256,192,20417,1,0,0:0:0:0:
256,192,20508,1,8,0:0:0:0:
256,192,20599,1,0,0:0:0:0:
256,192,20781,1,0,0:0:0:0:
256,192,20872,1,8,0:0:0:0:
256,192,21053,1,8,0:0:0:0:
256,192,21144,1,8,0:0:0:0:
256,192,21235,1,0,0:0:0:0:
256,192,21326,1,8,0:0:0:0:
256,192,21417,1,0,0:0:0:0:
256,192,21599,1,0,0:0:0:0:
256,192,21781,1,8,0:0:0:0:
256,192,21872,1,8,0:0:0:0:
256,192,21963,1,0,0:0:0:0:
256,192,22054,1,0,0:0:0:0:
256,192,22236,1,0,0:0:0:0:
256,192,22327,1,8,0:0:0:0:
256,192,22508,1,8,0:0:0:0:
256,192,22872,1,0,0:0:0:0:
256,192,23053,1,0,0:0:0:0:
256,192,23144,1,0,0:0:0:0:
256,192,23235,1,8,0:0:0:0:
256,192,23326,1,8,0:0:0:0:
256,192,23417,1,0,0:0:0:0:
256,192,23508,1,0,0:0:0:0:
256,192,23690,1,0,0:0:0:0:
256,192,23781,1,8,0:0:0:0:
256,192,23962,1,8,0:0:0:0:
256,192,24144,1,0,0:0:0:0:
256,192,24235,1,8,0:0:0:0:
256,192,24326,1,4,0:0:0:0:
256,192,25054,1,0,0:0:0:0:
256,192,25144,1,8,0:0:0:0:
256,192,25235,1,8,0:0:0:0:
256,192,25326,1,0,0:0:0:0:
256,192,25417,1,8,0:0:0:0:
256,192,25508,1,0,0:0:0:0:
256,192,25690,1,8,0:0:0:0:
256,192,25781,1,4,0:0:0:0:
256,192,26054,1,0,0:0:0:0:
256,192,26144,1,8,0:0:0:0:
256,192,26326,1,4,0:0:0:0:
256,192,26599,1,0,0:0:0:0:
256,192,26690,1,8,0:0:0:0:
256,192,26872,1,4,0:0:0:0:
256,192,27054,1,8,0:0:0:0:
256,192,27144,1,8,0:0:0:0:
256,192,27235,1,4,0:0:0:0:
256,192,27417,1,0,0:0:0:0:
256,192,27508,1,8,0:0:0:0:
256,192,27599,1,0,0:0:0:0:
256,192,27781,1,0,0:0:0:0:
256,192,27872,1,8,0:0:0:0:
256,192,28054,1,8,0:0:0:0:
256,192,28144,1,8,0:0:0:0:
256,192,28326,1,0,0:0:0:0:
256,192,28508,1,8,0:0:0:0:
256,192,28690,1,4,0:0:0:0:
256,192,28872,1,0,0:0:0:0:
256,192,28963,1,8,0:0:0:0:
256,192,29235,1,4,0:0:0:0:
256,192,29417,1,8,0:0:0:0:
256,192,29599,1,8,0:0:0:0:
256,192,29781,1,4,0:0:0:0:
256,192,29963,1,8,0:0:0:0:
256,192,30144,1,4,0:0:0:0:
256,192,30326,1,0,0:0:0:0:
256,192,30508,1,8,0:0:0:0:
256,192,30690,1,8,0:0:0:0:
256,192,30872,1,0,0:0:0:0:
256,192,31054,1,0,0:0:0:0:
256,192,31235,1,8,0:0:0:0:
256,192,31326,1,0,0:0:0:0:
256,192,31417,1,8,0:0:0:0:
256,192,31599,1,4,0:0:0:0:
256,192,31872,1,0,0:0:0:0:
256,192,31962,1,8,0:0:0:0:
256,192,32144,1,4,0:0:0:0:
256,192,32417,1,0,0:0:0:0:
256,192,32508,1,8,0:0:0:0:
256,192,32690,1,4,0:0:0:0:
256,192,32872,1,8,0:0:0:0:
256,192,32963,1,8,0:0:0:0:
256,192,33053,1,4,0:0:0:0:
256,192,33235,1,8,0:0:0:0:
256,192,33326,1,0,0:0:0:0:
256,192,33417,1,0,0:0:0:0:
256,192,33599,1,0,0:0:0:0:
256,192,33690,1,8,0:0:0:0:
256,192,33872,1,8,0:0:0:0:
256,192,33962,1,8,0:0:0:0:
256,192,34144,1,0,0:0:0:0:
256,192,34326,1,8,0:0:0:0:
256,192,34508,1,4,0:0:0:0:
256,192,34690,1,0,0:0:0:0:
256,192,34781,1,8,0:0:0:0:
256,192,35053,1,4,0:0:0:0:
256,192,35235,1,8,0:0:0:0:
256,192,35417,1,8,0:0:0:0:
256,192,35599,1,4,0:0:0:0:
256,192,35781,1,0,0:0:0:0:
256,192,35962,1,8,0:0:0:0:
256,192,36054,1,8,0:0:0:0:
256,192,36144,1,0,0:0:0:0:
256,192,36326,1,8,0:0:0:0:
256,192,36508,1,0,0:0:0:0:
256,192,36690,1,8,0:0:0:0:
256,192,36780,1,0,0:0:0:0:
256,192,36871,1,8,0:0:0:0:
256,192,36932,1,0,0:0:0:0:
256,192,36993,1,0,0:0:0:0:
256,192,37053,1,8,0:0:0:0:
256,192,37144,1,8,0:0:0:0:
256,192,37235,1,0,0:0:0:0:
256,192,37326,1,8,0:0:0:0:
256,192,37417,1,0,0:0:0:0:
256,192,37599,1,0,0:0:0:0:
256,192,37690,1,8,0:0:0:0:
256,192,37781,1,0,0:0:0:0:
256,192,37963,1,0,0:0:0:0:
256,192,38054,1,8,0:0:0:0:
256,192,38235,1,8,0:0:0:0:
256,192,38326,1,0,0:0:0:0:
256,192,38508,1,8,0:0:0:0:
256,192,38599,1,8,0:0:0:0:
256,192,38690,1,8,0:0:0:0:
256,192,38781,1,0,0:0:0:0:
256,192,38872,1,8,0:0:0:0:
256,192,39054,1,8,0:0:0:0:
256,192,39144,1,0,0:0:0:0:
256,192,39235,1,0,0:0:0:0:
256,192,39417,1,0,0:0:0:0:
256,192,39508,1,8,0:0:0:0:
256,192,39690,1,8,0:0:0:0:
256,192,39781,1,8,0:0:0:0:
256,192,39872,1,0,0:0:0:0:
256,192,39963,1,8,0:0:0:0:
256,192,40144,1,0,0:0:0:0:
256,192,40326,1,0,0:0:0:0:
256,192,40508,1,0,0:0:0:0:
256,192,40599,1,8,0:0:0:0:
256,192,40781,1,0,0:0:0:0:
256,192,40872,1,8,0:0:0:0:
256,192,40963,1,0,0:0:0:0:
256,192,41054,1,8,0:0:0:0:
256,192,41235,1,8,0:0:0:0:
256,192,41417,1,0,0:0:0:0:
256,192,41599,1,0,0:0:0:0:
256,192,41781,1,0,0:0:0:0:
256,192,41963,1,0,0:0:0:0:
256,192,42054,1,0,0:0:0:0:
256,192,42144,1,8,0:0:0:0:
256,192,42325,1,8,0:0:0:0:
256,192,42507,1,0,0:0:0:0:
256,192,42689,1,0,0:0:0:0:
256,192,42781,1,8,0:0:0:0:
256,192,42872,1,8,0:0:0:0:
256,192,43053,1,8,0:0:0:0:
256,192,43235,1,0,0:0:0:0:
256,192,43417,1,0,0:0:0:0:
256,192,43508,1,8,0:0:0:0:
256,192,43599,1,0,0:0:0:0:
256,192,43781,1,0,0:0:0:0:
256,192,43872,1,8,0:0:0:0:
256,192,44054,1,0,0:0:0:0:
256,192,44144,1,0,0:0:0:0:
256,192,44326,1,8,0:0:0:0:
256,192,44417,1,8,0:0:0:0:
256,192,44508,1,8,0:0:0:0:
256,192,44599,1,0,0:0:0:0:
256,192,44690,1,8,0:0:0:0:
256,192,44872,1,8,0:0:0:0:
256,192,44963,1,8,0:0:0:0:
256,192,45054,1,0,0:0:0:0:
256,192,45144,1,0,0:0:0:0:
256,192,45235,1,0,0:0:0:0:
256,192,45326,1,8,0:0:0:0:
256,192,45508,1,0,0:0:0:0:
256,192,45599,1,8,0:0:0:0:
256,192,45690,1,0,0:0:0:0:
256,192,45781,1,8,0:0:0:0:
256,192,45963,1,8,0:0:0:0:
256,192,46144,1,0,0:0:0:0:
256,192,46235,1,0,0:0:0:0:
256,192,46326,1,8,0:0:0:0:
256,192,46417,1,8,0:0:0:0:
256,192,46508,1,0,0:0:0:0:
256,192,46599,1,0,0:0:0:0:
256,192,46690,1,8,0:0:0:0:
256,192,46781,1,0,0:0:0:0:
256,192,46872,1,8,0:0:0:0:
256,192,46932,1,8,0:0:0:0:
256,192,46993,1,8,0:0:0:0:
256,192,47054,1,0,0:0:0:0:
256,192,47144,1,0,0:0:0:0:
256,192,47236,1,8,0:0:0:0:
256,192,47296,1,8,0:0:0:0:
256,192,47357,1,8,0:0:0:0:
256,192,47418,1,0,0:0:0:0:
256,192,47508,1,0,0:0:0:0:
256,192,47599,1,8,0:0:0:0:
256,192,47660,1,8,0:0:0:0:
256,192,47721,1,8,0:0:0:0:
256,192,47781,1,0,0:0:0:0:
256,192,47872,1,0,0:0:0:0:
256,192,47963,1,8,0:0:0:0:
256,192,48023,1,8,0:0:0:0:
256,192,48084,1,8,0:0:0:0:
256,192,48144,1,0,0:0:0:0:
256,192,48235,1,0,0:0:0:0:
256,192,48326,1,8,0:0:0:0:
256,192,48508,1,0,0:0:0:0:
256,192,48690,1,8,0:0:0:0:
256,192,49054,1,12,0:0:0:0:
256,192,49235,1,0,0:0:0:0:
256,192,49417,1,8,0:0:0:0:
256,192,49599,1,0,0:0:0:0:
256,192,49690,1,0,0:0:0:0:
256,192,49781,1,8,0:0:0:0:
256,192,49872,1,0,0:0:0:0:
256,192,50054,1,8,0:0:0:0:
256,192,50145,1,8,0:0:0:0:
256,192,50326,1,0,0:0:0:0:
256,192,50417,1,8,0:0:0:0:
256,192,50508,1,8,0:0:0:0:
256,192,50690,1,0,0:0:0:0:
256,192,50872,1,8,0:0:0:0:
256,192,51054,1,8,0:0:0:0:
256,192,51144,1,0,0:0:0:0:
256,192,51236,1,8,0:0:0:0:
256,192,51326,1,0,0:0:0:0:
256,192,51417,1,0,0:0:0:0:
256,192,51508,1,8,0:0:0:0:
256,192,51599,1,8,0:0:0:0:
256,192,51781,1,0,0:0:0:0:
256,192,51872,1,8,0:0:0:0:
256,192,51963,1,8,0:0:0:0:
256,192,52145,1,0,0:0:0:0:
256,192,52327,1,8,0:0:0:0:
256,192,52508,1,0,0:0:0:0:
256,192,52599,1,0,0:0:0:0:
256,192,52690,1,8,0:0:0:0:
256,192,52781,1,0,0:0:0:0:
256,192,52963,1,0,0:0:0:0:
256,192,53054,1,8,0:0:0:0:
256,192,53236,1,0,0:0:0:0:
256,192,53418,1,8,0:0:0:0:
256,192,53599,1,0,0:0:0:0:
256,192,53781,1,8,0:0:0:0:
256,192,53963,1,8,0:0:0:0:
256,192,54054,1,0,0:0:0:0:
256,192,54145,1,8,0:0:0:0:
256,192,54235,1,0,0:0:0:0:
256,192,54327,1,0,0:0:0:0:
256,192,54417,1,8,0:0:0:0:
256,192,54509,1,8,0:0:0:0:
256,192,54872,1,0,0:0:0:0:
256,192,54963,1,0,0:0:0:0:
256,192,55054,1,8,0:0:0:0:
256,192,55144,1,0,0:0:0:0:
256,192,55235,1,8,0:0:0:0:
256,192,55326,1,8,0:0:0:0:
256,192,55417,1,0,0:0:0:0:
256,192,55508,1,8,0:0:0:0:
256,192,55600,1,8,0:0:0:0:
256,192,55690,1,8,0:0:0:0:
256,192,55781,1,0,0:0:0:0:
256,192,55872,1,0,0:0:0:0:
256,192,55963,1,8,0:0:0:0:
256,192,56054,1,0,0:0:0:0:
256,192,56145,1,8,0:0:0:0:
256,192,56235,1,8,0:0:0:0:
256,192,56326,1,8,0:0:0:0:
256,192,56417,1,0,0:0:0:0:
256,192,56509,1,8,0:0:0:0:
256,192,56599,1,0,0:0:0:0:
256,192,56691,1,8,0:0:0:0:
256,192,56781,1,8,0:0:0:0:
256,192,56872,1,8,0:0:0:0:
256,192,56963,1,0,0:0:0:0:
256,192,57054,1,8,0:0:0:0:
256,192,57144,1,8,0:0:0:0:
256,192,57236,1,0,0:0:0:0:
256,192,57326,1,0,0:0:0:0:
256,192,57418,1,8,0:0:0:0:
256,192,57508,1,8,0:0:0:0:
256,192,57600,1,8,0:0:0:0:
256,192,57690,1,0,0:0:0:0:
256,192,57782,1,8,0:0:0:0:
256,192,57841,1,8,0:0:0:0:
256,192,57902,1,8,0:0:0:0:
256,192,57963,1,0,0:0:0:0:
256,192,58054,1,0,0:0:0:0:
256,192,58144,1,8,0:0:0:0:
256,192,58205,1,8,0:0:0:0:
256,192,58266,1,8,0:0:0:0:
256,192,58326,1,0,0:0:0:0:
256,192,58417,1,0,0:0:0:0:
256,192,58508,1,8,0:0:0:0:
256,192,58569,1,8,0:0:0:0:
256,192,58629,1,8,0:0:0:0:
256,192,58690,1,0,0:0:0:0:
256,192,58781,1,0,0:0:0:0:
256,192,58872,1,8,0:0:0:0:
256,192,58932,1,8,0:0:0:0:
256,192,58993,1,8,0:0:0:0:
256,192,59054,1,0,0:0:0:0:
256,192,59144,1,8,0:0:0:0:
256,192,59235,1,0,0:0:0:0:
256,192,59417,1,0,0:0:0:0:
256,192,59508,1,8,0:0:0:0:
256,192,59690,1,0,0:0:0:0:
256,192,59781,1,8,0:0:0:0:
256,192,59872,1,0,0:0:0:0:
256,192,59963,1,8,0:0:0:0:
256,192,60144,1,0,0:0:0:0:
256,192,60326,1,12,0:0:0:0:
256,192,60508,1,0,0:0:0:0:
256,192,60690,1,0,0:0:0:0:
256,192,60750,1,0,0:0:0:0:
256,192,60811,1,0,0:0:0:0:
256,192,60872,1,0,0:0:0:0:
256,192,60963,1,8,0:0:0:0:
256,192,61054,1,0,0:0:0:0:
256,192,61114,1,0,0:0:0:0:
256,192,61175,1,0,0:0:0:0:
256,192,61235,1,8,0:0:0:0:
256,192,61417,1,8,0:0:0:0:
256,192,61599,1,0,0:0:0:0:
256,192,61690,1,8,0:0:0:0:
256,192,61781,1,0,0:0:0:0:
256,192,61841,1,8,0:0:0:0:
256,192,61902,1,8,0:0:0:0:
256,192,61963,1,0,0:0:0:0:
256,192,62144,1,8,0:0:0:0:
256,192,62326,1,8,0:0:0:0:
256,192,62387,1,0,0:0:0:0:
256,192,62447,1,0,0:0:0:0:
256,192,62508,1,8,0:0:0:0:
256,192,62690,1,8,0:0:0:0:
256,192,62872,1,0,0:0:0:0:
256,192,62963,1,0,0:0:0:0:
256,192,63054,1,8,0:0:0:0:
256,192,63235,1,8,0:0:0:0:
256,192,63281,1,8,0:0:0:0:
256,192,63417,1,8,0:0:0:0:
256,192,63463,1,8,0:0:0:0:
256,192,63599,1,0,0:0:0:0:
256,192,63781,1,8,0:0:0:0:
256,192,63963,1,0,0:0:0:0:
256,192,64054,1,0,0:0:0:0:
256,192,64145,1,8,0:0:0:0:
256,192,64235,1,0,0:0:0:0:
256,192,64417,1,0,0:0:0:0:
256,192,64508,1,8,0:0:0:0:
256,192,64690,1,0,0:0:0:0:
256,192,64872,1,8,0:0:0:0:
256,192,65054,1,0,0:0:0:0:
256,192,65235,1,0,0:0:0:0:
256,192,65326,1,0,0:0:0:0:
256,192,65508,1,0,0:0:0:0:
256,192,65599,1,0,0:0:0:0:
256,192,65781,1,0,0:0:0:0:
256,192,65841,1,0,0:0:0:0:
256,192,65902,1,0,0:0:0:0:
256,192,65963,1,8,0:0:0:0:
256,192,66144,1,12,0:0:0:0:
256,192,66326,1,12,0:0:0:0:
256,192,66508,1,4,0:0:0:0:
256,192,66872,1,8,0:0:0:0:
256,192,67054,1,0,0:0:0:0:
256,192,67144,1,8,0:0:0:0:
256,192,67326,1,0,0:0:0:0:
256,192,67417,1,8,0:0:0:0:
256,192,67508,1,0,0:0:0:0:
256,192,67599,1,8,0:0:0:0:
256,192,67660,1,8,0:0:0:0:
256,192,67720,1,8,0:0:0:0:
256,192,67781,1,0,0:0:0:0:
256,192,67872,1,0,0:0:0:0:
256,192,67963,1,8,0:0:0:0:
256,192,68144,1,0,0:0:0:0:
256,192,68235,1,8,0:0:0:0:
256,192,68417,1,0,0:0:0:0:
256,192,68508,1,8,0:0:0:0:
256,192,68690,1,0,0:0:0:0:
256,192,68781,1,0,0:0:0:0:
256,192,68872,1,8,0:0:0:0:
256,192,69054,1,8,0:0:0:0:
256,192,69235,1,8,0:0:0:0:
256,192,69296,1,8,0:0:0:0:
256,192,69357,1,8,0:0:0:0:
256,192,69417,1,0,0:0:0:0:
256,192,69599,1,8,0:0:0:0:
256,192,69690,1,0,0:0:0:0:
256,192,69781,1,0,0:0:0:0:
256,192,69963,1,8,0:0:0:0:
256,192,70144,1,0,0:0:0:0:
256,192,70326,1,8,0:0:0:0:
256,192,70508,1,8,0:0:0:0:
256,192,70690,1,0,0:0:0:0:
256,192,70781,1,0,0:0:0:0:
256,192,70872,1,8,0:0:0:0:
256,192,71054,1,0,0:0:0:0:
256,192,71144,1,8,0:0:0:0:
256,192,71235,1,0,0:0:0:0:
256,192,71417,1,0,0:0:0:0:
256,192,71599,1,8,0:0:0:0:
256,192,71660,1,0,0:0:0:0:
256,192,71720,1,0,0:0:0:0:
256,192,71781,1,8,0:0:0:0:
256,192,71963,1,0,0:0:0:0:
256,192,72008,1,0,0:0:0:0:
256,192,72144,1,8,0:0:0:0:
256,192,72190,1,8,0:0:0:0:
256,192,72326,1,0,0:0:0:0:
256,192,72387,1,0,0:0:0:0:
256,192,72447,1,0,0:0:0:0:
256,192,72508,1,8,0:0:0:0:
256,192,72690,1,8,0:0:0:0:
256,192,72781,1,0,0:0:0:0:
256,192,72872,1,8,0:0:0:0:
256,192,72963,1,8,0:0:0:0:
256,192,73054,1,0,0:0:0:0:
256,192,73236,1,8,0:0:0:0:
256,192,73327,1,0,0:0:0:0:
256,192,73418,1,8,0:0:0:0:
256,192,73478,1,8,0:0:0:0:
256,192,73539,1,8,0:0:0:0:
256,192,73600,1,0,0:0:0:0:
256,192,73781,1,8,0:0:0:0:
256,192,73963,1,8,0:0:0:0:
256,192,74024,1,0,0:0:0:0:
256,192,74084,1,0,0:0:0:0:
256,192,74145,1,8,0:0:0:0:
256,192,74327,1,8,0:0:0:0:
256,192,74509,1,0,0:0:0:0:
256,192,74600,1,0,0:0:0:0:
256,192,74691,1,8,0:0:0:0:
256,192,74872,1,8,0:0:0:0:
256,192,74917,1,8,0:0:0:0:
256,192,75054,1,8,0:0:0:0:
256,192,75099,1,8,0:0:0:0:
256,192,75236,1,0,0:0:0:0:
256,192,75418,1,8,0:0:0:0:
256,192,75600,1,0,0:0:0:0:
256,192,75691,1,0,0:0:0:0:
256,192,75782,1,8,0:0:0:0:
256,192,75872,1,0,0:0:0:0:
256,192,76054,1,0,0:0:0:0:
256,192,76145,1,8,0:0:0:0:
256,192,76327,1,0,0:0:0:0:
256,192,76509,1,8,0:0:0:0:
256,192,76691,1,0,0:0:0:0:
256,192,76872,1,0,0:0:0:0:
256,192,76963,1,0,0:0:0:0:
256,192,77145,1,0,0:0:0:0:
256,192,77236,1,0,0:0:0:0:
256,192,77418,1,8,0:0:0:0:
256,192,77478,1,0,0:0:0:0:
256,192,77539,1,0,0:0:0:0:
256,192,77600,1,8,0:0:0:0:
256,192,77781,1,12,0:0:0:0:
256,192,77963,1,12,0:0:0:0:
256,192,78145,1,4,0:0:0:0:
256,192,78509,1,8,0:0:0:0:
256,192,78691,1,0,0:0:0:0:
256,192,78781,1,8,0:0:0:0:
256,192,78963,1,0,0:0:0:0:
256,192,79054,1,8,0:0:0:0:
256,192,79145,1,0,0:0:0:0:
256,192,79236,1,8,0:0:0:0:
256,192,79297,1,8,0:0:0:0:
256,192,79357,1,8,0:0:0:0:
256,192,79418,1,0,0:0:0:0:
256,192,79509,1,0,0:0:0:0:
256,192,79600,1,8,0:0:0:0:
256,192,79781,1,0,0:0:0:0:
256,192,79872,1,8,0:0:0:0:
256,192,80054,1,0,0:0:0:0:
256,192,80145,1,8,0:0:0:0:
256,192,80327,1,0,0:0:0:0:
256,192,80418,1,0,0:0:0:0:
256,192,80509,1,8,0:0:0:0:
256,192,80691,1,8,0:0:0:0:
256,192,80872,1,8,0:0:0:0:
256,192,80933,1,8,0:0:0:0:
256,192,80994,1,8,0:0:0:0:
256,192,81054,1,0,0:0:0:0:
256,192,81236,1,8,0:0:0:0:
256,192,81296,1,0,0:0:0:0:
256,192,81357,1,0,0:0:0:0:
256,192,81418,1,0,0:0:0:0:
256,192,81600,1,0,0:0:0:0:
256,192,81644,1,8,0:0:0:0:
256,192,81690,1,8,0:0:0:0:
256,192,81735,1,8,0:0:0:0:
256,192,81781,1,0,0:0:0:0:
256,192,81963,1,8,0:0:0:0:
256,192,82145,1,8,0:0:0:0:
256,192,82327,1,0,0:0:0:0:
256,192,82418,1,0,0:0:0:0:
256,192,82509,1,8,0:0:0:0:
256,192,82691,1,0,0:0:0:0:
256,192,82781,1,8,0:0:0:0:
256,192,82872,1,0,0:0:0:0:
256,192,82963,1,8,0:0:0:0:
256,192,83054,1,8,0:0:0:0:
256,192,83144,1,0,0:0:0:0:
256,192,83236,1,8,0:0:0:0:
256,192,83297,1,0,0:0:0:0:
256,192,83357,1,0,0:0:0:0:
256,192,83418,1,8,0:0:0:0:
256,192,83478,1,0,0:0:0:0:
256,192,83538,1,0,0:0:0:0:
256,192,83599,1,12,0:0:0:0:
256,192,83963,1,12,0:0:0:0:
256,192,84144,1,0,0:0:0:0:
256,192,84326,1,8,0:0:0:0:
256,192,84508,1,0,0:0:0:0:
256,192,84599,1,0,0:0:0:0:
256,192,84690,1,8,0:0:0:0:
256,192,84781,1,0,0:0:0:0:
256,192,84963,1,8,0:0:0:0:
256,192,85054,1,8,0:0:0:0:
256,192,85235,1,0,0:0:0:0:
256,192,85326,1,8,0:0:0:0:
256,192,85417,1,8,0:0:0:0:
256,192,85599,1,0,0:0:0:0:
256,192,85781,1,8,0:0:0:0:
256,192,85963,1,8,0:0:0:0:
256,192,86053,1,0,0:0:0:0:
256,192,86145,1,8,0:0:0:0:
256,192,86235,1,0,0:0:0:0:
256,192,86326,1,0,0:0:0:0:
256,192,86417,1,8,0:0:0:0:
256,192,86508,1,8,0:0:0:0:
256,192,86690,1,0,0:0:0:0:
256,192,86781,1,8,0:0:0:0:
256,192,86872,1,8,0:0:0:0:
256,192,87054,1,0,0:0:0:0:
256,192,87236,1,8,0:0:0:0:
256,192,87417,1,0,0:0:0:0:
256,192,87508,1,0,0:0:0:0:
256,192,87599,1,8,0:0:0:0:
256,192,87690,1,0,0:0:0:0:
256,192,87872,1,0,0:0:0:0:
256,192,87963,1,8,0:0:0:0:
256,192,88145,1,0,0:0:0:0:
256,192,88327,1,8,0:0:0:0:
256,192,88508,1,0,0:0:0:0:
256,192,88690,1,8,0:0:0:0:
256,192,88872,1,8,0:0:0:0:
256,192,88963,1,0,0:0:0:0:
256,192,89054,1,8,0:0:0:0:
256,192,89144,1,0,0:0:0:0:
256,192,89236,1,0,0:0:0:0:
256,192,89326,1,8,0:0:0:0:
256,192,89418,1,8,0:0:0:0:
256,192,89781,1,0,0:0:0:0:
256,192,89872,1,0,0:0:0:0:
256,192,89963,1,8,0:0:0:0:
256,192,90053,1,0,0:0:0:0:
256,192,90144,1,8,0:0:0:0:
256,192,90235,1,8,0:0:0:0:
256,192,90326,1,0,0:0:0:0:
256,192,90417,1,8,0:0:0:0:
256,192,90509,1,0,0:0:0:0:
256,192,90599,1,0,0:0:0:0:
256,192,90690,1,8,0:0:0:0:
256,192,90781,1,8,0:0:0:0:
256,192,90872,1,0,0:0:0:0:
256,192,90963,1,0,0:0:0:0:
256,192,91054,1,8,0:0:0:0:
256,192,91144,1,0,0:0:0:0:
256,192,91235,1,0,0:0:0:0:
256,192,91326,1,0,0:0:0:0:
256,192,91418,1,8,0:0:0:0:
256,192,91508,1,0,0:0:0:0:
256,192,91600,1,8,0:0:0:0:
256,192,91690,1,8,0:0:0:0:
256,192,91781,1,0,0:0:0:0:
256,192,91872,1,8,0:0:0:0:
256,192,91963,1,0,0:0:0:0:
256,192,92053,1,8,0:0:0:0:
256,192,92145,1,0,0:0:0:0:
256,192,92235,1,8,0:0:0:0:
256,192,92326,1,8,0:0:0:0:
256,192,92417,1,0,0:0:0:0:
256,192,92508,1,8,0:0:0:0:
256,192,92599,1,8,0:0:0:0:
256,192,92691,1,0,0:0:0:0:
256,192,92750,1,0,0:0:0:0:
256,192,92811,1,0,0:0:0:0:
256,192,92872,1,8,0:0:0:0:
256,192,92963,1,8,0:0:0:0:
256,192,93053,1,0,0:0:0:0:
256,192,93114,1,0,0:0:0:0:
256,192,93175,1,0,0:0:0:0:
256,192,93235,1,8,0:0:0:0:
256,192,93326,1,8,0:0:0:0:
256,192,93417,1,0,0:0:0:0:
256,192,93478,1,0,0:0:0:0:
256,192,93538,1,8,0:0:0:0:
256,192,93599,1,8,0:0:0:0:
256,192,93690,1,8,0:0:0:0:
256,192,93781,1,0,0:0:0:0:
256,192,93841,1,0,0:0:0:0:
256,192,93902,1,8,0:0:0:0:
256,192,93963,1,8,0:0:0:0:
256,192,94053,1,0,0:0:0:0:
256,192,94144,1,8,0:0:0:0:
256,192,94326,1,0,0:0:0:0:
256,192,94508,1,8,0:0:0:0:
256,192,94690,1,0,0:0:0:0:
256,192,94872,1,8,0:0:0:0:
256,192,95054,1,0,0:0:0:0:
256,192,95236,1,4,0:0:0:0:
256,192,95417,1,12,0:0:0:0:
256,192,95599,1,12,0:0:0:0:
256,192,95963,1,0,0:0:0:0:
256,192,96054,1,0,0:0:0:0:
256,192,96144,1,8,0:0:0:0:
256,192,96235,1,0,0:0:0:0:
256,192,96326,1,8,0:0:0:0:
256,192,96417,1,0,0:0:0:0:
256,192,96508,1,8,0:0:0:0:
256,192,96599,1,8,0:0:0:0:
256,192,96690,1,0,0:0:0:0:
256,192,96750,1,0,0:0:0:0:
256,192,96811,1,0,0:0:0:0:
256,192,96872,1,8,0:0:0:0:
256,192,97054,1,0,0:0:0:0:
256,192,97235,1,8,0:0:0:0:
256,192,97326,1,8,0:0:0:0:
256,192,97417,1,0,0:0:0:0:
256,192,97599,1,8,0:0:0:0:
256,192,97781,1,8,0:0:0:0:
256,192,97872,1,0,0:0:0:0:
256,192,98054,1,8,0:0:0:0:
256,192,98144,1,0,0:0:0:0:
256,192,98326,1,0,0:0:0:0:
256,192,98508,1,8,0:0:0:0:
256,192,98872,1,0,0:0:0:0:
256,192,98963,1,0,0:0:0:0:
256,192,99053,1,8,0:0:0:0:
256,192,99144,1,0,0:0:0:0:
256,192,99235,1,8,0:0:0:0:
256,192,99326,1,8,0:0:0:0:
256,192,99417,1,0,0:0:0:0:
256,192,99508,1,0,0:0:0:0:
256,192,99599,1,8,0:0:0:0:
256,192,99690,1,0,0:0:0:0:
256,192,99781,1,8,0:0:0:0:
256,192,99963,1,0,0:0:0:0:
256,192,100144,1,0,0:0:0:0:
256,192,100326,1,8,0:0:0:0:
256,192,100417,1,8,0:0:0:0:
256,192,100508,1,0,0:0:0:0:
256,192,100599,1,8,0:0:0:0:
256,192,100690,1,0,0:0:0:0:
256,192,100872,1,0,0:0:0:0:
256,192,100963,1,8,0:0:0:0:
256,192,101054,1,0,0:0:0:0:
256,192,101235,1,0,0:0:0:0:
256,192,101417,1,8,0:0:0:0:
256,192,101781,1,0,0:0:0:0:
256,192,101902,1,0,0:0:0:0:
256,192,102023,1,0,0:0:0:0:
256,192,102144,1,8,0:0:0:0:
256,192,102266,1,8,0:0:0:0:
256,192,102326,1,0,0:0:0:0:
256,192,102387,1,8,0:0:0:0:
256,192,102508,1,8,0:0:0:0:
256,192,102629,1,8,0:0:0:0:
256,192,102690,1,8,0:0:0:0:
256,192,102750,1,0,0:0:0:0:
256,192,102872,1,0,0:0:0:0:
256,192,102993,1,0,0:0:0:0:
256,192,103054,1,0,0:0:0:0:
256,192,103114,1,8,0:0:0:0:
256,192,103235,1,0,0:0:0:0:
256,192,103357,1,0,0:0:0:0:
256,192,103478,1,8,0:0:0:0:
256,192,103599,1,8,0:0:0:0:
256,192,103660,1,0,0:0:0:0:
256,192,103720,1,0,0:0:0:0:
256,192,103781,1,0,0:0:0:0:
256,192,103841,1,8,0:0:0:0:
256,192,103963,1,8,0:0:0:0:
256,192,104084,1,0,0:0:0:0:
256,192,104144,1,8,0:0:0:0:
256,192,104205,1,0,0:0:0:0:
256,192,104326,1,8,0:0:0:0:
256,192,104690,1,0,0:0:0:0:
256,192,104872,1,0,0:0:0:0:
256,192,104963,1,0,0:0:0:0:
256,192,105054,1,8,0:0:0:0:
256,192,105235,1,8,0:0:0:0:
256,192,105326,1,0,0:0:0:0:
256,192,105417,1,8,0:0:0:0:
256,192,105599,1,0,0:0:0:0:
256,192,105781,1,8,0:0:0:0:
256,192,105963,1,0,0:0:0:0:
256,192,106144,1,8,0:0:0:0:
256,192,106326,1,0,0:0:0:0:
256,192,106417,1,0,0:0:0:0:
256,192,106508,1,8,0:0:0:0:
256,192,106569,1,0,0:0:0:0:
256,192,106629,1,0,0:0:0:0:
256,192,106690,1,8,0:0:0:0:
256,192,106781,1,8,0:0:0:0:
256,192,106872,1,4,0:0:0:0:
256,192,107054,1,12,0:0:0:0:
256,192,107235,1,12,0:0:0:0:
256,192,107599,1,0,0:0:0:0:
256,192,107690,1,0,0:0:0:0:
256,192,107780,1,8,0:0:0:0:
256,192,107871,1,0,0:0:0:0:
256,192,107962,1,8,0:0:0:0:
256,192,108053,1,0,0:0:0:0:
256,192,108144,1,8,0:0:0:0:
256,192,108235,1,8,0:0:0:0:
256,192,108326,1,0,0:0:0:0:
256,192,108386,1,0,0:0:0:0:
256,192,108447,1,0,0:0:0:0:
256,192,108508,1,8,0:0:0:0:
256,192,108690,1,0,0:0:0:0:
256,192,108871,1,8,0:0:0:0:
256,192,108962,1,8,0:0:0:0:
256,192,109053,1,0,0:0:0:0:
256,192,109235,1,8,0:0:0:0:
256,192,109417,1,8,0:0:0:0:
256,192,109508,1,0,0:0:0:0:
256,192,109690,1,8,0:0:0:0:
256,192,109780,1,0,0:0:0:0:
256,192,109962,1,0,0:0:0:0:
256,192,110144,1,8,0:0:0:0:
256,192,110508,1,0,0:0:0:0:
256,192,110599,1,0,0:0:0:0:
256,192,110689,1,8,0:0:0:0:
256,192,110780,1,0,0:0:0:0:
256,192,110871,1,8,0:0:0:0:
256,192,110962,1,8,0:0:0:0:
256,192,111053,1,0,0:0:0:0:
256,192,111144,1,8,0:0:0:0:
256,192,111235,1,0,0:0:0:0:
256,192,111326,1,0,0:0:0:0:
256,192,111417,1,8,0:0:0:0:
256,192,111599,1,0,0:0:0:0:
256,192,111781,1,8,0:0:0:0:
256,192,111872,1,0,0:0:0:0:
256,192,112053,1,8,0:0:0:0:
256,192,112144,1,0,0:0:0:0:
256,192,112326,1,8,0:0:0:0:
256,192,112417,1,0,0:0:0:0:
256,192,112599,1,8,0:0:0:0:
256,192,112690,1,0,0:0:0:0:
256,192,112871,1,0,0:0:0:0:
256,192,113053,1,8,0:0:0:0:
256,192,113417,1,0,0:0:0:0:
256,192,113508,1,0,0:0:0:0:
256,192,113599,1,8,0:0:0:0:
256,192,113690,1,0,0:0:0:0:
256,192,113781,1,8,0:0:0:0:
256,192,113872,1,8,0:0:0:0:
256,192,113963,1,0,0:0:0:0:
256,192,114054,1,8,0:0:0:0:
256,192,114144,1,0,0:0:0:0:
256,192,114235,1,0,0:0:0:0:
256,192,114326,1,8,0:0:0:0:
256,192,114417,1,0,0:0:0:0:
256,192,114508,1,8,0:0:0:0:
256,192,114599,1,8,0:0:0:0:
256,192,114690,1,0,0:0:0:0:
256,192,114781,1,8,0:0:0:0:
256,192,114872,1,0,0:0:0:0:
256,192,114963,1,0,0:0:0:0:
256,192,115054,1,8,0:0:0:0:
256,192,115145,1,0,0:0:0:0:
256,192,115236,1,8,0:0:0:0:
256,192,115327,1,8,0:0:0:0:
256,192,115418,1,0,0:0:0:0:
256,192,115509,1,8,0:0:0:0:
256,192,115599,1,0,0:0:0:0:
256,192,115690,1,0,0:0:0:0:
256,192,115781,1,8,0:0:0:0:
256,192,115872,1,0,0:0:0:0:
256,192,115963,1,8,0:0:0:0:
256,192,116054,1,8,0:0:0:0:
256,192,116144,1,0,0:0:0:0:
256,192,116205,1,0,0:0:0:0:
256,192,116266,1,0,0:0:0:0:
256,192,116326,1,8,0:0:0:0:
256,192,116417,1,0,0:0:0:0:
256,192,116508,1,8,0:0:0:0:
256,192,116554,1,8,0:0:0:0:
256,192,116599,1,8,0:0:0:0:
256,192,116644,1,8,0:0:0:0:
256,192,116690,1,0,0:0:0:0:
256,192,116872,1,0,0:0:0:0:
256,192,116963,1,0,0:0:0:0:
256,192,117054,1,0,0:0:0:0:
256,192,117235,1,8,0:0:0:0:
256,192,117326,1,8,0:0:0:0:
256,192,117417,1,0,0:0:0:0:
256,192,117599,1,0,0:0:0:0:
256,192,117781,1,8,0:0:0:0:
256,192,117841,1,8,0:0:0:0:
256,192,117902,1,8,0:0:0:0:
256,192,117963,1,0,0:0:0:0:
256,192,118054,1,0,0:0:0:0:
256,192,118144,1,8,0:0:0:0:
256,192,118205,1,0,0:0:0:0:
256,192,118266,1,0,0:0:0:0:
256,192,118326,1,8,0:0:0:0:
256,192,118387,1,0,0:0:0:0:
256,192,118447,1,0,0:0:0:0:
256,192,118508,1,12,0:0:0:0:
256,192,118872,1,4,0:0:0:0:
256,192,119054,1,0,0:0:0:0:
256,192,119144,1,8,0:0:0:0:
256,192,119235,1,0,0:0:0:0:
256,192,119417,1,0,0:0:0:0:
256,192,119508,1,8,0:0:0:0:
256,192,119690,1,0,0:0:0:0:
256,192,119781,1,8,0:0:0:0:
256,192,119872,1,0,0:0:0:0:
256,192,119963,1,0,0:0:0:0:
256,192,120144,1,8,0:0:0:0:
256,192,120326,1,0,0:0:0:0:
256,192,120417,1,0,0:0:0:0:
256,192,120508,1,0,0:0:0:0:
256,192,120598,1,8,0:0:0:0:
256,192,120689,1,0,0:0:0:0:
256,192,120871,1,0,0:0:0:0:
256,192,120962,1,8,0:0:0:0:
256,192,121144,1,0,0:0:0:0:
256,192,121235,1,8,0:0:0:0:
256,192,121326,1,0,0:0:0:0:
256,192,121417,1,0,0:0:0:0:
256,192,121598,1,8,0:0:0:0:
256,192,121781,1,0,0:0:0:0:
256,192,121963,1,8,0:0:0:0:
256,192,122054,1,8,0:0:0:0:
256,192,122144,1,0,0:0:0:0:
256,192,122326,1,8,0:0:0:0:
256,192,122417,1,0,0:0:0:0:
256,192,122599,1,8,0:0:0:0:
256,192,122690,1,0,0:0:0:0:
256,192,122872,1,0,0:0:0:0:
256,192,123235,1,4,0:0:0:0:
256,192,123417,1,4,0:0:0:0:
256,192,123599,1,12,0:0:0:0:
256,192,123963,1,4,0:0:0:0:
256,192,124144,1,4,0:0:0:0:
256,192,124326,1,12,0:0:0:0:
256,192,124690,1,0,0:0:0:0:
256,192,124872,1,0,0:0:0:0:
256,192,124962,1,8,0:0:0:0:
256,192,125054,1,0,0:0:0:0:
256,192,125235,1,0,0:0:0:0:
256,192,125326,1,8,0:0:0:0:
256,192,125508,1,0,0:0:0:0:
256,192,125599,1,8,0:0:0:0:
256,192,125690,1,0,0:0:0:0:
256,192,125781,1,0,0:0:0:0:
256,192,125962,1,8,0:0:0:0:
256,192,126144,1,0,0:0:0:0:
256,192,126235,1,0,0:0:0:0:
256,192,126326,1,0,0:0:0:0:
256,192,126416,1,8,0:0:0:0:
256,192,126507,1,0,0:0:0:0:
256,192,126689,1,0,0:0:0:0:
256,192,126780,1,8,0:0:0:0:
256,192,126962,1,0,0:0:0:0:
256,192,127053,1,8,0:0:0:0:
256,192,127144,1,0,0:0:0:0:
256,192,127235,1,0,0:0:0:0:
256,192,127416,1,8,0:0:0:0:
256,192,127599,1,0,0:0:0:0:
256,192,127781,1,8,0:0:0:0:
256,192,127872,1,8,0:0:0:0:
256,192,127962,1,0,0:0:0:0:
256,192,128144,1,8,0:0:0:0:
256,192,128235,1,0,0:0:0:0:
256,192,128417,1,8,0:0:0:0:
256,192,128508,1,0,0:0:0:0:
256,192,128690,1,8,0:0:0:0:
256,192,128872,1,0,0:0:0:0:
256,192,128963,1,0,0:0:0:0:
256,192,129054,1,8,0:0:0:0:
256,192,129235,1,0,0:0:0:0:
256,192,129326,1,0,0:0:0:0:
256,192,129417,1,8,0:0:0:0:
256,192,129508,1,8,0:0:0:0:
256,192,129599,1,0,0:0:0:0:
256,192,129690,1,0,0:0:0:0:
256,192,129781,1,8,0:0:0:0:
256,192,129841,1,8,0:0:0:0:
256,192,129902,1,8,0:0:0:0:
256,192,129963,1,8,0:0:0:0:
256,192,130023,1,8,0:0:0:0:
256,192,130084,1,8,0:0:0:0:
256,192,130144,1,0,0:0:0:0:
256,192,130326,1,8,0:0:0:0:
256,192,130417,1,8,0:0:0:0:
256,192,130508,1,0,0:0:0:0:
256,192,130690,1,0,0:0:0:0:
256,192,130780,1,8,0:0:0:0:
256,192,130871,1,0,0:0:0:0:
256,192,131053,1,0,0:0:0:0:
256,192,131144,1,8,0:0:0:0:
256,192,131326,1,0,0:0:0:0:
256,192,131417,1,8,0:0:0:0:
256,192,131508,1,8,0:0:0:0:
256,192,131599,1,0,0:0:0:0:
256,192,131690,1,0,0:0:0:0:
256,192,131780,1,8,0:0:0:0:
256,192,131962,1,0,0:0:0:0:
256,192,132054,1,0,0:0:0:0:
256,192,132144,1,0,0:0:0:0:
256,192,132234,1,8,0:0:0:0:
256,192,132325,1,0,0:0:0:0:
256,192,132507,1,0,0:0:0:0:
256,192,132598,1,8,0:0:0:0:
256,192,132780,1,0,0:0:0:0:
256,192,132871,1,8,0:0:0:0:
256,192,132963,1,8,0:0:0:0:
256,192,133053,1,8,0:0:0:0:
256,192,133144,1,0,0:0:0:0:
256,192,133234,1,0,0:0:0:0:
256,192,133417,1,8,0:0:0:0:
256,192,133508,1,0,0:0:0:0:
256,192,133599,1,0,0:0:0:0:
256,192,133690,1,8,0:0:0:0:
256,192,133780,1,8,0:0:0:0:
256,192,133962,1,8,0:0:0:0:
256,192,134053,1,8,0:0:0:0:
256,192,134235,1,0,0:0:0:0:
256,192,134326,1,8,0:0:0:0:
256,192,134417,1,8,0:0:0:0:
256,192,134508,1,0,0:0:0:0:
256,192,134690,1,8,0:0:0:0:
256,192,134871,1,4,0:0:0:0:
256,192,135053,1,4,0:0:0:0:
256,192,135235,1,12,0:0:0:0:
256,192,135599,1,4,0:0:0:0:
256,192,135780,1,4,0:0:0:0:
256,192,135963,1,12,0:0:0:0:
256,192,136326,1,0,0:0:0:0:
256,192,136508,1,0,0:0:0:0:
256,192,136598,1,8,0:0:0:0:
256,192,136689,1,0,0:0:0:0:
256,192,136871,1,0,0:0:0:0:
256,192,136962,1,8,0:0:0:0:
256,192,137144,1,0,0:0:0:0:
256,192,137235,1,8,0:0:0:0:
256,192,137326,1,8,0:0:0:0:
256,192,137417,1,0,0:0:0:0:
256,192,137508,1,0,0:0:0:0:
256,192,137598,1,8,0:0:0:0:
256,192,137780,1,0,0:0:0:0:
256,192,137962,1,8,0:0:0:0:
256,192,138054,1,0,0:0:0:0:
256,192,138143,1,8,0:0:0:0:
256,192,138235,1,0,0:0:0:0:
256,192,138325,1,0,0:0:0:0:
256,192,138416,1,8,0:0:0:0:
256,192,138598,1,0,0:0:0:0:
256,192,138689,1,8,0:0:0:0:
256,192,138871,1,8,0:0:0:0:
256,192,138963,1,8,0:0:0:0:
256,192,139054,1,0,0:0:0:0:
256,192,139235,1,0,0:0:0:0:
256,192,139417,1,0,0:0:0:0:
256,192,139508,1,0,0:0:0:0:
256,192,139598,1,8,0:0:0:0:
256,192,139780,1,8,0:0:0:0:
256,192,139871,1,0,0:0:0:0:
256,192,140053,1,0,0:0:0:0:
256,192,140144,1,8,0:0:0:0:
256,192,140235,1,0,0:0:0:0:
256,192,140326,1,8,0:0:0:0:
256,192,140417,1,8,0:0:0:0:
256,192,140508,1,0,0:0:0:0:
256,192,140569,1,0,0:0:0:0:
256,192,140629,1,0,0:0:0:0:
256,192,140690,1,8,0:0:0:0:
256,192,140871,1,0,0:0:0:0:
256,192,140962,1,0,0:0:0:0:
256,192,141053,1,8,0:0:0:0:
256,192,141144,1,0,0:0:0:0:
256,192,141235,1,8,0:0:0:0:
256,192,141326,1,8,0:0:0:0:
256,192,141417,1,0,0:0:0:0:
256,192,141477,1,0,0:0:0:0:
256,192,141538,1,0,0:0:0:0:
256,192,141598,1,8,0:0:0:0:
256,192,141690,1,0,0:0:0:0:
256,192,141780,1,8,0:0:0:0:
256,192,141841,1,8,0:0:0:0:
256,192,141902,1,8,0:0:0:0:
256,192,141963,1,0,0:0:0:0:
256,192,142144,1,0,0:0:0:0:
256,192,142326,1,0,0:0:0:0:
256,192,142508,1,8,0:0:0:0:
256,192,142690,1,8,0:0:0:0:
256,192,142781,1,0,0:0:0:0:
256,192,142963,1,0,0:0:0:0:
256,192,143054,1,8,0:0:0:0:
256,192,143235,1,8,0:0:0:0:
256,192,143417,1,0,0:0:0:0:
256,192,143508,1,8,0:0:0:0:
256,192,143599,1,0,0:0:0:0:
256,192,143781,1,0,0:0:0:0:
256,192,143963,1,8,0:0:0:0:
256,192,144144,1,0,0:0:0:0:
256,192,144235,1,0,0:0:0:0:
256,192,144326,1,8,0:0:0:0:
256,192,144508,1,8,0:0:0:0:
256,192,144690,1,0,0:0:0:0:
256,192,144781,1,0,0:0:0:0:
256,192,144872,1,8,0:0:0:0:
256,192,144963,1,8,0:0:0:0:
256,192,145054,1,0,0:0:0:0:
256,192,145235,1,0,0:0:0:0:
256,192,145417,1,8,0:0:0:0:
256,192,145599,1,8,0:0:0:0:
256,192,145690,1,0,0:0:0:0:
256,192,145872,1,0,0:0:0:0:
256,192,145963,1,8,0:0:0:0:
256,192,146144,1,8,0:0:0:0:
256,192,146326,1,0,0:0:0:0:
256,192,146417,1,8,0:0:0:0:
256,192,146508,1,0,0:0:0:0:
256,192,146690,1,0,0:0:0:0:
256,192,146872,1,8,0:0:0:0:
256,192,147054,1,0,0:0:0:0:
256,192,147144,1,0,0:0:0:0:
256,192,147235,1,8,0:0:0:0:
256,192,147417,1,0,0:0:0:0:
256,192,147599,1,8,0:0:0:0:
256,192,147690,1,0,0:0:0:0:
256,192,147781,1,8,0:0:0:0:
256,192,147872,1,8,0:0:0:0:
256,192,147963,1,0,0:0:0:0:
256,192,148144,1,0,0:0:0:0:
256,192,148326,1,8,0:0:0:0:
256,192,148508,1,0,0:0:0:0:
256,192,148690,1,0,0:0:0:0:
256,192,148872,1,0,0:0:0:0:
256,192,149054,1,8,0:0:0:0:
256,192,149235,1,0,0:0:0:0:
256,192,149417,1,0,0:0:0:0:
256,192,149599,1,0,0:0:0:0:
256,192,149781,1,8,0:0:0:0:
256,192,149963,1,0,0:0:0:0:
256,192,150144,1,0,0:0:0:0:
256,192,150326,1,0,0:0:0:0:
256,192,150508,1,8,0:0:0:0:
256,192,150690,1,0,0:0:0:0:
256,192,150872,1,12,0:0:0:0:
256,192,151054,1,0,0:0:0:0:
256,192,151144,1,0,0:0:0:0:
256,192,151235,1,0,0:0:0:0:
256,192,151326,1,0,0:0:0:0:
256,192,151417,1,8,0:0:0:0:
256,192,151599,1,0,0:0:0:0:
256,192,151690,1,0,0:0:0:0:
256,192,151781,1,8,0:0:0:0:
256,192,151872,1,0,0:0:0:0:
256,192,151963,1,8,0:0:0:0:
256,192,152054,1,0,0:0:0:0:
256,192,152144,1,8,0:0:0:0:
256,192,152235,1,8,0:0:0:0:
256,192,152326,1,0,0:0:0:0:
256,192,152387,1,0,0:0:0:0:
256,192,152447,1,0,0:0:0:0:
256,192,152508,1,8,0:0:0:0:
256,192,152599,1,0,0:0:0:0:
256,192,152690,1,8,0:0:0:0:
256,192,152750,1,0,0:0:0:0:
256,192,152811,1,0,0:0:0:0:
256,192,152872,1,8,0:0:0:0:
256,192,152963,1,0,0:0:0:0:
256,192,153054,1,8,0:0:0:0:
256,192,153144,1,8,0:0:0:0:
256,192,153235,1,0,0:0:0:0:
256,192,153326,1,8,0:0:0:0:
256,192,153417,1,0,0:0:0:0:
256,192,153508,1,0,0:0:0:0:
256,192,153599,1,8,0:0:0:0:
256,192,153690,1,8,0:0:0:0:
256,192,153781,1,4,0:0:0:0:
256,192,153963,1,0,0:0:0:0:
256,192,154054,1,8,0:0:0:0:
256,192,154144,1,0,0:0:0:0:
256,192,154326,1,4,0:0:0:0:
256,192,154508,1,8,0:0:0:0:
256,192,154599,1,0,0:0:0:0:
256,192,154690,1,8,0:0:0:0:
256,192,154872,1,4,0:0:0:0:
256,192,155054,1,8,0:0:0:0:
256,192,155144,1,8,0:0:0:0:
256,192,155235,1,4,0:0:0:0:
256,192,155417,1,8,0:0:0:0:
256,192,155508,1,0,0:0:0:0:
256,192,155599,1,0,0:0:0:0:
256,192,155781,1,0,0:0:0:0:
256,192,155872,1,8,0:0:0:0:
256,192,156054,1,8,0:0:0:0:
256,192,156144,1,8,0:0:0:0:
256,192,156326,1,0,0:0:0:0:
256,192,156508,1,8,0:0:0:0:
256,192,156690,1,4,0:0:0:0:
256,192,156872,1,0,0:0:0:0:
256,192,156963,1,8,0:0:0:0:
256,192,157144,1,8,0:0:0:0:
256,192,157235,1,4,0:0:0:0:
256,192,157417,1,8,0:0:0:0:
256,192,157599,1,8,0:0:0:0:
256,192,157781,1,4,0:0:0:0:
256,192,157963,1,0,0:0:0:0:
256,192,158144,1,4,0:0:0:0:
256,192,158326,1,0,0:0:0:0:
256,192,158508,1,8,0:0:0:0:
256,192,158690,1,8,0:0:0:0:
256,192,158872,1,0,0:0:0:0:
256,192,159054,1,0,0:0:0:0:
256,192,159235,1,8,0:0:0:0:
256,192,159326,1,0,0:0:0:0:
256,192,159417,1,8,0:0:0:0:
256,192,159599,1,4,0:0:0:0:
256,192,159781,1,0,0:0:0:0:
256,192,159872,1,8,0:0:0:0:
256,192,159962,1,0,0:0:0:0:
256,192,160144,1,4,0:0:0:0:
256,192,160326,1,8,0:0:0:0:
256,192,160417,1,0,0:0:0:0:
256,192,160508,1,8,0:0:0:0:
256,192,160690,1,4,0:0:0:0:
256,192,160872,1,8,0:0:0:0:
256,192,160963,1,8,0:0:0:0:
256,192,161053,1,4,0:0:0:0:
256,192,161235,1,8,0:0:0:0:
256,192,161326,1,0,0:0:0:0:
256,192,161417,1,0,0:0:0:0:
256,192,161599,1,0,0:0:0:0:
256,192,161690,1,8,0:0:0:0:
256,192,161872,1,8,0:0:0:0:
256,192,161962,1,8,0:0:0:0:
256,192,162144,1,0,0:0:0:0:
256,192,162326,1,8,0:0:0:0:
256,192,162508,1,4,0:0:0:0:
256,192,162690,1,0,0:0:0:0:
256,192,162781,1,8,0:0:0:0:
256,192,162963,1,8,0:0:0:0:
256,192,163053,1,4,0:0:0:0:
256,192,163235,1,8,0:0:0:0:
256,192,163417,1,8,0:0:0:0:
256,192,163599,1,4,0:0:0:0:
256,192,163781,1,0,0:0:0:0:
256,192,163962,1,8,0:0:0:0:
256,192,164054,1,8,0:0:0:0:
256,192,164144,1,0,0:0:0:0:
256,192,164326,1,8,0:0:0:0:
256,192,164508,1,0,0:0:0:0:
256,192,164690,1,8,0:0:0:0:
256,192,164780,1,0,0:0:0:0:
256,192,164871,1,8,0:0:0:0:
256,192,164932,1,0,0:0:0:0:
256,192,164993,1,0,0:0:0:0:
256,192,165053,1,8,0:0:0:0:
256,192,165144,1,0,0:0:0:0:
256,192,165235,1,8,0:0:0:0:
256,192,165326,1,8,0:0:0:0:
256,192,165417,1,4,0:0:0:0:
256,192,165599,1,0,0:0:0:0:
256,192,165690,1,8,0:0:0:0:
256,192,165780,1,0,0:0:0:0:
256,192,165962,1,4,0:0:0:0:
256,192,166144,1,8,0:0:0:0:
256,192,166235,1,0,0:0:0:0:
256,192,166326,1,8,0:0:0:0:
256,192,166508,1,4,0:0:0:0:
256,192,166690,1,8,0:0:0:0:
256,192,166780,1,8,0:0:0:0:
256,192,166871,1,4,0:0:0:0:
256,192,167053,1,8,0:0:0:0:
256,192,167144,1,0,0:0:0:0:
256,192,167235,1,0,0:0:0:0:
256,192,167417,1,0,0:0:0:0:
256,192,167508,1,8,0:0:0:0:
256,192,167690,1,8,0:0:0:0:
256,192,167780,1,8,0:0:0:0:
256,192,167962,1,0,0:0:0:0:
256,192,168144,1,8,0:0:0:0:
256,192,168326,1,4,0:0:0:0:
256,192,168508,1,0,0:0:0:0:
256,192,168599,1,8,0:0:0:0:
256,192,168780,1,8,0:0:0:0:
256,192,168871,1,4,0:0:0:0:
256,192,169053,1,8,0:0:0:0:
256,192,169235,1,8,0:0:0:0:
256,192,169417,1,4,0:0:0:0:
256,192,169599,1,0,0:0:0:0:
256,192,169780,1,4,0:0:0:0:
256,192,169962,1,0,0:0:0:0:
256,192,170054,1,0,0:0:0:0:
256,192,170144,1,8,0:0:0:0:
256,192,170235,1,0,0:0:0:0:
256,192,170326,1,8,0:0:0:0:
256,192,170508,1,0,0:0:0:0:
256,192,170690,1,0,0:0:0:0:
256,192,170781,1,8,0:0:0:0:
256,192,170871,1,8,0:0:0:0:
256,192,170962,1,0,0:0:0:0:
256,192,171053,1,8,0:0:0:0:
256,192,171235,1,4,0:0:0:0:
256,192,171417,1,0,0:0:0:0:
256,192,171508,1,8,0:0:0:0:
256,192,171598,1,0,0:0:0:0:
256,192,171780,1,4,0:0:0:0:
256,192,171962,1,8,0:0:0:0:
256,192,172053,1,0,0:0:0:0:
256,192,172144,1,8,0:0:0:0:
256,192,172326,1,4,0:0:0:0:
256,192,172508,1,8,0:0:0:0:
256,192,172599,1,8,0:0:0:0:
256,192,172689,1,4,0:0:0:0:
256,192,172871,1,8,0:0:0:0:
256,192,172962,1,0,0:0:0:0:
256,192,173053,1,0,0:0:0:0:
256,192,173235,1,0,0:0:0:0:
256,192,173326,1,8,0:0:0:0:
256,192,173508,1,8,0:0:0:0:
256,192,173598,1,8,0:0:0:0:
256,192,173780,1,0,0:0:0:0:
256,192,173962,1,8,0:0:0:0:
256,192,174144,1,4,0:0:0:0:
256,192,174326,1,0,0:0:0:0:
256,192,174417,1,8,0:0:0:0:
256,192,174599,1,8,0:0:0:0:
256,192,174689,1,4,0:0:0:0:
256,192,174871,1,8,0:0:0:0:
256,192,175053,1,8,0:0:0:0:
256,192,175235,1,4,0:0:0:0:
256,192,175417,1,0,0:0:0:0:
256,192,175599,1,8,0:0:0:0:
256,192,175690,1,8,0:0:0:0:
256,192,175781,1,0,0:0:0:0:
256,192,175962,1,8,0:0:0:0:
256,192,176144,1,0,0:0:0:0:
256,192,176326,1,8,0:0:0:0:
256,192,176416,1,0,0:0:0:0:
256,192,176507,1,8,0:0:0:0:
256,192,176568,1,8,0:0:0:0:
256,192,176629,1,0,0:0:0:0:
256,192,176689,1,0,0:0:0:0:
256,192,176780,1,8,0:0:0:0:
256,192,176871,1,0,0:0:0:0:
256,192,177054,1,0,0:0:0:0:
256,192,177235,1,0,0:0:0:0:
256,192,177326,1,8,0:0:0:0:
256,192,177417,1,0,0:0:0:0:
256,192,177599,1,0,0:0:0:0:
256,192,177690,1,8,0:0:0:0:
256,192,177871,1,8,0:0:0:0:
256,192,177962,1,0,0:0:0:0:
256,192,178144,1,8,0:0:0:0:
256,192,178235,1,8,0:0:0:0:
256,192,178326,1,8,0:0:0:0:
256,192,178417,1,0,0:0:0:0:
256,192,178508,1,8,0:0:0:0:
256,192,178690,1,8,0:0:0:0:
256,192,178780,1,0,0:0:0:0:
256,192,178871,1,0,0:0:0:0:
256,192,179053,1,0,0:0:0:0:
256,192,179144,1,8,0:0:0:0:
256,192,179326,1,8,0:0:0:0:
256,192,179417,1,8,0:0:0:0:
256,192,179508,1,0,0:0:0:0:
256,192,179599,1,8,0:0:0:0:
256,192,179780,1,0,0:0:0:0:
256,192,179962,1,0,0:0:0:0:
256,192,180144,1,0,0:0:0:0:
256,192,180235,1,8,0:0:0:0:
256,192,180417,1,0,0:0:0:0:
256,192,180508,1,8,0:0:0:0:
256,192,180599,1,0,0:0:0:0:
256,192,180690,1,8,0:0:0:0:
256,192,180871,1,8,0:0:0:0:
256,192,181053,1,0,0:0:0:0:
256,192,181235,1,0,0:0:0:0:
256,192,181417,1,0,0:0:0:0:
256,192,181599,1,0,0:0:0:0:
256,192,181690,1,0,0:0:0:0:
256,192,181780,1,8,0:0:0:0:
256,192,181963,1,8,0:0:0:0:
256,192,182143,1,0,0:0:0:0:
256,192,182325,1,0,0:0:0:0:
256,192,182417,1,8,0:0:0:0:
256,192,182508,1,8,0:0:0:0:
256,192,182689,1,8,0:0:0:0:
256,192,182871,1,0,0:0:0:0:
256,192,183053,1,0,0:0:0:0:
256,192,183144,1,8,0:0:0:0:
256,192,183235,1,0,0:0:0:0:
256,192,183417,1,0,0:0:0:0:
256,192,183508,1,8,0:0:0:0:
256,192,183690,1,0,0:0:0:0:
256,192,183780,1,0,0:0:0:0:
256,192,183962,1,8,0:0:0:0:
256,192,184053,1,8,0:0:0:0:
256,192,184144,1,8,0:0:0:0:
256,192,184235,1,0,0:0:0:0:
256,192,184326,1,8,0:0:0:0:
256,192,184508,1,8,0:0:0:0:
256,192,184599,1,8,0:0:0:0:
256,192,184690,1,0,0:0:0:0:
256,192,184871,1,0,0:0:0:0:
256,192,184962,1,8,0:0:0:0:
256,192,185144,1,0,0:0:0:0:
256,192,185235,1,8,0:0:0:0:
256,192,185326,1,0,0:0:0:0:
256,192,185417,1,8,0:0:0:0:
256,192,185599,1,8,0:0:0:0:
256,192,185780,1,0,0:0:0:0:
256,192,185962,1,8,0:0:0:0:
256,192,186054,1,0,0:0:0:0:
256,192,186235,1,0,0:0:0:0:
256,192,186326,1,8,0:0:0:0:
256,192,186417,1,0,0:0:0:0:
256,192,186508,1,8,0:0:0:0:
256,192,186568,1,8,0:0:0:0:
256,192,186629,1,8,0:0:0:0:
256,192,186690,1,0,0:0:0:0:
256,192,186780,1,0,0:0:0:0:
256,192,186872,1,8,0:0:0:0:
256,192,186932,1,8,0:0:0:0:
256,192,186993,1,8,0:0:0:0:
256,192,187054,1,0,0:0:0:0:
256,192,187144,1,0,0:0:0:0:
256,192,187235,1,8,0:0:0:0:
256,192,187296,1,8,0:0:0:0:
256,192,187357,1,8,0:0:0:0:
256,192,187417,1,0,0:0:0:0:
256,192,187508,1,0,0:0:0:0:
256,192,187599,1,8,0:0:0:0:
256,192,187659,1,8,0:0:0:0:
256,192,187720,1,8,0:0:0:0:
256,192,187780,1,0,0:0:0:0:
256,192,187871,1,0,0:0:0:0:
256,192,187962,1,8,0:0:0:0:
256,192,188144,1,0,0:0:0:0:
256,192,188235,1,0,0:0:0:0:
256,192,188326,1,8,0:0:0:0:
256,192,188690,1,12,0:0:0:0:
256,192,188871,1,0,0:0:0:0:
256,192,189053,1,8,0:0:0:0:
256,192,189235,1,0,0:0:0:0:
256,192,189326,1,0,0:0:0:0:
256,192,189417,1,8,0:0:0:0:
256,192,189508,1,0,0:0:0:0:
256,192,189690,1,8,0:0:0:0:
256,192,189781,1,8,0:0:0:0:
256,192,189962,1,0,0:0:0:0:
256,192,190053,1,8,0:0:0:0:
256,192,190144,1,8,0:0:0:0:
256,192,190326,1,0,0:0:0:0:
256,192,190508,1,8,0:0:0:0:
256,192,190690,1,8,0:0:0:0:
256,192,190780,1,0,0:0:0:0:
256,192,190872,1,8,0:0:0:0:
256,192,190962,1,0,0:0:0:0:
256,192,191053,1,0,0:0:0:0:
256,192,191144,1,8,0:0:0:0:
256,192,191235,1,8,0:0:0:0:
256,192,191417,1,0,0:0:0:0:
256,192,191508,1,8,0:0:0:0:
256,192,191599,1,8,0:0:0:0:
256,192,191781,1,0,0:0:0:0:
256,192,191963,1,8,0:0:0:0:
256,192,192144,1,0,0:0:0:0:
256,192,192235,1,8,0:0:0:0:
256,192,192326,1,0,0:0:0:0:
256,192,192417,1,8,0:0:0:0:
256,192,192508,1,8,0:0:0:0:
256,192,192599,1,0,0:0:0:0:
256,192,192690,1,8,0:0:0:0:
256,192,192872,1,0,0:0:0:0:
256,192,192963,1,8,0:0:0:0:
256,192,193054,1,8,0:0:0:0:
256,192,193144,1,0,0:0:0:0:
256,192,193235,1,0,0:0:0:0:
256,192,193326,1,8,0:0:0:0:
256,192,193417,1,0,0:0:0:0:
256,192,193599,1,8,0:0:0:0:
256,192,193690,1,8,0:0:0:0:
256,192,193871,1,8,0:0:0:0:
256,192,193963,1,0,0:0:0:0:
256,192,194053,1,8,0:0:0:0:
256,192,194145,1,8,0:0:0:0:
256,192,194235,1,8,0:0:0:0:
256,192,194326,1,0,0:0:0:0:
256,192,194508,1,8,0:0:0:0:
256,192,194599,1,8,0:0:0:0:
256,192,194690,1,0,0:0:0:0:
256,192,194780,1,0,0:0:0:0:
256,192,194871,1,8,0:0:0:0:
256,192,194962,1,8,0:0:0:0:
256,192,195053,1,0,0:0:0:0:
256,192,195144,1,0,0:0:0:0:
256,192,195236,1,8,0:0:0:0:
256,192,195326,1,8,0:0:0:0:
256,192,195417,1,0,0:0:0:0:
256,192,195508,1,0,0:0:0:0:
256,192,195599,1,8,0:0:0:0:
256,192,195690,1,8,0:0:0:0:
256,192,195781,1,0,0:0:0:0:
256,192,195871,1,0,0:0:0:0:
256,192,195962,1,8,0:0:0:0:
256,192,196053,1,0,0:0:0:0:
256,192,196144,1,0,0:0:0:0:
256,192,196235,1,8,0:0:0:0:
256,192,196327,1,8,0:0:0:0:
256,192,196417,1,0,0:0:0:0:
256,192,196508,1,0,0:0:0:0:
256,192,196599,1,8,0:0:0:0:
256,192,196690,1,8,0:0:0:0:
256,192,196780,1,0,0:0:0:0:
256,192,196872,1,0,0:0:0:0:
256,192,196962,1,8,0:0:0:0:
256,192,197054,1,8,0:0:0:0:
256,192,197144,1,0,0:0:0:0:
256,192,197236,1,0,0:0:0:0:
256,192,197326,1,0,0:0:0:0:
256,192,197418,1,8,0:0:0:0:
256,192,197477,1,8,0:0:0:0:
256,192,197538,1,8,0:0:0:0:
256,192,197599,1,0,0:0:0:0:
256,192,197690,1,0,0:0:0:0:
256,192,197780,1,8,0:0:0:0:
256,192,197841,1,8,0:0:0:0:
256,192,197902,1,8,0:0:0:0:
256,192,197962,1,0,0:0:0:0:
256,192,198053,1,0,0:0:0:0:
256,192,198144,1,8,0:0:0:0:
256,192,198205,1,8,0:0:0:0:
256,192,198265,1,8,0:0:0:0:
256,192,198326,1,0,0:0:0:0:
256,192,198417,1,0,0:0:0:0:
256,192,198508,1,8,0:0:0:0:
256,192,198568,1,8,0:0:0:0:
256,192,198629,1,8,0:0:0:0:
256,192,198690,1,0,0:0:0:0:
256,192,198780,1,8,0:0:0:0:
256,192,198871,1,0,0:0:0:0:
256,192,198963,1,0,0:0:0:0:
256,192,199054,1,8,0:0:0:0:
256,192,199144,1,8,0:0:0:0:
256,192,199235,1,0,0:0:0:0:
256,192,199417,1,0,0:0:0:0:
256,192,199508,1,8,0:0:0:0:
256,192,199690,1,8,0:0:0:0:
256,192,199781,1,8,0:0:0:0:
256,192,199872,1,0,0:0:0:0:
256,192,199963,1,12,0:0:0:0:
256,192,200326,1,0,0:0:0:0:
256,192,200417,1,0,0:0:0:0:
256,192,200508,1,0,0:0:0:0:
256,192,200599,1,8,0:0:0:0:
256,192,200690,1,8,0:0:0:0:
256,192,200872,1,0,0:0:0:0:
256,192,200963,1,0,0:0:0:0:
256,192,201144,1,8,0:0:0:0:
256,192,201235,1,8,0:0:0:0:
256,192,201326,1,0,0:0:0:0:
256,192,201417,1,0,0:0:0:0:
256,192,201508,1,0,0:0:0:0:
256,192,201599,1,8,0:0:0:0:
256,192,201690,1,0,0:0:0:0:
256,192,201781,1,8,0:0:0:0:
256,192,201872,1,0,0:0:0:0:
256,192,201963,1,0,0:0:0:0:
256,192,202054,1,8,0:0:0:0:
256,192,202144,1,8,0:0:0:0:
256,192,202326,1,0,0:0:0:0:
256,192,202417,1,0,0:0:0:0:
256,192,202599,1,0,0:0:0:0:
256,192,202690,1,8,0:0:0:0:
256,192,202781,1,0,0:0:0:0:
256,192,202872,1,8,0:0:0:0:
256,192,202963,1,0,0:0:0:0:
256,192,203054,1,0,0:0:0:0:
256,192,203144,1,8,0:0:0:0:
256,192,203235,1,0,0:0:0:0:
256,192,203326,1,8,0:0:0:0:
256,192,203417,1,8,0:0:0:0:
256,192,203508,1,0,0:0:0:0:
256,192,203599,1,8,0:0:0:0:
256,192,203781,1,0,0:0:0:0:
256,192,203872,1,0,0:0:0:0:
256,192,204054,1,8,0:0:0:0:
256,192,204144,1,0,0:0:0:0:
256,192,204235,1,0,0:0:0:0:
256,192,204326,1,8,0:0:0:0:
256,192,204417,1,0,0:0:0:0:
256,192,204508,1,8,0:0:0:0:
256,192,204599,1,8,0:0:0:0:
256,192,204690,1,0,0:0:0:0:
256,192,204781,1,8,0:0:0:0:
256,192,204872,1,8,0:0:0:0:
256,192,204963,1,0,0:0:0:0:
256,192,205054,1,0,0:0:0:0:
256,192,205235,1,8,0:0:0:0:
256,192,205326,1,8,0:0:0:0:
256,192,205508,1,8,0:0:0:0:
256,192,205599,1,8,0:0:0:0:
256,192,205690,1,0,0:0:0:0:
256,192,205781,1,8,0:0:0:0:
256,192,205872,1,0,0:0:0:0:
256,192,205963,1,8,0:0:0:0:
256,192,206023,1,8,0:0:0:0:
256,192,206084,1,8,0:0:0:0:
256,192,206144,1,0,0:0:0:0:
256,192,206235,1,0,0:0:0:0:
256,192,206326,1,0,0:0:0:0:
256,192,206417,1,8,0:0:0:0:
256,192,206508,1,8,0:0:0:0:
256,192,206690,1,0,0:0:0:0:
256,192,206781,1,0,0:0:0:0:
256,192,206963,1,8,0:0:0:0:
256,192,207054,1,8,0:0:0:0:
256,192,207145,1,0,0:0:0:0:
256,192,207236,1,0,0:0:0:0:
256,192,207327,1,0,0:0:0:0:
256,192,207418,1,8,0:0:0:0:
256,192,207509,1,0,0:0:0:0:
256,192,207600,1,8,0:0:0:0:
256,192,207691,1,0,0:0:0:0:
256,192,207782,1,0,0:0:0:0:
256,192,207873,1,8,0:0:0:0:
256,192,207963,1,8,0:0:0:0:
256,192,208145,1,0,0:0:0:0:
256,192,208236,1,0,0:0:0:0:
256,192,208418,1,0,0:0:0:0:
256,192,208509,1,8,0:0:0:0:
256,192,208600,1,0,0:0:0:0:
256,192,208691,1,8,0:0:0:0:
256,192,208782,1,0,0:0:0:0:
256,192,208873,1,0,0:0:0:0:
256,192,208963,1,8,0:0:0:0:
256,192,209054,1,0,0:0:0:0:
256,192,209144,1,8,0:0:0:0:
256,192,209235,1,8,0:0:0:0:
256,192,209326,1,0,0:0:0:0:
256,192,209417,1,8,0:0:0:0:
256,192,209599,1,0,0:0:0:0:
256,192,209644,1,0,0:0:0:0:
256,192,209690,1,0,0:0:0:0:
256,192,209781,1,0,0:0:0:0:
256,192,209872,1,8,0:0:0:0:
256,192,209963,1,0,0:0:0:0:
256,192,210054,1,0,0:0:0:0:
256,192,210144,1,8,0:0:0:0:
256,192,210326,1,0,0:0:0:0:
256,192,210508,1,8,0:0:0:0:
256,192,210599,1,0,0:0:0:0:
256,192,210690,1,8,0:0:0:0:
256,192,210781,1,8,0:0:0:0:
256,192,210872,1,0,0:0:0:0:
256,192,210917,1,0,0:0:0:0:
256,192,211054,1,8,0:0:0:0:
256,192,211099,1,8,0:0:0:0:
256,192,211235,1,0,0:0:0:0:
256,192,211296,1,0,0:0:0:0:
256,192,211357,1,0,0:0:0:0:
256,192,211417,1,8,0:0:0:0:
256,192,211508,1,8,0:0:0:0:
256,192,211599,1,0,0:0:0:0:
256,192,211660,1,0,0:0:0:0:
256,192,211720,1,0,0:0:0:0:
256,192,211781,1,8,0:0:0:0:
256,192,211872,1,8,0:0:0:0:
256,192,211963,1,0,0:0:0:0:
256,192,212054,1,0,0:0:0:0:
256,192,212145,1,0,0:0:0:0:
256,192,212236,1,8,0:0:0:0:
256,192,212327,1,8,0:0:0:0:
256,192,212509,1,0,0:0:0:0:
256,192,212600,1,0,0:0:0:0:
256,192,212781,1,8,0:0:0:0:
256,192,212872,1,8,0:0:0:0:
256,192,212963,1,0,0:0:0:0:
256,192,213054,1,0,0:0:0:0:
256,192,213145,1,0,0:0:0:0:
256,192,213236,1,8,0:0:0:0:
256,192,213327,1,0,0:0:0:0:
256,192,213418,1,8,0:0:0:0:
256,192,213509,1,0,0:0:0:0:
256,192,213600,1,0,0:0:0:0:
256,192,213691,1,8,0:0:0:0:
256,192,213781,1,8,0:0:0:0:
256,192,213963,1,0,0:0:0:0:
256,192,214054,1,0,0:0:0:0:
256,192,214236,1,0,0:0:0:0:
256,192,214327,1,8,0:0:0:0:
256,192,214418,1,0,0:0:0:0:
256,192,214509,1,8,0:0:0:0:
256,192,214600,1,0,0:0:0:0:
256,192,214691,1,0,0:0:0:0:
256,192,214781,1,8,0:0:0:0:
256,192,214872,1,0,0:0:0:0:
256,192,214963,1,8,0:0:0:0:
256,192,215054,1,8,0:0:0:0:
256,192,215145,1,0,0:0:0:0:
256,192,215236,1,8,0:0:0:0:
256,192,215418,1,0,0:0:0:0:
256,192,215509,1,0,0:0:0:0:
256,192,215691,1,8,0:0:0:0:
256,192,215781,1,0,0:0:0:0:
256,192,215872,1,0,0:0:0:0:
256,192,215963,1,8,0:0:0:0:
256,192,216054,1,0,0:0:0:0:
256,192,216145,1,8,0:0:0:0:
256,192,216236,1,8,0:0:0:0:
256,192,216327,1,0,0:0:0:0:
256,192,216418,1,8,0:0:0:0:
256,192,216509,1,8,0:0:0:0:
256,192,216600,1,0,0:0:0:0:
256,192,216691,1,0,0:0:0:0:
256,192,216872,1,8,0:0:0:0:
256,192,216963,1,8,0:0:0:0:
256,192,217145,1,8,0:0:0:0:
256,192,217236,1,8,0:0:0:0:
256,192,217327,1,0,0:0:0:0:
256,192,217418,1,8,0:0:0:0:
256,192,217509,1,8,0:0:0:0:
256,192,217600,1,0,0:0:0:0:
256,192,217690,1,0,0:0:0:0:
256,192,217781,1,8,0:0:0:0:
256,192,217872,1,0,0:0:0:0:
256,192,217963,1,0,0:0:0:0:
256,192,218054,1,8,0:0:0:0:
256,192,218144,1,8,0:0:0:0:
256,192,218326,1,0,0:0:0:0:
256,192,218417,1,0,0:0:0:0:
256,192,218599,1,8,0:0:0:0:
256,192,218690,1,8,0:0:0:0:
256,192,218781,1,0,0:0:0:0:
256,192,218872,1,0,0:0:0:0:
256,192,218963,1,0,0:0:0:0:
256,192,219054,1,8,0:0:0:0:
256,192,219145,1,0,0:0:0:0:
256,192,219236,1,8,0:0:0:0:
256,192,219327,1,0,0:0:0:0:
256,192,219418,1,0,0:0:0:0:
256,192,219509,1,8,0:0:0:0:
256,192,219599,1,8,0:0:0:0:
256,192,219781,1,0,0:0:0:0:
256,192,219872,1,0,0:0:0:0:
256,192,220054,1,0,0:0:0:0:
256,192,220145,1,8,0:0:0:0:
256,192,220236,1,0,0:0:0:0:
256,192,220327,1,8,0:0:0:0:
256,192,220418,1,0,0:0:0:0:
256,192,220509,1,0,0:0:0:0:
256,192,220599,1,8,0:0:0:0:
256,192,220690,1,0,0:0:0:0:
256,192,220780,1,8,0:0:0:0:
256,192,220871,1,8,0:0:0:0:
256,192,220962,1,0,0:0:0:0:
256,192,221053,1,0,0:0:0:0:
256,192,221144,1,8,0:0:0:0:
256,192,221326,1,0,0:0:0:0:
256,192,221417,1,0,0:0:0:0:
256,192,221508,1,8,0:0:0:0:
256,192,221599,1,8,0:0:0:0:
256,192,221690,1,0,0:0:0:0:
256,192,221780,1,8,0:0:0:0:
256,192,221872,1,0,0:0:0:0:
256,192,221963,1,8,0:0:0:0:
256,192,222054,1,8,0:0:0:0:
256,192,222144,1,0,0:0:0:0:
256,192,222235,1,8,0:0:0:0:
256,192,222326,1,8,0:0:0:0:
256,192,222417,1,8,0:0:0:0:
256,192,222508,1,0,0:0:0:0:
256,192,222599,1,0,0:0:0:0:
256,192,222690,1,8,0:0:0:0:
256,192,222781,1,8,0:0:0:0:
256,192,222871,1,0,0:0:0:0:
256,192,222932,1,0,0:0:0:0:
256,192,222993,1,0,0:0:0:0:
256,192,223053,1,8,0:0:0:0:
256,192,223144,1,8,0:0:0:0:
256,192,223235,1,0,0:0:0:0:
256,192,223296,1,0,0:0:0:0:
256,192,223356,1,0,0:0:0:0:
256,192,223417,1,8,0:0:0:0:
256,192,223508,1,8,0:0:0:0:
256,192,223599,1,4,0:0:0:0:
256,192,223781,1,0,0:0:0:0:
256,192,223872,1,8,0:0:0:0:
256,192,223963,1,8,0:0:0:0:
256,192,224145,1,0,0:0:0:0:
256,192,224236,1,0,0:0:0:0:
256,192,224417,1,8,0:0:0:0:
256,192,224508,1,8,0:0:0:0:
256,192,224599,1,0,0:0:0:0:
256,192,224690,1,8,0:0:0:0:
256,192,224872,1,8,0:0:0:0:
256,192,225054,1,8,0:0:0:0:
256,192,225145,1,8,0:0:0:0:
256,192,225236,1,0,0:0:0:0:
256,192,225326,1,0,0:0:0:0:
256,192,225417,1,8,0:0:0:0:
256,192,225599,1,0,0:0:0:0:
256,192,225781,1,0,0:0:0:0:
256,192,225872,1,0,0:0:0:0:
256,192,225963,1,8,0:0:0:0:
256,192,226054,1,0,0:0:0:0:
256,192,226145,1,8,0:0:0:0:
256,192,226326,1,8,0:0:0:0:
256,192,226508,1,0,0:0:0:0:
256,192,226599,1,8,0:0:0:0:
256,192,226690,1,8,0:0:0:0:
256,192,226781,1,0,0:0:0:0:
256,192,226872,1,8,0:0:0:0:
256,192,227054,1,0,0:0:0:0:
256,192,227145,1,0,0:0:0:0:
256,192,227327,1,8,0:0:0:0:
256,192,227417,1,0,0:0:0:0:
256,192,227508,1,0,0:0:0:0:
256,192,227599,1,8,0:0:0:0:
256,192,227690,1,0,0:0:0:0:
256,192,227781,1,8,0:0:0:0:
256,192,227872,1,8,0:0:0:0:
256,192,227963,1,0,0:0:0:0:
256,192,228054,1,8,0:0:0:0:
256,192,228145,1,8,0:0:0:0:
256,192,228236,1,0,0:0:0:0:
256,192,228327,1,0,0:0:0:0:
256,192,228508,1,8,0:0:0:0:
256,192,228599,1,8,0:0:0:0:
256,192,228781,1,8,0:0:0:0:
256,192,228872,1,8,0:0:0:0:
256,192,228963,1,0,0:0:0:0:
256,192,229054,1,8,0:0:0:0:
256,192,229145,1,0,0:0:0:0:
256,192,229236,1,8,0:0:0:0:
256,192,229326,1,8,0:0:0:0:
256,192,229417,1,0,0:0:0:0:
256,192,229599,1,0,0:0:0:0:
256,192,229690,1,8,0:0:0:0:
256,192,229781,1,8,0:0:0:0:
256,192,229963,1,0,0:0:0:0:
256,192,230054,1,0,0:0:0:0:
256,192,230236,1,8,0:0:0:0:
256,192,230327,1,8,0:0:0:0:
256,192,230418,1,0,0:0:0:0:
256,192,230509,1,8,0:0:0:0:
256,192,230690,1,0,0:0:0:0:
256,192,230873,1,8,0:0:0:0:
256,192,230964,1,0,0:0:0:0:
256,192,231055,1,8,0:0:0:0:
256,192,231144,1,8,0:0:0:0:
256,192,231236,1,0,0:0:0:0:
256,192,231418,1,0,0:0:0:0:
256,192,231599,1,0,0:0:0:0:
256,192,231691,1,0,0:0:0:0:
256,192,231782,1,8,0:0:0:0:
256,192,231873,1,0,0:0:0:0:
256,192,231964,1,8,0:0:0:0:
256,192,232144,1,8,0:0:0:0:
256,192,232235,1,0,0:0:0:0:
256,192,232327,1,0,0:0:0:0:
256,192,232417,1,0,0:0:0:0:
256,192,232508,1,8,0:0:0:0:
256,192,232599,1,0,0:0:0:0:
256,192,232690,1,8,0:0:0:0:
256,192,232781,1,8,0:0:0:0:
256,192,232963,1,0,0:0:0:0:
256,192,233144,1,8,0:0:0:0:
256,192,233236,1,0,0:0:0:0:
256,192,233327,1,0,0:0:0:0:
256,192,233417,1,8,0:0:0:0:
256,192,233599,1,0,0:0:0:0:
256,192,233781,1,8,0:0:0:0:
256,192,233872,1,0,0:0:0:0:
256,192,233963,1,8,0:0:0:0:
256,192,234054,1,8,0:0:0:0:
256,192,234145,1,0,0:0:0:0:
256,192,234235,1,0,0:0:0:0:
256,192,234327,1,8,0:0:0:0:
256,192,234417,1,8,0:0:0:0:
256,192,234508,1,0,0:0:0:0:
256,192,234569,1,0,0:0:0:0:
256,192,234630,1,0,0:0:0:0:
256,192,234690,1,8,0:0:0:0:
256,192,234781,1,8,0:0:0:0:
256,192,234872,1,0,0:0:0:0:
256,192,234933,1,0,0:0:0:0:
256,192,234993,1,0,0:0:0:0:
256,192,235054,1,8,0:0:0:0:
256,192,235145,1,8,0:0:0:0:
256,192,235235,1,0,0:0:0:0:
256,192,235417,1,0,0:0:0:0:
256,192,235508,1,8,0:0:0:0:
256,192,235599,1,8,0:0:0:0:
256,192,235781,1,0,0:0:0:0:
256,192,235872,1,0,0:0:0:0:
256,192,236053,1,8,0:0:0:0:
256,192,236144,1,8,0:0:0:0:
256,192,236235,1,0,0:0:0:0:
256,192,236326,1,0,0:0:0:0:
256,192,236508,1,8,0:0:0:0:
256,192,236690,1,8,0:0:0:0:
256,192,236781,1,0,0:0:0:0:
256,192,236872,1,8,0:0:0:0:
256,192,236963,1,8,0:0:0:0:
256,192,237053,1,0,0:0:0:0:
256,192,237235,1,0,0:0:0:0:
256,192,237417,1,0,0:0:0:0:
256,192,237508,1,0,0:0:0:0:
256,192,237599,1,8,0:0:0:0:
256,192,237690,1,0,0:0:0:0:
256,192,237781,1,8,0:0:0:0:
256,192,237963,1,8,0:0:0:0:
256,192,238144,1,0,0:0:0:0:
256,192,238235,1,0,0:0:0:0:
256,192,238326,1,8,0:0:0:0:
256,192,238417,1,0,0:0:0:0:
256,192,238508,1,8,0:0:0:0:
256,192,238690,1,0,0:0:0:0:
256,192,238781,1,0,0:0:0:0:
256,192,238963,1,8,0:0:0:0:
256,192,239053,1,0,0:0:0:0:
256,192,239144,1,0,0:0:0:0:
256,192,239235,1,8,0:0:0:0:
256,192,239326,1,0,0:0:0:0:
256,192,239417,1,8,0:0:0:0:
256,192,239508,1,8,0:0:0:0:
256,192,239599,1,0,0:0:0:0:
256,192,239690,1,8,0:0:0:0:
256,192,239781,1,8,0:0:0:0:
256,192,239872,1,0,0:0:0:0:
256,192,239963,1,0,0:0:0:0:
256,192,240144,1,8,0:0:0:0:
256,192,240235,1,8,0:0:0:0:
256,192,240417,1,8,0:0:0:0:
256,192,240508,1,8,0:0:0:0:
256,192,240599,1,0,0:0:0:0:
256,192,240690,1,8,0:0:0:0:
256,192,240781,1,8,0:0:0:0:
256,192,240872,1,0,0:0:0:0:
256,192,241053,1,8,0:0:0:0:
256,192,241144,1,8,0:0:0:0:
256,192,241235,1,0,0:0:0:0:
256,192,241326,1,8,0:0:0:0:
256,192,241416,1,8,0:0:0:0:
256,192,241508,1,8,0:0:0:0:
256,192,241598,1,0,0:0:0:0:
256,192,241689,1,0,0:0:0:0:
256,192,241781,1,8,0:0:0:0:
256,192,241871,1,8,0:0:0:0:
256,192,241962,1,8,0:0:0:0:
256,192,242053,1,8,0:0:0:0:
256,192,242144,1,0,0:0:0:0:
256,192,242235,1,0,0:0:0:0:
256,192,242326,1,0,0:0:0:0:
256,192,242417,1,0,0:0:0:0:
256,192,242508,1,8,0:0:0:0:
256,192,242599,1,8,0:0:0:0:
256,192,242690,1,0,0:0:0:0:
256,192,242781,1,8,0:0:0:0:
256,192,242871,1,8,0:0:0:0:
256,192,242963,1,8,0:0:0:0:
256,192,243053,1,0,0:0:0:0:
256,192,243144,1,0,0:0:0:0:
256,192,243235,1,8,0:0:0:0:
256,192,243326,1,8,0:0:0:0:
256,192,243417,1,8,0:0:0:0:
256,192,243508,1,8,0:0:0:0:
256,192,243599,1,0,0:0:0:0:
256,192,243690,1,0,0:0:0:0:
256,192,243781,1,0,0:0:0:0:
256,192,243871,1,0,0:0:0:0:
256,192,243962,1,8,0:0:0:0:
256,192,244023,1,8,0:0:0:0:
256,192,244084,1,8,0:0:0:0:
256,192,244143,1,0,0:0:0:0:
256,192,244234,1,0,0:0:0:0:
256,192,244325,1,8,0:0:0:0:
256,192,244417,1,0,0:0:0:0:
256,192,244507,1,8,0:0:0:0:
256,192,244598,1,0,0:0:0:0:
256,192,244689,1,8,0:0:0:0:
256,192,244750,1,8,0:0:0:0:
256,192,244811,1,8,0:0:0:0:
256,192,244872,1,0,0:0:0:0:
256,192,244962,1,0,0:0:0:0:
256,192,245054,1,8,0:0:0:0:
256,192,245144,1,0,0:0:0:0:
256,192,245235,1,8,0:0:0:0:
256,192,245326,1,8,0:0:0:0:
256,192,245416,1,0,0:0:0:0:
256,192,245507,1,8,0:0:0:0:
256,192,245598,1,8,0:0:0:0:
256,192,245689,1,8,0:0:0:0:
256,192,245780,1,0,0:0:0:0:
256,192,245871,1,0,0:0:0:0:
256,192,245962,1,8,0:0:0:0:
256,192,246053,1,8,0:0:0:0:
256,192,246143,1,0,0:0:0:0:
256,192,246204,1,0,0:0:0:0:
256,192,246265,1,0,0:0:0:0:
256,192,246325,1,8,0:0:0:0:
256,192,246416,1,8,0:0:0:0:
256,192,246507,1,0,0:0:0:0:
256,192,246568,1,0,0:0:0:0:
256,192,246628,1,0,0:0:0:0:
256,192,246689,1,8,0:0:0:0:
256,192,246780,1,8,0:0:0:0:
256,192,246871,1,0,0:0:0:0:
256,192,247054,1,0,0:0:0:0:
256,192,247235,1,8,0:0:0:0:
256,192,247417,1,8,0:0:0:0:
256,192,247508,1,0,0:0:0:0:
256,192,247690,1,0,0:0:0:0:
256,192,247781,1,8,0:0:0:0:
256,192,247962,1,8,0:0:0:0:
256,192,248144,1,0,0:0:0:0:
256,192,248235,1,8,0:0:0:0:
256,192,248326,1,0,0:0:0:0:
256,192,248508,1,0,0:0:0:0:
256,192,248690,1,8,0:0:0:0:
256,192,248781,1,8,0:0:0:0:
256,192,248872,1,0,0:0:0:0:
256,192,248963,1,0,0:0:0:0:
256,192,249145,1,0,0:0:0:0:
256,192,249236,1,8,0:0:0:0:
256,192,249417,1,8,0:0:0:0:
256,192,249508,1,0,0:0:0:0:
256,192,249599,1,0,0:0:0:0:
256,192,249690,1,8,0:0:0:0:
256,192,249781,1,0,0:0:0:0:
256,192,249962,1,0,0:0:0:0:
256,192,250144,1,8,0:0:0:0:
256,192,250326,1,8,0:0:0:0:
256,192,250417,1,0,0:0:0:0:
256,192,250599,1,0,0:0:0:0:
256,192,250690,1,8,0:0:0:0:
256,192,250871,1,8,0:0:0:0:
256,192,251053,1,0,0:0:0:0:
256,192,251144,1,8,0:0:0:0:
256,192,251235,1,0,0:0:0:0:
256,192,251417,1,0,0:0:0:0:
256,192,251599,1,8,0:0:0:0:
256,192,251690,1,8,0:0:0:0:
256,192,251781,1,0,0:0:0:0:
256,192,251872,1,0,0:0:0:0:
256,192,252054,1,0,0:0:0:0:
256,192,252145,1,8,0:0:0:0:
256,192,252326,1,8,0:0:0:0:
256,192,252417,1,8,0:0:0:0:
256,192,252508,1,0,0:0:0:0:
256,192,252599,1,8,0:0:0:0:
256,192,252690,1,0,0:0:0:0:
256,192,252871,1,0,0:0:0:0:
256,192,253053,1,8,0:0:0:0:
256,192,253144,1,0,0:0:0:0:
256,192,253235,1,8,0:0:0:0:
256,192,253326,1,0,0:0:0:0:
256,192,253508,1,0,0:0:0:0:
256,192,253599,1,8,0:0:0:0:
256,192,253780,1,8,0:0:0:0:
256,192,253871,1,8,0:0:0:0:
256,192,253962,1,0,0:0:0:0:
256,192,254053,1,8,0:0:0:0:
256,192,254144,1,0,0:0:0:0:
256,192,254326,1,0,0:0:0:0:
256,192,254508,1,8,0:0:0:0:
256,192,254599,1,8,0:0:0:0:
256,192,254690,1,0,0:0:0:0:
256,192,254781,1,0,0:0:0:0:
256,192,254963,1,0,0:0:0:0:
256,192,255054,1,8,0:0:0:0:
256,192,255235,1,8,0:0:0:0:
256,192,255326,1,0,0:0:0:0:
256,192,255417,1,0,0:0:0:0:
256,192,255508,1,8,0:0:0:0:
256,192,255599,1,0,0:0:0:0:
256,192,255780,1,0,0:0:0:0:
256,192,255871,1,0,0:0:0:0:
256,192,255962,1,8,0:0:0:0:
256,192,256053,1,8,0:0:0:0:
256,192,256144,1,0,0:0:0:0:
256,192,256235,1,0,0:0:0:0:
256,192,256417,1,0,0:0:0:0:
256,192,256508,1,8,0:0:0:0:
256,192,256689,1,8,0:0:0:0:
256,192,256871,1,8,0:0:0:0:
256,192,257054,1,0,0:0:0:0:
256,192,257144,1,0,0:0:0:0:
256,192,257235,1,0,0:0:0:0:
256,192,257326,1,0,0:0:0:0:
256,192,257417,1,8,0:0:0:0:
256,192,257508,1,8,0:0:0:0:
256,192,257599,1,8,0:0:0:0:
256,192,257690,1,8,0:0:0:0:
256,192,257781,1,0,0:0:0:0:
256,192,257871,1,0,0:0:0:0:
256,192,257962,1,8,0:0:0:0:
256,192,258053,1,8,0:0:0:0:
256,192,258144,1,0,0:0:0:0:
256,192,258235,1,8,0:0:0:0:
256,192,258326,1,8,0:0:0:0:
256,192,258417,1,8,0:0:0:0:
256,192,258508,1,0,0:0:0:0:
256,192,258690,1,0,0:0:0:0:
256,192,258871,1,8,0:0:0:0:
256,192,259053,1,8,0:0:0:0:
256,192,259144,1,0,0:0:0:0:
256,192,259326,1,0,0:0:0:0:
256,192,259417,1,8,0:0:0:0:
256,192,259598,1,8,0:0:0:0:
256,192,259780,1,0,0:0:0:0:
256,192,259871,1,8,0:0:0:0:
256,192,259962,1,0,0:0:0:0:
256,192,260144,1,0,0:0:0:0:
256,192,260326,1,8,0:0:0:0:
256,192,260417,1,8,0:0:0:0:
256,192,260508,1,0,0:0:0:0:
256,192,260599,1,0,0:0:0:0:
256,192,260781,1,0,0:0:0:0:
256,192,260872,1,8,0:0:0:0:
256,192,261053,1,8,0:0:0:0:
256,192,261144,1,0,0:0:0:0:
256,192,261235,1,0,0:0:0:0:
256,192,261326,1,8,0:0:0:0:
256,192,261417,1,0,0:0:0:0:
256,192,261598,1,0,0:0:0:0:
256,192,261780,1,8,0:0:0:0:
256,192,261962,1,8,0:0:0:0:
256,192,262053,1,0,0:0:0:0:
256,192,262235,1,0,0:0:0:0:
256,192,262326,1,8,0:0:0:0:
256,192,262507,1,8,0:0:0:0:
256,192,262689,1,0,0:0:0:0:
256,192,262780,1,8,0:0:0:0:
256,192,262871,1,0,0:0:0:0:
256,192,263053,1,0,0:0:0:0:
256,192,263235,1,8,0:0:0:0:
256,192,263326,1,8,0:0:0:0:
256,192,263417,1,0,0:0:0:0:
256,192,263508,1,0,0:0:0:0:
256,192,263690,1,0,0:0:0:0:
256,192,263781,1,8,0:0:0:0:
256,192,263962,1,8,0:0:0:0:
256,192,264053,1,8,0:0:0:0:
256,192,264144,1,0,0:0:0:0:
256,192,264235,1,8,0:0:0:0:
256,192,264326,1,0,0:0:0:0:
256,192,264507,1,0,0:0:0:0:
256,192,264689,1,8,0:0:0:0:
256,192,264780,1,0,0:0:0:0:
256,192,264871,1,8,0:0:0:0:
256,192,264962,1,0,0:0:0:0:
256,192,265144,1,0,0:0:0:0:
256,192,265235,1,8,0:0:0:0:
256,192,265416,1,8,0:0:0:0:
256,192,265507,1,8,0:0:0:0:
256,192,265598,1,0,0:0:0:0:
256,192,265689,1,8,0:0:0:0:
256,192,265780,1,0,0:0:0:0:
256,192,265962,1,0,0:0:0:0:
256,192,266144,1,8,0:0:0:0:
256,192,266235,1,8,0:0:0:0:
256,192,266326,1,0,0:0:0:0:
256,192,266417,1,0,0:0:0:0:
256,192,266599,1,0,0:0:0:0:
256,192,266690,1,8,0:0:0:0:
256,192,266871,1,8,0:0:0:0:
256,192,266962,1,0,0:0:0:0:
256,192,267053,1,0,0:0:0:0:
256,192,267144,1,8,0:0:0:0:
256,192,267235,1,0,0:0:0:0:
256,192,267416,1,0,0:0:0:0:
256,192,267507,1,0,0:0:0:0:
256,192,267598,1,8,0:0:0:0:
256,192,267689,1,8,0:0:0:0:
256,192,267780,1,0,0:0:0:0:
256,192,267871,1,0,0:0:0:0:
256,192,268053,1,0,0:0:0:0:
256,192,268144,1,8,0:0:0:0:
256,192,268325,1,8,0:0:0:0:
256,192,268507,1,0,0:0:0:0:
256,192,268598,1,8,0:0:0:0:
256,192,268689,1,4,0:0:0:0:
256,192,269417,1,0,0:0:0:0:
256,192,269507,1,8,0:0:0:0:
256,192,269598,1,8,0:0:0:0:
256,192,269689,1,0,0:0:0:0:
256,192,269780,1,0,0:0:0:0:
256,192,269871,1,8,0:0:0:0:
256,192,270053,1,8,0:0:0:0:
256,192,270144,1,4,0:0:0:0:
