osu file format v14

[General]
AudioFilename: audio.mp3
AudioLeadIn: 0
PreviewTime: 94199
Countdown: 0
SampleSet: None
StackLeniency: 0.3
Mode: 0
LetterboxInBreaks: 0
WidescreenStoryboard: 1

[Editor]
Bookmarks: 27,118,209,300,391,482,572,663,754,845,936,1027,1118,1209,1300,1391,1482,1572,1663,1754,1845,1936,13572,25209,36936,48482,60118,71754,83391,95027,106663,118300,118391,118482,118572,118663,118754,118845,118936,119027,119118,119209,119300,119391,119482,119572,119663,119754,119845,119936,120027,120118,120209,120300,120391,120482,120572,120663,120754,120845,120936,121027,121118,121209,121300,121391,121482,121572,121663,121754,121845,121936,122027,122118,122209,122300,122391,122482,122572,122663,122754,122845,122936,123027,123118,123209,123300,123391,123482,123572,123663,123754,123845,123936,124027,124118,124209,124300,124391,124482,124572,124663,124754,124845,124936,125027,125118,125209,125300,125391,125482,125572,125663,125754,125845,125936,126027,126118
DistanceSpacing: 0.6
BeatDivisor: 4
GridSize: 16
TimelineZoom: 1.9

[Metadata]
Title:Roll The Dice
TitleUnicode:Roll The Dice
Artist:lapix
ArtistUnicode:lapix
Creator:Nega
Version:RNG
Source:jubeat clan
Tags:
BeatmapID:2165725
BeatmapSetID:1035887

[Difficulty]
HPDrainRate:4
CircleSize:4
OverallDifficulty:8.5
ApproachRate:9.3
SliderMultiplier:2.35
SliderTickRate:1

[Events]
//Background and Video events
0,0,"BG.jpg",0,0
//Break Periods
//Storyboard Layer 0 (Background)
//Storyboard Layer 1 (Fail)
//Storyboard Layer 2 (Pass)
//Storyboard Layer 3 (Foreground)
//Storyboard Layer 4 (Overlay)
//Storyboard Sound Samples

[TimingPoints]
482,363.636363636364,4,3,6,30,1,0
13572,-90.9090909090909,4,3,6,30,0,0
16118,-76.9230769230769,4,3,6,30,0,0
16300,-111.111111111111,4,3,6,30,0,0
16482,-90.9090909090908,4,3,6,30,0,0
19391,-76.9230769230769,4,3,6,30,0,0
22300,-66.6666666666667,4,3,6,30,0,0
23754,-43.4782608695652,4,3,6,30,0,0
24118,-40,4,3,6,30,0,0
24482,-34.4827586206897,4,3,6,30,0,0
24845,-28.5714285714286,4,3,6,30,0,0
28379,-1000,4,3,6,30,0,0
28724,-28.5714285714286,4,3,6,30,0,0
29118,-1000,4,3,6,30,0,0
29482,-50,4,3,6,30,0,0
29754,-40,4,3,6,30,0,0
29935,-100,4,3,6,30,0,0
31027,-28.5714285714286,4,3,6,30,0,0
34267,-1000,4,3,6,30,0,0
34572,-100,4,3,6,30,0,0
34845,-50,4,3,6,30,0,0
35027,-33.3333333333333,4,3,6,30,0,0
35209,-25,4,3,6,30,0,0

[Colours]
Combo1 : 145,234,238
Combo2 : 236,219,102

[HitObjects]
176,160,482,5,8,3:0:0:0:
144,192,572,1,8,3:0:0:0:
112,116,663,5,8,3:0:0:0:
207,232,754,1,8,3:0:0:0:
64,240,845,1,0,3:0:0:0:
236,27,1027,5,8,3:0:0:0:
268,59,1117,1,8,3:0:0:0:
212,181,1209,5,8,3:0:0:0:
244,149,1299,1,8,3:0:0:0:
168,117,1390,5,8,3:0:0:0:
284,212,1481,1,8,3:0:0:0:
144,256,1572,1,0,3:0:0:0:
288,368,1754,1,8,3:0:0:0:
352,288,1845,1,8,3:0:0:0:
482,314,1936,6,0,B|242:-26|242:-26|32:412|32:412,1,881.25,6|0,3:0|3:0,3:0:0:0:
110,8,3391,6,0,B|128:52|102:92|102:92|-21:261|86:216|110:276,1,293.80875,2|0,3:0|3:0,3:0:0:0:
128,272,3936,1,8,3:0:0:0:
296,274,4118,2,0,L|426:145,1,176.54375,2|2,3:0|3:0,3:0:0:0:
237,321,4482,1,8,3:0:0:0:
468,101,4663,1,2,3:0:0:0:
112,96,4845,5,6,3:0:0:0:
463,222,5027,6,0,B|453:21|276:44|260:84|229:210|229:210|-9:28,1,705.528750000002,6|0,3:0|3:0,3:0:0:0:
64,288,6300,5,0,3:0:0:0:
64,288,6391,1,0,3:0:0:0:
64,288,6482,1,0,3:0:0:0:
64,288,6572,1,0,3:0:0:0:
192,208,6663,5,0,3:0:0:0:
192,208,6754,1,0,3:0:0:0:
192,208,6845,1,0,3:0:0:0:
192,208,6936,1,0,3:0:0:0:
336,112,7027,5,0,3:0:0:0:
336,112,7118,1,0,3:0:0:0:
336,112,7209,1,0,3:0:0:0:
336,112,7300,1,0,3:0:0:0:
448,0,7391,5,0,3:0:0:0:
448,0,7482,1,0,3:0:0:0:
448,0,7572,1,0,3:0:0:0:
448,0,7663,1,0,3:0:0:0:
448,64,7754,5,0,3:0:0:0:
448,128,7845,1,0,3:0:0:0:
448,192,7936,1,0,3:0:0:0:
448,256,8027,1,0,3:0:0:0:
448,320,8118,2,0,L|322:310,1,117.5,2|2,3:0|3:0,3:0:0:0:
40,216,8482,6,0,P|32:172|67:102,1,117.5,2|0,3:0|3:0,3:0:0:0:
120,175,8754,1,2,3:0:0:0:
190,231,8845,6,0,P|210:184|181:108,1,117.5,2|0,3:0|3:0,3:0:0:0:
64,48,9209,5,0,3:0:0:0:
128,48,9300,1,0,3:0:0:0:
192,48,9391,1,0,3:0:0:0:
256,48,9482,1,0,3:0:0:0:
320,48,9572,2,0,L|333:171,1,117.5,2|2,3:0|3:0,3:0:0:0:
96,256,9936,6,0,L|107:390,1,117.5,2|2,3:0|3:0,3:0:0:0:
240,288,10209,1,2,3:0:0:0:
368,240,10300,2,0,L|380:375,1,117.5,2|2,3:0|3:0,3:0:0:0:
448,48,10663,5,0,3:0:0:0:
409,125,10754,1,0,3:0:0:0:
347,191,10845,5,0,3:0:0:0:
257,196,10936,1,0,3:0:0:0:
176,192,11027,5,0,3:0:0:0:
142,262,11118,1,0,3:0:0:0:
80,320,11209,5,0,3:0:0:0:
80,320,11300,1,0,3:0:0:0:
48,240,11391,5,0,3:0:0:0:
48,176,11482,1,0,3:0:0:0:
48,112,11572,1,0,3:0:0:0:
48,48,11663,1,0,3:0:0:0:
128,48,11754,5,0,3:0:0:0:
224,48,11845,1,0,3:0:0:0:
320,48,11936,1,0,3:0:0:0:
416,48,12027,1,0,3:0:0:0:
400,176,12118,5,14,3:0:0:0:
400,176,12300,2,0,L|392:240,4,58.7940625000002,6|2|2|2|0,3:0|3:0|3:0|3:0|3:0,3:0:0:0:
88,65,12845,6,0,L|73:139,1,59.2787500000002,0|0,3:0|3:0,3:0:0:0:
432,128,13027,2,0,L|447:202,1,59.2787500000002,0|0,3:0|3:0,3:0:0:0:
80,224,13209,2,0,L|65:298,1,59.2787500000002,0|0,3:0|3:0,3:0:0:0:
424,287,13391,2,0,L|439:361,1,59.2787500000002,0|0,3:0|3:0,3:0:0:0:
455,350,13572,6,0,P|397:363|368:344,1,58.7500019721987,0|0,3:0|3:0,3:0:0:0:
346,235,13754,1,0,3:0:0:0:
364,224,13845,6,0,P|332:274|298:281,1,65.2066269721987,0|0,3:0|3:0,3:0:0:0:
221,195,14027,1,0,3:0:0:0:
225,174,14118,2,0,P|238:232|219:261,1,65.2066269721987,0|0,3:0|3:0,3:0:0:0:
156,318,14300,5,0,3:0:0:0:
63,314,14391,2,0,L|172:305,1,65.2712519721986,0|0,3:0|3:0,3:0:0:0:
229,351,14572,1,0,3:0:0:0:
323,270,14663,5,0,3:0:0:0:
327,232,14754,1,0,3:0:0:0:
310,146,14845,2,0,P|314:115|339:84,1,65.2712519721986,0|0,3:0|3:0,3:0:0:0:
389,176,15027,6,0,P|407:150|412:118,1,65.2712519721986,0|0,3:0|3:0,3:0:0:0:
232,186,15209,1,0,3:0:0:0:
223,208,15300,6,0,P|203:174|201:139,1,65.2712519721986,0|0,3:0|3:0,3:0:0:0:
477,208,15482,1,0,3:0:0:0:
501,107,15572,2,0,P|495:75|477:48,1,65.2712519721986,0|0,3:0|3:0,3:0:0:0:
296,278,15754,5,0,3:0:0:0:
387,296,15845,2,0,L|305:301,1,65.2712519721986,0|0,3:0|3:0,3:0:0:0:
225,351,16027,1,0,3:0:0:0:
104,166,16118,6,0,L|124:278,1,81.0926215038302,0|0,3:0|3:0,3:0:0:0:
131,260,16300,2,0,L|123:201,1,53.4037483863832,0|0,3:0|3:0,3:0:0:0:
66,83,16482,6,0,P|112:45|146:50,1,58.7500019721987,0|0,3:0|3:0,3:0:0:0:
214,138,16664,1,0,3:0:0:0:
203,156,16755,6,0,P|209:97|237:75,1,65.2066269721987,0|0,3:0|3:0,3:0:0:0:
344,119,16937,1,0,3:0:0:0:
349,140,17028,2,0,P|311:93|316:59,1,65.2066269721987,0|0,3:0|3:0,3:0:0:0:
385,32,17209,5,0,0:0:0:0:
479,58,17300,2,0,L|381:51,1,64.6250019721985
309,0,17482,1,0,0:0:0:0:
236,83,17572,5,0,0:0:0:0:
240,125,17663,1,0,0:0:0:0:
183,193,17754,2,0,P|169:222|175:268,1,64.6250019721985
272,205,17936,6,0,P|272:237|258:266,1,64.6250019721985
96,317,18118,1,0,0:0:0:0:
79,308,18209,6,0,P|81:345|110:378,1,64.6250019721985
325,370,18391,1,0,0:0:0:0:
361,243,18482,2,0,P|377:270|378:302,1,64.6250019721985
229,347,18663,5,0,0:0:0:0:
224,263,18754,1,0,0:0:0:0:
175,193,18845,1,0,0:0:0:0:
183,162,18936,1,0,0:0:0:0:
168,80,19027,5,0,0:0:0:0:
156,66,19209,1,0,0:0:0:0:
293,85,19300,1,0,0:0:0:0:
375,76,19391,6,0,P|335:97|319:160,1,76.3749965038301
326,141,19572,1,0,0:0:0:0:
168,128,19754,5,0,0:0:0:0:
185,248,19845,2,0,P|205:198|172:206,1,76.3749965038301
197,200,20027,1,0,0:0:0:0:
446,145,20118,5,0,0:0:0:0:
329,252,20209,2,0,P|322:286|381:320,1,76.3749965038301
360,320,20391,1,0,0:0:0:0:
171,210,20482,5,0,0:0:0:0:
63,338,20572,2,0,P|85:310|134:311,1,76.3749965038301
136,325,20754,1,0,0:0:0:0:
127,343,20845,5,0,0:0:0:0:
178,349,20936,1,0,0:0:0:0:
219,374,21027,2,0,P|264:365|308:370,1,76.3749965038301
375,254,21209,5,0,0:0:0:0:
325,264,21300,1,0,0:0:0:0:
280,292,21391,2,0,P|237:278|175:274,1,76.3749965038301
77,156,21572,5,0,0:0:0:0:
130,172,21663,1,0,0:0:0:0:
178,205,21754,2,0,P|230:189|301:201,1,76.3749965038301
467,78,21936,5,0,0:0:0:0:
407,91,22027,1,0,0:0:0:0:
359,131,22118,2,0,P|315:115|233:123,1,76.3749965038301
57,36,22300,5,0,0:0:0:0:
138,59,22391,1,0,0:0:0:0:
221,66,22482,2,0,L|342:50,1,88.1250033617021
129,275,22663,1,0,0:0:0:0:
199,237,22754,1,0,0:0:0:0:
281,225,22845,2,0,L|419:236,1,88.1250033617021
478,311,23027,5,0,0:0:0:0:
400,353,23118,1,0,0:0:0:0:
312,340,23209,1,0,0:0:0:0:
273,260,23300,1,0,0:0:0:0:
336,152,23391,5,0,0:0:0:0:
311,67,23482,1,0,0:0:0:0:
248,35,23572,1,0,0:0:0:0:
195,43,23663,1,0,0:0:0:0:
182,57,23754,6,0,L|345:48,1,135.125002577305
186,138,23936,2,0,L|349:129,1,135.125002577305
90,321,24118,6,0,L|277:334,1,146.875
96,239,24300,2,0,L|283:252,1,146.875
252,266,24482,6,0,P|304:302|259:183,1,340.750010398865
82,80,24845,6,0,B|18:135|18:135|152:110|152:110|162:113|162:113|236:99|236:99|243:94|243:94|323:76|323:76|331:78|331:78|403:62|403:62|347:303,1,616.875005882978
409,36,25209,6,0,L|90:325,1,411.250003921986
103,36,25572,6,0,L|421:325,1,411.250003921986
409,36,25937,6,0,L|90:325,1,411.250003921986
103,36,26301,6,0,L|421:325,1,411.250003921986
407,312,26664,6,0,L|88:22,1,411.250003921986
101,312,27028,6,0,L|419:22,1,411.250003921986
407,312,27392,6,0,L|88:22,1,411.250003921986
101,312,27755,6,0,L|419:22,1,411.250003921986
21,216,28118,6,0,B|256:49|256:49|256:225,1,411.250003921986
256,224,28482,2,0,L|256:238,1,11.75
491,216,28844,6,0,B|256:49|256:49|256:225,1,411.250003921986
256,224,29208,2,0,L|256:238,1,11.75
96,64,29572,6,0,L|96:208,1,117.5
256,64,29755,2,0,L|256:224,1,146.875
448,48,29937,2,0,L|448:240,1,176.250006723404
364,270,30300,6,0,L|364:334,1,58.75
234,271,30482,2,0,L|208:329,1,58.75
139,176,30663,2,0,L|99:226,1,58.75
64,49,30845,2,0,L|8:80,1,58.75
460,194,31028,6,0,L|30:173,1,411.250003921986
52,194,31391,6,0,L|481:173,1,411.250003921986
460,194,31754,6,0,L|30:173,1,411.250003921986
49,209,32117,6,0,L|460:190,1,411.250003921986
112,0,32482,6,0,L|74:394,1,411.250003921986
400,0,32845,6,0,L|438:394,1,411.250003921986
67,384,33209,6,0,L|45:-33,1,411.250003921986
445,384,33572,6,0,L|467:-33,1,411.250003921986
491,216,33936,6,0,B|256:49|256:49|256:225,1,411.250003921986
256,224,34300,2,0,L|256:238,1,11.75
144,96,34663,6,0,L|215:167,1,58.75
368,288,34846,6,0,L|209:129,1,117.5
144,96,35028,6,0,L|325:277,1,176.250006723404
368,288,35210,6,0,L|164:84,1,235
206,296,35391,5,0,0:0:0:0:
129,241,35482,1,0,0:0:0:0:
129,143,35662,5,0,0:0:0:0:
206,88,35753,1,0,0:0:0:0:
306,88,35936,5,0,0:0:0:0:
383,143,36027,1,0,0:0:0:0:
369,242,36118,5,0,0:0:0:0:
341,312,36210,1,0,0:0:0:0:
308,245,36300,1,0,0:0:0:0:
282,306,36392,1,0,0:0:0:0:
250,252,36482,1,0,0:0:0:0:
225,301,36573,1,0,0:0:0:0:
198,251,36664,1,0,0:0:0:0:
170,288,36755,1,0,0:0:0:0:
