osu file format v14

[General]
AudioFilename: audio.mp3
AudioLeadIn: 0
PreviewTime: 66932
Countdown: 0
SampleSet: Normal
StackLeniency: 0.7
Mode: 1
LetterboxInBreaks: 0
WidescreenStoryboard: 0

[Editor]
DistanceSpacing: 0.5
BeatDivisor: 4
GridSize: 4
TimelineZoom: 0.9

[Metadata]
Title:Nothing but Theory
TitleUnicode:Nothing but Theory
Artist:lapix
ArtistUnicode:lapix
Creator:Charlotte
Version:Kantan
Source:beatmania IIDX 25 CANNON BALLERS
Tags:konami bemani 2dx video game japanese electronic instrumental ost original soundtrack ULTRA JAZZFUNKTION ayyri eiri- genjuro
BeatmapID:2310545
BeatmapSetID:872870

[Difficulty]
HPDrainRate:8
CircleSize:5
OverallDifficulty:3
ApproachRate:5
SliderMultiplier:1.4
SliderTickRate:1

[Events]
//Background and Video events
0,0,"bg2.jpg",0,0
//Break Periods
//Storyboard Layer 0 (Background)
//Storyboard Layer 1 (Fail)
//Storyboard Layer 2 (Pass)
//Storyboard Layer 3 (Foreground)
//Storyboard Layer 4 (Overlay)
//Storyboard Sound Samples

[TimingPoints]
1026,375,4,1,0,100,1,0
67026,-100,4,1,0,100,0,1
79026,-100,4,1,0,100,0,0
91026,-100,4,1,0,100,0,1
101526,-100,4,1,0,100,0,0
103026,-100,4,1,0,100,0,1
109026,-100,4,1,0,100,0,0
109401,-100,4,1,0,100,0,1
115026,-100,4,1,0,100,0,0

[HitObjects]
255,193,1026,5,4,0:0:0:0:
255,193,1776,1,4,0:0:0:0:
255,193,2526,1,8,0:0:0:0:
255,193,4026,1,4,0:0:0:0:
255,193,4776,1,8,0:0:0:0:
255,193,5526,1,0,0:0:0:0:
255,193,6276,1,0,0:0:0:0:
255,193,6651,1,8,0:0:0:0:
255,193,7026,1,0,0:0:0:0:
255,193,7776,1,8,0:0:0:0:
255,193,8526,1,0,0:0:0:0:
255,193,9276,1,0,0:0:0:0:
255,193,9651,1,8,0:0:0:0:
255,193,10026,1,4,0:0:0:0:
255,193,10776,1,0,0:0:0:0:
255,193,11526,1,8,0:0:0:0:
255,193,12276,1,8,0:0:0:0:
255,193,13026,1,0,0:0:0:0:
255,193,13401,1,8,0:0:0:0:
255,193,13776,1,0,0:0:0:0:
255,193,14151,1,8,0:0:0:0:
255,193,14526,1,0,0:0:0:0:
255,193,15276,1,8,0:0:0:0:
255,193,15651,1,8,0:0:0:0:
255,193,16026,1,4,0:0:0:0:
255,193,17151,1,12,0:0:0:0:
255,193,19026,1,0,0:0:0:0:
255,193,19776,1,0,0:0:0:0:
255,193,20526,1,8,0:0:0:0:
255,193,20901,1,8,0:0:0:0:
255,193,21276,1,0,0:0:0:0:
255,193,22026,1,8,0:0:0:0:
255,193,22401,1,8,0:0:0:0:
255,193,22776,1,0,0:0:0:0:
255,193,23151,1,8,0:0:0:0:
255,193,23526,1,8,0:0:0:0:
255,193,24276,1,0,0:0:0:0:
255,193,24651,1,0,0:0:0:0:
255,193,25026,1,12,0:0:0:0:
255,193,25776,1,0,0:0:0:0:
255,193,26526,1,8,0:0:0:0:
255,193,26901,1,8,0:0:0:0:
255,193,27276,1,8,0:0:0:0:
255,193,28026,1,8,0:0:0:0:
255,193,28401,1,0,0:0:0:0:
255,193,28776,1,8,0:0:0:0:
255,193,29151,1,0,0:0:0:0:
255,193,29526,1,8,0:0:0:0:
255,193,31026,1,12,0:0:0:0:
255,193,31588,1,0,0:0:0:0:
255,193,32151,1,0,0:0:0:0:
255,193,32526,1,8,0:0:0:0:
255,193,33088,1,0,0:0:0:0:
255,193,33651,1,0,0:0:0:0:
255,193,34026,1,8,0:0:0:0:
255,193,34401,1,8,0:0:0:0:
255,193,34776,1,0,0:0:0:0:
255,193,35526,1,8,0:0:0:0:
255,193,36276,1,8,0:0:0:0:
255,193,36651,1,8,0:0:0:0:
255,193,37026,1,4,0:0:0:0:
255,193,37588,1,8,0:0:0:0:
255,193,38151,1,8,0:0:0:0:
255,193,38526,1,0,0:0:0:0:
255,193,38901,1,0,0:0:0:0:
255,193,39276,1,8,0:0:0:0:
255,193,40026,1,0,0:0:0:0:
255,193,40776,1,8,0:0:0:0:
255,193,41151,1,0,0:0:0:0:
255,193,41526,1,8,0:0:0:0:
255,193,43026,1,4,0:0:0:0:
255,193,43776,1,0,0:0:0:0:
255,193,44526,1,0,0:0:0:0:
255,193,44901,1,0,0:0:0:0:
255,193,45276,1,0,0:0:0:0:
255,193,46026,1,0,0:0:0:0:
255,193,46776,1,0,0:0:0:0:
255,193,47526,1,0,0:0:0:0:
255,193,47901,1,0,0:0:0:0:
255,193,48276,1,0,0:0:0:0:
255,193,49026,1,4,0:0:0:0:
255,193,49776,1,8,0:0:0:0:
255,193,50526,1,0,0:0:0:0:
255,193,50901,1,8,0:0:0:0:
255,193,51276,1,0,0:0:0:0:
255,193,52026,1,0,0:0:0:0:
255,193,52776,1,8,0:0:0:0:
255,193,53526,1,0,0:0:0:0:
255,193,55026,1,4,0:0:0:0:
255,193,55776,1,8,0:0:0:0:
255,193,56526,1,8,0:0:0:0:
255,193,56901,1,8,0:0:0:0:
255,193,57276,1,8,0:0:0:0:
255,193,58026,1,0,0:0:0:0:
255,193,58776,1,8,0:0:0:0:
255,193,59526,1,8,0:0:0:0:
255,193,59901,1,8,0:0:0:0:
255,193,60276,1,8,0:0:0:0:
255,193,61026,1,0,0:0:0:0:
255,193,61776,1,8,0:0:0:0:
255,193,62526,1,8,0:0:0:0:
255,193,62901,1,8,0:0:0:0:
255,193,63276,1,8,0:0:0:0:
255,193,63651,1,8,0:0:0:0:
255,193,64026,1,0,0:0:0:0:
255,193,64776,1,8,0:0:0:0:
255,193,65526,1,0,0:0:0:0:
255,193,67026,1,4,0:0:0:0:
255,193,67776,1,8,0:0:0:0:
255,193,68526,1,0,0:0:0:0:
255,193,68901,1,8,0:0:0:0:
255,193,69276,1,0,0:0:0:0:
255,193,69651,1,8,0:0:0:0:
255,193,70026,1,0,0:0:0:0:
255,193,70776,1,8,0:0:0:0:
255,193,71526,1,8,0:0:0:0:
255,193,71901,1,0,0:0:0:0:
255,193,72276,1,8,0:0:0:0:
255,193,72651,1,8,0:0:0:0:
255,193,73026,1,4,0:0:0:0:
255,193,73776,1,8,0:0:0:0:
255,193,74526,1,0,0:0:0:0:
255,193,74901,1,8,0:0:0:0:
255,193,75276,1,0,0:0:0:0:
255,193,75651,1,8,0:0:0:0:
255,193,76026,1,0,0:0:0:0:
255,193,76776,1,8,0:0:0:0:
255,193,77526,1,8,0:0:0:0:
255,193,77901,1,8,0:0:0:0:
255,193,78276,1,0,0:0:0:0:
255,193,78651,1,8,0:0:0:0:
255,193,79026,1,0,0:0:0:0:
255,193,80151,1,0,0:0:0:0:
255,193,80526,1,8,0:0:0:0:
255,193,81276,1,8,0:0:0:0:
255,193,81651,1,8,0:0:0:0:
255,193,82026,1,0,0:0:0:0:
255,193,82776,1,8,0:0:0:0:
255,193,83526,1,0,0:0:0:0:
255,193,83901,1,0,0:0:0:0:
255,193,84276,1,8,0:0:0:0:
255,193,84651,1,8,0:0:0:0:
255,193,85026,1,0,0:0:0:0:
255,193,85776,1,0,0:0:0:0:
255,193,86526,1,0,0:0:0:0:
255,193,88026,1,8,0:0:0:0:
255,193,88776,1,8,0:0:0:0:
255,193,89526,1,8,0:0:0:0:
255,193,89901,1,0,0:0:0:0:
255,193,90276,1,8,0:0:0:0:
255,193,91026,1,4,0:0:0:0:
255,193,91776,1,8,0:0:0:0:
255,193,92526,1,0,0:0:0:0:
255,193,92901,1,8,0:0:0:0:
255,193,93276,1,0,0:0:0:0:
255,193,94026,1,8,0:0:0:0:
255,193,94776,1,0,0:0:0:0:
255,193,95526,1,0,0:0:0:0:
255,193,95901,1,8,0:0:0:0:
187,176,96276,1,8,0:0:0:0:
255,193,96651,1,8,0:0:0:0:
255,193,97026,1,0,0:0:0:0:
255,193,97776,1,8,0:0:0:0:
255,193,98526,1,0,0:0:0:0:
255,193,98901,1,0,0:0:0:0:
255,193,99276,1,8,0:0:0:0:
255,193,100026,1,8,0:0:0:0:
255,193,100401,1,8,0:0:0:0:
255,193,100776,1,0,0:0:0:0:
255,193,101151,1,0,0:0:0:0:
255,193,101526,1,8,0:0:0:0:
255,193,102651,1,8,0:0:0:0:
255,193,103026,1,0,0:0:0:0:
255,193,103776,1,8,0:0:0:0:
255,193,104526,1,0,0:0:0:0:
255,193,104901,1,8,0:0:0:0:
255,193,105276,1,0,0:0:0:0:
255,193,106026,1,8,0:0:0:0:
255,193,106776,1,8,0:0:0:0:
255,193,107526,1,8,0:0:0:0:
255,193,107901,1,8,0:0:0:0:
255,193,108276,1,8,0:0:0:0:
255,193,108651,1,8,0:0:0:0:
255,193,109026,1,0,0:0:0:0:
255,193,109401,1,8,0:0:0:0:
255,193,110151,1,8,0:0:0:0:
255,193,110713,1,0,0:0:0:0:
255,193,111088,1,0,0:0:0:0:
255,193,111463,1,0,0:0:0:0:
255,193,112026,1,8,0:0:0:0:
255,193,112401,1,8,0:0:0:0:
255,193,112776,1,0,0:0:0:0:
255,193,113151,1,0,0:0:0:0:
255,193,113526,1,8,0:0:0:0:
255,193,115026,1,4,0:0:0:0:
255,193,115776,1,4,0:0:0:0:
255,193,116526,1,8,0:0:0:0:
255,193,116901,1,0,0:0:0:0:
255,193,117276,1,8,0:0:0:0:
255,193,117651,1,8,0:0:0:0:
255,193,118026,1,4,0:0:0:0:
255,193,119151,1,12,0:0:0:0:
255,193,121401,1,12,0:0:0:0:
