osu file format v14

[General]
AudioFilename: audio.mp3
AudioLeadIn: 0
PreviewTime: 66932
Countdown: 0
SampleSet: Normal
StackLeniency: 0.7
Mode: 1
LetterboxInBreaks: 0
WidescreenStoryboard: 0

[Editor]
DistanceSpacing: 0.5
BeatDivisor: 4
GridSize: 4
TimelineZoom: 2.1

[Metadata]
Title:Nothing but Theory
TitleUnicode:Nothing but Theory
Artist:lapix
ArtistUnicode:lapix
Creator:Charlotte
Version:Inner Oni
Source:beatmania IIDX 25 CANNON BALLERS
Tags:konami bemani 2dx video game japanese electronic instrumental ost original soundtrack ULTRA JAZZFUNKTION ayyri eiri- genjuro
BeatmapID:1824637
BeatmapSetID:872870

[Difficulty]
HPDrainRate:6
CircleSize:5
OverallDifficulty:6
ApproachRate:5
SliderMultiplier:1.4
SliderTickRate:1

[Events]
//Background and Video events
0,0,"bg2.jpg",0,0
//Break Periods
//Storyboard Layer 0 (Background)
//Storyboard Layer 1 (Fail)
//Storyboard Layer 2 (Pass)
//Storyboard Layer 3 (Foreground)
//Storyboard Layer 4 (Overlay)
//Storyboard Sound Samples

[TimingPoints]
1026,375,4,1,0,100,1,0
67026,-100,4,1,0,100,0,1
79026,-100,4,1,0,100,0,0
91026,-100,4,1,0,100,0,1
101526,-100,4,1,0,100,0,0
103026,-100,4,1,0,100,0,1
109026,-100,4,1,0,100,0,0
109401,-100,4,1,0,100,0,1
115026,-100,4,1,0,100,0,0

[HitObjects]
255,193,1026,5,4,0:0:0:0:
255,193,1401,1,8,0:0:0:0:
255,193,1494,1,0,0:0:0:0:
255,193,1588,1,8,0:0:0:0:
255,193,1682,1,8,0:0:0:0:
255,193,1776,1,0,0:0:0:0:
255,193,2151,1,0,0:0:0:0:
255,193,2244,1,8,0:0:0:0:
255,193,2338,1,0,0:0:0:0:
255,193,2432,1,0,0:0:0:0:
255,193,2526,1,8,0:0:0:0:
255,193,2619,1,8,0:0:0:0:
255,193,2713,1,0,0:0:0:0:
255,193,2807,1,0,0:0:0:0:
255,193,2901,1,8,0:0:0:0:
255,193,2994,1,0,0:0:0:0:
255,193,3088,1,8,0:0:0:0:
255,193,3182,1,8,0:0:0:0:
255,193,3276,1,0,0:0:0:0:
255,193,3463,1,8,0:0:0:0:
255,193,3651,1,4,0:0:0:0:
255,193,4026,1,4,0:0:0:0:
255,193,4213,1,8,0:0:0:0:
255,193,4401,1,0,0:0:0:0:
255,193,4494,1,8,0:0:0:0:
255,193,4682,1,0,0:0:0:0:
255,193,4869,1,8,0:0:0:0:
255,193,5057,1,0,0:0:0:0:
255,193,5151,1,8,0:0:0:0:
255,193,5338,1,8,0:0:0:0:
255,193,5401,1,8,0:0:0:0:
255,193,5463,1,8,0:0:0:0:
255,193,5526,1,0,0:0:0:0:
255,193,5713,1,8,0:0:0:0:
255,193,5901,1,0,0:0:0:0:
255,193,5994,1,8,0:0:0:0:
255,193,6088,1,0,0:0:0:0:
255,193,6182,1,0,0:0:0:0:
255,193,6276,1,0,0:0:0:0:
255,193,6369,1,8,0:0:0:0:
255,193,6557,1,0,0:0:0:0:
255,193,6651,1,8,0:0:0:0:
255,193,6713,1,0,0:0:0:0:
255,193,6776,1,0,0:0:0:0:
255,193,6838,1,8,0:0:0:0:
255,193,7026,1,0,0:0:0:0:
255,193,7213,1,8,0:0:0:0:
255,193,7401,1,0,0:0:0:0:
255,193,7494,1,8,0:0:0:0:
255,193,7682,1,0,0:0:0:0:
255,193,7869,1,8,0:0:0:0:
255,193,8057,1,0,0:0:0:0:
255,193,8151,1,8,0:0:0:0:
255,193,8338,1,8,0:0:0:0:
255,193,8401,1,8,0:0:0:0:
255,193,8463,1,8,0:0:0:0:
255,193,8526,1,0,0:0:0:0:
255,193,8713,1,8,0:0:0:0:
255,193,8901,1,0,0:0:0:0:
255,193,8994,1,8,0:0:0:0:
255,193,9088,1,8,0:0:0:0:
255,193,9182,1,0,0:0:0:0:
255,193,9276,1,8,0:0:0:0:
255,193,9463,1,0,0:0:0:0:
255,193,9557,1,0,0:0:0:0:
255,193,9651,1,8,0:0:0:0:
255,193,10026,1,4,0:0:0:0:
255,193,10213,1,8,0:0:0:0:
255,193,10307,1,0,0:0:0:0:
255,193,10401,1,0,0:0:0:0:
255,193,10494,1,0,0:0:0:0:
255,193,10588,1,8,0:0:0:0:
255,193,10682,1,8,0:0:0:0:
255,193,10776,1,0,0:0:0:0:
255,193,10869,1,0,0:0:0:0:
255,193,10963,1,8,0:0:0:0:
255,193,11057,1,0,0:0:0:0:
255,193,11151,1,8,0:0:0:0:
255,193,11244,1,8,0:0:0:0:
255,193,11338,1,0,0:0:0:0:
255,193,11432,1,0,0:0:0:0:
255,193,11526,1,8,0:0:0:0:
255,193,11713,1,0,0:0:0:0:
255,193,11807,1,8,0:0:0:0:
255,193,11994,1,0,0:0:0:0:
255,193,12182,1,8,0:0:0:0:
255,193,12276,1,0,0:0:0:0:
255,193,12369,1,0,0:0:0:0:
255,193,12463,1,8,0:0:0:0:
255,193,12557,1,8,0:0:0:0:
255,193,12651,1,0,0:0:0:0:
255,193,12838,1,8,0:0:0:0:
255,193,13026,1,0,0:0:0:0:
255,193,13213,1,0,0:0:0:0:
255,193,13307,1,0,0:0:0:0:
255,193,13401,1,8,0:0:0:0:
255,193,13588,1,0,0:0:0:0:
255,193,13682,1,8,0:0:0:0:
255,193,13869,1,8,0:0:0:0:
255,193,14057,1,8,0:0:0:0:
255,193,14244,1,8,0:0:0:0:
255,193,14432,1,8,0:0:0:0:
255,193,14526,1,0,0:0:0:0:
255,193,14713,1,0,0:0:0:0:
255,193,14807,1,0,0:0:0:0:
255,193,14901,1,8,0:0:0:0:
255,193,14994,1,8,0:0:0:0:
255,193,15088,1,0,0:0:0:0:
255,193,15182,1,0,0:0:0:0:
255,193,15276,1,8,0:0:0:0:
255,193,15369,1,0,0:0:0:0:
255,193,15463,1,0,0:0:0:0:
255,193,15557,1,0,0:0:0:0:
255,193,15651,1,8,0:0:0:0:
255,193,15838,1,0,0:0:0:0:
255,193,16026,1,12,0:0:0:0:
255,193,16307,1,4,0:0:0:0:
255,193,16588,1,4,0:0:0:0:
255,193,16869,1,8,0:0:0:0:
255,193,17151,1,4,0:0:0:0:
255,193,17432,1,4,0:0:0:0:
255,193,17713,1,12,0:0:0:0:
255,193,18276,1,8,0:0:0:0:
255,193,18338,1,8,0:0:0:0:
255,193,18401,1,8,0:0:0:0:
255,193,18463,1,0,0:0:0:0:
255,193,18557,1,0,0:0:0:0:
255,193,18651,1,8,0:0:0:0:
255,193,18744,1,8,0:0:0:0:
255,193,18838,1,0,0:0:0:0:
255,193,19026,1,12,0:0:0:0:
255,193,19213,1,0,0:0:0:0:
255,193,19401,1,0,0:0:0:0:
255,193,19494,1,8,0:0:0:0:
255,193,19682,1,8,0:0:0:0:
255,193,19776,1,0,0:0:0:0:
255,193,19869,1,0,0:0:0:0:
255,193,19963,1,8,0:0:0:0:
255,193,20057,1,0,0:0:0:0:
255,193,20244,1,0,0:0:0:0:
255,193,20338,1,8,0:0:0:0:
255,193,20432,1,8,0:0:0:0:
255,193,20526,1,0,0:0:0:0:
255,193,20619,1,8,0:0:0:0:
255,193,20713,1,0,0:0:0:0:
255,193,20807,1,0,0:0:0:0:
255,193,20901,1,8,0:0:0:0:
255,193,20994,1,8,0:0:0:0:
255,193,21182,1,0,0:0:0:0:
255,193,21369,1,0,0:0:0:0:
255,193,21463,1,0,0:0:0:0:
255,193,21557,1,8,0:0:0:0:
255,193,21651,1,0,0:0:0:0:
255,193,21744,1,0,0:0:0:0:
255,193,21838,1,8,0:0:0:0:
255,193,21932,1,0,0:0:0:0:
255,193,22026,1,8,0:0:0:0:
255,193,22213,1,0,0:0:0:0:
255,193,22401,1,0,0:0:0:0:
255,193,22494,1,8,0:0:0:0:
255,193,22588,1,0,0:0:0:0:
255,193,22682,1,0,0:0:0:0:
255,193,22776,1,8,0:0:0:0:
255,193,22869,1,8,0:0:0:0:
255,193,22963,1,0,0:0:0:0:
255,193,23151,1,8,0:0:0:0:
255,193,23338,1,0,0:0:0:0:
255,193,23432,1,0,0:0:0:0:
255,193,23526,1,8,0:0:0:0:
255,193,23713,1,8,0:0:0:0:
255,193,23807,1,0,0:0:0:0:
255,193,23994,1,0,0:0:0:0:
255,193,24088,1,8,0:0:0:0:
255,193,24276,1,0,0:0:0:0:
255,193,24557,1,0,0:0:0:0:
255,193,24651,1,8,0:0:0:0:
255,193,24838,1,0,0:0:0:0:
255,193,25026,1,12,0:0:0:0:
255,193,25307,1,8,0:0:0:0:
255,193,25401,1,0,0:0:0:0:
255,193,25588,1,8,0:0:0:0:
255,193,25776,1,0,0:0:0:0:
255,193,25963,1,0,0:0:0:0:
255,193,26057,1,8,0:0:0:0:
255,193,26151,1,0,0:0:0:0:
255,193,26244,1,0,0:0:0:0:
255,193,26338,1,8,0:0:0:0:
255,193,26526,1,0,0:0:0:0:
255,193,26713,1,8,0:0:0:0:
255,193,26807,1,8,0:0:0:0:
255,193,26901,1,0,0:0:0:0:
255,193,26994,1,8,0:0:0:0:
255,193,27088,1,0,0:0:0:0:
255,193,27182,1,0,0:0:0:0:
255,193,27276,1,8,0:0:0:0:
255,193,27369,1,0,0:0:0:0:
255,193,27463,1,0,0:0:0:0:
255,193,27557,1,8,0:0:0:0:
255,193,27651,1,0,0:0:0:0:
255,193,27744,1,8,0:0:0:0:
255,193,27838,1,8,0:0:0:0:
255,193,28026,1,8,0:0:0:0:
255,193,28119,1,0,0:0:0:0:
255,193,28213,1,0,0:0:0:0:
255,193,28307,1,8,0:0:0:0:
255,193,28401,1,0,0:0:0:0:
255,193,28494,1,8,0:0:0:0:
255,193,28588,1,8,0:0:0:0:
255,193,28682,1,0,0:0:0:0:
255,193,28776,1,8,0:0:0:0:
255,193,28869,1,0,0:0:0:0:
255,193,28963,1,0,0:0:0:0:
255,193,29057,1,8,0:0:0:0:
255,193,29151,1,0,0:0:0:0:
255,193,29213,1,0,0:0:0:0:
255,193,29276,1,0,0:0:0:0:
255,193,29338,1,8,0:0:0:0:
255,193,29526,1,8,0:0:0:0:
255,193,29619,1,0,0:0:0:0:
255,193,29807,1,0,0:0:0:0:
255,193,29994,1,0,0:0:0:0:
255,193,30182,1,0,0:0:0:0:
255,193,30463,1,8,0:0:0:0:
255,193,30651,1,8,0:0:0:0:
255,193,31026,1,12,0:0:0:0:
255,193,31213,1,8,0:0:0:0:
255,193,31401,1,0,0:0:0:0:
255,193,31588,1,0,0:0:0:0:
255,193,31682,1,8,0:0:0:0:
255,193,31869,1,8,0:0:0:0:
255,193,31963,1,8,0:0:0:0:
255,193,32151,1,0,0:0:0:0:
255,193,32244,1,8,0:0:0:0:
255,193,32338,1,0,0:0:0:0:
255,193,32432,1,0,0:0:0:0:
255,193,32526,1,8,0:0:0:0:
255,193,32713,1,8,0:0:0:0:
255,193,32807,1,0,0:0:0:0:
255,193,32994,1,0,0:0:0:0:
255,193,33088,1,8,0:0:0:0:
255,193,33276,1,0,0:0:0:0:
255,193,33463,1,8,0:0:0:0:
255,193,33557,1,8,0:0:0:0:
255,193,33651,1,0,0:0:0:0:
255,193,33744,1,8,0:0:0:0:
255,193,33838,1,0,0:0:0:0:
255,193,33932,1,0,0:0:0:0:
255,193,34026,1,8,0:0:0:0:
255,193,34213,1,0,0:0:0:0:
255,193,34401,1,8,0:0:0:0:
255,193,34588,1,0,0:0:0:0:
255,193,34682,1,8,0:0:0:0:
255,193,34869,1,8,0:0:0:0:
255,193,34963,1,0,0:0:0:0:
255,193,35057,1,0,0:0:0:0:
255,193,35151,1,8,0:0:0:0:
255,193,35338,1,0,0:0:0:0:
255,193,35526,1,8,0:0:0:0:
255,193,35713,1,0,0:0:0:0:
255,193,35807,1,0,0:0:0:0:
255,193,35901,1,8,0:0:0:0:
255,193,35994,1,0,0:0:0:0:
255,193,36182,1,0,0:0:0:0:
255,193,36276,1,8,0:0:0:0:
255,193,36369,1,0,0:0:0:0:
255,193,36463,1,8,0:0:0:0:
255,193,36557,1,8,0:0:0:0:
255,193,36651,1,0,0:0:0:0:
255,193,36838,1,8,0:0:0:0:
255,193,37026,1,4,0:0:0:0:
255,193,37307,1,0,0:0:0:0:
255,193,37401,1,8,0:0:0:0:
255,193,37588,1,0,0:0:0:0:
255,193,37776,1,8,0:0:0:0:
255,193,37963,1,0,0:0:0:0:
255,193,38057,1,8,0:0:0:0:
255,193,38151,1,0,0:0:0:0:
255,193,38338,1,8,0:0:0:0:
255,193,38526,1,0,0:0:0:0:
255,193,38713,1,8,0:0:0:0:
255,193,38807,1,0,0:0:0:0:
255,193,38994,1,0,0:0:0:0:
255,193,39088,1,8,0:0:0:0:
255,193,39276,1,0,0:0:0:0:
255,193,39463,1,8,0:0:0:0:
255,193,39557,1,8,0:0:0:0:
255,193,39651,1,0,0:0:0:0:
255,193,39838,1,8,0:0:0:0:
255,193,40026,1,0,0:0:0:0:
255,193,40213,1,8,0:0:0:0:
255,193,40401,1,8,0:0:0:0:
255,193,40494,1,0,0:0:0:0:
255,193,40588,1,8,0:0:0:0:
255,193,40682,1,8,0:0:0:0:
255,193,40776,1,0,0:0:0:0:
255,193,40869,1,0,0:0:0:0:
255,193,40963,1,8,0:0:0:0:
255,193,41057,1,0,0:0:0:0:
255,193,41151,1,8,0:0:0:0:
255,193,41244,1,8,0:0:0:0:
255,193,41338,1,0,0:0:0:0:
255,193,41432,1,0,0:0:0:0:
255,193,41526,1,8,0:0:0:0:
255,193,41619,1,8,0:0:0:0:
255,193,41713,1,8,0:0:0:0:
255,193,41807,1,8,0:0:0:0:
255,193,41901,1,0,0:0:0:0:
255,193,41994,1,8,0:0:0:0:
255,193,42088,1,8,0:0:0:0:
255,193,42276,1,0,0:0:0:0:
255,193,42369,1,8,0:0:0:0:
255,193,42463,1,0,0:0:0:0:
255,193,42557,1,8,0:0:0:0:
255,193,42651,1,0,0:0:0:0:
255,193,43026,1,4,0:0:0:0:
255,193,43401,1,8,0:0:0:0:
255,193,43776,1,0,0:0:0:0:
255,193,43869,1,8,0:0:0:0:
255,193,44057,1,0,0:0:0:0:
255,193,44244,1,0,0:0:0:0:
255,193,44432,1,8,0:0:0:0:
255,193,44526,1,0,0:0:0:0:
255,193,44713,1,8,0:0:0:0:
255,193,44901,1,0,0:0:0:0:
255,193,44994,1,8,0:0:0:0:
255,193,45182,1,8,0:0:0:0:
255,193,45276,1,0,0:0:0:0:
255,193,45369,1,8,0:0:0:0:
255,193,45463,1,8,0:0:0:0:
255,193,45557,1,0,0:0:0:0:
255,193,45651,1,8,0:0:0:0:
255,193,45744,1,0,0:0:0:0:
255,193,45838,1,8,0:0:0:0:
255,193,45932,1,8,0:0:0:0:
255,193,46026,1,0,0:0:0:0:
255,193,46401,1,8,0:0:0:0:
255,193,46776,1,0,0:0:0:0:
255,193,46869,1,8,0:0:0:0:
255,193,47057,1,0,0:0:0:0:
255,193,47244,1,0,0:0:0:0:
255,193,47432,1,8,0:0:0:0:
255,193,47526,1,0,0:0:0:0:
255,193,47713,1,8,0:0:0:0:
255,193,47901,1,0,0:0:0:0:
255,193,47994,1,8,0:0:0:0:
255,193,48182,1,8,0:0:0:0:
255,193,48276,1,0,0:0:0:0:
255,193,48369,1,8,0:0:0:0:
255,193,48557,1,0,0:0:0:0:
255,193,48651,1,8,0:0:0:0:
255,193,48744,1,8,0:0:0:0:
255,193,48838,1,8,0:0:0:0:
255,193,49026,1,4,0:0:0:0:
255,193,49401,1,8,0:0:0:0:
255,193,49776,1,0,0:0:0:0:
255,193,49869,1,8,0:0:0:0:
255,193,50057,1,0,0:0:0:0:
255,193,50244,1,0,0:0:0:0:
255,193,50432,1,8,0:0:0:0:
255,193,50526,1,0,0:0:0:0:
255,193,50713,1,8,0:0:0:0:
255,193,50901,1,8,0:0:0:0:
255,193,51088,1,8,0:0:0:0:
255,193,51276,1,0,0:0:0:0:
255,193,51369,1,8,0:0:0:0:
255,193,51557,1,8,0:0:0:0:
255,193,51651,1,0,0:0:0:0:
255,193,51838,1,8,0:0:0:0:
255,193,52026,1,0,0:0:0:0:
255,193,52401,1,8,0:0:0:0:
255,193,52776,1,0,0:0:0:0:
255,193,52869,1,8,0:0:0:0:
255,193,53057,1,0,0:0:0:0:
255,193,53244,1,0,0:0:0:0:
255,193,53432,1,8,0:0:0:0:
255,193,53526,1,0,0:0:0:0:
255,193,53713,1,8,0:0:0:0:
255,193,53807,1,8,0:0:0:0:
255,193,53901,1,0,0:0:0:0:
255,193,53994,1,8,0:0:0:0:
255,193,54088,1,8,0:0:0:0:
255,193,54276,1,8,0:0:0:0:
255,193,54369,1,8,0:0:0:0:
255,193,54463,1,0,0:0:0:0:
255,193,54557,1,8,0:0:0:0:
255,193,54651,1,0,0:0:0:0:
255,193,54744,1,8,0:0:0:0:
255,193,54838,1,8,0:0:0:0:
255,193,55026,1,4,0:0:0:0:
255,193,55401,1,8,0:0:0:0:
255,193,55776,1,8,0:0:0:0:
255,193,55869,1,8,0:0:0:0:
255,193,56057,1,8,0:0:0:0:
255,193,56526,1,8,0:0:0:0:
255,193,56713,1,8,0:0:0:0:
255,193,56901,1,8,0:0:0:0:
255,193,57088,1,8,0:0:0:0:
255,193,57276,1,8,0:0:0:0:
255,193,57369,1,8,0:0:0:0:
255,193,57557,1,8,0:0:0:0:
255,193,57651,1,0,0:0:0:0:
255,193,57838,1,8,0:0:0:0:
255,193,58026,1,0,0:0:0:0:
255,193,58401,1,8,0:0:0:0:
255,193,58776,1,8,0:0:0:0:
255,193,58869,1,8,0:0:0:0:
255,193,59057,1,8,0:0:0:0:
255,193,59526,1,8,0:0:0:0:
255,193,59713,1,8,0:0:0:0:
255,193,59901,1,8,0:0:0:0:
255,193,60088,1,8,0:0:0:0:
255,193,60276,1,8,0:0:0:0:
255,193,60369,1,8,0:0:0:0:
255,193,60557,1,8,0:0:0:0:
255,193,60744,1,0,0:0:0:0:
255,193,60838,1,8,0:0:0:0:
255,193,61026,1,0,0:0:0:0:
255,193,61401,1,8,0:0:0:0:
255,193,61776,1,0,0:0:0:0:
255,193,61869,1,8,0:0:0:0:
255,193,62057,1,8,0:0:0:0:
255,193,62526,1,8,0:0:0:0:
255,193,62713,1,0,0:0:0:0:
255,193,62901,1,8,0:0:0:0:
255,193,63088,1,0,0:0:0:0:
255,193,63276,1,8,0:0:0:0:
255,193,63369,1,8,0:0:0:0:
255,193,63557,1,8,0:0:0:0:
255,193,63651,1,0,0:0:0:0:
255,193,63838,1,8,0:0:0:0:
255,193,64026,1,0,0:0:0:0:
255,193,64213,1,0,0:0:0:0:
255,193,64307,1,0,0:0:0:0:
255,193,64401,1,8,0:0:0:0:
255,193,64588,1,0,0:0:0:0:
255,193,64776,1,8,0:0:0:0:
255,193,64869,1,0,0:0:0:0:
255,193,64963,1,0,0:0:0:0:
255,193,65057,1,8,0:0:0:0:
255,193,65151,1,0,0:0:0:0:
255,193,65244,1,0,0:0:0:0:
255,193,65338,1,8,0:0:0:0:
255,193,65432,1,8,0:0:0:0:
255,193,65526,1,0,0:0:0:0:
255,193,65713,1,8,0:0:0:0:
255,193,65901,1,0,0:0:0:0:
255,193,65994,1,8,0:0:0:0:
255,193,66182,1,0,0:0:0:0:
255,193,66369,1,8,0:0:0:0:
255,193,66557,1,0,0:0:0:0:
255,193,66651,1,8,0:0:0:0:
255,193,67026,1,4,0:0:0:0:
255,193,67213,1,0,0:0:0:0:
255,193,67307,1,0,0:0:0:0:
255,193,67401,1,8,0:0:0:0:
255,193,67588,1,0,0:0:0:0:
255,193,67776,1,0,0:0:0:0:
255,193,67869,1,8,0:0:0:0:
255,193,68057,1,8,0:0:0:0:
255,193,68151,1,0,0:0:0:0:
255,193,68244,1,0,0:0:0:0:
255,193,68338,1,8,0:0:0:0:
255,193,68526,1,0,0:0:0:0:
255,193,68713,1,8,0:0:0:0:
255,193,68807,1,0,0:0:0:0:
255,193,68901,1,8,0:0:0:0:
255,193,69088,1,0,0:0:0:0:
255,193,69276,1,0,0:0:0:0:
255,193,69369,1,8,0:0:0:0:
255,193,69557,1,8,0:0:0:0:
255,193,69651,1,0,0:0:0:0:
255,193,69713,1,0,0:0:0:0:
255,193,69776,1,0,0:0:0:0:
255,193,69838,1,8,0:0:0:0:
255,193,70026,1,0,0:0:0:0:
255,193,70213,1,0,0:0:0:0:
255,193,70307,1,0,0:0:0:0:
255,193,70401,1,8,0:0:0:0:
255,193,70588,1,0,0:0:0:0:
255,193,70776,1,8,0:0:0:0:
255,193,70869,1,8,0:0:0:0:
255,193,70963,1,0,0:0:0:0:
255,193,71057,1,0,0:0:0:0:
255,193,71151,1,8,0:0:0:0:
255,193,71338,1,0,0:0:0:0:
255,193,71526,1,8,0:0:0:0:
255,193,71713,1,0,0:0:0:0:
255,193,71807,1,8,0:0:0:0:
255,193,71901,1,8,0:0:0:0:
255,193,72088,1,0,0:0:0:0:
255,193,72276,1,0,0:0:0:0:
255,193,72369,1,8,0:0:0:0:
255,193,72557,1,8,0:0:0:0:
255,193,72651,1,0,0:0:0:0:
255,193,72744,1,8,0:0:0:0:
255,193,72838,1,0,0:0:0:0:
255,193,73026,1,4,0:0:0:0:
255,193,73213,1,0,0:0:0:0:
255,193,73307,1,0,0:0:0:0:
255,193,73401,1,8,0:0:0:0:
255,193,73588,1,0,0:0:0:0:
255,193,73682,1,0,0:0:0:0:
255,193,73776,1,0,0:0:0:0:
255,193,73869,1,8,0:0:0:0:
255,193,74057,1,8,0:0:0:0:
255,193,74151,1,0,0:0:0:0:
255,193,74244,1,0,0:0:0:0:
255,193,74338,1,8,0:0:0:0:
255,193,74432,1,8,0:0:0:0:
255,193,74526,1,0,0:0:0:0:
255,193,74713,1,8,0:0:0:0:
255,193,74807,1,0,0:0:0:0:
255,193,74901,1,8,0:0:0:0:
255,193,75088,1,8,0:0:0:0:
255,193,75182,1,0,0:0:0:0:
255,193,75276,1,0,0:0:0:0:
255,193,75369,1,8,0:0:0:0:
255,193,75557,1,8,0:0:0:0:
255,193,75651,1,0,0:0:0:0:
255,193,75713,1,0,0:0:0:0:
255,193,75776,1,0,0:0:0:0:
255,193,75838,1,8,0:0:0:0:
255,193,76026,1,0,0:0:0:0:
255,193,76213,1,0,0:0:0:0:
255,193,76307,1,0,0:0:0:0:
255,193,76401,1,8,0:0:0:0:
255,193,76588,1,0,0:0:0:0:
255,193,76776,1,8,0:0:0:0:
255,193,76869,1,0,0:0:0:0:
255,193,76963,1,0,0:0:0:0:
255,193,77057,1,0,0:0:0:0:
255,193,77151,1,8,0:0:0:0:
255,193,77244,1,8,0:0:0:0:
255,193,77338,1,0,0:0:0:0:
255,193,77526,1,8,0:0:0:0:
255,193,77713,1,0,0:0:0:0:
255,193,77807,1,8,0:0:0:0:
255,193,77901,1,8,0:0:0:0:
255,193,78088,1,0,0:0:0:0:
255,193,78276,1,0,0:0:0:0:
255,193,78369,1,8,0:0:0:0:
255,193,78557,1,8,0:0:0:0:
255,193,78651,1,0,0:0:0:0:
255,193,78744,1,8,0:0:0:0:
255,193,78838,1,8,0:0:0:0:
255,193,79026,1,0,0:0:0:0:
255,193,79119,1,0,0:0:0:0:
255,193,79213,1,8,0:0:0:0:
255,193,79401,1,0,0:0:0:0:
255,193,79494,1,8,0:0:0:0:
255,193,79682,1,0,0:0:0:0:
255,193,79776,1,8,0:0:0:0:
255,193,79869,1,8,0:0:0:0:
255,193,80057,1,8,0:0:0:0:
255,193,80151,1,8,0:0:0:0:
255,193,80244,1,0,0:0:0:0:
255,193,80338,1,0,0:0:0:0:
255,193,80432,1,8,0:0:0:0:
255,193,80526,1,0,0:0:0:0:
255,193,80619,1,0,0:0:0:0:
255,193,80713,1,8,0:0:0:0:
255,193,80901,1,0,0:0:0:0:
255,193,80994,1,8,0:0:0:0:
255,193,81182,1,0,0:0:0:0:
255,193,81276,1,8,0:0:0:0:
255,193,81369,1,0,0:0:0:0:
255,193,81557,1,8,0:0:0:0:
255,193,81651,1,0,0:0:0:0:
255,193,81744,1,0,0:0:0:0:
255,193,81838,1,8,0:0:0:0:
255,193,81932,1,8,0:0:0:0:
255,193,82026,1,0,0:0:0:0:
255,193,82119,1,0,0:0:0:0:
255,193,82213,1,8,0:0:0:0:
255,193,82401,1,0,0:0:0:0:
255,193,82494,1,8,0:0:0:0:
255,193,82682,1,8,0:0:0:0:
255,193,82776,1,0,0:0:0:0:
255,193,82869,1,0,0:0:0:0:
255,193,82963,1,8,0:0:0:0:
255,193,83151,1,0,0:0:0:0:
255,193,83244,1,8,0:0:0:0:
255,193,83432,1,8,0:0:0:0:
255,193,83526,1,0,0:0:0:0:
255,193,83619,1,0,0:0:0:0:
255,193,83713,1,8,0:0:0:0:
255,193,83901,1,8,0:0:0:0:
255,193,83994,1,0,0:0:0:0:
255,193,84088,1,8,0:0:0:0:
255,193,84276,1,0,0:0:0:0:
255,193,84369,1,0,0:0:0:0:
255,193,84463,1,8,0:0:0:0:
255,193,84557,1,0,0:0:0:0:
255,193,84651,1,8,0:0:0:0:
255,193,84744,1,0,0:0:0:0:
255,193,84838,1,8,0:0:0:0:
255,193,85026,1,0,0:0:0:0:
255,193,85119,1,0,0:0:0:0:
255,193,85213,1,0,0:0:0:0:
255,193,85307,1,0,0:0:0:0:
255,193,85401,1,8,0:0:0:0:
255,193,85588,1,8,0:0:0:0:
255,193,85776,1,0,0:0:0:0:
255,193,85869,1,0,0:0:0:0:
255,193,85963,1,0,0:0:0:0:
255,193,86057,1,0,0:0:0:0:
255,193,86151,1,8,0:0:0:0:
255,193,86338,1,0,0:0:0:0:
255,193,86526,1,8,0:0:0:0:
255,193,86619,1,0,0:0:0:0:
255,193,86807,1,0,0:0:0:0:
255,193,86901,1,0,0:0:0:0:
255,193,87088,1,8,0:0:0:0:
255,193,87182,1,0,0:0:0:0:
255,193,87369,1,0,0:0:0:0:
255,193,87463,1,8,0:0:0:0:
255,193,87651,1,0,0:0:0:0:
255,193,88026,1,8,0:0:0:0:
255,193,88119,1,0,0:0:0:0:
255,193,88213,1,0,0:0:0:0:
255,193,88307,1,8,0:0:0:0:
255,193,88401,1,0,0:0:0:0:
255,193,88494,1,8,0:0:0:0:
255,193,88588,1,8,0:0:0:0:
255,193,88682,1,0,0:0:0:0:
255,193,88776,1,8,0:0:0:0:
255,193,88869,1,0,0:0:0:0:
255,193,88963,1,0,0:0:0:0:
255,193,89057,1,8,0:0:0:0:
255,193,89151,1,0,0:0:0:0:
255,193,89244,1,8,0:0:0:0:
255,193,89338,1,8,0:0:0:0:
255,193,89432,1,0,0:0:0:0:
255,193,89526,1,8,0:0:0:0:
255,193,89901,1,0,0:0:0:0:
255,193,90276,1,8,0:0:0:0:
255,193,90463,1,0,0:0:0:0:
255,193,90557,1,0,0:0:0:0:
255,193,90651,1,8,0:0:0:0:
255,193,91026,1,0,0:0:0:0:
255,193,91119,1,8,0:0:0:0:
255,193,91213,1,8,0:0:0:0:
255,193,91307,1,0,0:0:0:0:
255,193,91401,1,8,0:0:0:0:
255,193,91494,1,0,0:0:0:0:
255,193,91588,1,0,0:0:0:0:
255,193,91682,1,0,0:0:0:0:
255,193,91776,1,8,0:0:0:0:
255,193,91869,1,8,0:0:0:0:
255,193,91963,1,8,0:0:0:0:
255,193,92057,1,0,0:0:0:0:
255,193,92151,1,8,0:0:0:0:
255,193,92244,1,0,0:0:0:0:
255,193,92338,1,0,0:0:0:0:
255,193,92432,1,8,0:0:0:0:
255,193,92526,1,0,0:0:0:0:
255,193,92619,1,8,0:0:0:0:
255,193,92713,1,8,0:0:0:0:
255,193,92807,1,0,0:0:0:0:
255,193,92901,1,8,0:0:0:0:
255,193,92994,1,8,0:0:0:0:
255,193,93182,1,8,0:0:0:0:
255,193,93276,1,0,0:0:0:0:
255,193,93369,1,0,0:0:0:0:
255,193,93463,1,8,0:0:0:0:
255,193,93557,1,8,0:0:0:0:
255,193,93651,1,0,0:0:0:0:
255,193,93744,1,0,0:0:0:0:
255,193,93838,1,0,0:0:0:0:
255,193,93932,1,8,0:0:0:0:
255,193,94026,1,0,0:0:0:0:
255,193,94119,1,0,0:0:0:0:
255,193,94213,1,8,0:0:0:0:
255,193,94307,1,0,0:0:0:0:
255,193,94401,1,8,0:0:0:0:
255,193,94494,1,8,0:0:0:0:
255,193,94588,1,0,0:0:0:0:
255,193,94682,1,8,0:0:0:0:
255,193,94776,1,0,0:0:0:0:
255,193,94869,1,0,0:0:0:0:
255,193,94963,1,0,0:0:0:0:
255,193,95057,1,8,0:0:0:0:
255,193,95151,1,0,0:0:0:0:
255,193,95244,1,0,0:0:0:0:
255,193,95338,1,8,0:0:0:0:
255,193,95432,1,8,0:0:0:0:
255,193,95526,1,0,0:0:0:0:
255,193,95713,1,8,0:0:0:0:
255,193,95901,1,0,0:0:0:0:
255,193,96088,1,8,0:0:0:0:
255,193,96182,1,8,0:0:0:0:
255,193,96369,1,8,0:0:0:0:
255,193,96463,1,0,0:0:0:0:
255,193,96651,1,8,0:0:0:0:
255,193,96838,1,8,0:0:0:0:
255,193,97026,1,0,0:0:0:0:
255,193,97119,1,8,0:0:0:0:
255,193,97213,1,0,0:0:0:0:
255,193,97307,1,0,0:0:0:0:
255,193,97401,1,8,0:0:0:0:
255,193,97494,1,0,0:0:0:0:
255,193,97588,1,8,0:0:0:0:
255,193,97682,1,8,0:0:0:0:
255,193,97776,1,0,0:0:0:0:
255,193,97869,1,8,0:0:0:0:
255,193,97963,1,0,0:0:0:0:
255,193,98057,1,0,0:0:0:0:
255,193,98151,1,8,0:0:0:0:
255,193,98244,1,0,0:0:0:0:
255,193,98338,1,8,0:0:0:0:
255,193,98432,1,8,0:0:0:0:
255,193,98526,1,0,0:0:0:0:
255,193,98713,1,8,0:0:0:0:
255,193,98760,1,8,0:0:0:0:
255,193,98901,1,0,0:0:0:0:
255,193,99088,1,8,0:0:0:0:
255,193,99135,1,8,0:0:0:0:
255,193,99276,1,0,0:0:0:0:
255,193,99463,1,8,0:0:0:0:
255,193,99510,1,8,0:0:0:0:
255,193,99651,1,0,0:0:0:0:
255,193,99744,1,0,0:0:0:0:
255,193,99838,1,8,0:0:0:0:
255,193,100026,1,8,0:0:0:0:
255,193,100119,1,8,0:0:0:0:
255,193,100213,1,0,0:0:0:0:
255,193,100307,1,8,0:0:0:0:
255,193,100401,1,8,0:0:0:0:
255,193,100494,1,0,0:0:0:0:
255,193,100588,1,8,0:0:0:0:
255,193,100682,1,8,0:0:0:0:
255,193,100776,1,0,0:0:0:0:
255,193,100869,1,0,0:0:0:0:
255,193,100963,1,8,0:0:0:0:
255,193,101057,1,0,0:0:0:0:
255,193,101151,1,8,0:0:0:0:
255,193,101244,1,8,0:0:0:0:
255,193,101338,1,0,0:0:0:0:
255,193,101432,1,0,0:0:0:0:
255,193,101526,1,8,0:0:0:0:
255,193,101619,1,0,0:0:0:0:
255,193,101713,1,8,0:0:0:0:
255,193,101901,1,8,0:0:0:0:
255,193,101994,1,0,0:0:0:0:
255,193,102088,1,0,0:0:0:0:
255,193,102276,1,0,0:0:0:0:
255,193,102463,1,0,0:0:0:0:
255,193,102557,1,0,0:0:0:0:
255,193,102651,1,8,0:0:0:0:
255,193,103026,1,0,0:0:0:0:
255,193,103119,1,8,0:0:0:0:
255,193,103213,1,8,0:0:0:0:
255,193,103307,1,0,0:0:0:0:
255,193,103401,1,8,0:0:0:0:
255,193,103494,1,0,0:0:0:0:
255,193,103588,1,0,0:0:0:0:
255,193,103682,1,0,0:0:0:0:
255,193,103776,1,8,0:0:0:0:
255,193,103869,1,8,0:0:0:0:
255,193,103963,1,8,0:0:0:0:
255,193,104057,1,0,0:0:0:0:
255,193,104151,1,8,0:0:0:0:
255,193,104244,1,0,0:0:0:0:
255,193,104338,1,0,0:0:0:0:
255,193,104432,1,8,0:0:0:0:
255,193,104526,1,0,0:0:0:0:
255,193,104619,1,8,0:0:0:0:
255,193,104713,1,8,0:0:0:0:
255,193,104807,1,0,0:0:0:0:
255,193,104901,1,8,0:0:0:0:
255,193,104994,1,8,0:0:0:0:
255,193,105182,1,8,0:0:0:0:
255,193,105276,1,0,0:0:0:0:
255,193,105369,1,0,0:0:0:0:
255,193,105463,1,8,0:0:0:0:
255,193,105557,1,8,0:0:0:0:
255,193,105651,1,0,0:0:0:0:
255,193,105744,1,8,0:0:0:0:
255,193,105838,1,8,0:0:0:0:
255,193,105932,1,8,0:0:0:0:
255,193,106026,1,0,0:0:0:0:
255,193,106119,1,8,0:0:0:0:
255,193,106213,1,8,0:0:0:0:
255,193,106307,1,0,0:0:0:0:
255,193,106401,1,8,0:0:0:0:
255,193,106494,1,8,0:0:0:0:
255,193,106588,1,0,0:0:0:0:
255,193,106682,1,0,0:0:0:0:
255,193,106776,1,8,0:0:0:0:
255,193,106869,1,0,0:0:0:0:
255,193,106963,1,0,0:0:0:0:
255,193,107057,1,8,0:0:0:0:
255,193,107151,1,0,0:0:0:0:
255,193,107244,1,8,0:0:0:0:
255,193,107338,1,0,0:0:0:0:
255,193,107432,1,0,0:0:0:0:
255,193,107526,1,8,0:0:0:0:
255,193,107713,1,8,0:0:0:0:
255,193,107901,1,0,0:0:0:0:
255,193,108088,1,8,0:0:0:0:
255,193,108182,1,8,0:0:0:0:
255,193,108369,1,0,0:0:0:0:
255,193,108463,1,8,0:0:0:0:
255,193,108651,1,8,0:0:0:0:
255,193,108744,1,8,0:0:0:0:
255,193,108838,1,0,0:0:0:0:
255,193,109026,1,0,0:0:0:0:
255,193,109088,1,0,0:0:0:0:
255,193,109151,1,0,0:0:0:0:
255,193,109213,1,0,0:0:0:0:
255,193,109401,1,4,0:0:0:0:
255,193,109588,1,8,0:0:0:0:
255,193,109776,1,0,0:0:0:0:
255,193,109869,1,8,0:0:0:0:
255,193,109963,1,0,0:0:0:0:
255,193,110057,1,0,0:0:0:0:
255,193,110151,1,8,0:0:0:0:
255,193,110244,1,0,0:0:0:0:
255,193,110338,1,8,0:0:0:0:
255,193,110432,1,8,0:0:0:0:
255,193,110526,1,0,0:0:0:0:
255,193,110713,1,8,0:0:0:0:
255,193,110760,1,8,0:0:0:0:
255,193,110901,1,0,0:0:0:0:
255,193,111088,1,8,0:0:0:0:
255,193,111135,1,8,0:0:0:0:
255,193,111276,1,0,0:0:0:0:
255,193,111463,1,8,0:0:0:0:
255,193,111510,1,8,0:0:0:0:
255,193,111651,1,0,0:0:0:0:
255,193,111744,1,0,0:0:0:0:
255,193,111838,1,8,0:0:0:0:
255,193,112026,1,8,0:0:0:0:
255,193,112119,1,8,0:0:0:0:
255,193,112213,1,0,0:0:0:0:
255,193,112307,1,8,0:0:0:0:
255,193,112401,1,8,0:0:0:0:
255,193,112494,1,0,0:0:0:0:
255,193,112588,1,8,0:0:0:0:
255,193,112682,1,8,0:0:0:0:
255,193,112776,1,0,0:0:0:0:
255,193,112869,1,0,0:0:0:0:
255,193,112963,1,8,0:0:0:0:
255,193,113057,1,0,0:0:0:0:
255,193,113151,1,8,0:0:0:0:
255,193,113244,1,8,0:0:0:0:
255,193,113338,1,0,0:0:0:0:
255,193,113432,1,0,0:0:0:0:
255,193,113526,1,8,0:0:0:0:
255,193,113619,1,8,0:0:0:0:
255,193,113713,1,0,0:0:0:0:
255,193,113901,1,8,0:0:0:0:
255,193,113994,1,8,0:0:0:0:
255,193,114088,1,0,0:0:0:0:
255,193,114276,1,8,0:0:0:0:
255,193,114463,1,0,0:0:0:0:
255,193,114557,1,0,0:0:0:0:
255,193,114651,1,8,0:0:0:0:
255,193,115026,1,4,0:0:0:0:
255,193,115401,1,8,0:0:0:0:
255,193,115494,1,0,0:0:0:0:
255,193,115588,1,8,0:0:0:0:
255,193,115682,1,8,0:0:0:0:
255,193,115776,1,0,0:0:0:0:
255,193,116151,1,0,0:0:0:0:
255,193,116244,1,8,0:0:0:0:
255,193,116338,1,0,0:0:0:0:
255,193,116432,1,0,0:0:0:0:
255,193,116526,1,8,0:0:0:0:
255,193,116619,1,8,0:0:0:0:
255,193,116713,1,0,0:0:0:0:
255,193,116807,1,0,0:0:0:0:
255,193,116901,1,8,0:0:0:0:
255,193,116994,1,0,0:0:0:0:
255,193,117088,1,8,0:0:0:0:
255,193,117182,1,8,0:0:0:0:
255,193,117276,1,0,0:0:0:0:
255,193,117369,1,0,0:0:0:0:
255,193,117463,1,8,0:0:0:0:
255,193,117557,1,0,0:0:0:0:
255,193,117651,1,8,0:0:0:0:
255,193,117744,1,8,0:0:0:0:
255,193,117838,1,0,0:0:0:0:
255,193,118026,1,12,0:0:0:0:
255,193,118307,1,4,0:0:0:0:
255,193,118588,1,4,0:0:0:0:
255,193,118869,1,8,0:0:0:0:
255,193,119151,1,4,0:0:0:0:
255,193,119432,1,4,0:0:0:0:
255,193,119713,1,12,0:0:0:0:
255,193,120276,1,8,0:0:0:0:
255,193,120338,1,8,0:0:0:0:
255,193,120401,1,8,0:0:0:0:
255,193,120463,1,0,0:0:0:0:
255,193,120557,1,0,0:0:0:0:
255,193,120651,1,8,0:0:0:0:
255,193,120744,1,8,0:0:0:0:
255,193,120838,1,0,0:0:0:0:
255,193,121401,1,12,0:0:0:0:
