osu file format v14

[General]
AudioFilename: My map.mp3
AudioLeadIn: 0
PreviewTime: 43194
Countdown: 0
SampleSet: Normal
StackLeniency: 0.5
Mode: 0
LetterboxInBreaks: 1
WidescreenStoryboard: 1

[Editor]
DistanceSpacing: 4.6
BeatDivisor: 4
GridSize: 8
TimelineZoom: 3.799998

[Metadata]
Title:Nightmare feat. Luschel
TitleUnicode:Nightmare feat. Luschel
Artist:lapix
ArtistUnicode:lapix
Creator:Hakurei Yoru
Version:Another
Source:
Tags:Necho Reincarnation Hardcore Supremacy Drumstep Streliteela z1085684963
BeatmapID:1140695
BeatmapSetID:351874

[Difficulty]
HPDrainRate:6
CircleSize:4
OverallDifficulty:8
ApproachRate:9.2
SliderMultiplier:1.6
SliderTickRate:1

[Events]
//Background and Video events
0,0,"11.jpg",0,0
//Break Periods
//Storyboard Layer 0 (Background)
//Storyboard Layer 1 (Fail)
//Storyboard Layer 2 (Pass)
//Storyboard Layer 3 (Foreground)
//Storyboard Sound Samples

[TimingPoints]
-6,342.857142857143,4,1,1,20,1,0
-6,-133.333333333333,4,1,1,20,0,0
20479,-100,4,1,1,5,0,0
20565,-100,4,1,1,20,0,0
21936,-133.333333333333,4,2,1,25,0,0
27422,-133.333333333333,4,2,1,35,0,0
32908,-133.333333333333,4,1,1,55,0,0
38394,-66.6666666666667,4,2,3,55,0,0
39765,-66.6666666666667,4,1,1,55,0,0
41136,-66.6666666666667,4,1,1,35,0,0
41479,-66.6666666666667,4,1,1,45,0,0
41822,-66.6666666666667,4,1,1,55,0,0
42165,-66.6666666666667,4,1,1,65,0,0
42508,-66.6666666666667,4,1,1,85,0,0
42551,-66.6666666666667,4,1,1,15,0,0
43194,-133.333333333333,4,1,1,75,0,0
43879,-100,4,1,1,75,0,1
43965,-100,4,1,1,75,0,0
44394,-100,4,1,1,75,0,1
44479,-100,4,1,1,75,0,0
44908,-100,4,1,1,75,0,1
44994,-100,4,1,1,75,0,0
46622,-100,4,1,1,75,0,1
46708,-100,4,1,1,75,0,0
47136,-100,4,1,1,75,0,1
47222,-100,4,1,1,75,0,0
47651,-100,4,1,1,75,0,1
47736,-100,4,1,1,75,0,0
49365,-100,4,1,1,75,0,1
49451,-100,4,1,1,75,0,0
49879,-100,4,1,1,75,0,1
49965,-100,4,1,1,75,0,0
50394,-100,4,1,1,75,0,1
50479,-100,4,1,1,75,0,0
52108,-100,4,1,1,75,0,1
52194,-100,4,1,1,75,0,0
52622,-100,4,1,1,75,0,1
52708,-100,4,1,1,75,0,0
53136,-100,4,1,1,75,0,1
53222,-100,4,1,1,75,0,0
54851,-100,4,1,1,75,0,1
54936,-100,4,1,1,75,0,1
56222,-100,4,2,1,75,0,1
57594,-100,4,1,1,75,0,1
58965,-100,4,2,1,75,0,1
60336,-100,4,1,1,75,0,1
61708,-100,4,2,1,75,0,1
63079,-100,4,1,1,75,0,1
64451,-100,4,2,1,75,0,1
65822,-200,4,1,1,35,0,0
66336,-100,4,1,1,35,0,0
66508,-200,4,1,1,35,0,0
67022,-100,4,1,1,35,0,0
67194,-200,4,1,1,35,0,0
67708,-100,4,1,1,35,0,0
68222,-200,4,1,1,35,0,0
68565,-100,4,1,1,45,0,0
68908,-200,4,1,1,45,0,0
70108,-100,4,1,1,45,0,0
70794,-200,4,1,1,45,0,0
71308,-200,4,1,1,55,0,0
74051,-133.333333333333,4,2,1,55,0,0
74736,-100,4,2,1,25,0,0
75079,-133.333333333333,4,2,1,40,0,0
75422,-133.333333333333,4,2,1,50,0,0
76451,-66.6666666666667,4,1,1,75,0,0
77136,-66.6666666666667,4,1,1,75,0,1
77308,-66.6666666666667,4,1,1,75,0,0
88108,-66.6666666666667,4,1,1,75,0,1
88279,-66.6666666666667,4,1,1,75,0,0
99079,-66.6666666666667,4,1,1,75,0,1
99251,-66.6666666666667,4,1,1,75,0,0
109708,-100,4,1,1,75,0,1
109794,-100,4,1,1,75,0,0
119308,-100,4,2,3,75,0,0
120336,-100,4,1,1,40,0,0
120679,-133.333333333333,4,1,1,55,0,1
120765,-133.333333333333,4,1,1,55,0,0
131308,-200,4,1,1,55,0,0
131651,-133.333333333333,4,1,1,55,0,0
142622,-200,4,1,1,40,0,0
153594,-133.333333333333,4,1,1,55,0,0
159079,-66.6666666666667,4,2,3,55,0,0
161822,-66.6666666666667,4,1,1,35,0,0
162165,-66.6666666666667,4,1,1,45,0,0
162508,-66.6666666666667,4,1,1,55,0,0
162851,-66.6666666666667,4,1,1,65,0,0
163194,-66.6666666666667,4,1,1,85,0,0
163236,-66.6666666666667,4,1,1,15,0,0
163879,-133.333333333333,4,1,1,55,0,0
164051,-133.333333333333,4,1,1,75,0,0
164565,-100,4,1,1,75,0,1
165594,-100,4,1,1,75,0,0
167308,-100,4,1,1,75,0,1
168336,-100,4,1,1,75,0,0
170051,-100,4,1,1,75,0,1
171079,-100,4,1,1,75,0,0
172794,-100,4,1,1,75,0,1
173822,-100,4,1,1,75,0,0
175536,-100,4,1,1,75,0,1
176908,-100,4,2,1,75,0,1
178279,-100,4,1,1,75,0,1
179651,-100,4,2,1,75,0,1
181022,-100,4,1,1,75,0,1
182394,-100,4,2,1,75,0,1
183765,-100,4,1,1,75,0,1
185136,-100,4,2,1,75,0,1
186508,-200,4,1,1,55,0,0
187022,-100,4,1,1,55,0,0
187194,-200,4,1,1,55,0,0
187708,-100,4,1,1,55,0,0
187879,-200,4,1,1,55,0,0
188394,-100,4,1,1,55,0,0
188908,-200,4,1,1,55,0,0
189251,-100,4,1,1,55,0,0
189594,-200,4,1,1,55,0,0
190879,-100,4,1,1,55,0,0
191479,-200,4,1,1,55,0,0
191994,-200,4,1,1,55,0,0
194736,-133.333333333333,4,2,1,55,0,0
195422,-133.333333333333,4,2,1,25,0,0
195765,-133.333333333333,4,2,1,45,0,0
196108,-200,4,1,1,15,0,0
197136,-66.6666666666667,4,1,1,45,0,0
197479,-200,4,1,1,65,0,1
198851,-100,4,1,1,65,0,1
200222,-200,4,1,1,65,0,1
200908,-133.333333333333,4,1,1,65,0,1
202622,-100,4,1,1,65,0,1
202965,-200,4,1,1,65,0,1
203651,-100,4,1,1,65,0,1
208279,-200,4,1,1,65,0,0
208451,-200,4,1,1,65,0,1
209822,-100,4,1,1,65,0,1
211194,-200,4,1,1,65,0,1
211879,-133.333333333333,4,1,1,65,0,1
213251,-133.333333333333,4,1,1,65,0,1
213936,-200,4,1,1,65,0,1
215308,-133.333333333333,4,1,1,65,0,1
216336,-66.6666666666667,4,1,1,65,0,1
216679,-200,4,1,1,65,0,1
217022,-50,4,1,1,65,0,1
217365,-200,4,1,1,65,0,1
217708,-50,4,1,1,65,0,1
218051,-200,4,1,1,65,0,1
219422,-100,4,1,1,65,0,0
220108,-200,4,1,1,65,0,1
220965,-100,4,1,1,65,0,1
222165,-200,4,1,1,65,0,1
223536,-133.333333333333,4,1,1,65,0,1
224565,-100,4,1,1,65,0,1
224908,-200,4,1,1,65,0,1
225594,-100,4,1,1,65,0,1
230394,-200,4,1,1,65,0,0
231079,-200,4,1,1,65,0,1
231765,-100,4,1,1,65,0,1
233136,-200,4,1,1,65,0,1
234508,-100,4,1,1,65,0,1
235194,-133.333333333333,4,1,1,65,0,1
235879,-200,4,1,1,65,0,1
237251,-100,4,1,1,65,0,1
238622,-200,4,1,1,65,0,1
238965,-50,4,1,1,65,0,1
239308,-200,4,1,1,65,0,1
239651,-50,4,1,1,65,0,1
239994,-200,4,1,1,65,0,1
240508,-100,4,1,1,65,0,1
241365,-100,4,1,1,65,0,0

[Colours]
Combo1 : 255,142,30
Combo2 : 124,124,124
Combo3 : 77,255,255
Combo4 : 255,128,255

[HitObjects]
384,288,21936,6,0,P|328:304|264:304,1,120.000004577637,2|8,2:0|1:0,0:0:0:0:
304,160,22451,2,0,P|360:144|424:144,1,120.000004577637,2|0,0:0|0:0,0:0:0:0:
488,240,22965,1,8,1:0:0:0:
488,240,23308,6,0,L|496:368,1,120.000004577637,2|8,0:0|1:0,0:0:0:0:
384,288,23822,2,2,L|391:168,1,120.000004577637,2|2,0:0|0:0,0:0:0:0:
384,136,24251,2,0,L|376:104,1,30.0000011444092,2|8,0:0|1:0,0:0:0:0:
352,16,24508,1,0,0:0:0:0:
224,112,24679,6,0,L|144:104,2,60.0000022888184,2|0|8,0:0|0:0|1:0,0:0:0:0:
144,104,25194,2,0,L|0:88,1,120.000004577637,2|2,0:0|0:0,0:0:0:0:
24,90,25622,1,2,0:0:0:0:
24,90,25708,1,8,1:0:0:0:
24,90,26051,6,0,L|32:161,1,60.0000022888184,2|0,0:0|0:0,0:0:0:0:
138,109,26394,2,0,L|131:49,1,60.0000022888184,8|8,1:0|3:0,0:0:0:0:
186,175,26651,1,0,1:0:0:0:
186,175,26736,2,0,L|179:234,1,60.0000022888184,0|2,0:0|0:0,0:0:0:0:
74,272,27079,2,0,L|80:212,1,60.0000022888184,8|8,1:0|3:0,0:0:0:0:
24,336,27336,1,2,1:0:0:0:
24,336,27422,6,0,P|96:328|152:328,1,120.000004577637,2|8,0:0|1:0,0:0:0:0:
248,240,27936,2,0,P|188:238|128:231,1,120.000004577637,2|0,0:0|0:0,0:0:0:0:
32,184,28451,1,8,1:0:0:0:
32,184,28794,6,0,L|40:312,1,120.000004577637,2|8,0:0|1:0,0:0:0:0:
128,231,29308,2,0,L|135:111,1,120.000004577637,2|0,0:0|0:0,0:0:0:0:
138,78,29736,2,0,L|178:70,1,30.0000011444092,0|8,0:0|1:0,0:0:0:0:
224,144,29994,1,0,0:0:0:0:
424,80,30165,5,2,0:0:0:0:
328,112,30336,1,0,0:0:0:0:
360,208,30508,1,8,1:0:0:0:
456,176,30679,2,0,P|456:112|440:56,1,120.000004577637,2|2,0:0|0:0,0:0:0:0:
352,0,31194,1,8,1:0:0:0:
352,0,31536,6,0,L|368:80,1,60.0000022888184,2|0,0:0|0:0,0:0:0:0:
312,160,31879,1,0,1:0:0:0:
224,104,32051,1,2,0:0:0:0:
194,106,32136,1,0,0:0:0:0:
164,109,32222,1,0,0:0:0:0:
40,24,32394,5,2,0:0:0:0:
69,26,32565,5,0,1:0:0:0:
99,29,32736,6,0,L|136:24,1,30.0000011444092,0|0,0:0|0:0,0:0:0:0:
208,72,32908,6,0,L|216:160,1,60.0000022888184,6|0,0:0|0:2,0:0:0:0:
80,312,33251,1,2,0:2:0:0:
56,304,33336,2,0,P|48:256|48:216,1,60.0000022888184,2|2,0:2|0:2,0:0:0:0:
80,160,33594,6,0,L|160:168,1,60.0000022888184,2|0,0:2|0:2,0:0:0:0:
368,104,33936,1,8,0:0:0:0:
352,88,34022,2,0,P|312:80|280:88,1,60.0000022888184,0|0,0:2|0:2,0:0:0:0:
200,256,34279,6,0,L|140:250,1,60.0000022888184,2|0,0:0|0:2,0:0:0:0:
320,336,34622,1,2,0:2:0:0:
344,320,34708,2,0,P|360:280|360:248,1,60.0000022888184,2|2,0:2|0:2,0:0:0:0:
272,208,34965,6,0,L|280:296,1,60.0000022888184,2|0,0:2|0:2,0:0:0:0:
448,360,35308,1,8,0:0:0:0:
449,340,35394,1,0,0:2:0:0:
451,320,35479,1,0,0:2:0:0:
453,300,35565,1,0,0:2:0:0:
472,264,35651,6,0,P|448:224|464:200,1,60.0000022888184,6|0,0:0|0:2,0:0:0:0:
480,72,35994,1,2,0:2:0:0:
496,80,36079,2,0,P|504:120|488:152,1,60.0000022888184,2|2,0:2|0:2,0:0:0:0:
360,168,36336,6,0,L|280:176,1,60.0000022888184,2|0,0:2|0:2,0:0:0:0:
192,192,36679,1,8,0:0:0:0:
176,184,36765,2,0,P|168:144|184:112,1,60.0000022888184,0|0,0:2|0:2,0:0:0:0:
312,96,37022,6,0,L|392:88,1,60.0000022888184,2|0,0:0|0:0,0:0:0:0:
434,265,37365,1,2,0:2:0:0:
426,281,37451,2,0,P|386:289|354:273,1,60.0000022888184,2|2,0:2|0:2,0:0:0:0:
306,233,37708,6,0,L|298:153,1,60.0000022888184,2|0,0:2|0:0,0:0:0:0:
282,33,38051,1,8,0:0:0:0:
351,39,38136,1,0,0:0:0:0:
421,46,38222,1,0,0:0:0:0:
490,53,38308,1,0,0:0:0:0:
456,72,38394,6,0,L|448:8,1,60.0000022888184,8|8,0:2|0:0,0:0:0:0:
343,132,38565,2,0,L|336:192,1,60.0000022888184,8|8,0:2|0:0,0:0:0:0:
176,191,38736,6,0,L|169:132,1,60.0000022888184,8|8,0:2|0:0,0:0:0:0:
63,12,38908,2,0,L|56:72,1,60.0000022888184,8|8,0:2|0:0,0:0:0:0:
64,312,39079,6,8,P|32:320|-8:320,1,60.0000022888184,0|0,0:0|0:0,0:0:0:0:
104,328,39251,2,0,P|71:327|32:317,1,60.0000022888184,0|0,0:0|0:0,0:0:0:0:
136,352,39422,2,8,P|104:342|69:322,1,60.0000022888184,0|0,0:0|0:0,0:0:0:0:
160,384,39594,2,0,P|131:367|103:338,1,60.0000022888184,0|0,0:0|0:0,0:0:0:0:
232,344,39765,6,0,L|224:264,1,60.0000022888184,2|0,2:0|0:0,0:0:0:0:
337,191,39936,2,0,L|343:132,1,60.0000022888184,2|0,2:0|0:0,0:0:0:0:
320,352,40108,2,0,L|312:272,1,60.0000022888184,2|0,2:0|0:0,0:0:0:0:
425,183,40279,2,0,L|431:124,1,60.0000022888184,2|0,2:0|0:0,0:0:0:0:
408,360,40451,2,0,L|400:280,1,60.0000022888184,2|0,2:0|0:0,0:0:0:0:
490,308,40622,2,0,L|496:368,1,60.0000022888184,2|0,2:0|0:0,0:0:0:0:
250,203,40794,6,0,L|256:144,1,60.0000022888184,2|0,2:0|0:0,0:0:0:0:
168,152,40965,2,0,L|160:232,1,60.0000022888184,2|0,2:0|0:0,0:0:0:0:
72,240,41136,6,0,L|-16:248,1,60.0000022888184,0|0,0:0|0:0,0:0:0:0:
12,138,41308,2,0,L|72:144,1,60.0000022888184,0|0,0:0|0:0,0:0:0:0:
440,240,41479,6,0,L|499:245,1,60.0000022888184,0|0,0:0|0:0,0:0:0:0:
499,138,41651,2,0,L|440:144,1,60.0000022888184,0|0,0:0|0:0,0:0:0:0:
208,312,41822,6,0,L|202:371,1,60.0000022888184,0|0,0:0|0:0,0:0:0:0:
310,372,41994,2,0,L|304:312,1,60.0000022888184,0|0,0:0|0:0,0:0:0:0:
208,72,42165,6,0,L|202:12,1,60.0000022888184,0|0,0:0|0:0,0:0:0:0:
310,12,42336,2,0,L|304:71,1,60.0000022888184,0|0,0:0|0:0,0:0:0:0:
256,192,42508,6,0,P|232:200|200:200,14,30.0000011444092,0|0|0|0|0|0|0|0|0|0|0|0|0|0|0,3:0|3:0|3:0|3:0|3:0|3:0|3:0|3:0|3:0|3:0|3:0|3:0|3:0|3:0|3:0,3:3:0:0:
208,72,43194,6,0,L|202:12,1,60.0000022888184,0|0,0:0|0:0,0:0:0:0:
310,12,43451,1,0,0:0:0:0:
310,12,43536,2,0,L|304:71,1,60.0000022888184,0|0,0:0|0:0,0:0:0:0:
256,192,43879,6,0,P|264:240|280:368,1,160,4|0,0:0|0:0,0:0:0:0:
336,96,44394,2,0,P|256:88|144:72,1,160,4|0,0:0|0:0,0:0:0:0:
376,208,44908,1,4,0:0:0:0:
376,208,46622,6,0,P|384:104|384:24,1,160,4|0,0:0|0:0,0:0:0:0:
480,296,47136,2,0,P|478:216|471:136,1,160,4|0,0:0|0:0,0:0:0:0:
168,368,47651,1,4,0:0:0:0:
168,368,49365,6,0,B|144:256|144:256|192:312,1,160,4|0,0:0|0:0,0:0:0:0:
224,216,49879,2,0,B|248:104|248:104|200:160,1,160,4|0,0:0|0:0,0:0:0:0:
16,280,50394,1,4,0:0:0:0:
16,280,52108,6,0,P|80:272|176:264,1,160,4|0,0:0|0:0,0:0:0:0:
416,240,52622,2,0,P|352:232|256:224,1,160,4|0,0:0|0:0,0:0:0:0:
112,368,53136,1,4,0:0:0:0:
112,368,54851,6,0,B|152:288|152:288|112:208,1,160,4|0,0:0|0:0,0:0:0:0:
200,16,55365,2,0,B|160:96|160:96|200:176,1,160,12|0,0:0|0:0,0:0:0:0:
296,256,55879,1,2,2:0:0:0:
376,248,56051,1,0,0:0:0:0:
456,240,56222,1,2,2:0:0:0:
456,240,56565,1,8,1:0:0:0:
296,256,56822,1,0,1:0:0:0:
280,248,56908,2,0,P|264:208|296:160,1,80,0|0,0:0|1:0,0:0:0:0:
216,112,57251,2,0,P|232:152|200:200,1,80,8|0,1:0|0:0,0:0:0:0:
96,224,57594,22,0,P|88:136|80:56,1,160,4|0,0:0|0:0,0:0:0:0:
160,304,58108,2,0,P|240:320|352:344,1,160,8|0,0:0|0:3,0:0:0:0:
56,320,58622,1,4,0:0:0:0:
64,232,58794,1,0,0:0:0:0:
72,144,58965,1,2,0:0:0:0:
72,144,59308,1,8,1:0:0:0:
56,320,59565,1,0,1:0:0:0:
72,336,59651,2,0,P|112:352|152:344,1,80,0|0,0:0|1:0,0:0:0:0:
304,168,59994,2,0,L|296:256,1,80,8|0,1:0|0:0,0:0:0:0:
336,320,60251,1,2,0:0:0:0:
416,336,60336,6,0,P|472:296|472:208,1,160,4|0,0:0|0:0,0:0:0:0:
224,55,60851,2,0,P|230:123|306:167,1,160,12|0,0:0|0:0,0:0:0:0:
464,96,61365,1,4,0:0:0:0:
384,88,61536,1,0,0:0:0:0:
304,80,61708,1,2,0:0:0:0:
464,96,62051,1,8,1:0:0:0:
304,80,62308,1,0,1:0:0:0:
288,88,62394,2,0,P|272:128|304:176,1,80,0|0,0:0|1:0,0:0:0:0:
224,224,62736,2,0,P|240:184|208:136,1,80,8|0,1:0|0:0,0:0:0:0:
208,144,62994,1,2,0:0:0:0:
160,288,63079,6,0,P|144:288|0:304,1,160,4|0,0:0|0:0,0:0:0:0:
224,224,63594,2,0,P|303:236|382:239,1,160,12|0,0:0|0:0,0:0:0:0:
104,192,64108,1,4,0:0:0:0:
96,104,64279,1,0,0:0:0:0:
88,16,64451,1,2,0:0:0:0:
104,192,64794,1,8,1:0:0:0:
88,16,65051,1,2,1:0:0:0:
112,0,65136,2,0,P|151:-5|187:10,1,80,0|0,0:0|0:0,0:0:0:0:
304,184,65479,5,10,0:0:0:0:
306,157,65565,1,2,0:0:0:0:
308,130,65651,1,0,0:0:0:0:
311,104,65736,1,0,0:0:0:0:
336,64,65822,6,0,L|392:56,2,40,6|0|0,0:0|0:0|0:0,0:0:0:0:
168,248,66336,2,0,L|189:300,1,40,2|0,0:0|0:0,0:0:0:0:
104,192,66508,6,0,L|48:184,2,40,0|0|0,0:0|0:0|0:0,0:0:0:0:
16,269,67022,2,0,L|56:264,1,40,0|0,0:0|0:0,0:0:0:0:
72,104,67194,6,0,L|32:109,2,40,2|0|0,0:0|0:0|0:0,0:0:0:0:
248,216,67708,2,0,L|256:280,1,40,2|0,0:0|0:0,0:0:0:0:
328,184,67879,6,0,L|336:248,2,40,0|0|0,0:0|0:0|0:0,0:0:0:0:
488,344,68222,2,0,P|464:344|440:352,1,40,0|0,0:0|0:0,0:0:0:0:
232,352,68565,6,0,L|184:344,2,40,2|0|0,0:0|0:0|0:0,0:0:0:0:
88,368,68908,2,0,L|118:330,1,40,0|2,0:0|0:0,0:0:0:0:
144,232,69165,2,0,L|158:269,1,40,0|0,0:0|0:0,0:0:0:0:
232,352,69422,2,0,L|184:344,2,40,0|0|0,0:0|0:0|0:0,0:0:0:0:
488,344,69936,6,0,P|496:304|496:288,1,40,2|0,0:0|0:0,0:0:0:0:
488,272,70194,2,0,L|480:223,1,40,0|0,0:0|0:0,0:0:0:0:
448,56,70451,2,0,L|454:16,2,40,2|0|0,0:0|0:0|0:0,0:0:0:0:
376,120,70794,2,0,L|384:176,1,40,0|0,0:0|0:0,0:0:0:0:
309,223,71136,2,0,L|304:184,1,40,0|2,0:0|1:2,0:0:0:0:
301,164,71394,5,0,0:0:0:0:
298,144,71479,1,2,1:2:0:0:
295,124,71565,1,0,0:0:0:0:
292,104,71651,1,0,0:0:0:0:
289,85,71736,1,0,0:0:0:0:
287,65,71822,2,0,L|281:29,1,20,2|0,1:2|0:0,0:0:0:0:
176,80,71994,5,2,1:2:0:0:
156,74,72079,1,0,0:0:0:0:
137,71,72165,2,0,L|104:80,1,20,2|0,1:2|0:0,0:0:0:0:
64,176,72336,5,2,1:2:0:0:
55,194,72422,1,0,0:0:0:0:
49,213,72508,1,0,0:0:0:0:
47,233,72594,1,0,0:0:0:0:
47,253,72679,2,0,L|80:248,1,20,2|0,1:2|0:0,0:0:0:0:
144,344,72851,5,2,1:2:0:0:
163,341,72936,1,0,0:0:0:0:
183,338,73022,1,0,0:0:0:0:
203,335,73108,1,0,0:0:0:0:
223,332,73194,2,0,L|258:326,1,20,2|0,1:2|0:0,0:0:0:0:
208,221,73365,5,2,1:2:0:0:
214,202,73451,1,0,0:0:0:0:
216,182,73536,2,0,L|207:148,1,20,2|0,1:2|0:0,0:0:0:0:
112,109,73708,5,2,1:2:0:0:
94,101,73794,1,0,0:0:0:0:
75,95,73879,1,0,0:0:0:0:
55,92,73965,1,0,0:0:0:0:
35,93,74051,6,0,L|40:72,6,15.0000005722046,2|0|0|0|0|0|0,1:2|0:0|0:0|0:0|0:0|0:0|0:0,0:0:0:0:
88,192,74394,2,0,L|96:224,3,30.0000011444092,2|0|0|0,1:2|0:0|0:0|0:0,0:0:0:0:
152,80,74736,2,0,L|160:40,3,40,2|2|2|2,0:0|0:0|0:0|0:0,0:0:0:0:
205,179,75079,5,2,0:0:0:0:
272,168,75165,1,2,0:0:0:0:
312,184,75251,1,2,0:0:0:0:
352,200,75336,1,2,0:0:0:0:
419,189,75422,1,4,0:0:0:0:
419,189,76108,5,0,0:0:0:0:
419,189,76194,1,0,0:0:0:0:
419,189,76279,1,6,0:0:0:0:
419,189,76451,6,0,P|368:176|336:176,1,60.0000022888184,0|0,0:0|0:0,0:0:0:0:
264,72,76622,2,0,P|315:85|347:85,1,60.0000022888184,6|0,2:0|0:0,0:0:0:0:
448,184,76794,6,0,P|360:216|272:288,1,180.000006866455,6|0,1:3|0:0,0:0:0:0:
208,352,77136,2,0,P|208:288|184:232,1,120.000004577637,8|0,0:0|0:0,0:0:0:0:
56,264,77394,2,0,P|56:328|80:384,1,120.000004577637,2|0,2:0|0:0,0:0:0:0:
112,192,77651,2,0,L|120:128,1,60.0000022888184,2|0,2:0|0:0,0:0:0:0:
16,176,77822,2,0,L|40:24,1,120.000004577637,8|2,0:0|2:0,0:0:0:0:
11,2,78079,2,2,B|35:58|35:58|163:42,1,180.000006866455,0|2,0:0|2:0,2:2:0:0:
328,48,78508,2,0,P|288:32|248:96,1,120.000004577637,8|0,0:0|0:0,0:0:0:0:
224,176,78765,2,0,B|288:168|288:168|328:136|328:136|392:128,1,180.000006866455,2|2,2:0|2:0,0:0:0:0:
480,40,79194,1,8,0:0:0:0:
447,57,79279,2,0,L|312:46,1,120.000004577637,0|0,2:0|0:0,0:0:0:0:
272,112,79536,6,0,P|304:168|232:256,1,180.000006866455,2|0,2:0|0:0,0:0:0:0:
168,280,79879,2,0,P|248:296|304:320,1,120.000004577637,8|0,0:0|0:0,0:0:0:0:
368,360,80136,2,0,P|424:340|483:330,1,120.000004577637,2|0,2:0|0:0,0:0:0:0:
504,240,80394,2,0,L|520:160,1,60.0000022888184,2|0,2:0|0:0,0:0:0:0:
488,96,80565,2,0,P|440:48|376:56,1,120.000004577637,8|2,0:0|2:0,0:0:0:0:
360,144,80822,2,0,B|328:136|304:104|304:104|256:144|192:128,1,180.000006866455,0|0,0:0|0:0,0:0:0:0:
32,48,81251,2,0,P|80:40|96:104,1,120.000004577637,8|0,0:0|0:0,0:0:0:0:
232,56,81508,2,0,P|244:2|299:5,1,120.000004577637,2|0,2:0|0:0,0:0:0:0:
360,144,81765,2,0,L|352:288,1,120.000004577637,2|8,2:0|0:0,0:0:0:0:
296,328,82022,2,0,L|304:400,2,60.0000022888184,0|0|0,0:0|0:0|0:0,0:0:0:0:
248,240,82279,6,0,B|168:224|120:264|120:264|184:288,1,180.000006866455,2|0,2:0|0:0,0:0:0:0:
296,328,82622,2,0,P|360:328|416:312,1,120.000004577637,8|0,0:0|0:0,0:0:0:0:
488,216,82879,2,0,P|430:200|370:201,1,120.000004577637,2|0,2:0|0:0,0:0:0:0:
248,240,83136,2,0,L|256:168,1,60.0000022888184,2|0,2:0|0:0,0:0:0:0:
184,0,83308,2,0,L|192:128,1,120.000004577637,8|2,0:0|2:0,0:0:0:0:
124,378,83565,2,0,L|144:200,1,180.000006866455,0|0,0:0|0:0,0:0:0:0:
184,0,83994,2,0,L|191:119,1,120.000004577637,8|0,0:0|0:0,0:0:0:0:
144,200,84251,2,0,L|124:378,1,180.000006866455,2|0,2:0|0:0,0:0:0:0:
24,224,84679,1,8,0:0:0:0:
40,216,84765,2,0,P|48:160|0:128,1,120.000004577637,0|0,0:0|0:0,0:0:0:0:
0,320,85022,6,0,B|32:312|64:312|64:312|96:288|96:288|136:312|192:288,1,180.000006866455,2|0,2:0|0:0,0:0:0:0:
352,216,85365,2,0,P|368:288|360:336,1,120.000004577637,8|0,0:0|0:0,0:0:0:0:
224,352,85622,2,0,P|208:280|216:232,1,120.000004577637,2|0,2:0|0:0,0:0:0:0:
320,128,85879,2,0,B|272:160|272:160|176:144,1,120.000004577637,2|8,2:0|0:0,0:0:0:0:
440,176,86222,2,0,P|448:208|448:248,1,60.0000022888184,0|0,0:0|0:0,0:0:0:0:
416,80,86394,2,0,P|448:16|504:16,1,120.000004577637,2|0,2:0|0:0,0:0:0:0:
344,240,86736,1,8,0:0:0:0:
352,216,86822,2,0,P|312:176|248:200,1,120.000004577637,0|0,0:0|0:0,0:0:0:0:
223,154,87079,2,0,P|278:168|319:128,1,120.000004577637,0|0,0:0|0:0,0:0:0:0:
320,40,87336,1,0,0:0:0:0:
240,8,87422,2,0,L|168:24,1,60.0000022888184,10|2,0:0|0:0,0:0:0:0:
0,160,87594,2,0,L|64:168,1,60.0000022888184,2|2,0:0|0:0,0:0:0:0:
112,256,87765,6,0,L|92:77,1,180.000006866455,2|0,2:0|0:0,0:0:0:0:
224,152,88108,2,0,P|288:168|352:168,1,120.000004577637,8|0,0:0|0:0,0:0:0:0:
357,25,88365,2,0,P|293:9|229:9,1,120.000004577637,2|0,2:0|0:0,0:0:0:0:
448,96,88622,2,0,L|512:88,1,60.0000022888184,2|0,2:0|0:0,0:0:0:0:
352,144,88794,2,0,L|368:288,1,120.000004577637,8|2,0:0|2:0,0:0:0:0:
304,344,89051,2,2,B|376:296|376:296|488:328,1,180.000006866455,0|2,0:0|2:0,2:2:0:0:
248,264,89479,2,0,B|160:272|160:272|208:200,1,120.000004577637,8|0,0:0|0:0,0:0:0:0:
96,208,89736,2,0,P|72:288|144:360,1,180.000006866455,2|2,2:0|2:0,0:0:0:0:
192,224,90165,1,8,0:0:0:0:
208,192,90251,2,0,L|200:64,1,120.000004577637,0|0,0:0|0:0,0:0:0:0:
144,16,90508,6,0,B|80:8|16:64|16:64|80:72,1,180.000006866455,2|0,2:0|0:0,0:0:0:0:
134,146,90851,2,0,P|181:110|240:112,1,120.000004577637,8|0,0:0|0:0,0:0:0:0:
280,232,91108,2,0,P|233:268|174:266,1,120.000004577637,2|0,2:0|0:0,0:0:0:0:
80,232,91365,2,0,L|88:304,1,60.0000022888184,2|0,2:0|0:0,0:0:0:0:
152,360,91536,2,0,P|224:312|288:312,1,120.000004577637,8|2,0:0|2:0,0:0:0:0:
352,336,91794,2,0,L|472:320,1,120.000004577637,0|0,0:0|0:0,0:0:0:0:
496,224,92051,2,0,P|504:152|480:104,1,120.000004577637,0|10,0:0|0:0,0:0:0:0:
416,32,92308,2,0,P|360:40|416:96,1,120.000004577637,0|2,0:0|2:0,0:0:0:0:
248,160,92565,2,0,P|240:104|184:96,2,120.000004577637,0|2|8,0:0|2:0|0:0,0:0:0:0:
233,133,92994,1,0,0:0:0:0:
225,104,93079,1,0,0:0:0:0:
224,75,93165,1,0,0:0:0:0:
230,45,93251,6,0,L|352:32,1,120.000004577637,2|0,2:0|0:0,0:0:0:0:
144,128,93594,2,0,P|72:120|16:56,1,120.000004577637,8|0,0:0|0:0,0:0:0:0:
110,53,93851,2,0,P|102:125|38:181,1,120.000004577637,2|0,2:0|0:0,0:0:0:0:
0,216,94108,2,0,L|8:304,1,60.0000022888184,2|0,2:0|0:0,0:0:0:0:
64,328,94279,2,0,L|184:336,1,120.000004577637,8|2,0:0|2:0,0:0:0:0:
256,384,94536,2,0,P|232:320|328:264,1,180.000006866455,0|2,0:0|2:0,0:0:0:0:
264,168,94965,2,0,L|384:160,1,120.000004577637,8|0,0:0|0:0,0:0:0:0:
192,215,95222,2,0,P|210:133|138:90,1,180.000006866455,2|2,2:0|2:0,0:0:0:0:
328,0,95651,1,8,0:0:0:0:
304,8,95736,2,0,P|288:56|328:112,1,120.000004577637,0|0,0:0|0:0,0:0:0:0:
440,136,95994,6,0,L|424:8,1,120.000004577637,2|0,2:0|0:0,0:0:0:0:
384,216,96336,2,0,L|240:248,1,120.000004577637,8|0,0:0|0:0,0:0:0:0:
184,264,96594,2,0,L|169:383,1,120.000004577637,2|0,2:0|0:0,0:0:0:0:
120,208,96851,2,0,L|56:192,1,60.0000022888184,2|0,2:0|0:0,0:0:0:0:
16,120,97022,2,0,P|48:56|24:0,1,120.000004577637,8|0,0:0|3:0,3:3:0:0:
16,0,97279,1,0,3:0:0:0:
80,72,97365,2,0,P|128:64|208:56,2,120.000004577637,2|0|8,2:0|0:3|0:3,0:0:0:0:
89,87,97794,5,0,0:3:0:0:
94,104,97879,1,0,0:3:0:0:
96,122,97965,1,0,0:3:0:0:
93,140,98051,5,0,0:0:0:0:
122,133,98136,1,0,0:0:0:0:
151,139,98222,1,0,0:0:0:0:
175,157,98308,1,0,0:0:0:0:
189,183,98394,1,10,0:0:0:0:
224,152,98479,5,2,0:0:0:0:
221,112,98565,1,2,0:0:0:0:
218,72,98651,1,2,0:0:0:0:
216,32,98736,6,0,L|280:40,1,60.0000022888184,2|0,2:0|0:0,0:0:0:0:
360,32,98908,2,0,L|500:24,2,120.000004577637,0|8|4,0:0|0:0|0:0,0:0:0:0:
336,120,99336,2,0,B|320:192|320:192|360:264,1,120.000004577637,2|0,2:0|0:0,0:0:0:0:
416,288,99594,2,0,B|432:216|432:216|392:144,1,120.000004577637,2|8,2:0|0:0,0:0:0:0:
264,256,99936,1,2,2:0:0:0:
232,264,100022,2,0,P|208:208|240:160,1,120.000004577637,0|0,0:0|0:0,0:0:0:0:
136,120,100279,2,0,P|176:176|160:232,2,120.000004577637,2|8|0,2:0|0:3|0:0,0:0:0:0:
0,304,100708,2,0,L|120:288,1,120.000004577637,0|0,0:0|0:0,0:0:0:0:
32,320,100965,2,0,L|152:304,1,120.000004577637,0|8,0:0|0:0,0:0:0:0:
232,264,101222,2,0,L|240:112,1,120.000004577637,0|0,0:0|0:0,0:0:0:0:
296,72,101479,6,0,L|360:80,2,60.0000022888184,0|0|0,0:0|0:0|0:0,0:0:0:0:
136,120,101822,1,8,0:0:0:0:
152,96,101908,2,0,P|104:48|48:88,1,120.000004577637,0|2,0:0|2:0,0:0:0:0:
16,144,102165,2,0,B|-24:136|-24:136|8:248,1,120.000004577637,0|2,0:0|2:0,0:0:0:0:
24,288,102422,1,0,0:0:0:0:
48,360,102508,2,0,L|208:376,1,120.000004577637,8|0,0:0|0:0,0:0:0:0:
359,328,102765,2,0,P|275:337|231:264,1,180.000006866455,0|0,0:0|0:0,0:0:0:0:
40,192,103194,2,0,L|200:208,1,120.000004577637,8|0,0:0|0:0,0:0:0:0:
352,161,103451,2,0,P|267:170|223:97,1,180.000006866455,2|2,2:0|2:0,0:0:0:0:
32,24,103879,5,8,0:0:0:0:
47,49,103965,1,0,0:0:0:0:
72,66,104051,1,0,0:0:0:0:
101,73,104136,1,0,0:0:0:0:
130,69,104222,6,0,P|160:56|184:24,1,60.0000022888184,2|0,2:0|0:0,0:0:0:0:
120,160,104394,2,0,P|112:232|72:264,1,120.000004577637,0|8,0:0|0:0,0:0:0:0:
120,368,104651,2,0,P|56:352|-8:360,1,120.000004577637,0|2,0:0|2:0,0:0:0:0:
176,304,104908,2,0,L|296:296,1,120.000004577637,0|2,0:0|2:0,0:0:0:0:
496,336,105251,2,0,B|436:345|436:345|376:328,1,120.000004577637,8|2,0:0|2:0,0:0:0:0:
376,240,105508,2,0,P|392:168|392:120,1,120.000004577637,0|0,0:0|0:0,0:0:0:0:
360,40,105765,2,0,B|303:23|303:23|243:32,2,120.000004577637,0|8|0,0:0|0:0|0:0,0:0:0:0:
440,64,106194,2,0,B|512:48|512:48|432:16,1,120.000004577637,2|0,2:0|0:0,0:0:0:0:
480,168,106451,2,0,L|488:232,1,60.0000022888184,2|0,2:0|0:0,0:0:0:0:
496,336,106622,5,8,0:0:0:0:
468,324,106708,1,0,0:0:0:0:
440,312,106794,1,0,0:0:0:0:
411,317,106879,1,0,0:0:0:0:
381,322,106965,5,2,2:0:0:0:
264,344,107136,2,0,L|272:240,1,60.0000022888184,0|0,0:0|0:0,0:0:0:0:
269,103,107308,2,0,P|209:103|152:120,1,120.000004577637,8|0,0:0|0:0,0:0:0:0:
170,248,107565,2,0,P|230:248|288:232,1,120.000004577637,2|0,2:0|0:0,0:0:0:0:
96,192,107822,2,0,L|8:184,1,60.0000022888184,0|0,2:0|0:3,0:0:0:0:
0,112,107994,2,0,L|6:231,1,120.000004577637,8|0,0:1|0:0,0:0:0:0:
6,231,108251,1,0,0:0:0:0:
6,231,108336,5,2,2:0:0:0:
120,280,108508,1,0,0:0:0:0:
32,320,108679,5,8,0:0:0:0:
32,320,108765,1,0,0:0:0:0:
19,276,108851,5,0,0:0:0:0:
19,276,108936,1,0,0:0:0:0:
6,231,109022,5,0,0:0:0:0:
6,231,109108,1,0,0:0:0:0:
52,212,109194,5,0,0:0:0:0:
52,212,109279,1,0,0:0:0:0:
96,192,109365,5,10,0:0:0:0:
101,213,109451,1,2,0:0:0:0:
107,235,109536,1,2,0:0:0:0:
113,257,109622,1,2,0:0:0:0:
120,280,109708,6,0,P|160:296|208:296,2,80,2|0|8,0:2|0:0|3:1,3:3:0:0:
52,212,110136,2,0,L|40:304,1,80,0|2,0:0|0:2,0:0:0:0:
128,152,110394,2,0,L|117:72,1,80,0|2,0:2|0:2,0:0:0:0:
112,40,110651,1,0,0:0:0:0:
112,40,110736,1,8,0:0:0:0:
240,88,110908,1,0,3:0:0:0:
256,96,110994,2,0,P|264:152|200:176,1,120,0|0,3:0|0:0,0:0:0:0:
32,120,111422,5,8,0:0:0:0:
112,40,111594,1,0,0:0:0:0:
117,72,111679,2,0,L|128:152,1,80,2|0,0:2|0:0,0:0:0:0:
192,208,111936,2,0,L|184:280,1,40,2|0,0:2|0:0,0:0:0:0:
272,176,112108,2,0,L|360:168,1,80,8|0,0:0|0:0,0:0:0:0:
440,192,112365,1,0,0:0:0:0:
456,208,112451,6,0,P|464:152|448:104,1,80,6|0,0:2|0:0,0:0:0:0:
368,64,112794,1,8,0:0:0:0:
352,48,112879,2,0,P|344:104|360:152,1,80,0|2,0:0|0:2,0:0:0:0:
416,8,113136,2,0,L|504:0,1,80,0|2,0:0|0:2,0:0:0:0:
272,40,113394,2,0,L|208:32,1,40,0|8,0:0|0:0,0:0:0:0:
368,144,113651,1,0,0:0:0:0:
368,144,113736,2,0,P|368:192|360:224,1,80,0|0,0:0|3:0,0:0:0:0:
288,256,113994,6,0,L|200:264,1,80,2|2,0:2|0:2,0:0:0:0:
136,296,114251,2,0,P|127:334|128:374,1,80,0|0,3:0|3:0,0:0:0:0:
144,216,114508,2,0,P|80:224|40:240,1,80,2|2,3:2|3:2,0:0:0:0:
48,240,114765,1,0,3:0:0:0:
112,176,114851,2,0,L|120:136,1,40,8|0,0:0|0:0,0:0:0:0:
136,296,115022,2,0,L|144:336,1,40,0|0,0:0|0:0,0:0:0:0:
208,224,115194,6,0,P|240:176|280:160,2,80,0|0|8,0:0|0:0|0:0,0:0:0:0:
184,304,115622,2,0,L|192:384,1,80,0|2,0:0|0:2,0:0:0:0:
296,328,115879,2,0,L|288:248,1,80,0|2,0:0|0:2,0:0:0:0:
288,248,116222,1,8,0:0:0:0:
440,272,116394,1,0,0:0:0:0:
424,280,116479,2,0,P|416:336|480:360,1,120,0|0,0:0|0:0,0:0:0:0:
456,264,116908,5,8,0:0:0:0:
376,384,117079,1,0,0:0:0:0:
392,376,117165,2,0,P|392:336|360:304,1,80,2|0,0:2|0:0,0:0:0:0:
288,320,117422,2,0,L|240:328,1,40,2|0,0:2|0:0,0:0:0:0:
280,240,117594,2,0,L|271:135,1,80,8|0,0:0|0:0,0:0:0:0:
264,80,117851,1,0,0:0:0:0:
256,0,117936,6,0,P|200:48|144:40,1,120,0|0,0:0|0:0,0:0:0:0:
112,64,118279,2,0,P|168:72|200:104,1,80,8|0,0:0|0:0,0:0:0:0:
240,144,118536,2,0,L|344:128,1,80,2|0,0:2|0:0,0:0:0:0:
384,176,118794,2,0,P|440:168|472:136,1,80,2|8,0:2|0:0,0:0:0:0:
392,8,119136,1,0,0:0:0:0:
392,8,119222,1,0,0:0:0:0:
392,8,119308,6,0,L|400:104,1,80,8|8,0:0|0:0,0:0:0:0:
392,192,119565,1,8,0:0:0:0:
384,176,119651,2,0,L|378:110,1,40,8|8,0:0|0:0,0:0:0:0:
472,48,119822,2,0,L|477:-17,1,40,8|8,0:0|0:0,0:0:0:0:
316,40,119994,2,0,L|320:80,1,40,8|8,0:0|0:0,0:0:0:0:
491,136,120165,2,0,L|488:176,1,40,8|8,0:0|0:0,0:0:0:0:
315,277,120336,38,2,L|320:224,2,53.3333333333333,2|2|2,0:2|2:2|0:2,0:0:0:0:
336,320,120679,6,0,P|400:312|432:312,1,90.0000034332277,0|0,0:0|0:0,0:0:0:0:
425,311,121022,1,8,0:0:0:0:
248,376,121194,1,2,0:2:0:0:
248,376,121279,1,0,0:0:0:0:
248,376,121365,2,0,L|240:304,1,60.0000022888184,0|0,0:0|0:0,0:0:0:0:
288,232,121708,2,0,L|280:160,1,60.0000022888184,8|0,0:0|0:0,0:0:0:0:
281,172,121965,1,0,0:0:0:0:
281,172,122051,6,0,P|240:160|200:160,1,60.0000022888184,0|0,0:0|0:0,0:0:0:0:
176,256,122394,2,0,P|134:268|94:268,1,60.0000022888184,8|0,0:0|0:0,0:0:0:0:
96,264,122651,2,0,L|88:192,1,60.0000022888184,0|0,0:0|0:0,0:0:0:0:
88,176,122908,1,0,0:0:0:0:
176,8,123079,1,10,0:0:0:0:
176,8,123165,1,2,0:2:0:0:
176,8,123251,1,2,0:2:0:0:
176,8,123336,1,2,0:2:0:0:
176,8,123422,6,0,P|184:56|168:120,1,90.0000034332277,0|0,0:0|0:0,0:0:0:0:
177,96,123765,1,8,0:0:0:0:
56,32,123936,1,0,0:0:0:0:
48,40,124022,2,0,B|32:64|32:64|104:56,1,90.0000034332277,0|0,0:0|0:0,0:0:0:0:
320,64,124451,2,0,L|256:56,1,60.0000022888184,8|2,0:0|0:2,0:0:0:0:
260,56,124708,1,0,0:0:0:0:
260,56,124794,5,0,0:0:0:0:
280,144,124965,1,0,0:0:0:0:
368,120,125136,1,8,0:0:0:0:
352,32,125308,1,0,0:0:0:0:
440,8,125479,1,0,0:0:0:0:
456,96,125651,1,0,0:0:0:0:
394,5,125822,2,0,L|424:24,1,30.0000011444092,10|2,0:0|0:2,0:0:0:0:
360,136,125994,2,0,L|376:88,1,30.0000011444092,2|2,0:2|0:2,0:0:0:0:
480,112,126165,6,0,P|488:184|496:216,1,90.0000034332277,4|0,0:0|0:0,0:0:0:0:
491,201,126508,1,8,0:0:0:0:
448,352,126679,1,0,0:0:0:0:
432,336,126765,2,0,P|432:288|488:288,1,90.0000034332277,0|0,0:0|0:0,0:0:0:0:
336,256,127194,2,0,L|264:264,1,60.0000022888184,8|0,0:0|0:0,0:0:0:0:
276,262,127451,1,0,0:0:0:0:
276,262,127536,6,0,P|264:216|264:184,1,60.0000022888184,0|0,0:0|0:0,0:0:0:0:
408,168,127879,2,0,P|420:214|420:246,1,60.0000022888184,8|0,0:0|0:0,0:0:0:0:
421,226,128136,1,0,0:0:0:0:
421,226,128222,1,0,0:0:0:0:
368,304,128394,1,0,0:0:0:0:
276,262,128565,1,8,0:0:0:0:
276,262,128651,1,2,0:2:0:0:
276,262,128736,1,2,0:2:0:0:
276,262,128822,1,2,0:2:0:0:
276,262,128908,6,0,P|264:216|264:184,1,60.0000022888184,0|0,0:0|0:0,0:0:0:0:
384,24,129251,2,0,L|376:96,1,60.0000022888184,8|0,0:0|0:0,0:0:0:0:
368,128,129508,2,0,P|320:128|288:120,1,60.0000022888184,0|0,0:0|0:0,0:0:0:0:
272,112,129765,1,0,0:0:0:0:
96,40,129936,2,0,L|176:32,1,60.0000022888184,8|2,0:0|0:2,0:0:0:0:
155,34,130194,1,2,0:2:0:0:
155,34,130279,6,0,P|167:79|167:119,1,60.0000022888184,4|0,3:0|0:0,0:0:0:0:
40,272,130622,2,0,P|30:243|26:213,1,60.0000022888184,8|2,0:0|0:2,0:0:0:0:
34,181,130879,2,0,L|93:175,1,60.0000022888184,0|0,0:0|0:0,0:0:0:0:
136,168,131136,1,0,0:0:0:0:
128,160,131222,1,0,0:0:0:0:
120,152,131308,2,2,L|121:132,1,20,2|2,0:2|0:2,0:0:0:0:
40,272,131479,2,2,L|20:273,1,20,2|2,0:2|0:2,0:0:0:0:
144,264,131651,6,0,P|176:304|184:352,1,90.0000034332277,4|0,3:0|0:0,0:0:0:0:
184,341,131994,1,8,0:0:0:0:
64,368,132165,1,2,2:0:0:0:
56,360,132251,2,0,B|40:336|40:336|112:344,1,90.0000034332277,0|0,0:0|0:0,0:0:0:0:
312,288,132679,2,0,L|232:296,1,60.0000022888184,8|0,0:0|0:0,0:0:0:0:
252,293,132936,1,0,0:0:0:0:
252,293,133022,6,0,P|240:256|240:224,1,60.0000022888184,0|0,0:0|0:0,0:0:0:0:
464,80,133365,2,0,P|461:109|450:137,1,60.0000022888184,8|2,0:0|0:2,0:0:0:0:
432,160,133622,2,0,L|328:152,1,90.0000034332277,2|2,0:2|0:2,0:0:0:0:
312,160,133965,2,0,L|272:168,1,30.0000011444092,0|8,0:0|0:0,0:0:0:0:
400,232,134136,2,2,L|440:240,1,30.0000011444092,0|2,0:0|0:2,0:0:0:0:
320,304,134308,1,2,0:2:0:0:
312,288,134394,6,0,P|304:336|312:376,1,90.0000034332277,4|0,3:0|0:0,0:0:0:0:
312,376,134736,1,8,0:0:0:0:
400,232,134908,1,0,0:0:0:0:
400,232,134994,2,0,L|392:128,1,90.0000034332277,0|0,0:0|0:0,0:0:0:0:
393,142,135422,1,8,0:0:0:0:
336,72,135594,1,4,3:0:0:0:
336,72,135679,1,0,0:0:0:0:
336,72,135765,6,0,P|376:56|408:56,1,60.0000022888184,0|0,0:0|0:0,0:0:0:0:
312,192,136108,2,0,P|282:187|255:174,1,60.0000022888184,8|2,0:0|0:2,0:0:0:0:
255,174,136365,1,2,0:2:0:0:
255,174,136451,2,0,P|264:216|264:248,1,60.0000022888184,0|2,0:0|0:2,0:0:0:0:
128,256,136794,1,8,0:0:0:0:
128,256,136879,1,0,0:0:0:0:
128,256,136965,1,2,0:2:0:0:
128,256,137051,1,2,0:2:0:0:
128,256,137136,6,0,P|119:214|119:182,1,60.0000022888184,4|0,0:0|0:0,0:0:0:0:
62,354,137479,2,0,B|88:344|88:344|120:344,1,60.0000022888184,8|2,0:0|0:2,0:0:0:0:
200,312,137736,2,0,L|272:320,1,60.0000022888184,0|0,0:0|0:0,0:0:0:0:
344,328,137994,1,0,0:0:0:0:
456,344,138165,2,0,P|480:320|480:280,1,60.0000022888184,8|0,0:0|0:0,0:0:0:0:
472,272,138422,2,0,P|456:216|464:168,1,90.0000034332277,0|0,0:0|0:0,0:0:0:0:
458,185,138851,6,0,L|384:200,1,60.0000022888184,8|2,0:0|0:2,0:0:0:0:
368,208,139108,2,0,P|352:184|344:144,1,60.0000022888184,2|2,0:2|0:2,0:0:0:0:
344,120,139365,1,2,0:2:0:0:
264,192,139536,1,8,0:0:0:0:
272,216,139622,2,0,P|264:244|248:269,1,60.0000022888184,2|2,0:2|0:2,0:0:0:0:
224,288,139879,6,0,L|128:296,1,90.0000034332277,0|0,0:0|0:0,0:0:0:0:
134,295,140222,1,8,0:0:0:0:
296,336,140394,1,0,0:0:0:0:
296,336,140479,1,0,0:3:0:0:
296,336,140565,2,0,P|336:344|368:344,1,60.0000022888184,0|0,0:0|0:0,0:0:0:0:
368,216,140908,2,0,P|328:208|296:208,1,60.0000022888184,8|0,0:0|0:0,0:0:0:0:
308,207,141165,5,0,0:0:0:0:
308,207,141251,1,0,0:0:0:0:
416,288,141422,1,0,0:0:0:0:
296,336,141594,2,0,L|304:256,1,60.0000022888184,8|0,0:0|0:0,0:0:0:0:
308,207,141851,1,0,0:0:0:0:
308,207,141936,5,8,0:0:0:0:
112,256,142108,1,8,0:0:0:0:
112,256,142194,1,0,0:0:0:0:
112,256,142279,1,2,0:2:0:0:
56,72,142451,1,2,0:2:0:0:
136,128,142622,6,0,L|224:136,1,60.0000022888184,2|0,0:2|0:0,0:0:0:0:
195,133,142965,1,0,0:0:0:0:
272,168,143136,2,0,P|280:120|264:80,1,80,0|0,0:0|0:0,0:0:0:0:
270,90,143651,1,0,0:0:0:0:
270,90,143994,6,0,P|304:120|344:128,1,80,0|0,0:0|0:0,0:0:0:0:
488,80,144508,2,0,L|428:85,1,60.0000022888184,0|0,0:0|0:0,0:0:0:0:
428,85,144851,1,0,0:0:0:0:
336,48,145022,2,0,L|328:0,1,40,0|0,0:0|0:0,0:0:0:0:
416,184,145365,6,0,L|408:272,1,80,0|0,0:0|0:0,0:0:0:0:
440,208,145879,2,0,L|432:296,1,80,0|0,0:0|0:0,0:0:0:0:
424,368,146736,6,0,L|512:376,1,80,0|0,0:0|0:0,0:0:0:0:
312,352,147251,2,0,L|400:360,1,80,0|0,0:0|0:0,0:0:0:0:
208,368,148108,6,0,P|160:368|120:376,1,80,0|0,0:0|0:0,0:0:0:0:
24,296,148622,2,0,P|72:296|112:288,1,80,0|0,0:0|0:0,0:0:0:0:
103,290,149479,6,0,L|112:192,1,80,0|0,0:0|0:0,0:0:0:0:
184,152,149994,2,0,L|192:232,1,80,0|0,0:0|0:0,0:0:0:0:
191,231,150508,1,0,0:0:0:0:
110,210,150679,1,0,0:0:0:0:
264,192,150851,6,0,L|320:200,1,40,0|0,0:0|0:0,0:0:0:0:
368,256,151194,1,0,0:0:0:0:
386,180,151365,2,0,P|385:220|368:256,1,80,0|0,0:0|0:0,0:0:0:0:
368,256,152222,6,0,L|376:336,1,80,0|0,0:0|0:0,0:0:0:0:
448,272,152736,2,0,L|480:280,2,20,0|0|0,0:0|0:0|0:0,0:0:0:0:
375,335,153079,1,0,0:0:0:0:
288,304,153251,2,0,L|264:320,3,20,0|0|0|0,0:0|0:0|0:0|0:0,0:0:0:0:
304,272,153594,6,0,P|312:240|312:192,1,60.0000022888184,2|0,0:0|0:0,0:0:0:0:
240,72,153936,1,2,0:2:0:0:
224,64,154022,2,0,L|144:72,1,60.0000022888184,2|2,0:2|0:2,0:0:0:0:
64,144,154279,6,0,L|123:138,1,60.0000022888184,2|0,0:2|0:0,0:0:0:0:
48,8,154622,1,8,0:0:0:0:
32,16,154708,2,0,P|24:56|32:80,1,60.0000022888184,0|0,0:0|0:0,0:0:0:0:
64,144,154965,5,2,0:0:0:0:
40,272,155136,2,0,P|32:232|40:208,1,60.0000022888184,0|2,0:0|0:2,0:0:0:0:
64,144,155394,2,0,L|123:149,1,60.0000022888184,2|2,0:2|0:2,0:0:0:0:
200,160,155651,6,0,L|259:154,1,60.0000022888184,2|0,0:2|0:0,0:0:0:0:
336,144,155994,1,8,0:0:0:0:
355,145,156079,1,0,0:0:0:0:
375,147,156165,1,0,0:0:0:0:
395,149,156251,1,0,0:0:0:0:
432,136,156336,6,0,P|440:176|440:208,1,60.0000022888184,2|0,0:0|0:0,0:0:0:0:
328,312,156679,1,2,0:2:0:0:
312,328,156765,2,0,P|304:288|304:256,1,60.0000022888184,2|2,0:2|0:2,0:0:0:0:
344,176,157022,6,0,L|256:168,1,60.0000022888184,2|0,0:0|0:0,0:0:0:0:
408,288,157365,1,8,0:0:0:0:
408,288,157451,2,0,L|496:280,1,60.0000022888184,0|0,0:0|0:0,0:0:0:0:
336,336,157708,6,0,P|288:328|248:328,1,60.0000022888184,2|0,0:0|0:0,0:0:0:0:
112,304,158051,1,2,0:2:0:0:
120,288,158136,2,0,P|168:280|208:280,1,60.0000022888184,2|2,0:2|0:2,0:0:0:0:
256,232,158394,6,0,L|248:160,1,60.0000022888184,4|0,0:2|0:0,0:0:0:0:
230,33,158736,5,8,0:0:0:0:
161,39,158822,1,0,0:0:0:0:
91,46,158908,1,0,0:0:0:0:
22,53,158994,1,0,0:0:0:0:
56,72,159079,6,0,L|64:8,1,60.0000022888184,8|8,2:0|2:0,0:0:0:0:
169,132,159251,2,0,L|176:192,1,60.0000022888184,8|8,2:0|2:0,0:0:0:0:
336,191,159422,6,0,L|343:132,1,60.0000022888184,8|8,2:0|2:0,0:0:0:0:
448,12,159594,2,0,L|456:72,1,60.0000022888184,8|8,2:0|2:0,0:0:0:0:
448,312,159765,6,0,P|480:320|520:320,1,60.0000022888184,2|0,2:0|2:0,2:2:0:0:
408,328,159936,2,0,P|441:327|480:317,1,60.0000022888184,2|0,2:0|2:0,0:0:0:0:
376,352,160108,2,0,P|408:342|443:322,1,60.0000022888184,2|0,2:0|2:0,2:2:0:0:
352,384,160279,2,0,P|381:367|409:338,1,60.0000022888184,2|0,2:0|2:0,0:0:0:0:
280,344,160451,6,0,L|288:264,1,60.0000022888184,2|0,2:0|0:0,0:0:0:0:
192,352,160622,2,0,L|200:272,1,60.0000022888184,2|0,2:0|0:0,0:0:0:0:
104,360,160794,2,0,L|112:280,1,60.0000022888184,2|0,2:0|0:0,0:0:0:0:
16,368,160965,2,0,L|21:308,1,60.0000022888184,2|0,2:0|0:0,0:0:0:0:
81,124,161136,6,0,L|89:204,1,60.0000022888184,2|0,2:0|0:0,0:0:0:0:
174,191,161308,2,0,L|169:132,1,60.0000022888184,2|0,2:0|0:0,0:0:0:0:
256,144,161479,2,0,L|264:224,1,60.0000022888184,2|0,2:0|0:0,0:0:0:0:
349,211,161651,2,0,L|344:152,1,60.0000022888184,2|0,2:0|0:0,0:0:0:0:
440,240,161822,2,0,L|528:248,1,60.0000022888184,0|0,0:0|0:0,0:0:0:0:
500,138,161994,6,0,L|440:144,1,60.0000022888184,0|0,0:0|0:0,0:0:0:0:
72,240,162165,2,0,L|13:245,1,60.0000022888184,0|0,0:0|0:0,0:0:0:0:
13,138,162336,6,0,L|72:144,1,60.0000022888184,0|0,0:0|0:0,0:0:0:0:
304,312,162508,2,0,L|310:371,1,60.0000022888184,0|0,0:0|0:0,0:0:0:0:
202,372,162679,6,0,L|208:312,1,60.0000022888184,0|0,0:0|0:0,0:0:0:0:
304,72,162851,2,0,L|310:12,1,60.0000022888184,0|0,0:3|0:3,0:0:0:0:
202,12,163022,6,0,L|208:71,1,60.0000022888184,0|0,0:3|0:3,0:0:0:0:
256,192,163194,2,0,P|280:200|312:200,14,30.0000011444092,0|0|0|0|0|0|0|0|0|0|0|0|0|0|0,0:0|0:0|0:0|0:0|0:0|0:0|0:0|0:0|0:0|0:0|0:0|0:0|0:0|0:0|0:0,0:0:0:0:
304,72,163879,2,0,L|310:12,1,60.0000022888184,2|0,0:0|0:0,0:0:0:0:
202,12,164136,1,0,0:0:0:0:
202,12,164222,2,0,L|208:71,1,60.0000022888184,0|0,0:0|0:3,0:0:0:0:
256,192,164565,6,0,P|248:240|232:368,1,160,4|0,0:0|0:0,0:0:0:0:
176,96,165079,2,0,P|256:88|368:72,1,160,4|0,0:0|0:0,0:0:0:0:
136,208,165594,1,4,0:0:0:0:
136,208,167308,6,0,P|128:104|128:24,1,160,4|0,0:0|0:0,0:0:0:0:
40,136,167822,2,0,P|33:216|32:296,1,160,4|0,0:0|0:0,0:0:0:0:
344,368,168336,1,4,0:0:0:0:
344,368,170051,6,0,B|368:256|368:256|320:312,1,160,4|0,0:0|0:0,0:0:0:0:
446,65,170565,2,0,B|470:177|470:177|422:121,1,160,4|0,0:0|0:0,0:0:0:0:
496,280,171079,1,4,0:0:0:0:
496,280,172794,6,0,P|432:272|336:264,1,160,4|0,0:0|0:0,0:0:0:0:
96,240,173308,2,0,P|160:232|256:224,1,160,4|0,0:0|0:0,0:0:0:0:
400,368,173822,1,4,0:0:0:0:
400,368,175536,6,0,B|360:288|360:288|400:208,1,160,4|0,0:0|0:0,0:0:0:0:
312,16,176051,2,0,B|352:96|352:96|312:176,1,160,4|0,0:0|0:0,0:0:0:0:
216,256,176565,1,4,0:0:0:0:
136,248,176736,1,0,0:0:0:0:
56,240,176908,1,2,0:0:0:0:
56,240,177251,1,0,1:0:0:0:
216,256,177508,1,2,0:0:0:0:
232,248,177594,2,0,P|248:208|216:160,1,80,0|0,1:0|0:0,0:0:0:0:
296,112,177936,2,0,P|280:152|312:200,1,80,0|0,1:0|0:0,0:0:0:0:
416,224,178279,6,0,P|424:136|432:56,1,160,4|0,0:0|0:0,0:0:0:0:
352,304,178794,2,0,P|272:320|160:344,1,160,4|0,0:0|0:0,0:0:0:0:
456,320,179308,1,4,0:0:0:0:
448,232,179479,1,0,0:0:0:0:
440,144,179651,1,2,0:0:0:0:
440,144,179994,1,0,1:0:0:0:
456,320,180251,1,2,0:0:0:0:
440,336,180336,2,0,P|400:352|360:344,1,80,0|0,1:0|0:0,0:0:0:0:
208,168,180679,2,0,L|216:256,1,80,0|0,1:0|0:0,0:0:0:0:
176,320,180936,1,0,0:0:0:0:
96,336,181022,6,0,P|40:296|40:208,1,160,4|0,0:0|0:0,0:0:0:0:
288,55,181536,2,0,P|282:123|206:167,1,160,4|0,0:0|0:0,0:0:0:0:
48,96,182051,1,4,0:0:0:0:
128,88,182222,1,0,0:0:0:0:
208,80,182394,1,2,0:0:0:0:
48,96,182736,1,0,1:0:0:0:
208,80,182994,1,2,0:0:0:0:
224,88,183079,2,0,P|240:128|208:176,1,80,0|0,1:0|0:0,0:0:0:0:
288,224,183422,2,0,P|272:184|304:136,1,80,0|0,1:0|0:0,0:0:0:0:
304,144,183679,1,0,0:0:0:0:
352,288,183765,6,0,P|368:288|512:304,1,160,4|0,0:0|0:0,0:0:0:0:
288,224,184279,2,0,P|209:236|130:239,1,160,4|0,0:0|0:0,0:0:0:0:
408,192,184794,1,0,0:0:0:0:
415,103,184965,1,0,0:0:0:0:
424,16,185136,1,2,0:0:0:0:
408,192,185479,1,0,1:0:0:0:
424,16,185736,1,2,0:0:0:0:
400,0,185822,2,0,P|361:-5|325:10,1,80,0|0,1:0|0:0,0:0:0:0:
208,184,186165,5,2,1:2:0:0:
206,157,186251,1,2,0:0:0:0:
204,130,186336,1,2,0:0:0:0:
201,104,186422,1,2,0:0:0:0:
176,64,186508,6,0,L|120:56,2,40,6|0|0,0:0|0:0|0:0,0:0:0:0:
344,248,187022,2,0,L|323:300,1,40,2|0,0:0|0:0,0:0:0:0:
408,192,187194,6,0,L|464:184,2,40,0|0|0,0:0|0:0|0:0,0:0:0:0:
496,269,187708,2,0,L|456:264,1,40,0|0,0:0|0:0,0:0:0:0:
440,104,187879,6,0,L|480:109,2,40,2|0|0,0:0|0:0|0:0,0:0:0:0:
264,216,188394,2,0,L|256:280,1,40,2|0,0:0|0:0,0:0:0:0:
184,184,188565,6,0,L|176:248,2,40,0|0|0,0:0|0:0|0:0,0:0:0:0:
63,348,188908,2,0,P|43:343|24:344,1,40,0|0,0:0|0:0,0:0:0:0:
272,344,189251,6,0,L|320:336,2,40,2|0|0,0:0|0:0|0:0,0:0:0:0:
416,360,189594,2,0,L|386:322,1,40,0|2,0:0|0:0,0:0:0:0:
360,224,189851,2,0,L|346:261,1,40,0|0,0:0|0:0,0:0:0:0:
272,344,190108,2,0,L|320:336,2,40,0|0|0,0:0|0:0|0:0,0:0:0:0:
24,344,190622,6,0,P|16:304|16:288,1,40,2|0,0:0|0:0,0:0:0:0:
24,272,190879,2,0,L|32:223,1,40,0|0,0:0|0:0,0:0:0:0:
64,56,191136,2,0,L|58:16,2,40,2|0|0,0:0|0:0|0:0,0:0:0:0:
136,120,191479,2,0,L|128:176,1,40,0|0,0:0|0:0,0:0:0:0:
203,223,191822,2,0,L|208:184,1,40,0|2,0:0|1:2,0:0:0:0:
211,164,192079,5,0,0:0:0:0:
214,144,192165,1,2,1:2:0:0:
217,124,192251,1,0,0:0:0:0:
220,104,192336,1,0,0:0:0:0:
223,85,192422,1,0,0:0:0:0:
225,65,192508,2,0,L|231:29,1,20,2|0,1:2|0:0,0:0:0:0:
336,80,192679,5,2,1:2:0:0:
356,74,192765,1,0,0:0:0:0:
375,71,192851,2,0,L|408:80,1,20,2|0,1:2|0:0,0:0:0:0:
448,176,193022,5,2,1:2:0:0:
457,194,193108,1,0,0:0:0:0:
463,213,193194,1,0,0:0:0:0:
465,233,193279,1,0,0:0:0:0:
465,253,193365,2,0,L|432:248,1,20,2|0,1:2|0:0,0:0:0:0:
368,344,193536,5,2,1:2:0:0:
349,341,193622,1,0,0:0:0:0:
329,338,193708,1,0,0:0:0:0:
309,335,193794,1,0,0:0:0:0:
289,332,193879,2,0,L|254:326,1,20,2|0,1:2|0:0,0:0:0:0:
304,221,194051,5,2,1:2:0:0:
298,202,194136,1,0,0:0:0:0:
296,182,194222,2,0,L|305:148,1,20,2|0,1:2|0:3,0:0:0:0:
400,109,194394,5,2,1:2:0:0:
418,101,194479,1,0,0:3:0:0:
437,95,194565,1,0,0:3:0:0:
457,92,194651,1,0,0:3:0:0:
477,93,194736,6,0,L|472:72,6,15.0000005722046,2|0|0|0|0|0|0,0:0|0:0|0:3|0:0|0:3|0:0|0:3,0:0:0:0:
424,192,195079,2,0,L|416:224,3,30.0000011444092,2|0|0|0,1:2|0:3|0:3|0:3,0:0:0:0:
360,80,195422,2,0,L|353:50,3,30.0000011444092,2|2|2|2,0:0|0:0|0:0|0:0,0:0:0:0:
320,208,195765,2,0,L|312:240,3,30.0000011444092,2|2|2|2,0:0|0:0|0:0|0:0,0:0:0:0:
248,64,196108,38,0,L|241:34,2,26.6666666666667,4|0|0,0:0|0:0|0:0,0:0:0:0:
232,96,196451,1,0,0:0:0:0:
152,128,196794,1,0,0:0:0:0:
56,72,197136,6,0,P|56:40|72:80,1,120.000004577637,2|0,0:0|2:0,0:0:0:0:
64,232,197479,6,0,L|56:152,1,80,6|0,0:2|0:0,0:0:0:0:
72,320,197994,1,0,0:0:0:0:
64,232,198165,2,0,L|56:152,1,80,8|0,0:0|0:0,0:0:0:0:
72,320,198679,1,0,0:0:0:0:
208,304,198851,5,2,0:2:0:0:
288,328,199022,2,2,L|282:367,1,40,2|2,0:0|2:0,0:0:0:0:
368,320,199194,2,2,L|362:359,1,40,2|2,0:0|2:0,0:0:0:0:
448,312,199365,2,2,L|442:351,1,40,2|2,0:0|2:0,0:0:0:0:
512,256,199536,5,8,0:0:0:0:
412,197,199708,2,2,L|433:232,1,40,2|2,0:0|2:0,0:0:0:0:
331,205,199879,2,2,L|352:240,1,40,2|2,0:0|2:0,0:0:0:0:
251,213,200051,2,2,L|272:248,1,40,2|2,0:0|2:0,0:0:0:0:
208,304,200222,6,0,L|128:312,1,80,2|0,0:2|0:0,0:0:0:0:
14,298,200736,1,0,0:0:0:0:
14,298,200908,2,0,B|32:256|80:240|80:240|120:264|128:312,1,180.000006866455,8|0,0:0|0:0,0:0:0:0:
280,39,201594,6,0,P|250:38|221:46,1,60.0000022888184,2|2,0:2|0:0,0:0:0:0:
79,64,201936,2,0,P|108:56|138:57,1,60.0000022888184,2|2,0:0|0:0,0:0:0:0:
48,136,202279,5,10,0:0:0:0:
336,96,202451,1,2,0:0:0:0:
192,152,202622,2,0,L|200:232,1,80,2|2,0:0|0:0,0:0:0:0:
440,352,202965,6,0,P|464:304|456:272,1,80,2|0,0:2|0:0,0:0:0:0:
336,240,203479,1,0,0:0:0:0:
460,279,203651,2,0,P|352:288|440:352,1,280,8|0,0:0|0:0,0:0:0:0:
512,336,204336,5,4,0:2:0:0:
472,72,204508,1,0,0:0:0:0:
416,128,204679,1,0,0:0:0:0:
416,128,204765,1,0,0:0:0:0:
416,128,204851,2,0,L|408:192,1,40,2|0,0:0|0:0,0:0:0:0:
392,48,205022,1,8,0:0:0:0:
376,32,205108,2,0,P|320:16|272:64,1,120,0|0,0:0|0:0,0:0:0:0:
272,72,205451,5,0,0:0:0:0:
216,136,205536,1,2,0:0:0:0:
128,144,205622,1,2,0:0:0:0:
56,96,205708,6,0,P|40:168|96:224,1,160,2|0,0:2|0:0,0:0:0:0:
240,255,206222,1,0,0:0:0:0:
200,384,206394,2,0,P|184:312|240:256,1,160,8|0,0:0|0:0,0:0:0:0:
376,192,206908,1,0,0:0:0:0:
336,64,207079,6,0,P|320:136|376:192,2,160,2|2|8,0:2|0:2|0:0,0:0:0:0:
432,48,207936,1,0,0:0:0:0:
504,112,208108,1,8,0:0:0:0:
512,256,208279,1,0,0:0:0:0:
392,336,208451,6,0,L|304:336,1,80,6|0,0:2|0:0,0:0:0:0:
416,352,208965,1,0,0:0:0:0:
304,368,209136,2,0,L|384:368,1,80,4|0,0:0|0:0,0:0:0:0:
280,352,209651,1,0,0:0:0:0:
160,232,209822,5,2,0:2:0:0:
112,296,209994,2,2,P|104:320|104:336,1,40,2|2,0:0|2:0,0:0:0:0:
128,160,210165,2,2,P|111:141|97:133,1,40,2|2,0:0|2:0,0:0:0:0:
237,241,210336,2,2,P|261:235|275:227,1,40,2|2,0:0|2:0,0:0:0:0:
160,232,210508,5,8,0:0:0:0:
80,224,210679,2,2,P|55:229|41:237,1,40,2|2,1:0|2:0,0:0:0:0:
208,168,210851,2,2,P|216:144|216:128,1,40,2|2,1:0|2:0,0:0:0:0:
192,304,211022,2,2,P|208:322|222:330,1,40,2|2,1:0|2:0,3:3:0:0:
448,168,211194,6,0,L|456:80,1,80,2|0,0:2|0:0,0:0:0:0:
464,8,211708,1,0,0:0:0:0:
448,168,211879,2,0,B|466:216|466:216|455:88,1,180.000006866455,8|0,0:0|0:0,0:0:0:0:
448,8,212565,6,0,L|376:16,1,60.0000022888184,2|2,0:0|0:0,0:0:0:0:
256,168,212908,2,0,P|248:104|256:88,1,60.0000022888184,2|2,0:0|0:0,0:0:0:0:
360,200,213251,1,2,0:0:0:0:
272,264,213422,2,0,P|288:328|296:336,1,60.0000022888184,2|2,0:0|0:0,0:0:0:0:
168,232,213765,1,2,0:0:0:0:
88,48,213936,6,0,B|192:40|192:40|160:80,1,140,2|0,0:2|0:0,0:0:0:0:
160,80,214622,2,0,B|56:88|56:88|88:48,1,140,8|2,0:0|0:0,0:0:0:0:
88,48,215308,6,0,L|152:56,1,60,2|0,0:2|0:0,0:0:0:0:
312,144,215651,2,0,P|264:160|248:176,1,60.0000022888184,0|0,0:0|0:0,0:0:0:0:
208,232,215994,2,0,L|200:336,1,90.0000034332277,8|0,0:0|2:0,0:0:0:0:
208,336,216336,2,0,B|128:368|64:344|64:312|112:296|128:336,1,180.000006866455,2|0,0:0|2:0,0:0:0:0:
216,352,216679,6,0,L|288:344,1,60,2|0,0:2|2:0,0:0:0:0:
352,336,217022,2,0,P|488:296|440:240,1,240,0|0,0:0|2:0,0:0:0:0:
432,200,217365,2,0,L|360:192,1,60,8|0,0:0|2:0,0:0:0:0:
296,184,217708,2,0,P|160:144|208:88,1,240,0|0,0:0|2:0,0:0:0:0:
216,48,218051,5,0,0:0:0:0:
230,61,218136,1,2,0:0:0:0:
241,78,218222,2,0,P|246:89|249:106,1,20,0|0,0:0|0:0,0:0:0:0:
208,184,218394,1,0,0:0:0:0:
189,189,218479,1,2,0:0:0:0:
169,190,218565,2,0,P|156:188|140:182,1,20,0|0,0:0|0:0,0:0:0:0:
96,104,218736,1,0,0:0:0:0:
100,84,218822,1,2,0:0:0:0:
109,67,218908,2,0,P|116:57|129:46,1,20,0|0,0:0|0:0,0:0:0:0:
8,64,219079,2,0,L|16:96,3,20,0|2|0|0,0:0|0:0|0:0|0:0,0:0:0:0:
16,40,219422,6,0,B|8:112|8:112|8:144|32:168|32:168|24:216|56:256|56:256|24:280|8:328,1,280,4|0,0:0|0:0,0:0:0:0:
80,368,220108,2,0,P|120:320|168:352,1,120,12|0,0:0|0:0,0:0:0:0:
344,376,220794,5,2,0:2:0:0:
415,343,220965,2,2,L|451:326,1,40,2|2,0:0|2:0,0:0:0:0:
352,296,221136,2,2,L|356:256,1,40,2|2,0:0|2:0,0:0:0:0:
280,328,221308,2,2,L|250:301,1,40,2|2,0:0|2:0,0:0:0:0:
344,376,221479,5,8,0:0:0:0:
451,326,221651,2,2,L|486:308,1,40,2|2,0:0|2:0,0:0:0:0:
356,256,221822,2,2,L|360:216,1,40,2|2,0:0|2:0,0:0:0:0:
250,301,221994,2,2,L|220:274,1,40,2|2,0:3|2:0,0:0:0:0:
96,112,222165,6,0,P|128:96|176:96,1,80,2|0,0:2|0:0,0:0:0:0:
152,184,222679,1,0,0:0:0:0:
40,40,222851,2,0,P|112:8|192:8,1,160,8|2,0:0|0:2,0:0:0:0:
440,112,223708,6,0,P|448:80|440:40,1,60.0000022888184,2|2,0:0|0:0,0:0:0:0:
344,16,224051,1,2,0:0:0:0:
273,135,224222,2,0,P|256:106|254:65,1,60.0000022888184,10|2,0:0|0:0,0:0:0:0:
360,176,224565,2,0,L|368:256,1,80,2|2,0:0|0:0,0:0:0:0:
168,352,224908,6,0,P|104:368|32:360,1,140,2|0,0:2|0:0,0:0:0:0:
192,272,225594,2,0,P|96:192|0:296,1,280,0|0,0:0|0:0,0:0:0:0:
96,288,226279,5,2,0:2:0:0:
368,312,226451,1,0,0:0:0:0:
96,288,226622,1,2,0:2:0:0:
280,360,226794,1,0,0:3:0:0:
464,320,226965,5,8,0:0:0:0:
464,320,227051,2,0,P|456:264|416:224,1,80,0|0,0:0|0:0,0:0:0:0:
392,176,227308,2,0,P|384:152|392:120,1,40,8|0,0:0|0:0,0:0:0:0:
416,56,227479,2,0,P|432:37|464:28,1,40,0|0,0:0|0:0,0:0:0:0:
328,72,227651,6,0,L|200:64,1,120,2|0,0:2|0:0,0:0:0:0:
192,64,227994,1,0,0:0:0:0:
96,240,228165,1,0,0:0:0:0:
8,160,228336,2,0,L|136:152,1,120,8|0,0:0|0:0,0:0:0:0:
144,152,228679,1,0,0:0:0:0:
240,328,228851,1,0,0:0:0:0:
328,248,229022,6,0,L|200:240,1,120,2|0,0:2|0:0,0:0:0:0:
192,240,229365,1,2,0:2:0:0:
112,320,229536,1,0,0:0:0:0:
0,344,229708,2,0,P|56:360|80:360,1,80,8|0,0:0|0:0,0:0:0:0:
352,160,230051,2,0,P|312:162|274:176,1,80,8|0,0:0|0:0,0:0:0:0:
112,144,230394,6,0,P|56:128|80:72,1,120,6|0,0:2|0:0,0:0:0:0:
200,0,231079,2,0,P|146:11|155:65,1,120,8|0,0:0|0:0,0:0:0:0:
232,104,231765,5,2,0:2:0:0:
296,176,231936,2,2,L|256:184,1,40,2|2,0:0|2:0,0:0:0:0:
288,256,232108,2,2,L|248:264,1,40,2|2,0:0|2:0,0:0:0:0:
280,336,232279,2,2,L|240:344,1,40,2|2,0:0|2:0,0:0:0:0:
352,368,232451,5,8,0:0:0:0:
424,344,232622,2,2,L|472:360,1,40,2|2,0:0|2:0,0:0:0:0:
432,264,232794,2,2,L|480:280,1,40,2|2,0:0|2:0,0:0:0:0:
440,184,232965,2,2,L|477:196,1,40,2|2,0:0|2:0,0:0:0:0:
512,120,233136,6,0,L|504:32,1,80,2|0,0:2|0:0,0:0:0:0:
328,24,233651,1,0,0:0:0:0:
336,200,233822,2,0,L|319:21,1,160,8|2,0:0|0:2,0:0:0:0:
184,8,234679,6,0,P|152:0|96:8,1,80,2|2,0:0|0:0,0:0:0:0:
136,168,235022,1,2,0:0:0:0:
216,144,235194,2,0,L|232:80,1,60.0000022888184,10|2,0:0|0:0,0:0:0:0:
48,72,235536,2,0,L|56:152,1,60.0000022888184,2|2,0:0|0:0,0:0:0:0:
80,344,235879,6,0,P|120:376|200:352,1,140,2|0,0:2|0:0,0:0:0:0:
208,264,236565,2,0,P|150:228|88:255,1,140,8|0,0:0|0:0,0:0:0:0:
144,304,237251,6,0,L|232:296,2,80,2|2|2,1:0|0:2|1:0,0:0:0:0:
224,168,237765,1,2,1:2:0:0:
224,168,237936,2,8,L|368:176,1,120,8|0,0:0|0:0,0:0:0:0:
360,200,238279,2,0,P|400:208|448:184,1,80,2|0,0:0|2:0,0:0:0:0:
496,40,238622,6,0,L|424:48,1,60,2|0,0:2|2:0,0:0:0:0:
392,120,238965,6,0,B|408:160|408:160|392:216|392:216|416:240|416:240|408:296|408:296|424:384,1,240,0|0,0:2|2:0,0:0:0:0:
320,336,239308,6,0,L|248:328,1,60,8|0,1:0|2:0,0:0:0:0:
216,256,239651,6,0,B|232:216|232:216|216:160|216:160|240:136|240:136|232:80|232:80|248:-8,1,240,2|0,1:0|2:0,0:0:0:0:
380,179,239994,5,2,0:0:0:0:
384,160,240079,1,2,0:0:0:0:
388,139,240165,2,0,L|394:109,1,20,0|0,0:0|0:0,0:0:0:0:
112,296,240336,5,0,0:0:0:0:
104,272,240422,1,2,0:0:0:0:
96,248,240508,2,0,L|80:192,1,40,0|0,0:0|0:0,0:0:0:0:
240,384,240679,5,0,0:0:0:0:
253,368,240765,1,2,0:0:0:0:
268,335,240851,1,0,0:0:0:0:
270,284,240936,1,0,0:0:0:0:
242,222,241022,1,0,0:0:0:0:
223,149,241108,1,2,0:0:0:0:
251,70,241194,1,0,0:0:0:0:
327,19,241279,1,0,0:0:0:0:
256,80,241365,5,4,0:0:0:0:
