osu file format v14

[General]
AudioFilename: audio.mp3
AudioLeadIn: 0
PreviewTime: 90444
Countdown: 0
SampleSet: Normal
StackLeniency: 0.7
Mode: 1
LetterboxInBreaks: 0
WidescreenStoryboard: 0

[Editor]
DistanceSpacing: 5.3
BeatDivisor: 8
GridSize: 32
TimelineZoom: 3.599999

[Metadata]
Title:Nexta
TitleUnicode:Nexta
Artist:lapix
ArtistUnicode:lapix
Creator:TKS
Version:Oni
Source:SOUND VOLTEX III GRAVITY WARS e-AMUSEMENT CLOUD
Tags:
BeatmapID:1540658
BeatmapSetID:726669

[Difficulty]
HPDrainRate:6
CircleSize:5
OverallDifficulty:6
ApproachRate:5
SliderMultiplier:1.4
SliderTickRate:1

[Events]
//Background and Video events
0,0,"bg.png",0,70
//Break Periods
2,65519,70119
//Storyboard Layer 0 (Background)
//Storyboard Layer 1 (Fail)
//Storyboard Layer 2 (Pass)
//Storyboard Layer 3 (Foreground)
//Storyboard Layer 4 (Overlay)
//Storyboard Sound Samples

[TimingPoints]
69,375,4,1,0,70,1,8
69,-111.111111111111,4,1,0,70,0,8
819,375,4,1,0,70,1,0
819,-111.111111111111,4,1,0,70,0,0
5272,-100,4,1,0,85,0,0
29272,-100,4,1,0,70,0,0
41647,-111.111111111111,4,1,0,70,0,0
53319,-100,4,1,0,70,0,0
65412,-117.647058823529,4,1,0,50,0,0
77225,-100,4,1,0,75,0,0
86225,-100,4,1,0,80,0,0
90397,-100,4,1,0,100,0,0
90490,-99.009900990099,4,1,0,100,0,0
90584,-97.0873786407767,4,1,0,100,0,0
90678,-94.3396226415094,4,1,0,100,0,0
90819,-90.9090909090909,4,1,0,85,0,1
102444,-90.9090909090909,4,1,0,85,0,0
102819,-90.9090909090909,4,1,0,85,0,1
114819,-111.111111111111,4,1,0,60,0,0

[HitObjects]
256,192,631,5,8,0:0:0:0:
256,192,725,1,8,0:0:0:0:
256,192,819,1,0,0:0:0:0:
256,192,1100,1,0,0:0:0:0:
256,192,1381,1,8,0:0:0:0:
256,192,1569,1,0,0:0:0:0:
256,192,1756,1,0,0:0:0:0:
256,192,1944,1,8,0:0:0:0:
256,192,2131,1,8,0:0:0:0:
256,192,2225,1,8,0:0:0:0:
256,192,2319,1,0,0:0:0:0:
256,192,2412,1,0,0:0:0:0:
256,192,2506,1,0,0:0:0:0:
256,192,2600,1,0,0:0:0:0:
256,192,2694,1,8,0:0:0:0:
256,192,2881,1,8,0:0:0:0:
256,192,2975,1,8,0:0:0:0:
256,192,3162,1,0,0:0:0:0:
256,192,3256,1,8,0:0:0:0:
256,192,3444,1,0,0:0:0:0:
256,192,3537,1,8,0:0:0:0:
256,192,3631,1,8,0:0:0:0:
256,192,3725,1,0,0:0:0:0:
256,192,3819,1,8,0:0:0:0:
256,192,4006,1,0,0:0:0:0:
256,192,4100,1,8,0:0:0:0:
256,192,4194,1,0,0:0:0:0:
256,192,4381,1,8,0:0:0:0:
256,192,4475,1,8,0:0:0:0:
256,192,4569,1,0,0:0:0:0:
256,192,4662,1,8,0:0:0:0:
256,192,4756,1,8,0:0:0:0:
256,192,4850,1,8,0:0:0:0:
256,192,4944,1,0,0:0:0:0:
256,192,5319,1,4,0:0:0:0:
256,192,5506,1,8,0:0:0:0:
256,192,5694,1,0,0:0:0:0:
256,192,5881,1,0,0:0:0:0:
256,192,5975,1,8,0:0:0:0:
256,192,6162,1,8,0:0:0:0:
256,192,6350,1,8,0:0:0:0:
256,192,6444,1,0,0:0:0:0:
256,192,6631,1,8,0:0:0:0:
256,192,6819,1,0,0:0:0:0:
256,192,7006,1,0,0:0:0:0:
256,192,7100,1,0,0:0:0:0:
256,192,7194,1,8,0:0:0:0:
256,192,7381,1,8,0:0:0:0:
256,192,7475,1,8,0:0:0:0:
256,192,7569,1,0,0:0:0:0:
256,192,7756,1,0,0:0:0:0:
256,192,7944,1,8,0:0:0:0:
256,192,8319,1,0,0:0:0:0:
256,192,8412,1,8,0:0:0:0:
256,192,8506,1,0,0:0:0:0:
256,192,8694,1,8,0:0:0:0:
256,192,8881,1,0,0:0:0:0:
256,192,8975,1,8,0:0:0:0:
256,192,9162,1,8,0:0:0:0:
256,192,9256,1,8,0:0:0:0:
256,192,9444,1,0,0:0:0:0:
256,192,9631,1,8,0:0:0:0:
256,192,9819,1,0,0:0:0:0:
256,192,10006,1,8,0:0:0:0:
256,192,10100,1,0,0:0:0:0:
256,192,10287,1,0,0:0:0:0:
256,192,10381,1,8,0:0:0:0:
256,192,10569,1,0,0:0:0:0:
256,192,10662,1,0,0:0:0:0:
256,192,10756,1,0,0:0:0:0:
256,192,10944,1,12,0:0:0:0:
256,192,11319,1,0,0:0:0:0:
256,192,11506,1,8,0:0:0:0:
256,192,11694,1,0,0:0:0:0:
256,192,11881,1,0,0:0:0:0:
256,192,11975,1,8,0:0:0:0:
256,192,12162,1,8,0:0:0:0:
256,192,12350,1,8,0:0:0:0:
256,192,12444,1,0,0:0:0:0:
256,192,12631,1,8,0:0:0:0:
256,192,12819,1,0,0:0:0:0:
256,192,13006,1,0,0:0:0:0:
256,192,13100,1,0,0:0:0:0:
256,192,13194,1,8,0:0:0:0:
256,192,13381,1,8,0:0:0:0:
256,192,13475,1,8,0:0:0:0:
256,192,13569,1,0,0:0:0:0:
256,192,13756,1,0,0:0:0:0:
256,192,13944,1,8,0:0:0:0:
256,192,14319,1,0,0:0:0:0:
256,192,14412,1,8,0:0:0:0:
256,192,14506,1,0,0:0:0:0:
256,192,14694,1,8,0:0:0:0:
256,192,14881,1,0,0:0:0:0:
256,192,14975,1,8,0:0:0:0:
256,192,15162,1,8,0:0:0:0:
256,192,15256,1,8,0:0:0:0:
256,192,15444,1,0,0:0:0:0:
256,192,15631,1,8,0:0:0:0:
256,192,15819,1,0,0:0:0:0:
256,192,16006,1,8,0:0:0:0:
256,192,16100,1,8,0:0:0:0:
256,192,16194,1,0,0:0:0:0:
256,192,16381,1,8,0:0:0:0:
256,192,16444,1,8,0:0:0:0:
256,192,16506,1,8,0:0:0:0:
256,192,16569,1,0,0:0:0:0:
256,192,16756,1,0,0:0:0:0:
256,192,16944,1,12,0:0:0:0:
256,192,17319,1,0,0:0:0:0:
256,192,17506,1,8,0:0:0:0:
256,192,17694,1,0,0:0:0:0:
256,192,17787,1,0,0:0:0:0:
256,192,17881,1,8,0:0:0:0:
256,192,18069,1,0,0:0:0:0:
256,192,18162,1,8,0:0:0:0:
256,192,18350,1,8,0:0:0:0:
256,192,18444,1,0,0:0:0:0:
256,192,18537,1,0,0:0:0:0:
256,192,18631,1,8,0:0:0:0:
256,192,18819,1,0,0:0:0:0:
256,192,19006,1,8,0:0:0:0:
256,192,19194,1,0,0:0:0:0:
256,192,19287,1,0,0:0:0:0:
256,192,19381,1,8,0:0:0:0:
256,192,19475,1,8,0:0:0:0:
256,192,19569,1,0,0:0:0:0:
256,192,19756,1,0,0:0:0:0:
256,192,19944,1,8,0:0:0:0:
256,192,20319,1,0,0:0:0:0:
256,192,20506,1,8,0:0:0:0:
256,192,20694,1,0,0:0:0:0:
256,192,20787,1,0,0:0:0:0:
256,192,20881,1,8,0:0:0:0:
256,192,21069,1,0,0:0:0:0:
256,192,21162,1,8,0:0:0:0:
256,192,21350,1,8,0:0:0:0:
256,192,21444,1,0,0:0:0:0:
256,192,21537,1,0,0:0:0:0:
256,192,21631,1,8,0:0:0:0:
256,192,21819,1,0,0:0:0:0:
256,192,22006,1,0,0:0:0:0:
256,192,22100,1,8,0:0:0:0:
256,192,22194,1,0,0:0:0:0:
256,192,22287,1,0,0:0:0:0:
256,192,22381,1,8,0:0:0:0:
256,192,22569,1,8,0:0:0:0:
256,192,22662,1,8,0:0:0:0:
256,192,22756,1,0,0:0:0:0:
256,192,22944,1,12,0:0:0:0:
256,192,23319,1,0,0:0:0:0:
256,192,23506,1,8,0:0:0:0:
256,192,23694,1,0,0:0:0:0:
256,192,23787,1,0,0:0:0:0:
256,192,23881,1,8,0:0:0:0:
256,192,24069,1,0,0:0:0:0:
256,192,24162,1,8,0:0:0:0:
256,192,24350,1,8,0:0:0:0:
256,192,24444,1,0,0:0:0:0:
256,192,24537,1,0,0:0:0:0:
256,192,24631,1,8,0:0:0:0:
256,192,24819,1,0,0:0:0:0:
256,192,25006,1,8,0:0:0:0:
256,192,25100,1,8,0:0:0:0:
256,192,25194,1,0,0:0:0:0:
256,192,25287,1,8,0:0:0:0:
256,192,25381,1,0,0:0:0:0:
256,192,25475,1,0,0:0:0:0:
256,192,25569,1,8,0:0:0:0:
256,192,25756,1,0,0:0:0:0:
256,192,25944,1,8,0:0:0:0:
256,192,26319,1,0,0:0:0:0:
256,192,26412,1,0,0:0:0:0:
256,192,26506,1,0,0:0:0:0:
256,192,26600,1,0,0:0:0:0:
256,192,26694,1,8,0:0:0:0:
256,192,26787,1,8,0:0:0:0:
256,192,26881,1,8,0:0:0:0:
256,192,26975,1,8,0:0:0:0:
256,192,27069,1,0,0:0:0:0:
256,192,27256,1,8,0:0:0:0:
256,192,27350,1,8,0:0:0:0:
256,192,27444,1,0,0:0:0:0:
256,192,27537,1,8,0:0:0:0:
256,192,27631,1,0,0:0:0:0:
256,192,27819,1,12,0:0:0:0:
256,192,28100,1,12,0:0:0:0:
256,192,28381,1,12,0:0:0:0:
256,192,28662,1,12,0:0:0:0:
128,128,28944,2,0,L|96:192,1,70
256,192,29319,5,4,0:0:0:0:
256,192,29694,1,0,0:0:0:0:
256,192,29881,1,8,0:0:0:0:
256,192,30069,1,0,0:0:0:0:
256,192,30162,1,0,0:0:0:0:
256,192,30256,1,0,0:0:0:0:
256,192,30444,1,8,0:0:0:0:
256,192,30631,1,8,0:0:0:0:
256,192,30819,1,0,0:0:0:0:
256,192,31006,1,8,0:0:0:0:
256,192,31381,1,8,0:0:0:0:
256,192,31569,1,0,0:0:0:0:
256,192,31662,1,0,0:0:0:0:
256,192,31756,1,0,0:0:0:0:
256,192,31944,1,8,0:0:0:0:
256,192,32131,1,8,0:0:0:0:
256,192,32225,1,8,0:0:0:0:
256,192,32319,1,0,0:0:0:0:
256,192,32694,1,0,0:0:0:0:
256,192,32881,1,8,0:0:0:0:
256,192,33069,1,0,0:0:0:0:
256,192,33162,1,0,0:0:0:0:
256,192,33256,1,0,0:0:0:0:
256,192,33444,1,8,0:0:0:0:
256,192,33631,1,8,0:0:0:0:
256,192,33819,1,0,0:0:0:0:
256,192,34006,1,8,0:0:0:0:
256,192,34100,1,0,0:0:0:0:
256,192,34287,1,0,0:0:0:0:
256,192,34381,1,8,0:0:0:0:
256,192,34569,1,0,0:0:0:0:
256,192,34662,1,8,0:0:0:0:
256,192,34756,1,0,0:0:0:0:
256,192,34850,1,0,0:0:0:0:
256,192,34944,1,8,0:0:0:0:
256,192,35131,1,8,0:0:0:0:
256,192,35225,1,8,0:0:0:0:
256,192,35319,1,0,0:0:0:0:
256,192,35694,1,0,0:0:0:0:
256,192,35881,1,8,0:0:0:0:
256,192,36069,1,0,0:0:0:0:
256,192,36162,1,0,0:0:0:0:
256,192,36256,1,0,0:0:0:0:
256,192,36444,1,8,0:0:0:0:
256,192,36631,1,8,0:0:0:0:
256,192,36819,1,0,0:0:0:0:
256,192,37006,1,8,0:0:0:0:
256,192,37381,1,8,0:0:0:0:
256,192,37569,1,0,0:0:0:0:
256,192,37662,1,0,0:0:0:0:
256,192,37756,1,0,0:0:0:0:
256,192,37944,1,8,0:0:0:0:
256,192,38131,1,8,0:0:0:0:
256,192,38225,1,8,0:0:0:0:
256,192,38319,1,0,0:0:0:0:
256,192,38694,1,0,0:0:0:0:
256,192,38881,1,8,0:0:0:0:
256,192,38975,1,8,0:0:0:0:
256,192,39069,1,0,0:0:0:0:
256,192,39444,1,8,0:0:0:0:
256,192,39631,1,8,0:0:0:0:
256,192,39819,1,0,0:0:0:0:
256,192,39912,1,0,0:0:0:0:
256,192,40006,1,8,0:0:0:0:
256,192,40100,1,8,0:0:0:0:
256,192,40194,1,0,0:0:0:0:
256,192,40287,1,8,0:0:0:0:
256,192,40381,1,8,0:0:0:0:
256,192,40569,1,0,0:0:0:0:
256,192,40662,1,8,0:0:0:0:
256,192,40850,1,8,0:0:0:0:
256,192,40944,1,0,0:0:0:0:
256,192,41037,1,0,0:0:0:0:
256,192,41131,1,8,0:0:0:0:
256,192,41319,1,4,0:0:0:0:
256,192,41694,1,8,0:0:0:0:
256,192,41881,1,0,0:0:0:0:
256,192,42256,1,0,0:0:0:0:
256,192,42444,1,8,0:0:0:0:
256,192,42631,1,8,0:0:0:0:
256,192,42725,1,8,0:0:0:0:
256,192,42819,1,0,0:0:0:0:
256,192,43006,1,0,0:0:0:0:
256,192,43194,1,8,0:0:0:0:
256,192,43381,1,0,0:0:0:0:
256,192,43756,1,0,0:0:0:0:
256,192,43944,1,8,0:0:0:0:
256,192,44319,1,0,0:0:0:0:
256,192,44694,1,8,0:0:0:0:
256,192,44881,1,0,0:0:0:0:
256,192,45256,1,0,0:0:0:0:
256,192,45444,1,8,0:0:0:0:
256,192,45631,1,8,0:0:0:0:
256,192,45725,1,8,0:0:0:0:
256,192,45819,1,0,0:0:0:0:
256,192,45912,1,0,0:0:0:0:
256,192,46006,1,0,0:0:0:0:
256,192,46194,1,8,0:0:0:0:
256,192,46381,1,0,0:0:0:0:
256,192,46756,1,0,0:0:0:0:
256,192,46850,1,0,0:0:0:0:
256,192,46944,1,8,0:0:0:0:
256,192,47319,1,4,0:0:0:0:
256,192,47694,1,8,0:0:0:0:
256,192,47881,1,0,0:0:0:0:
256,192,48256,1,0,0:0:0:0:
256,192,48444,1,8,0:0:0:0:
256,192,48631,1,8,0:0:0:0:
256,192,48725,1,8,0:0:0:0:
256,192,48819,1,0,0:0:0:0:
256,192,49006,1,0,0:0:0:0:
256,192,49194,1,8,0:0:0:0:
256,192,49381,1,0,0:0:0:0:
256,192,49756,1,0,0:0:0:0:
256,192,49944,1,8,0:0:0:0:
256,192,50319,1,0,0:0:0:0:
256,192,50694,1,8,0:0:0:0:
256,192,50881,1,0,0:0:0:0:
256,192,51256,1,0,0:0:0:0:
256,192,51444,1,8,0:0:0:0:
256,192,51631,1,8,0:0:0:0:
256,192,51725,1,8,0:0:0:0:
256,192,51819,1,0,0:0:0:0:
256,192,51912,1,0,0:0:0:0:
256,192,52006,1,0,0:0:0:0:
256,192,52194,1,8,0:0:0:0:
256,192,52381,1,0,0:0:0:0:
256,192,52569,1,8,0:0:0:0:
256,192,52662,1,8,0:0:0:0:
256,192,52756,1,0,0:0:0:0:
256,192,52850,1,0,0:0:0:0:
256,192,52944,1,8,0:0:0:0:
256,192,53037,1,8,0:0:0:0:
256,192,53131,1,8,0:0:0:0:
256,192,53319,1,0,0:0:0:0:
256,192,53506,1,8,0:0:0:0:
256,192,53694,1,0,0:0:0:0:
256,192,53881,1,8,0:0:0:0:
256,192,53975,1,0,0:0:0:0:
256,192,54162,1,0,0:0:0:0:
256,192,54256,1,8,0:0:0:0:
256,192,54444,1,0,0:0:0:0:
256,192,54631,1,8,0:0:0:0:
256,192,54725,1,8,0:0:0:0:
256,192,54819,1,0,0:0:0:0:
256,192,55006,1,0,0:0:0:0:
256,192,55100,1,8,0:0:0:0:
256,192,55287,1,8,0:0:0:0:
256,192,55381,1,0,0:0:0:0:
256,192,55569,1,8,0:0:0:0:
256,192,55662,1,8,0:0:0:0:
256,192,55756,1,8,0:0:0:0:
256,192,55850,1,8,0:0:0:0:
256,192,55944,1,8,0:0:0:0:
256,192,56037,1,8,0:0:0:0:
256,192,56319,1,0,0:0:0:0:
256,192,56506,1,8,0:0:0:0:
256,192,56694,1,0,0:0:0:0:
256,192,56881,1,8,0:0:0:0:
256,192,56975,1,0,0:0:0:0:
256,192,57162,1,0,0:0:0:0:
256,192,57256,1,8,0:0:0:0:
256,192,57444,1,0,0:0:0:0:
256,192,57631,1,8,0:0:0:0:
256,192,57725,1,8,0:0:0:0:
256,192,57819,1,0,0:0:0:0:
256,192,57912,1,0,0:0:0:0:
256,192,58006,1,0,0:0:0:0:
256,192,58194,1,8,0:0:0:0:
256,192,58475,1,0,0:0:0:0:
256,192,58756,1,0,0:0:0:0:
256,192,58850,1,0,0:0:0:0:
256,192,58944,1,8,0:0:0:0:
256,192,59037,1,8,0:0:0:0:
256,192,59131,1,8,0:0:0:0:
256,192,59225,1,8,0:0:0:0:
256,192,59319,1,0,0:0:0:0:
256,192,59506,1,8,0:0:0:0:
256,192,59694,1,0,0:0:0:0:
256,192,59787,1,0,0:0:0:0:
256,192,59881,1,8,0:0:0:0:
256,192,60069,1,0,0:0:0:0:
256,192,60256,1,8,0:0:0:0:
256,192,60350,1,8,0:0:0:0:
256,192,60444,1,0,0:0:0:0:
256,192,60631,1,8,0:0:0:0:
256,192,60819,1,0,0:0:0:0:
256,192,61006,1,0,0:0:0:0:
256,192,61100,1,8,0:0:0:0:
256,192,61287,1,8,0:0:0:0:
256,192,61381,1,0,0:0:0:0:
256,192,61569,1,8,0:0:0:0:
256,192,61662,1,8,0:0:0:0:
256,192,61756,1,8,0:0:0:0:
256,192,61850,1,8,0:0:0:0:
256,192,61944,1,8,0:0:0:0:
256,192,62037,1,8,0:0:0:0:
256,192,62319,1,0,0:0:0:0:
256,192,62412,1,0,0:0:0:0:
256,192,62506,1,0,0:0:0:0:
256,192,62600,1,0,0:0:0:0:
256,192,62694,1,8,0:0:0:0:
256,192,62787,1,8,0:0:0:0:
256,192,62881,1,0,0:0:0:0:
256,192,62975,1,8,0:0:0:0:
256,192,63069,1,0,0:0:0:0:
256,192,63256,1,0,0:0:0:0:
256,192,63350,1,0,0:0:0:0:
256,192,63444,1,8,0:0:0:0:
256,192,63537,1,8,0:0:0:0:
256,192,63631,1,8,0:0:0:0:
256,192,63725,1,8,0:0:0:0:
256,192,63819,1,0,0:0:0:0:
256,192,64194,1,8,0:0:0:0:
256,192,64381,1,8,0:0:0:0:
256,192,64475,1,8,0:0:0:0:
256,192,64569,1,8,0:0:0:0:
256,192,64756,1,0,0:0:0:0:
256,192,64944,1,12,0:0:0:0:
256,192,65319,1,4,0:0:0:0:
256,192,71319,5,0,0:0:0:0:
256,192,71506,1,8,0:0:0:0:
256,192,71881,1,8,0:0:0:0:
256,192,72069,1,8,0:0:0:0:
256,192,72256,1,8,0:0:0:0:
256,192,72631,1,8,0:0:0:0:
256,192,72819,1,0,0:0:0:0:
256,192,73006,1,8,0:0:0:0:
256,192,73100,1,8,0:0:0:0:
256,192,73381,1,8,0:0:0:0:
256,192,73756,1,8,0:0:0:0:
256,192,73944,1,8,0:0:0:0:
256,192,74131,1,8,0:0:0:0:
256,192,74319,1,0,0:0:0:0:
256,192,74506,1,8,0:0:0:0:
256,192,74881,1,8,0:0:0:0:
256,192,75069,1,8,0:0:0:0:
256,192,75256,1,8,0:0:0:0:
256,192,75631,1,8,0:0:0:0:
256,192,75819,1,0,0:0:0:0:
256,192,76006,1,8,0:0:0:0:
256,192,76100,1,8,0:0:0:0:
256,192,76194,1,8,0:0:0:0:
256,192,76381,1,8,0:0:0:0:
256,192,76475,1,8,0:0:0:0:
256,192,76569,1,8,0:0:0:0:
256,192,76756,1,8,0:0:0:0:
256,192,76944,1,8,0:0:0:0:
256,192,77131,1,8,0:0:0:0:
256,192,77319,1,4,0:0:0:0:
256,192,77881,1,0,0:0:0:0:
256,192,78069,1,8,0:0:0:0:
256,192,78256,1,8,0:0:0:0:
256,192,78444,1,0,0:0:0:0:
256,192,78631,1,8,0:0:0:0:
256,192,78819,1,0,0:0:0:0:
256,192,79100,1,0,0:0:0:0:
256,192,79194,1,8,0:0:0:0:
256,192,79381,1,8,0:0:0:0:
256,192,79569,1,0,0:0:0:0:
256,192,79756,1,0,0:0:0:0:
256,192,79944,1,8,0:0:0:0:
256,192,80131,1,8,0:0:0:0:
256,192,80319,1,0,0:0:0:0:
256,192,80881,1,0,0:0:0:0:
256,192,81069,1,8,0:0:0:0:
256,192,81256,1,0,0:0:0:0:
256,192,81444,1,8,0:0:0:0:
256,192,81631,1,8,0:0:0:0:
256,192,81819,1,0,0:0:0:0:
256,192,82006,1,8,0:0:0:0:
256,192,82100,1,8,0:0:0:0:
256,192,82287,1,8,0:0:0:0:
256,192,82381,1,8,0:0:0:0:
256,192,82569,1,0,0:0:0:0:
256,192,82756,1,0,0:0:0:0:
256,192,82944,1,8,0:0:0:0:
256,192,83319,1,0,0:0:0:0:
256,192,83506,1,0,0:0:0:0:
256,192,83600,1,0,0:0:0:0:
256,192,83694,1,0,0:0:0:0:
256,192,83881,1,8,0:0:0:0:
256,192,84069,1,0,0:0:0:0:
256,192,84256,1,0,0:0:0:0:
256,192,84444,1,8,0:0:0:0:
256,192,84631,1,8,0:0:0:0:
256,192,84819,1,0,0:0:0:0:
256,192,85006,1,0,0:0:0:0:
256,192,85100,1,0,0:0:0:0:
256,192,85194,1,0,0:0:0:0:
256,192,85381,1,8,0:0:0:0:
256,192,85569,1,0,0:0:0:0:
256,192,85756,1,0,0:0:0:0:
256,192,85944,1,8,0:0:0:0:
256,192,86131,1,8,0:0:0:0:
256,192,86319,12,8,89131,0:0:0:0:
256,192,89319,5,8,0:0:0:0:
256,192,89694,1,8,0:0:0:0:
256,192,90069,1,8,0:0:0:0:
256,192,90444,1,8,0:0:0:0:
256,192,90537,1,8,0:0:0:0:
256,192,90631,1,8,0:0:0:0:
256,192,90725,1,8,0:0:0:0:
256,192,90819,1,4,0:0:0:0:
256,192,91006,1,8,0:0:0:0:
256,192,91194,1,0,0:0:0:0:
256,192,91287,1,0,0:0:0:0:
256,192,91381,1,0,0:0:0:0:
256,192,91569,1,8,0:0:0:0:
256,192,91756,1,0,0:0:0:0:
256,192,91850,1,8,0:0:0:0:
256,192,91944,1,0,0:0:0:0:
256,192,92037,1,0,0:0:0:0:
256,192,92131,1,8,0:0:0:0:
256,192,92319,1,0,0:0:0:0:
256,192,92506,1,8,0:0:0:0:
256,192,92600,1,0,0:0:0:0:
256,192,92787,1,0,0:0:0:0:
256,192,92881,1,8,0:0:0:0:
256,192,93069,1,0,0:0:0:0:
256,192,93162,1,0,0:0:0:0:
256,192,93256,1,8,0:0:0:0:
256,192,93350,1,0,0:0:0:0:
256,192,93537,1,8,0:0:0:0:
256,192,93631,1,8,0:0:0:0:
256,192,93725,1,8,0:0:0:0:
256,192,93819,1,0,0:0:0:0:
256,192,94006,1,8,0:0:0:0:
256,192,94194,1,0,0:0:0:0:
256,192,94287,1,0,0:0:0:0:
256,192,94381,1,0,0:0:0:0:
256,192,94569,1,8,0:0:0:0:
256,192,94662,1,0,0:0:0:0:
256,192,94756,1,0,0:0:0:0:
256,192,94850,1,8,0:0:0:0:
256,192,94944,1,0,0:0:0:0:
256,192,95131,1,8,0:0:0:0:
256,192,95319,1,8,0:0:0:0:
256,192,95412,1,0,0:0:0:0:
256,192,95600,1,0,0:0:0:0:
256,192,95694,1,8,0:0:0:0:
256,192,95881,1,8,0:0:0:0:
256,192,95975,1,8,0:0:0:0:
256,192,96069,1,0,0:0:0:0:
256,192,96162,1,0,0:0:0:0:
256,192,96256,1,0,0:0:0:0:
256,192,96444,1,12,0:0:0:0:
256,192,96819,1,0,0:0:0:0:
256,192,96912,1,0,0:0:0:0:
256,192,97006,1,8,0:0:0:0:
256,192,97194,1,8,0:0:0:0:
256,192,97287,1,8,0:0:0:0:
256,192,97381,1,0,0:0:0:0:
256,192,97475,1,0,0:0:0:0:
256,192,97569,1,8,0:0:0:0:
256,192,97756,1,0,0:0:0:0:
256,192,97850,1,8,0:0:0:0:
256,192,98037,1,0,0:0:0:0:
256,192,98131,1,8,0:0:0:0:
256,192,98225,1,8,0:0:0:0:
256,192,98319,1,0,0:0:0:0:
256,192,98506,1,8,0:0:0:0:
256,192,98600,1,0,0:0:0:0:
256,192,98787,1,0,0:0:0:0:
256,192,98881,1,8,0:0:0:0:
256,192,99069,1,0,0:0:0:0:
256,192,99162,1,0,0:0:0:0:
256,192,99256,1,8,0:0:0:0:
256,192,99350,1,8,0:0:0:0:
256,192,99537,1,8,0:0:0:0:
256,192,99631,1,8,0:0:0:0:
256,192,99725,1,8,0:0:0:0:
256,192,99819,1,0,0:0:0:0:
256,192,100006,1,8,0:0:0:0:
256,192,100194,1,0,0:0:0:0:
256,192,100287,1,0,0:0:0:0:
256,192,100381,1,8,0:0:0:0:
256,192,100475,1,8,0:0:0:0:
256,192,100569,1,0,0:0:0:0:
256,192,100662,1,8,0:0:0:0:
256,192,100850,1,8,0:0:0:0:
256,192,100944,1,0,0:0:0:0:
256,192,101131,1,8,0:0:0:0:
256,192,101319,1,0,0:0:0:0:
256,192,101412,1,0,0:0:0:0:
256,192,101506,1,8,0:0:0:0:
256,192,101600,1,8,0:0:0:0:
256,192,101694,1,0,0:0:0:0:
256,192,101787,1,0,0:0:0:0:
256,192,101881,1,8,0:0:0:0:
256,192,102069,1,8,0:0:0:0:
256,192,102162,1,8,0:0:0:0:
256,192,102256,1,0,0:0:0:0:
256,192,102444,1,12,0:0:0:0:
256,192,102819,1,4,0:0:0:0:
256,192,103006,1,8,0:0:0:0:
256,192,103194,1,0,0:0:0:0:
256,192,103287,1,0,0:0:0:0:
256,192,103381,1,0,0:0:0:0:
256,192,103569,1,8,0:0:0:0:
256,192,103756,1,0,0:0:0:0:
256,192,103850,1,8,0:0:0:0:
256,192,103944,1,0,0:0:0:0:
256,192,104037,1,0,0:0:0:0:
256,192,104131,1,8,0:0:0:0:
256,192,104225,1,8,0:0:0:0:
256,192,104319,1,0,0:0:0:0:
256,192,104506,1,8,0:0:0:0:
256,192,104600,1,0,0:0:0:0:
256,192,104787,1,0,0:0:0:0:
256,192,104881,1,8,0:0:0:0:
256,192,105069,1,0,0:0:0:0:
256,192,105162,1,0,0:0:0:0:
256,192,105256,1,8,0:0:0:0:
256,192,105350,1,0,0:0:0:0:
256,192,105537,1,8,0:0:0:0:
256,192,105631,1,8,0:0:0:0:
256,192,105725,1,8,0:0:0:0:
256,192,105819,1,0,0:0:0:0:
256,192,106006,1,8,0:0:0:0:
256,192,106194,1,0,0:0:0:0:
256,192,106287,1,0,0:0:0:0:
256,192,106381,1,0,0:0:0:0:
256,192,106569,1,8,0:0:0:0:
256,192,106662,1,0,0:0:0:0:
256,192,106756,1,0,0:0:0:0:
256,192,106850,1,8,0:0:0:0:
256,192,106944,1,0,0:0:0:0:
256,192,107037,1,0,0:0:0:0:
256,192,107131,1,8,0:0:0:0:
256,192,107319,1,0,0:0:0:0:
256,192,107412,1,0,0:0:0:0:
256,192,107506,1,8,0:0:0:0:
256,192,107600,1,8,0:0:0:0:
256,192,107787,1,8,0:0:0:0:
256,192,107975,1,8,0:0:0:0:
256,192,108069,1,0,0:0:0:0:
256,192,108162,1,0,0:0:0:0:
256,192,108256,1,0,0:0:0:0:
256,192,108444,1,12,0:0:0:0:
256,192,108819,1,0,0:0:0:0:
256,192,108912,1,0,0:0:0:0:
256,192,109006,1,8,0:0:0:0:
256,192,109194,1,8,0:0:0:0:
256,192,109287,1,8,0:0:0:0:
256,192,109381,1,0,0:0:0:0:
256,192,109475,1,0,0:0:0:0:
256,192,109569,1,8,0:0:0:0:
256,192,109756,1,0,0:0:0:0:
256,192,109850,1,8,0:0:0:0:
256,192,109944,1,0,0:0:0:0:
256,192,110037,1,0,0:0:0:0:
256,192,110131,1,8,0:0:0:0:
256,192,110225,1,8,0:0:0:0:
256,192,110319,1,0,0:0:0:0:
256,192,110506,1,8,0:0:0:0:
256,192,110600,1,0,0:0:0:0:
256,192,110787,1,0,0:0:0:0:
256,192,110881,1,8,0:0:0:0:
256,192,110975,1,8,0:0:0:0:
256,192,111069,1,0,0:0:0:0:
256,192,111256,1,8,0:0:0:0:
256,192,111350,1,8,0:0:0:0:
256,192,111444,1,0,0:0:0:0:
256,192,111537,1,8,0:0:0:0:
256,192,111631,1,8,0:0:0:0:
256,192,111819,1,0,0:0:0:0:
256,192,111912,1,0,0:0:0:0:
256,192,112006,1,8,0:0:0:0:
256,192,112100,1,8,0:0:0:0:
256,192,112194,1,0,0:0:0:0:
256,192,112287,1,0,0:0:0:0:
256,192,112381,1,8,0:0:0:0:
256,192,112569,1,8,0:0:0:0:
256,192,112662,1,8,0:0:0:0:
256,192,112756,1,8,0:0:0:0:
256,192,112850,1,8,0:0:0:0:
256,192,112944,1,0,0:0:0:0:
256,192,113037,1,8,0:0:0:0:
256,192,113131,1,0,0:0:0:0:
256,192,113319,1,12,0:0:0:0:
256,192,113600,1,12,0:0:0:0:
256,192,113881,1,12,0:0:0:0:
256,192,114162,1,12,0:0:0:0:
128,96,114444,2,0,L|128:192,1,77.0000023498536
256,192,114819,5,4,0:0:0:0:
256,192,115006,1,8,0:0:0:0:
256,192,115381,1,8,0:0:0:0:
256,192,115475,1,8,0:0:0:0:
256,192,115756,1,0,0:0:0:0:
256,192,115944,1,8,0:0:0:0:
256,192,116319,1,0,0:0:0:0:
256,192,116506,1,8,0:0:0:0:
256,192,116881,1,8,0:0:0:0:
256,192,116975,1,8,0:0:0:0:
256,192,117256,1,8,0:0:0:0:
256,192,117444,1,8,0:0:0:0:
256,192,117819,1,0,0:0:0:0:
256,192,118006,1,8,0:0:0:0:
256,192,118381,1,8,0:0:0:0:
256,192,118475,1,8,0:0:0:0:
256,192,118756,1,0,0:0:0:0:
256,192,118944,1,8,0:0:0:0:
256,192,119319,1,0,0:0:0:0:
256,192,119506,1,8,0:0:0:0:
256,192,119881,1,8,0:0:0:0:
256,192,119975,1,8,0:0:0:0:
256,192,120256,1,0,0:0:0:0:
256,192,120444,1,8,0:0:0:0:
256,192,120819,1,0,0:0:0:0:
256,192,121006,1,8,0:0:0:0:
256,192,121381,1,8,0:0:0:0:
256,192,121475,1,8,0:0:0:0:
256,192,121756,1,0,0:0:0:0:
256,192,121944,1,8,0:0:0:0:
256,192,122131,1,8,0:0:0:0:
256,192,122319,1,0,0:0:0:0:
256,192,122506,1,8,0:0:0:0:
256,192,122881,1,8,0:0:0:0:
256,192,122975,1,8,0:0:0:0:
256,192,123256,1,8,0:0:0:0:
256,192,123444,1,8,0:0:0:0:
256,192,123631,1,8,0:0:0:0:
256,192,123819,1,0,0:0:0:0:
256,192,124006,1,8,0:0:0:0:
256,192,124381,1,8,0:0:0:0:
256,192,124475,1,8,0:0:0:0:
256,192,124756,1,0,0:0:0:0:
256,192,124944,1,8,0:0:0:0:
256,192,125319,1,0,0:0:0:0:
256,192,125506,1,8,0:0:0:0:
256,192,125881,1,8,0:0:0:0:
256,192,125975,1,8,0:0:0:0:
256,192,126256,1,0,0:0:0:0:
256,192,126444,1,8,0:0:0:0:
256,192,126631,1,12,0:0:0:0:
