osu file format v14

[General]
AudioFilename: audio.mp3
AudioLeadIn: 0
PreviewTime: 90444
Countdown: 0
SampleSet: Normal
StackLeniency: 0.7
Mode: 1
LetterboxInBreaks: 0
WidescreenStoryboard: 0

[Editor]
DistanceSpacing: 5.3
BeatDivisor: 1
GridSize: 32
TimelineZoom: 1.4

[Metadata]
Title:Nexta
TitleUnicode:Nexta
Artist:lapix
ArtistUnicode:lapix
Creator:TKS
Version:Kantan
Source:SOUND VOLTEX III GRAVITY WARS e-AMUSEMENT CLOUD
Tags:
BeatmapID:1554390
BeatmapSetID:726669

[Difficulty]
HPDrainRate:4
CircleSize:5
OverallDifficulty:4
ApproachRate:5
SliderMultiplier:1.4
SliderTickRate:1

[Events]
//Background and Video events
0,0,"bg.png",0,70
//Break Periods
2,65519,70119
//Storyboard Layer 0 (Background)
//Storyboard Layer 1 (Fail)
//Storyboard Layer 2 (Pass)
//Storyboard Layer 3 (Foreground)
//Storyboard Sound Samples

[TimingPoints]
69,375,4,1,0,70,1,8
69,-100,4,1,0,70,0,8
819,375,4,1,0,70,1,0
819,-100,4,1,0,70,0,0
5272,-100,4,1,0,85,0,0
29272,-100,4,1,0,70,0,0
65412,-100,4,1,0,50,0,0
77225,-100,4,1,0,75,0,0
86225,-100,4,1,0,80,0,0
90397,-100,4,1,0,100,0,0
90819,-100,4,1,0,85,0,1
102444,-100,4,1,0,85,0,0
102819,-100,4,1,0,85,0,1
114819,-100,4,1,0,60,0,0

[HitObjects]
256,192,819,5,0,0:0:0:0:
256,192,1569,1,0,0:0:0:0:
256,192,1944,1,8,0:0:0:0:
256,192,2319,12,0,4944,0:0:0:0:
256,192,5319,5,4,0:0:0:0:
256,192,6069,1,8,0:0:0:0:
256,192,6819,1,0,0:0:0:0:
256,192,7569,1,0,0:0:0:0:
256,192,7944,1,8,0:0:0:0:
256,192,8319,1,0,0:0:0:0:
256,192,9069,1,8,0:0:0:0:
256,192,9819,1,0,0:0:0:0:
256,192,10569,1,0,0:0:0:0:
256,192,10944,1,12,0:0:0:0:
256,192,11319,1,0,0:0:0:0:
256,192,12069,1,8,0:0:0:0:
256,192,12819,1,0,0:0:0:0:
256,192,13569,1,0,0:0:0:0:
256,192,13944,1,8,0:0:0:0:
256,192,14319,1,0,0:0:0:0:
256,192,15069,1,0,0:0:0:0:
256,192,15819,1,8,0:0:0:0:
256,192,17319,1,0,0:0:0:0:
256,192,18069,1,0,0:0:0:0:
256,192,18819,1,8,0:0:0:0:
256,192,19194,1,0,0:0:0:0:
256,192,19569,1,8,0:0:0:0:
256,192,20319,1,0,0:0:0:0:
256,192,21069,1,0,0:0:0:0:
256,192,21819,1,8,0:0:0:0:
256,192,22569,1,0,0:0:0:0:
256,192,22944,1,12,0:0:0:0:
256,192,23319,1,0,0:0:0:0:
256,192,24069,1,0,0:0:0:0:
256,192,24819,1,8,0:0:0:0:
256,192,25194,1,0,0:0:0:0:
256,192,25569,1,8,0:0:0:0:
256,192,26319,1,0,0:0:0:0:
256,192,27069,1,0,0:0:0:0:
256,192,27819,1,8,0:0:0:0:
256,192,28100,1,8,0:0:0:0:
256,192,28381,1,8,0:0:0:0:
256,192,28662,1,8,0:0:0:0:
256,192,29319,5,4,0:0:0:0:
256,192,30069,1,0,0:0:0:0:
256,192,30819,1,8,0:0:0:0:
256,192,31569,1,8,0:0:0:0:
256,192,32319,1,0,0:0:0:0:
256,192,33069,1,0,0:0:0:0:
256,192,33819,1,8,0:0:0:0:
256,192,35319,1,0,0:0:0:0:
256,192,36069,1,0,0:0:0:0:
256,192,36819,1,8,0:0:0:0:
256,192,37569,1,8,0:0:0:0:
256,192,38319,1,4,0:0:0:0:
256,192,39069,1,4,0:0:0:0:
256,192,39819,1,0,0:0:0:0:
256,192,40194,1,0,0:0:0:0:
256,192,40569,1,8,0:0:0:0:
256,192,41319,1,4,0:0:0:0:
256,192,42819,1,0,0:0:0:0:
256,192,43569,1,8,0:0:0:0:
256,192,44319,1,0,0:0:0:0:
256,192,45819,1,0,0:0:0:0:
256,192,46569,1,0,0:0:0:0:
256,192,46944,1,8,0:0:0:0:
256,192,47319,1,4,0:0:0:0:
256,192,48819,1,0,0:0:0:0:
256,192,49569,1,8,0:0:0:0:
256,192,50319,1,0,0:0:0:0:
256,192,51819,1,0,0:0:0:0:
256,192,52569,1,8,0:0:0:0:
256,192,52944,1,8,0:0:0:0:
256,192,53319,1,0,0:0:0:0:
256,192,54069,1,0,0:0:0:0:
256,192,54819,1,0,0:0:0:0:
256,192,55569,1,8,0:0:0:0:
256,192,55944,1,8,0:0:0:0:
256,192,56319,1,0,0:0:0:0:
256,192,57069,1,0,0:0:0:0:
256,192,57819,1,0,0:0:0:0:
256,192,58569,1,0,0:0:0:0:
256,192,58944,1,8,0:0:0:0:
256,192,59319,1,0,0:0:0:0:
256,192,60069,1,0,0:0:0:0:
256,192,60819,1,0,0:0:0:0:
256,192,61569,1,8,0:0:0:0:
256,192,61944,1,8,0:0:0:0:
256,192,62319,12,0,63819,0:0:0:0:
256,192,64944,5,8,0:0:0:0:
256,192,65319,1,4,0:0:0:0:
256,192,71319,5,0,0:0:0:0:
256,192,72819,1,8,0:0:0:0:
256,192,73944,1,8,0:0:0:0:
256,192,74319,1,0,0:0:0:0:
256,192,75819,1,8,0:0:0:0:
256,192,76194,1,8,0:0:0:0:
256,192,76569,1,8,0:0:0:0:
256,192,77319,1,4,0:0:0:0:
256,192,78819,1,0,0:0:0:0:
256,192,79569,1,8,0:0:0:0:
256,192,80319,1,0,0:0:0:0:
256,192,81819,1,0,0:0:0:0:
256,192,82569,1,8,0:0:0:0:
256,192,83319,1,0,0:0:0:0:
256,192,84069,1,0,0:0:0:0:
256,192,84444,1,8,0:0:0:0:
256,192,84819,1,0,0:0:0:0:
256,192,85569,1,0,0:0:0:0:
256,192,85944,1,8,0:0:0:0:
256,192,86319,12,0,88944,0:0:0:0:
256,192,89319,5,8,0:0:0:0:
256,192,89694,1,8,0:0:0:0:
256,192,90069,1,8,0:0:0:0:
256,192,90819,1,4,0:0:0:0:
256,192,91569,1,0,0:0:0:0:
256,192,91944,1,8,0:0:0:0:
256,192,92319,1,0,0:0:0:0:
256,192,93069,1,8,0:0:0:0:
256,192,93819,1,0,0:0:0:0:
256,192,94569,1,8,0:0:0:0:
256,192,94944,1,0,0:0:0:0:
256,192,95319,1,8,0:0:0:0:
256,192,96069,1,0,0:0:0:0:
256,192,96819,1,0,0:0:0:0:
256,192,97569,1,0,0:0:0:0:
256,192,97944,1,8,0:0:0:0:
256,192,98319,1,0,0:0:0:0:
256,192,99069,1,8,0:0:0:0:
256,192,99819,1,0,0:0:0:0:
256,192,100194,1,8,0:0:0:0:
256,192,100569,1,0,0:0:0:0:
256,192,100944,1,8,0:0:0:0:
256,192,101319,1,0,0:0:0:0:
256,192,102819,1,4,0:0:0:0:
256,192,103569,1,0,0:0:0:0:
256,192,103944,1,8,0:0:0:0:
256,192,104319,1,0,0:0:0:0:
256,192,105069,1,8,0:0:0:0:
256,192,105444,1,0,0:0:0:0:
256,192,105819,1,8,0:0:0:0:
256,192,106569,1,0,0:0:0:0:
256,192,106944,1,8,0:0:0:0:
256,192,107319,1,0,0:0:0:0:
256,192,108069,1,8,0:0:0:0:
256,192,108819,1,0,0:0:0:0:
256,192,109569,1,0,0:0:0:0:
256,192,109944,1,8,0:0:0:0:
256,192,110319,1,0,0:0:0:0:
256,192,111069,1,8,0:0:0:0:
256,192,111444,1,8,0:0:0:0:
256,192,111819,1,0,0:0:0:0:
256,192,112569,1,0,0:0:0:0:
256,192,113319,1,8,0:0:0:0:
256,192,113600,1,8,0:0:0:0:
256,192,113881,1,8,0:0:0:0:
256,192,114162,1,8,0:0:0:0:
256,192,114819,5,4,0:0:0:0:
256,192,116319,1,0,0:0:0:0:
256,192,117069,1,8,0:0:0:0:
256,192,117819,1,0,0:0:0:0:
256,192,119319,1,0,0:0:0:0:
256,192,120444,1,8,0:0:0:0:
256,192,120819,1,0,0:0:0:0:
256,192,122319,1,0,0:0:0:0:
256,192,123069,1,8,0:0:0:0:
256,192,123819,1,0,0:0:0:0:
256,192,125319,1,0,0:0:0:0:
256,192,126069,1,0,0:0:0:0:
256,192,126444,1,8,0:0:0:0:
