osu file format v14

[General]
AudioFilename: audio.mp3
AudioLeadIn: 0
PreviewTime: 90444
Countdown: 0
SampleSet: None
StackLeniency: 0.7
Mode: 1
LetterboxInBreaks: 0
WidescreenStoryboard: 0

[Editor]
DistanceSpacing: 5.3
BeatDivisor: 4
GridSize: 32
TimelineZoom: 2

[Metadata]
Title:Nexta
TitleUnicode:Nexta
Artist:lapix
ArtistUnicode:lapix
Creator:TKS
Version:Futsuu
Source:SOUND VOLTEX III GRAVITY WARS e-AMUSEMENT CLOUD
Tags:
BeatmapID:1554389
BeatmapSetID:726669

[Difficulty]
HPDrainRate:5
CircleSize:5
OverallDifficulty:4
ApproachRate:5
SliderMultiplier:1.4
SliderTickRate:1

[Events]
//Background and Video events
0,0,"bg.png",0,70
//Break Periods
2,65519,70119
//Storyboard Layer 0 (Background)
//Storyboard Layer 1 (Fail)
//Storyboard Layer 2 (Pass)
//Storyboard Layer 3 (Foreground)
//Storyboard Sound Samples

[TimingPoints]
69,375,4,1,0,70,1,8
69,-100,4,1,0,70,0,8
819,375,4,1,0,70,1,0
819,-100,4,1,0,70,0,0
5272,-100,4,1,0,85,0,0
29272,-100,4,1,0,70,0,0
65412,-100,4,1,0,50,0,0
77225,-100,4,1,0,75,0,0
86225,-100,4,1,0,80,0,0
90397,-100,4,1,0,100,0,0
90819,-100,4,1,0,85,0,1
102444,-100,4,1,0,85,0,0
102819,-100,4,1,0,85,0,1
114819,-100,4,1,0,60,0,0

[HitObjects]
256,192,819,5,0,0:0:0:0:
256,192,1569,1,0,0:0:0:0:
256,192,1756,1,0,0:0:0:0:
256,192,1944,1,8,0:0:0:0:
256,192,2131,12,0,4944,0:0:0:0:
256,192,5319,5,4,0:0:0:0:
256,192,5694,1,8,0:0:0:0:
256,192,6069,1,0,0:0:0:0:
256,192,6256,1,0,0:0:0:0:
256,192,6444,1,8,0:0:0:0:
256,192,6819,1,0,0:0:0:0:
256,192,7194,1,8,0:0:0:0:
256,192,7381,1,8,0:0:0:0:
256,192,7569,1,0,0:0:0:0:
256,192,8319,1,0,0:0:0:0:
256,192,8694,1,8,0:0:0:0:
256,192,9069,1,0,0:0:0:0:
256,192,9256,1,0,0:0:0:0:
256,192,9444,1,8,0:0:0:0:
256,192,9819,1,0,0:0:0:0:
256,192,10194,1,0,0:0:0:0:
256,192,10381,1,8,0:0:0:0:
256,192,10569,1,0,0:0:0:0:
256,192,10944,1,12,0:0:0:0:
256,192,11319,1,0,0:0:0:0:
256,192,11694,1,8,0:0:0:0:
256,192,12069,1,0,0:0:0:0:
256,192,12256,1,0,0:0:0:0:
256,192,12444,1,8,0:0:0:0:
256,192,12819,1,0,0:0:0:0:
256,192,13194,1,8,0:0:0:0:
256,192,13381,1,8,0:0:0:0:
256,192,13569,1,0,0:0:0:0:
256,192,14319,1,0,0:0:0:0:
256,192,14694,1,8,0:0:0:0:
256,192,15069,1,0,0:0:0:0:
256,192,15256,1,0,0:0:0:0:
256,192,15444,1,8,0:0:0:0:
256,192,15819,1,0,0:0:0:0:
256,192,16194,1,8,0:0:0:0:
256,192,16569,1,8,0:0:0:0:
256,192,16944,1,12,0:0:0:0:
256,192,17319,1,0,0:0:0:0:
256,192,17694,1,8,0:0:0:0:
256,192,17881,1,0,0:0:0:0:
256,192,18256,1,0,0:0:0:0:
256,192,18444,1,8,0:0:0:0:
256,192,18819,1,0,0:0:0:0:
256,192,19194,1,8,0:0:0:0:
256,192,19569,1,0,0:0:0:0:
256,192,20319,1,0,0:0:0:0:
256,192,20694,1,8,0:0:0:0:
256,192,20881,1,0,0:0:0:0:
256,192,21256,1,0,0:0:0:0:
256,192,21444,1,8,0:0:0:0:
256,192,21819,1,0,0:0:0:0:
256,192,22194,1,8,0:0:0:0:
256,192,22569,1,0,0:0:0:0:
256,192,22756,1,0,0:0:0:0:
256,192,22944,1,12,0:0:0:0:
256,192,23319,1,0,0:0:0:0:
256,192,23694,1,8,0:0:0:0:
256,192,23881,1,0,0:0:0:0:
256,192,24256,1,0,0:0:0:0:
256,192,24444,1,8,0:0:0:0:
256,192,24819,1,0,0:0:0:0:
256,192,25194,1,8,0:0:0:0:
256,192,25569,1,0,0:0:0:0:
256,192,26319,1,0,0:0:0:0:
256,192,26694,1,8,0:0:0:0:
256,192,27069,1,0,0:0:0:0:
256,192,27256,1,0,0:0:0:0:
256,192,27444,1,8,0:0:0:0:
256,192,27819,1,4,0:0:0:0:
256,192,28100,1,4,0:0:0:0:
256,192,28381,1,4,0:0:0:0:
256,192,28662,1,4,0:0:0:0:
256,192,29319,5,4,0:0:0:0:
256,192,29694,1,8,0:0:0:0:
256,192,30256,1,0,0:0:0:0:
256,192,30444,1,8,0:0:0:0:
256,192,30819,1,0,0:0:0:0:
256,192,31194,1,8,0:0:0:0:
256,192,31569,1,0,0:0:0:0:
256,192,32319,1,0,0:0:0:0:
256,192,32694,1,8,0:0:0:0:
256,192,33256,1,0,0:0:0:0:
256,192,33444,1,8,0:0:0:0:
256,192,33819,1,0,0:0:0:0:
256,192,34194,1,8,0:0:0:0:
256,192,34569,1,0,0:0:0:0:
256,192,34756,1,0,0:0:0:0:
256,192,34944,1,8,0:0:0:0:
256,192,35319,1,0,0:0:0:0:
256,192,35694,1,8,0:0:0:0:
256,192,36256,1,0,0:0:0:0:
256,192,36444,1,8,0:0:0:0:
256,192,36819,1,0,0:0:0:0:
256,192,37194,1,8,0:0:0:0:
256,192,37569,1,0,0:0:0:0:
256,192,38319,1,4,0:0:0:0:
256,192,38694,1,8,0:0:0:0:
256,192,39069,1,4,0:0:0:0:
256,192,39444,1,8,0:0:0:0:
256,192,39819,1,0,0:0:0:0:
256,192,40006,1,8,0:0:0:0:
256,192,40194,1,0,0:0:0:0:
256,192,40381,1,8,0:0:0:0:
256,192,40569,1,0,0:0:0:0:
256,192,40944,1,8,0:0:0:0:
256,192,41319,1,4,0:0:0:0:
256,192,41694,1,8,0:0:0:0:
256,192,42444,1,8,0:0:0:0:
256,192,42819,1,0,0:0:0:0:
256,192,43194,1,8,0:0:0:0:
256,192,43756,1,8,0:0:0:0:
256,192,43944,1,8,0:0:0:0:
256,192,44319,1,0,0:0:0:0:
256,192,44694,1,8,0:0:0:0:
256,192,45444,1,8,0:0:0:0:
256,192,45819,1,0,0:0:0:0:
256,192,46194,1,8,0:0:0:0:
256,192,46569,1,0,0:0:0:0:
256,192,46944,1,8,0:0:0:0:
256,192,47319,1,4,0:0:0:0:
256,192,47694,1,8,0:0:0:0:
256,192,48444,1,8,0:0:0:0:
256,192,48819,1,0,0:0:0:0:
256,192,49194,1,8,0:0:0:0:
256,192,49756,1,8,0:0:0:0:
256,192,49944,1,8,0:0:0:0:
256,192,50319,1,0,0:0:0:0:
256,192,50694,1,8,0:0:0:0:
256,192,51444,1,8,0:0:0:0:
256,192,51819,1,0,0:0:0:0:
256,192,52194,1,8,0:0:0:0:
256,192,52569,1,8,0:0:0:0:
256,192,52944,1,8,0:0:0:0:
256,192,53131,1,8,0:0:0:0:
256,192,53319,1,0,0:0:0:0:
256,192,53694,1,8,0:0:0:0:
256,192,54256,1,0,0:0:0:0:
256,192,54444,1,8,0:0:0:0:
256,192,54819,1,0,0:0:0:0:
256,192,55194,1,8,0:0:0:0:
256,192,55569,1,8,0:0:0:0:
256,192,55756,1,8,0:0:0:0:
256,192,55944,1,8,0:0:0:0:
256,192,56319,1,0,0:0:0:0:
256,192,56694,1,8,0:0:0:0:
256,192,57256,1,0,0:0:0:0:
256,192,57444,1,8,0:0:0:0:
256,192,57819,1,0,0:0:0:0:
256,192,58194,1,8,0:0:0:0:
256,192,58569,1,0,0:0:0:0:
256,192,58756,1,0,0:0:0:0:
256,192,58944,1,8,0:0:0:0:
256,192,59319,1,0,0:0:0:0:
256,192,59694,1,8,0:0:0:0:
256,192,60069,1,0,0:0:0:0:
256,192,60256,1,0,0:0:0:0:
256,192,60444,1,8,0:0:0:0:
256,192,60819,1,0,0:0:0:0:
256,192,61194,1,8,0:0:0:0:
256,192,61569,1,8,0:0:0:0:
256,192,61756,1,8,0:0:0:0:
256,192,61944,1,8,0:0:0:0:
192,128,62319,2,0,L|160:160,16,35
256,192,64194,1,8,0:0:0:0:
256,192,64381,1,8,0:0:0:0:
256,192,64569,1,0,0:0:0:0:
256,192,64944,1,12,0:0:0:0:
256,192,65319,1,4,0:0:0:0:
256,192,71319,5,0,0:0:0:0:
256,192,72069,1,0,0:0:0:0:
256,192,72444,1,8,0:0:0:0:
256,192,72819,1,0,0:0:0:0:
256,192,73194,1,8,0:0:0:0:
256,192,73756,1,8,0:0:0:0:
256,192,73944,1,8,0:0:0:0:
256,192,74319,1,0,0:0:0:0:
256,192,75069,1,0,0:0:0:0:
256,192,75444,1,0,0:0:0:0:
256,192,75819,1,8,0:0:0:0:
256,192,76194,1,8,0:0:0:0:
256,192,76569,1,8,0:0:0:0:
256,192,76756,1,8,0:0:0:0:
256,192,76944,1,8,0:0:0:0:
256,192,77319,1,4,0:0:0:0:
256,192,78069,1,8,0:0:0:0:
256,192,78819,1,0,0:0:0:0:
256,192,79194,1,0,0:0:0:0:
256,192,79569,1,8,0:0:0:0:
256,192,80319,1,0,0:0:0:0:
256,192,81069,1,8,0:0:0:0:
256,192,81819,1,0,0:0:0:0:
256,192,82194,1,8,0:0:0:0:
256,192,82569,1,0,0:0:0:0:
256,192,83319,1,0,0:0:0:0:
256,192,83694,1,0,0:0:0:0:
256,192,84069,1,0,0:0:0:0:
256,192,84256,1,0,0:0:0:0:
256,192,84444,1,8,0:0:0:0:
256,192,84819,1,0,0:0:0:0:
256,192,85194,1,0,0:0:0:0:
256,192,85569,1,0,0:0:0:0:
256,192,85944,1,8,0:0:0:0:
256,192,86131,1,8,0:0:0:0:
256,192,86319,12,8,89131,0:0:0:0:
256,192,89319,5,8,0:0:0:0:
256,192,89694,1,8,0:0:0:0:
256,192,90069,1,8,0:0:0:0:
256,192,90444,1,8,0:0:0:0:
256,192,90631,1,8,0:0:0:0:
256,192,90819,1,4,0:0:0:0:
256,192,91194,1,8,0:0:0:0:
256,192,91569,1,0,0:0:0:0:
256,192,91756,1,8,0:0:0:0:
256,192,92131,1,8,0:0:0:0:
256,192,92319,1,0,0:0:0:0:
256,192,92694,1,8,0:0:0:0:
256,192,93069,1,0,0:0:0:0:
256,192,93256,1,0,0:0:0:0:
256,192,93444,1,8,0:0:0:0:
256,192,93819,1,0,0:0:0:0:
256,192,94194,1,8,0:0:0:0:
256,192,94569,1,0,0:0:0:0:
256,192,94756,1,8,0:0:0:0:
256,192,95131,1,8,0:0:0:0:
256,192,95319,1,0,0:0:0:0:
256,192,95694,1,8,0:0:0:0:
256,192,96069,1,0,0:0:0:0:
256,192,96256,1,0,0:0:0:0:
256,192,96444,1,12,0:0:0:0:
256,192,96819,1,0,0:0:0:0:
256,192,97194,1,8,0:0:0:0:
256,192,97569,1,0,0:0:0:0:
256,192,97756,1,8,0:0:0:0:
256,192,98131,1,8,0:0:0:0:
256,192,98319,1,0,0:0:0:0:
256,192,98694,1,8,0:0:0:0:
256,192,99069,1,0,0:0:0:0:
256,192,99256,1,0,0:0:0:0:
256,192,99444,1,8,0:0:0:0:
256,192,99819,1,0,0:0:0:0:
256,192,100194,1,0,0:0:0:0:
256,192,100569,1,8,0:0:0:0:
256,192,100944,1,8,0:0:0:0:
192,64,101319,2,0,L|160:96,12,35,0|8|8|0|8|8|0|8|0|8|0|0|12,0:0|0:0|0:0|0:0|0:0|0:0|0:0|0:0|0:0|0:0|0:0|0:0|0:0,0:0:0:0:
256,192,102819,1,4,0:0:0:0:
256,192,103194,1,8,0:0:0:0:
256,192,103381,1,8,0:0:0:0:
256,192,103569,1,0,0:0:0:0:
256,192,103944,1,8,0:0:0:0:
256,192,104319,1,0,0:0:0:0:
256,192,104694,1,8,0:0:0:0:
256,192,105069,1,0,0:0:0:0:
256,192,105256,1,8,0:0:0:0:
256,192,105631,1,8,0:0:0:0:
256,192,105819,1,0,0:0:0:0:
256,192,106194,1,8,0:0:0:0:
256,192,106381,1,8,0:0:0:0:
256,192,106569,1,0,0:0:0:0:
256,192,106944,1,8,0:0:0:0:
256,192,107319,1,0,0:0:0:0:
256,192,107694,1,8,0:0:0:0:
256,192,107881,1,0,0:0:0:0:
256,192,108256,1,0,0:0:0:0:
256,192,108444,1,12,0:0:0:0:
256,192,108819,1,0,0:0:0:0:
256,192,109194,1,8,0:0:0:0:
256,192,109569,1,0,0:0:0:0:
256,192,109756,1,0,0:0:0:0:
256,192,109944,1,8,0:0:0:0:
256,192,110319,1,0,0:0:0:0:
256,192,110694,1,8,0:0:0:0:
256,192,110881,1,8,0:0:0:0:
256,192,111069,1,0,0:0:0:0:
256,192,111444,1,8,0:0:0:0:
256,192,111819,1,0,0:0:0:0:
256,192,112006,1,8,0:0:0:0:
256,192,112194,1,0,0:0:0:0:
256,192,112381,1,8,0:0:0:0:
256,192,112569,1,0,0:0:0:0:
256,192,112944,1,8,0:0:0:0:
256,192,113319,1,4,0:0:0:0:
256,192,113600,1,4,0:0:0:0:
256,192,113881,1,4,0:0:0:0:
256,192,114162,1,4,0:0:0:0:
256,192,114819,5,4,0:0:0:0:
256,192,115381,1,8,0:0:0:0:
256,192,116319,1,0,0:0:0:0:
256,192,116881,1,8,0:0:0:0:
256,192,117256,1,8,0:0:0:0:
256,192,117444,1,8,0:0:0:0:
256,192,117819,1,0,0:0:0:0:
256,192,118381,1,8,0:0:0:0:
256,192,119319,1,0,0:0:0:0:
256,192,119881,1,8,0:0:0:0:
256,192,120256,1,0,0:0:0:0:
256,192,120444,1,8,0:0:0:0:
256,192,120819,1,0,0:0:0:0:
256,192,121381,1,8,0:0:0:0:
256,192,122319,1,0,0:0:0:0:
256,192,122881,1,8,0:0:0:0:
256,192,123256,1,8,0:0:0:0:
256,192,123444,1,8,0:0:0:0:
256,192,123819,1,0,0:0:0:0:
256,192,124381,1,8,0:0:0:0:
256,192,125319,1,0,0:0:0:0:
256,192,125881,1,8,0:0:0:0:
256,192,126256,1,0,0:0:0:0:
256,192,126444,1,8,0:0:0:0:
256,192,126631,1,8,0:0:0:0:
