osu file format v14

[General]
AudioFilename: audio.mp3
AudioLeadIn: 0
PreviewTime: 91433
Countdown: 0
SampleSet: Soft
StackLeniency: 0.7
Mode: 0
LetterboxInBreaks: 0
WidescreenStoryboard: 1

[Editor]
Bookmarks: 1527,6027,18027,30027,42027,54027,66027,78027,91527,103527,115527,127527
DistanceSpacing: 1
BeatDivisor: 4
GridSize: 32
TimelineZoom: 1

[Metadata]
Title:Nexta
TitleUnicode:Nexta
Artist:lapix
ArtistUnicode:lapix
Creator:Realazy
Version:NOVICE
Source:SOUND VOLTEX III GRAVITY WARS (e-AMUSEMENT CLOUD)
Tags:coco cococolaco Spork loli catgirl Lover Ayyri eiri- Nao Tomori Naotoshi thiev sdvx 3 4 iv heavenly haven eAmusement コナステ electronic
BeatmapID:2321170
BeatmapSetID:1050635

[Difficulty]
HPDrainRate:3
CircleSize:3
OverallDifficulty:4
ApproachRate:5.5
SliderMultiplier:1.1
SliderTickRate:1

[Events]
//Background and Video events
0,0,"nexta.jpg",0,0
//Break Periods
2,66227,70902
//Storyboard Layer 0 (Background)
//Storyboard Layer 1 (Fail)
//Storyboard Layer 2 (Pass)
//Storyboard Layer 3 (Foreground)
//Storyboard Layer 4 (Overlay)
//Storyboard Sound Samples

[TimingPoints]
1527,375,4,2,1,40,1,0
1527,-117.647058823529,4,2,1,40,0,0
2839,-117.647058823529,4,2,1,50,0,0
4527,-117.647058823529,4,2,1,60,0,0
5652,-117.647058823529,4,2,0,50,0,0
6027,-100,4,2,1,70,0,0
11417,-100,4,2,1,5,0,0
11464,-100,4,2,1,70,0,0
12167,-100,4,2,1,5,0,0
12214,-100,4,2,1,70,0,0
12355,-100,4,2,1,5,0,0
12402,-100,4,2,1,70,0,0
18027,-100,4,2,1,80,0,0
29089,-100,4,2,1,90,0,0
29651,-100,4,2,1,40,0,0
30027,-100,4,2,1,60,0,0
35277,-100,4,2,1,70,0,0
36027,-100,4,2,1,60,0,0
42027,-100,4,2,1,80,0,0
45355,-100,4,2,1,5,0,0
45402,-100,4,2,1,80,0,0
48308,-100,4,2,1,5,0,0
48402,-100,4,2,1,80,0,0
51308,-100,4,2,1,5,0,0
51402,-100,4,2,1,80,0,0
54308,-100,4,2,1,5,0,0
54402,-100,4,2,1,80,0,0
56136,-100,4,2,1,5,0,0
56183,-100,4,2,1,80,0,0
57402,-100,4,2,1,80,0,0
59136,-100,4,2,1,5,0,0
59183,-100,4,2,1,80,0,0
63027,-100,4,2,1,85,0,0
64620,-100,4,2,1,80,0,0
64714,-100,4,2,1,75,0,0
64808,-100,4,2,1,70,0,0
64902,-100,4,2,1,60,0,0
65089,-100,4,2,1,50,0,0
65136,-100,4,2,1,5,0,0
65183,-100,4,2,1,50,0,0
65230,-100,4,2,1,5,0,0
65277,-100,4,2,1,50,0,0
65652,-100,4,2,1,70,0,0
72027,-100,4,2,0,40,0,0
78027,-133.333333333333,4,2,1,50,0,0
81027,-133.333333333333,4,2,1,55,0,0
84027,-117.647058823529,4,2,1,70,0,0
87027,-105.263157894737,4,2,1,75,0,0
88714,-105.263157894737,4,2,1,75,0,0
90027,-105.263157894737,4,2,1,80,0,0
91152,-105.263157894737,4,2,2,60,0,0
91527,-90.9090909090909,4,2,1,90,0,1
100527,-90.9090909090909,4,2,1,93,0,1
102027,-90.9090909090909,4,2,1,96,0,1
102777,-90.9090909090909,4,2,1,100,0,1
103152,-90.9090909090909,4,2,1,70,0,0
103527,-90.9090909090909,4,2,1,90,0,1
109527,-90.9090909090909,4,2,1,95,0,1
114027,-90.9090909090909,4,2,1,100,0,1
114214,-90.9090909090909,4,2,1,5,0,1
114308,-90.9090909090909,4,2,1,100,0,1
114495,-90.9090909090909,4,2,1,5,0,1
114589,-90.9090909090909,4,2,1,100,0,1
114777,-90.9090909090909,4,2,1,5,0,1
114871,-90.9090909090909,4,2,1,100,0,1
115058,-90.9090909090909,4,2,1,5,0,1
115152,-90.9090909090909,4,2,1,60,0,1
115527,-111.111111111111,4,2,1,50,0,0
118527,-111.111111111111,4,2,1,40,0,0
121527,-111.111111111111,4,2,1,30,0,0
124527,-111.111111111111,4,2,1,20,0,0
126027,-111.111111111111,4,2,1,10,0,0

[Colours]
Combo1 : 240,181,140
Combo2 : 151,230,236
Combo3 : 109,148,248
Combo4 : 219,133,231

[HitObjects]
348,79,1527,6,0,L|357:9,2,70.1250013375282,2|2|2,1:2|0:0|0:0,0:0:0:0:
310,107,2277,2,0,L|217:94,1,93.500001783371,2|2,0:0|0:0,0:0:0:0:
170,89,2839,1,4,1:0:0:0:
65,182,3402,2,0,P|33:166|0:168,2,70.1250013375282,0|0|0,3:0|3:0|3:0,0:0:0:0:
155,289,4527,2,0,P|189:290|223:279,1,70.1250013375282,2|2,3:2|3:2,0:0:0:0:
291,332,5089,1,2,3:2:0:0:
291,332,5277,2,0,P|335:317|381:320,1,93.500001783371,2|0,3:2|0:0,0:0:0:0:
443,216,6027,6,0,L|435:106,1,110,4|10,1:2|1:2,0:0:0:0:
356,29,6777,1,0,1:0:0:0:
276,103,7152,2,0,L|214:94,1,55,10|2,1:2|0:0,0:0:0:0:
183,54,7527,2,0,L|74:70,1,110,2|10,1:2|1:2,0:0:0:0:
14,162,8277,1,2,1:2:0:0:
14,162,8464,1,2,0:0:0:0:
14,162,8652,1,10,1:2:0:0:
88,242,9027,6,0,B|77:266|77:266|79:294,2,55,0|0|8,1:0|0:0|1:2,0:0:0:0:
122,198,9589,1,2,0:0:0:0:
122,198,9777,2,0,L|231:211,1,110,0|10,1:0|1:2,0:0:0:0:
275,311,10527,2,0,L|193:301,2,82.5,2|2|2,1:2|0:0|0:0,0:0:0:0:
319,277,11277,2,0,L|428:290,1,110,0|8,0:0|1:3,0:0:0:0:
483,195,12027,6,0,L|475:140,1,55,2|2,1:2|0:0,0:0:0:0:
436,100,12402,2,0,P|396:137|342:146,1,110,10|2,1:2|1:2,0:0:0:0:
236,117,13152,2,0,L|243:173,1,55,10|2,1:2|0:0,0:0:0:0:
251,226,13527,2,0,L|312:239,2,55,2|2|10,1:2|0:0|1:2,0:0:0:0:
167,298,14277,1,2,1:2:0:0:
167,298,14464,1,2,0:0:0:0:
167,298,14652,1,10,1:2:0:0:
77,233,15027,6,0,L|22:241,2,55,0|0|8,1:2|0:0|1:2,0:0:0:0:
116,195,15589,1,2,0:0:0:0:
116,195,15777,2,0,B|137:142|137:142|117:84,1,110,0|10,1:0|1:2,0:0:0:0:
195,12,16527,5,2,1:2:0:0:
284,75,16902,1,10,1:2:0:0:
373,10,17277,1,2,1:2:0:0:
464,70,17652,1,10,1:3:0:0:
424,172,18027,6,0,L|319:164,2,82.5,6|2|2,1:2|0:0|0:0,0:0:0:0:
466,204,18777,2,0,P|477:258|461:310,1,110,2|10,1:2|1:2,0:0:0:0:
355,339,19527,2,0,P|344:299|350:258,2,82.5,2|2|2,1:2|0:0|0:0,0:0:0:0:
314,376,20277,2,0,L|259:371,1,55,2|0,1:2|0:0,0:0:0:0:
204,367,20652,1,10,1:2:0:0:
154,264,21027,6,0,L|73:280,2,82.5,2|2|2,1:2|0:0|0:0,0:0:0:0:
197,229,21777,2,0,L|306:241,1,110,2|10,1:2|1:2,0:0:0:0:
384,163,22527,2,0,P|419:183|460:188,2,82.5,2|2|2,1:2|0:0|0:0,0:0:0:0:
346,122,23277,2,0,L|349:67,2,55,2|2|10,1:2|0:0|1:2,0:0:0:0:
247,171,24027,6,0,L|192:161,1,55,0|0,3:0|3:0,0:0:0:0:
170,110,24402,2,0,L|115:119,1,55,8|2,3:2|3:2,0:0:0:0:
73,154,24777,2,0,B|53:204|53:204|67:258,1,110,2|10,3:2|3:2,0:0:0:0:
123,352,25527,2,0,L|41:362,2,82.5,0|0|2,3:0|3:0|3:2,0:0:0:0:
164,315,26277,2,0,L|218:322,1,55,2|0,3:2|3:0,0:0:0:0:
272,334,26652,1,10,3:2:0:0:
359,267,27027,6,0,L|413:275,1,55,0|0,3:0|3:0,0:0:0:0:
457,241,27402,2,0,L|465:186,1,55,8|0,3:2|3:0,0:0:0:0:
431,143,27777,2,0,L|376:134,1,55,0|0,3:2|3:0,0:0:0:0:
333,169,28152,1,8,3:2:0:0:
261,85,28527,5,6,1:2:0:0:
178,93,28808,1,6,1:2:0:0:
160,175,29089,1,6,1:2:0:0:
231,217,29370,1,6,1:2:0:0:
294,161,29651,1,2,1:2:0:0:
361,73,30027,6,0,L|443:86,2,82.5,6|0|0,1:2|0:0|0:0,0:0:0:0:
266,16,30964,2,0,L|211:24,1,55,0|8,0:0|1:2,0:0:0:0:
170,60,31339,1,0,0:0:0:0:
170,60,31527,2,0,L|87:53,2,82.5,0|0|0,1:0|0:0|0:0,0:0:0:0:
234,155,32464,1,2,0:0:0:0:
234,155,32652,1,8,1:2:0:0:
203,260,33027,6,0,P|201:302|217:338,2,82.5,2|0|0,1:2|0:0|0:0,0:0:0:0:
126,180,33964,2,0,L|66:185,2,55,0|8|0,0:0|1:2|0:0,0:0:0:0:
167,142,34527,2,0,L|160:32,1,110,0|8,1:2|1:2,0:0:0:0:
265,2,35277,1,2,1:2:0:0:
369,37,35652,1,10,1:2:0:0:
442,116,36027,6,0,P|480:102|521:101,2,82.5,6|0|0,1:2|0:0|0:0,0:0:0:0:
358,188,36964,2,0,L|303:182,2,55,0|8|0,0:0|1:2|0:0,0:0:0:0:
387,234,37527,2,0,P|425:248|466:249,2,82.5,0|0|0,1:0|0:0|0:0,0:0:0:0:
360,282,38277,1,0,1:0:0:0:
270,345,38652,1,8,1:2:0:0:
185,274,39027,6,0,B|147:268|147:268|122:291|122:291|84:287,1,110,6|8,1:2|0:1,0:0:0:0:
44,185,39777,2,0,B|82:189|82:189|107:166|107:166|144:171,1,110,4|8,1:2|0:1,0:0:0:0:
233,106,40527,2,0,B|237:62|237:62|227:46|227:46|231:0,2,110,6|6|2,1:2|1:2|3:2,0:0:0:0:
314,179,41652,1,2,3:2:0:0:
400,112,42027,6,2,P|453:105|492:141,1,110,6|10,1:0|1:3,0:1:0:0:
507,194,42589,1,2,1:0:0:0:
454,290,42964,1,2,0:0:0:0:
454,290,43152,1,10,1:3:0:0:
454,290,43339,2,0,L|275:267,1,165,2|10,1:2|1:3,0:0:0:0:
244,299,44089,1,2,1:2:0:0:
146,247,44464,2,0,L|91:239,1,55,0|10,1:0|1:3,0:0:0:0:
41,140,45027,6,2,B|105:147|90:117|148:124,1,110,6|10,1:2|1:3,0:1:0:0:
203,108,45589,1,2,1:0:0:0:
203,108,45777,2,0,L|195:53,2,55,2|2|10,0:0|0:0|1:3,0:0:0:0:
245,142,46339,1,2,0:0:0:0:
365,29,46902,1,10,1:3:0:0:
365,28,47089,2,0,P|443:23|490:87,1,165,2|10,1:2|1:3,0:0:0:0:
468,195,48027,6,2,B|412:177|412:177|360:189,1,110,6|10,1:0|1:3,0:1:0:0:
309,206,48589,1,2,0:1:0:0:
223,136,48964,1,2,0:0:0:0:
223,136,49152,1,10,1:3:0:0:
223,135,49339,2,0,P|156:181|75:175,1,165,0|10,1:0|1:3,0:0:0:0:
29,145,50089,1,2,1:2:0:0:
79,46,50464,2,0,P|104:59|131:62,1,55,0|10,1:0|1:3,0:0:0:0:
232,18,51027,6,2,L|341:25,1,110,6|10,1:0|1:3,0:1:0:0:
380,63,51589,1,2,0:1:0:0:
380,63,51777,2,0,L|434:59,2,55,2|2|10,0:0|0:0|1:3,0:0:0:0:
347,107,52339,2,0,L|360:271,1,165,2|2,0:0|0:3,0:0:0:0:
460,316,53277,1,8,1:3:0:0:
371,381,53652,1,0,1:0:0:0:
271,336,54027,6,2,P|218:324|168:346,1,110,6|10,1:0|1:3,0:1:0:0:
98,302,54683,2,0,L|86:220,1,82.5,2|2,1:2|0:0,0:0:0:0:
121,178,55152,2,0,L|203:186,2,82.5,10|2|2,1:3|1:2|1:2,0:0:0:0:
86,134,55902,1,10,1:3:0:0:
223,41,56464,1,0,1:0:0:0:
223,41,56652,2,0,L|284:37,1,55,10|0,1:3|1:0,0:0:0:0:
324,9,57027,6,2,P|365:46|419:54,1,110,2|10,1:0|1:3,0:1:0:0:
469,118,57683,2,0,P|448:154|446:195,1,82.5,2|2,1:2|0:0,0:0:0:0:
405,232,58152,2,0,P|366:216|325:216,2,82.5,10|2|2,1:3|1:2|1:2,0:0:0:0:
418,285,58902,1,10,1:3:0:0:
271,360,59464,1,0,1:0:0:0:
271,360,59652,2,0,L|262:305,1,55,10|0,1:3|1:0,0:0:0:0:
225,265,60027,6,0,L|170:273,2,55,6|0|8,1:0|1:0|1:2,0:0:0:0:
296,183,60777,1,2,1:2:0:0:
296,183,60964,1,2,1:2:0:0:
296,183,61152,2,0,P|314:146|317:105,2,82.5,10|8|0,1:2|1:2|1:0,0:0:0:0:
324,230,61902,2,0,L|378:224,1,55,8|0,1:2|0:0,0:0:0:0:
426,124,62464,1,2,1:2:0:0:
426,124,62652,2,0,L|371:114,1,55,8|0,1:2|1:0,0:0:0:0:
317,105,63027,5,6,1:0:0:0:
256,192,63120,12,2,64527,1:2:0:0:
329,113,65652,6,0,P|376:139|430:138,1,110,10|4,0:2|1:0,0:0:0:0:
256,192,72027,12,2,77277,0:0:0:0:
368,21,78027,6,0,P|387:56|391:97,1,82.5000031471254,2|2,1:2|0:0,0:0:0:0:
338,161,78777,2,0,L|277:154,2,61.875002360344,2|2|2,0:0|0:0|0:0,0:0:0:0:
373,182,79527,1,2,0:0:0:0:
400,259,79902,1,0,0:0:0:0:
332,307,80277,2,0,P|328:327|328:347,2,41.2500015735627,2|2|2,0:0|0:0|0:0,0:0:0:0:
259,268,81027,6,0,P|219:265|179:276,1,82.5000031471254,2|2,0:0|0:0,0:0:0:0:
113,226,81777,2,0,L|51:234,2,61.875002360344,2|2|2,0:0|0:0|0:0,0:0:0:0:
142,196,82527,1,2,0:0:0:0:
114,118,82902,1,0,0:0:0:0:
193,91,83277,1,2,0:0:0:0:
220,169,83652,1,2,0:0:0:0:
304,209,84027,6,0,L|349:200,2,46.7500008916855,2|2|2,3:2|3:2|3:2,0:0:0:0:
244,281,84777,2,0,L|174:270,2,70.1250013375283,2|2|2,3:2|3:2|3:2,0:0:0:0:
269,320,85527,2,0,L|262:366,2,46.7500008916855,0|2|0,3:0|3:2|3:0,0:0:0:0:
362,326,86277,1,2,3:2:0:0:
439,273,86652,1,2,3:2:0:0:
484,179,87027,6,0,L|472:75,1,104.499997209549,4|2,3:1|3:2,0:0:0:0:
371,48,87777,2,0,L|382:151,1,104.499997209549,4|2,3:1|3:2,0:0:0:0:
311,228,88527,2,0,P|302:265|309:304,2,78.3749979071618,2|2|2,3:2|3:2|3:2,0:0:0:0:
335,181,89277,2,0,P|306:154|269:141,2,78.3749979071618,2|2|2,3:2|3:2|3:2,0:0:0:0:
364,225,90027,5,4,3:0:0:0:
464,198,90402,1,4,3:0:0:0:
491,97,90777,1,4,3:0:0:0:
425,15,91152,1,8,0:0:0:0:
311,57,91527,6,0,L|319:116,2,60.5000018463135,6|2|10,1:2|0:0|1:2,0:0:0:0:
197,14,92277,2,0,L|106:24,2,90.7500027694703,2|2|2,1:2|0:0|1:2,0:0:0:0:
226,72,93027,1,2,1:2:0:0:
226,72,93214,2,0,L|217:140,1,60.5000018463135,2|8,0:0|1:2,0:0:0:0:
110,187,93777,2,0,L|97:246,1,60.5000018463135,2|2,1:2|0:0,0:0:0:0:
139,289,94152,2,0,L|126:348,1,60.5000018463135,10|2,1:2|0:0,0:0:0:0:
74,379,94527,6,0,L|14:367,2,60.5000018463135,2|2|10,1:2|0:0|1:2,0:0:0:0:
179,318,95277,2,0,L|197:229,2,90.7500027694703,2|2|2,1:2|0:0|1:2,0:0:0:0:
218,363,96027,2,0,P|257:342|302:336,1,90.7500027694703,2|2,1:2|0:0,0:0:0:0:
394,361,96589,1,2,0:0:0:0:
394,361,96777,2,0,L|454:355,2,60.5000018463135,2|2|8,1:2|0:0|1:3,0:0:0:0:
371,236,97527,6,0,P|341:242|311:242,2,60.5000018463135,2|2|10,1:2|0:0|1:2,0:0:0:0:
431,130,98277,2,0,P|467:156|511:159,2,90.7500027694703,2|2|2,1:2|0:0|1:2,0:0:0:0:
391,91,99027,1,2,1:2:0:0:
391,91,99214,2,0,L|331:101,1,60.5000018463135,2|8,0:0|1:2,0:0:0:0:
226,40,99777,2,0,L|166:49,1,60.5000018463135,2|2,1:2|0:0,0:0:0:0:
117,85,100152,2,0,L|57:75,1,60.5000018463135,10|2,1:2|0:0,0:0:0:0:
4,105,100527,6,0,P|-4:164|19:218,2,121.000003692627,2|10|2,1:2|1:2|1:2,0:0:0:0:
96,26,101652,1,10,1:2:0:0:
186,107,102027,2,0,L|246:98,2,60.5000018463135,2|2|10,1:2|0:0|1:2,0:0:0:0:
147,153,102589,1,2,0:0:0:0:
147,153,102777,2,0,L|87:144,2,60.5000018463135,2|2|10,1:2|0:0|1:2,0:0:0:0:
221,248,103527,6,0,L|209:308,2,60.5000018463135,6|2|10,1:2|0:0|1:2,0:0:0:0:
342,248,104277,2,0,L|324:338,2,90.7500027694703,2|2|2,1:2|0:0|1:2,0:0:0:0:
389,209,105027,1,2,1:2:0:0:
389,209,105214,2,0,L|451:221,1,60.5000018463135,2|8,0:0|1:2,0:0:0:0:
503,112,105777,2,0,L|494:52,1,60.5000018463135,2|2,1:2|0:0,0:0:0:0:
450,10,106152,2,0,L|389:17,1,60.5000018463135,10|2,1:2|0:0,0:0:0:0:
338,49,106527,6,0,L|277:41,2,60.5000018463135,2|2|10,1:2|0:0|1:2,0:0:0:0:
418,137,107277,2,0,P|458:116|503:112,2,90.7500027694703,2|2|2,1:2|0:0|1:2,0:0:0:0:
376,181,108027,2,0,L|286:166,1,90.7500027694703,2|2,1:2|0:0,0:0:0:0:
200,137,108589,1,2,0:0:0:0:
200,137,108777,2,0,L|110:151,1,90.7500027694703,2|2,1:2|0:0,0:0:0:0:
24,181,109339,1,0,0:0:0:0:
24,181,109527,6,0,L|33:121,2,60.5000018463135,6|2|10,3:2|3:2|3:2,0:0:0:0:
115,260,110277,2,0,P|116:304|98:346,2,90.7500027694703,2|2|2,3:2|3:2|3:2,0:0:0:0:
156,215,111027,1,2,3:2:0:0:
156,215,111214,2,0,L|215:224,2,60.5000018463135,2|8|2,3:2|3:2|3:2,0:0:0:0:
121,164,111777,1,2,3:2:0:0:
76,51,112152,1,10,3:2:0:0:
189,10,112527,6,0,L|249:16,1,60.5000018463135,2|2,3:2|3:2,0:0:0:0:
295,55,112902,2,0,L|355:48,1,60.5000018463135,10|2,3:2|3:2,0:0:0:0:
404,13,113277,1,2,3:2:0:0:
481,106,113652,1,10,3:2:0:0:
396,193,114027,5,6,1:2:0:0:
312,159,114308,1,6,1:2:0:0:
254,228,114589,1,6,1:2:0:0:
302,305,114870,1,6,1:2:0:0:
390,283,115152,1,0,0:0:0:0:
438,369,115527,6,0,P|503:343|512:273,2,148.49999546814,6|2|0,1:2|0:0|0:0,0:0:0:0:
390,283,117027,2,0,L|401:209,2,74.2499977340699,2|0|2,0:0|0:0|0:0,0:0:0:0:
247,310,118152,1,0,0:0:0:0:
247,310,118527,6,0,B|207:301|177:328|177:328|147:355|108:347,2,148.49999546814,2|2|0,0:0|0:0|0:0,0:0:0:0:
303,230,120027,2,0,P|374:225|405:161,2,148.49999546814,2|2|0,0:0|0:0|0:0,0:0:0:0:
224,170,121527,6,0,P|248:102|221:34,1,148.49999546814,2|2,0:0|0:0,0:0:0:0:
31,192,123027,2,0,P|6:260|33:328,1,148.49999546814,2|2,0:0|0:0,0:0:0:0:
275,374,124527,6,0,P|334:330|407:330,1,148.49999546814,2|2,0:0|0:0,0:0:0:0:
497,99,126027,2,0,B|418:78|372:133|419:158|353:237|239:201|209:136|233:72|288:49|333:82,1,395.999987915039,2|0,0:0|0:0,0:0:0:0:
