osu file format v14

[General]
AudioFilename: audio.mp3
AudioLeadIn: 0
PreviewTime: -1
Countdown: 1
SampleSet: None
StackLeniency: 0.7
Mode: 0
LetterboxInBreaks: 0
WidescreenStoryboard: 0

[Editor]
Bookmarks: 10327,10498,12899,34842,56784,78727,100670,122613,144556,166498,188441,210384
DistanceSpacing: 0.6
BeatDivisor: 4
GridSize: 4
TimelineZoom: 3.899998

[Metadata]
Title:Never Felt This Way Before feat. Renko
TitleUnicode:Never Felt This Way Before feat. Renko
Artist:lapix
ArtistUnicode:lapix
Creator:Lokidoki
Version:collab
Source:
Tags:HARDCORE TANO*C Harmonoize II
BeatmapID:1982069
BeatmapSetID:949171

[Difficulty]
HPDrainRate:5.5
CircleSize:4
OverallDifficulty:8.2
ApproachRate:9.4
SliderMultiplier:2.2
SliderTickRate:1

[Events]
//Background and Video events
0,0,"67685452_p0.png",0,0
//Break Periods
2,34955,78187
//Storyboard Layer 0 (Background)
//Storyboard Layer 1 (Fail)
//Storyboard Layer 2 (Pass)
//Storyboard Layer 3 (Foreground)
//Storyboard Sound Samples

[TimingPoints]
556,342.857142857143,4,2,0,100,1,0
1242,-50,4,2,0,100,0,0
1927,-66.6666666666667,4,2,0,100,0,0
12556,-133.333333333333,4,2,0,100,0,0
12898,-66.6666666666667,4,2,0,100,0,0
22498,-133.333333333333,4,2,0,100,0,0
23356,-66.6666666666667,4,2,0,100,0,0
23870,-100,4,2,0,100,0,0
25241,-133.333333333333,4,2,0,100,0,0
26270,-173.913043478261,4,2,0,100,0,0
26613,-100,4,2,0,100,0,0
78727,-33.3333333333333,4,2,0,100,0,0
83184,-50,4,2,0,100,0,0

[HitObjects]
67,115,1242,5,0,0:0:0:0:
67,115,1327,1,0,0:0:0:0:
67,115,1413,2,0,B|87:80|87:80|83:43|83:43|50:5,1,110
166,144,1584,6,0,P|133:170|119:237,1,110
260,346,1756,2,0,P|253:304|202:258,1,110
273,170,1927,6,0,B|331:198|331:198|339:224|339:224|423:257,1,165.000006294251
492,250,2184,2,0,P|471:199|441:179,1,82.5000031471254
374,323,2356,1,0,0:0:0:0:
374,323,2442,2,0,P|428:330|460:314,1,82.5000031471254
413,95,2613,6,0,B|293:111|394:156|229:176,1,165.000006294251
140,133,2870,1,0,0:0:0:0:
129,137,2956,2,0,P|167:166|199:261,1,82.5000031471254
249,261,3127,2,0,P|255:308|210:398,1,82.5000031471254
179,382,3299,1,0,0:0:0:0:
390,250,3470,6,0,B|419:236|373:201|311:264,1,82.5000031471254
286,151,3641,2,0,B|207:129|210:35|331:30|307:138,1,165.000006294251
218,237,3898,1,0,0:0:0:0:
218,237,3984,2,0,B|154:246|154:246|118:277|118:277|42:253|42:253|131:245,1,247.500009441376
208,340,4327,6,0,L|297:327,1,82.5000031471254
164,143,4498,2,0,L|81:152,1,82.5000031471254
336,227,4670,6,0,B|434:234|352:321|503:309,1,165.000006294251
472,220,4927,1,0,0:0:0:0:
486,223,5013,2,0,P|445:174|422:160,1,82.5000031471254
395,88,5184,2,0,P|331:82|305:88,1,82.5000031471254
192,140,5356,6,0,B|241:176|241:176|223:322,1,165.000006294251
160,333,5613,1,0,0:0:0:0:
160,333,5698,2,0,P|142:288|151:243,1,82.5000031471254
311,314,5870,2,0,P|281:352|237:366,1,82.5000031471254
328,215,6041,6,0,B|420:246|372:283|482:316,1,165.000006294251
460,121,6384,2,0,B|368:152|416:189|306:222,1,165.000006294251
239,258,6641,1,0,0:0:0:0:
221,264,6727,2,0,P|225:215|259:174,1,82.5000031471254
300,127,6898,2,0,P|296:78|262:37,1,82.5000031471254
175,36,7070,5,0,0:0:0:0:
182,47,7156,1,0,0:0:0:0:
192,44,7241,1,0,0:0:0:0:
189,34,7327,1,0,0:0:0:0:
175,36,7413,6,0,B|133:120|199:100|135:221,1,165.000006294251
74,263,7670,1,0,0:0:0:0:
87,271,7756,2,0,P|115:308|125:346,1,82.5000031471254
255,218,7927,2,0,P|227:255|217:293,1,82.5000031471254
285,357,8098,6,0,B|305:385|389:371|338:255,1,165.000006294251
175,36,8441,6,0,L|184:123,1,82.5000031471254
267,134,8613,2,0,L|258:51,1,82.5000031471254
92,23,8784,6,0,L|110:192,1,165.000006294251
84,271,9041,1,0,0:0:0:0:
84,271,9127,2,0,B|122:285|122:285|154:260,1,82.5000031471254
252,331,9298,2,0,B|213:316|213:316|181:341,1,82.5000031471254
238,237,9470,6,0,B|344:288|344:288|329:238,1,165.000006294251
441,161,9727,1,0,0:0:0:0:
441,161,9813,2,0,P|424:192|412:239,1,82.5000031471254
316,81,9984,2,0,P|333:112|345:159,1,82.5000031471254
424,318,10156,6,0,L|512:298,1,82.5000031471254
510,324,10327,2,0,L|429:342,1,82.5000031471254
238,237,10498,6,0,L|150:217,1,82.5000031471254
152,243,10669,2,0,L|232:261,1,82.5000031471254
339,133,10841,6,0,L|427:113,1,82.5000031471254
425,139,11012,2,0,L|344:157,1,82.5000031471254
196,55,11184,5,0,0:0:0:0:
202,38,11270,1,0,0:0:0:0:
220,44,11356,1,0,0:0:0:0:
215,62,11441,1,0,0:0:0:0:
196,61,11527,6,0,B|89:22|89:22|128:115|128:115|127:124|127:124|165:234|165:234|170:239|170:239|194:318|194:318|244:236|244:236|243:228|243:228|284:171|284:171|226:149,1,660.000025177003
269,85,12556,6,0,L|317:105,3,41.2500015735627
356,27,12898,6,0,P|392:112|392:194,1,165.000006294251
411,292,13156,1,0,0:0:0:0:
411,292,13241,2,0,B|375:267|375:267|312:285,1,82.5000031471254
323,357,13413,2,0,B|359:382|359:382|422:364,1,82.5000031471254
241,228,13584,6,0,B|279:330|209:388|131:315,1,165.000006294251
163,196,13841,1,0,0:0:0:0:
163,196,13927,2,0,P|144:238|143:291,1,82.5000031471254
71,169,14098,2,0,P|66:209|48:246,1,82.5000031471254
85,337,14270,2,0,P|16:312|48:246,1,165.000006294251
138,112,14527,1,0,0:0:0:0:
138,112,14613,2,0,P|170:47|102:22,1,165.000006294251
305,263,14956,6,0,B|340:286|340:286|434:272|434:272|464:236,1,165.000006294251
429,73,15213,1,0,0:0:0:0:
429,73,15298,2,0,P|388:76|363:106,1,82.5000031471254
320,0,15470,2,0,P|291:28|291:68,1,82.5000031471254
219,154,15641,6,0,B|321:129|277:195|374:195,1,165.000006294251
178,232,15898,1,0,0:0:0:0:
178,232,15984,2,0,P|130:162|166:81,1,165.000006294251
10,22,16327,6,0,B|48:64|48:64|22:182,1,165.000006294251
109,166,16584,2,0,L|71:327,1,165.000006294251
175,248,16841,2,0,L|153:340,1,82.5000031471254
300,384,17013,6,0,B|355:350|355:350|329:244,1,165.000006294251
427,311,17270,1,0,0:0:0:0:
427,311,17356,2,0,L|387:152,1,165.000006294251
476,56,17698,6,0,B|454:94|454:94|484:212,1,165.000006294251
369,72,17956,1,0,0:0:0:0:
369,72,18041,2,0,P|329:58|319:2,1,82.5000031471254
305,186,18213,2,0,P|337:158|390:177,1,82.5000031471254
237,71,18384,6,0,P|244:112|135:150,1,165.000006294251
18,95,18641,1,0,0:0:0:0:
18,95,18727,2,0,B|61:124|61:124|93:248,2,165.000006294251
97,7,19156,1,0,0:0:0:0:
97,7,19241,2,0,P|125:46|126:101,1,82.5000031471254
237,71,19413,2,0,P|265:110|266:165,1,82.5000031471254
318,0,19584,2,0,P|346:39|347:94,1,82.5000031471254
349,157,19756,6,0,B|441:147|392:99|508:90,2,165.000006294251
507,4,20270,1,0,0:0:0:0:
488,189,20441,1,0,0:0:0:0:
283,101,20613,2,0,P|263:144|267:190,1,82.5000031471254
354,238,20784,2,0,P|334:281|338:327,1,82.5000031471254
176,130,20956,2,0,P|156:173|160:219,1,82.5000031471254
207,316,21127,5,0,0:0:0:0:
167,347,21213,1,0,0:0:0:0:
120,357,21298,1,0,0:0:0:0:
77,343,21384,1,0,0:0:0:0:
56,304,21470,1,0,0:0:0:0:
65,265,21556,1,0,0:0:0:0:
87,233,21641,1,0,0:0:0:0:
110,203,21727,1,0,0:0:0:0:
116,169,21813,5,0,0:0:0:0:
103,139,21898,1,0,0:0:0:0:
87,119,21984,1,0,0:0:0:0:
63,113,22070,1,0,0:0:0:0:
45,116,22156,1,0,0:0:0:0:
32,122,22241,1,0,0:0:0:0:
23,131,22327,1,0,0:0:0:0:
20,145,22413,1,0,0:0:0:0:
24,157,22498,6,0,B|88:155|139:121|139:121|170:140|170:140|255:128|255:128|263:123|263:123|335:113,1,288.750011014939
374,126,23184,5,0,0:0:0:0:
424,134,23270,1,0,0:0:0:0:
505,146,23356,2,0,B|516:136|516:136|506:203,1,82.5000031471254
325,62,23527,2,0,B|313:52|313:52|323:119,1,82.5000031471254
387,219,23698,1,0,0:0:0:0:
502,233,23870,6,0,P|435:235|358:315,1,165
222,278,24384,2,0,B|295:247|295:247|364:297,1,165
222,278,24898,2,0,B|172:299|172:299|127:265,1,110
150,87,25241,6,0,P|181:146|184:209,1,123.750004720688
267,114,25756,2,0,P|200:111|144:82,1,123.750004720688
184,202,26270,2,0,P|216:148|268:113,1,126.500002412796
364,101,26870,1,0,0:0:0:0:
447,140,27127,1,0,0:0:0:0:
470,229,27384,1,0,0:0:0:0:
442,315,27641,1,0,0:0:0:0:
354,344,27813,1,0,0:0:0:0:
175,292,27984,5,0,0:0:0:0:
268,303,28241,1,0,0:0:0:0:
178,262,28498,1,0,0:0:0:0:
271,273,28755,1,0,0:0:0:0:
180,234,29013,1,0,0:0:0:0:
86,258,29356,5,0,0:0:0:0:
109,347,29613,1,0,0:0:0:0:
69,246,29870,5,0,0:0:0:0:
34,348,30127,1,0,0:0:0:0:
33,135,30384,5,0,0:0:0:0:
52,233,30556,1,0,0:0:0:0:
71,330,30727,1,0,0:0:0:0:
63,128,30984,5,0,0:0:0:0:
41,338,31241,1,0,0:0:0:0:
93,120,31498,5,0,0:0:0:0:
71,330,31755,1,0,0:0:0:0:
125,113,32098,5,0,0:0:0:0:
213,128,32356,1,0,0:0:0:0:
358,27,32613,5,0,0:0:0:0:
343,115,32871,1,0,0:0:0:0:
136,143,33127,5,0,0:0:0:0:
224,158,33298,1,0,0:0:0:0:
381,48,33470,5,0,0:0:0:0:
366,136,33728,1,0,0:0:0:0:
148,173,33984,5,0,0:0:0:0:
236,188,34241,1,0,0:0:0:0:
403,69,34498,6,0,L|371:248,1,165
358,197,78727,6,0,B|322:180|322:180|320:163|320:163|324:195|324:195|417:237,1,165.000006294251
