osu file format v14

[General]
AudioFilename: audio.mp3
AudioLeadIn: 0
PreviewTime: 166338
Countdown: 0
SampleSet: Normal
StackLeniency: 0.7
Mode: 3
LetterboxInBreaks: 0
SpecialStyle: 0
WidescreenStoryboard: 0

[Editor]
DistanceSpacing: 0.8
BeatDivisor: 4
GridSize: 32
TimelineZoom: 3.099998

[Metadata]
Title:NEO GRAVITY (Extended)
TitleUnicode:NEO GRAVITY (Extended)
Artist:lapix
ArtistUnicode:lapix
Creator:Virtue-
Version:Ultra High Gravity
Source:
Tags:
BeatmapID:1244558
BeatmapSetID:587778

[Difficulty]
HPDrainRate:8.5
CircleSize:4
OverallDifficulty:8.5
ApproachRate:5
SliderMultiplier:1.4
SliderTickRate:1

[Events]
//Background and Video events
0,0,"neo G bg.jpg",0,0
//Break Periods
//Storyboard Layer 0 (Background)
//Storyboard Layer 1 (Fail)
//Storyboard Layer 2 (Pass)
//Storyboard Layer 3 (Foreground)
//Storyboard Sound Samples

[TimingPoints]
975,363.636363636364,4,1,0,0,1,0
3884,-58.8235294117647,4,1,0,0,0,0
3929,-100,4,1,0,0,0,0
6429,-66.6666666666667,4,1,0,0,0,0
6520,-200,4,1,0,0,0,0
6611,-66.6666666666667,4,1,0,0,0,0
6702,-200,4,1,0,0,0,0
6793,-100,4,1,0,0,0,0
8247,-62.5,4,1,0,0,0,0
8338,-111.111111111111,4,1,0,0,0,0
8429,-200,4,1,0,0,0,0
8520,-62.5,4,1,0,0,0,0
8611,-111.111111111111,4,1,0,0,0,0
8702,-200,4,1,0,0,0,0
8793,-62.5,4,1,0,0,0,0
8884,-111.111111111111,4,1,0,0,0,0
8975,-200,4,1,0,0,0,0
9065,-62.5,4,1,0,0,0,0
9156,-111.111111111111,4,1,0,0,0,0
9247,-200,4,1,0,0,0,0
9338,-100,4,1,0,0,0,0
12247,-66.6666666666667,4,1,0,0,0,0
12338,-200,4,1,0,0,0,0
12429,-66.6666666666667,4,1,0,0,0,0
12520,-200,4,1,0,0,0,0
12611,-100,4,1,0,0,0,0
14065,-66.6666666666667,4,1,0,0,0,0
14156,-83.3333333333333,4,1,0,0,0,0
14247,-125,4,1,0,0,0,0
14338,-200,4,1,0,0,0,0
14429,-90.9090909090909,4,1,0,0,0,0
14793,-86.9565217391304,4,1,0,0,0,0
15156,-83.3333333333333,4,1,0,0,0,0
15520,-100,4,1,0,0,0,0
16793,-52.6315789473684,4,1,0,0,0,0
16838,-1000,4,1,0,0,0,0
16884,-52.6315789473684,4,1,0,0,0,0
16929,-1000,4,1,0,0,0,0
16975,-58.8235294117647,4,1,0,0,0,0
17020,-100,4,1,0,0,0,0
18247,-66.6666666666667,4,1,0,0,0,0
18338,-200,4,1,0,0,0,0
18429,-100,4,1,0,0,0,0
19702,-52.6315789473684,4,1,0,0,0,0
19747,-1000,4,1,0,0,0,0
19793,-52.6315789473684,4,1,0,0,0,0
19838,-1000,4,1,0,0,0,0
19884,-58.8235294117647,4,1,0,0,0,0
19929,-100,4,1,0,0,0,0
21156,-66.6666666666667,4,1,0,0,0,0
21247,-200,4,1,0,0,0,0
21338,-66.6666666666667,4,1,0,0,0,0
21429,-200,4,1,0,0,0,0
21520,-76.9230769230769,4,1,0,0,0,0
21611,-142.857142857143,4,1,0,0,0,0
21702,-76.9230769230769,4,1,0,0,0,0
21793,-142.857142857143,4,1,0,0,0,0
21884,-76.9230769230769,4,1,0,0,0,0
21975,-142.857142857143,4,1,0,0,0,0
22065,-66.6666666666667,4,1,0,0,0,0
22156,-200,4,1,0,0,0,0
22247,-76.9230769230769,4,1,0,0,0,0
22338,-142.857142857143,4,1,0,0,0,0
22429,-76.9230769230769,4,1,0,0,0,0
22520,-142.857142857143,4,1,0,0,0,0
22611,-76.9230769230769,4,1,0,0,0,0
22702,-142.857142857143,4,1,0,0,0,0
22793,-100,4,1,0,0,0,0
24247,-52.6315789473684,4,1,0,0,0,0
24338,-1000,4,1,0,0,0,0
24429,-52.6315789473684,4,1,0,0,0,0
24520,-1000,4,1,0,0,0,0
24611,-52.6315789473684,4,1,0,0,0,0
24702,-1000,4,1,0,0,0,0
24793,-52.6315789473684,4,1,0,0,0,0
24884,-1000,4,1,0,0,0,0
24975,-52.6315789473684,4,1,0,0,0,0
25065,-1000,4,1,0,0,0,0
25156,-52.6315789473684,4,1,0,0,0,0
25247,-1000,4,1,0,0,0,0
25338,-52.6315789473684,4,1,0,0,0,0
25429,-1000,4,1,0,0,0,0
25520,-52.6315789473684,4,1,0,0,0,0
25611,-1000,4,1,0,0,0,0
25702,-62.5,4,1,0,0,0,0
25793,-111.111111111111,4,1,0,0,0,0
25884,-200,4,1,0,0,0,0
25975,-62.5,4,1,0,0,0,0
26065,-111.111111111111,4,1,0,0,0,0
26156,-200,4,1,0,0,0,0
26247,-66.6666666666667,4,1,0,0,0,0
26338,-200,4,1,0,0,0,0
26429,-52.6315789473684,4,1,0,0,0,0
26475,-1000,4,1,0,0,0,0
26520,-52.6315789473684,4,1,0,0,0,0
26565,-1000,4,1,0,0,0,0
26611,-52.6315789473684,4,1,0,0,0,0
26656,-1000,4,1,0,0,0,0
26702,-52.6315789473684,4,1,0,0,0,0
26747,-1000,4,1,0,0,0,0
26793,-66.6666666666667,4,1,0,0,0,0
26884,-83.3333333333333,4,1,0,0,0,0
26975,-125,4,1,0,0,0,0
27065,-200,4,1,0,0,0,0
27156,-58.8235294117647,4,1,0,0,0,0
27247,-83.3333333333333,4,1,0,0,0,0
27338,-142.857142857143,4,1,0,0,0,0
27429,-250,4,1,0,0,0,0
27520,-100,4,1,0,0,0,0
28611,-58.8235294117647,4,1,0,0,0,0
28702,-83.3333333333333,4,1,0,0,0,0
28793,-142.857142857143,4,1,0,0,0,0
28884,-250,4,1,0,0,0,0
28975,-100,4,1,0,0,0,0
30065,-1000,4,1,0,0,0,0
30247,-76.9230769230769,4,1,0,0,0,0
30429,-100,4,1,0,0,0,0
31520,-58.8235294117647,4,1,0,0,0,0
31565,-100,4,1,0,0,0,0
31702,-58.8235294117647,4,1,0,0,0,0
31747,-100,4,1,0,0,0,0
31884,-58.8235294117647,4,1,0,0,0,0
31929,-100,4,1,0,0,0,0
32793,-66.6666666666667,4,1,0,0,0,0
32884,-200,4,1,0,0,0,0
32975,-52.6315789473684,4,1,0,0,0,0
33020,-1000,4,1,0,0,0,0
33065,-52.6315789473684,4,1,0,0,0,0
33111,-1000,4,1,0,0,0,0
33156,-52.6315789473684,4,1,0,0,0,0
33202,-1000,4,1,0,0,0,0
33247,-52.6315789473684,4,1,0,0,0,0
33293,-1000,4,1,0,0,0,0
33338,-100,4,1,0,0,0,0
34429,-52.6315789473684,4,1,0,0,0,0
34475,-1000,4,1,0,0,0,0
34517,-52.6315789473684,4,1,0,0,0,0
34565,-1000,4,1,0,0,0,0
34611,-52.6315789473684,4,1,0,0,0,0
34656,-1000,4,1,0,0,0,0
34702,-52.6315789473684,4,1,0,0,0,0
34747,-1000,4,1,0,0,0,0
34793,-62.5,4,1,0,0,0,0
34884,-111.111111111111,4,1,0,0,0,0
34975,-200,4,1,0,0,0,0
35065,-52.6315789473684,4,1,0,0,0,0
35111,-1000,4,1,0,0,0,0
35156,-52.6315789473684,4,1,0,0,0,0
35202,-1000,4,1,0,0,0,0
35247,-52.6315789473684,4,1,0,0,0,0
35293,-1000,4,1,0,0,0,0
35338,-66.6666666666667,4,1,0,0,0,0
35429,-200,4,1,0,0,0,0
35520,-52.6315789473684,4,1,0,0,0,0
35565,-1000,4,1,0,0,0,0
35611,-52.6315789473684,4,1,0,0,0,0
35656,-1000,4,1,0,0,0,0
35702,-52.6315789473684,4,1,0,0,0,0
35732,-1000,4,1,0,0,0,0
35762,-52.6315789473684,4,1,0,0,0,0
35793,-1000,4,1,0,0,0,0
35823,-52.6315789473684,4,1,0,0,0,0
35853,-1000,4,1,0,0,0,0
35884,-100,4,1,0,0,0,0
37338,-10,4,1,0,0,0,0
38065,-10.989,4,1,0,15,0,0
38071.1,-1000,4,1,0,15,0,0
38126,-10.989,4,1,0,15,0,0
38132.1,-1000,4,1,0,15,0,0
38187,-10.989,4,1,0,15,0,0
38190,-1000,4,1,0,15,0,0
38217,-10.989,4,1,0,15,0,0
38226.1,-1000,4,1,0,15,0,0
38308,-10.989,4,1,0,15,0,0
38313.3,-1000,4,1,0,15,0,0
38361,-10.989,4,1,0,15,0,0
38370.1,-1000,4,1,0,15,0,0
38452,-10.989,4,1,0,15,0,0
38458.8,-1000,4,1,0,15,0,0
38520,-10.989,4,1,0,15,0,0
38524.5,-1000,4,1,0,15,0,0
38565,-10.989,4,1,0,15,0,0
38569.6,-1000,4,1,0,15,0,0
38611,-100,4,1,0,15,0,0
41702,-66.6666666666667,4,1,0,0,0,0
41793,-83.3333333333333,4,1,0,0,0,0
41884,-125,4,1,0,0,0,0
41975,-200,4,1,0,0,0,0
42065,-100,4,1,0,0,0,0
43156,-58.8235294117647,4,1,0,0,0,0
43202,-100,4,1,0,0,0,0
43338,-58.8235294117647,4,1,0,0,0,0
43384,-100,4,1,0,0,0,0
43520,-58.8235294117647,4,1,0,0,0,0
43565,-100,4,1,0,0,0,0
47156,-52.6315789473684,4,1,0,0,0,0
47202,-1000,4,1,0,0,0,0
47247,-52.6315789473684,4,1,0,0,0,0
47293,-1000,4,1,0,0,0,0
47338,-52.6315789473684,4,1,0,0,0,0
47368,-1000,4,1,0,0,0,0
47399,-52.6315789473684,4,1,0,0,0,0
47429,-1000,4,1,0,0,0,0
47459,-52.6315789473684,4,1,0,0,0,0
47490,-1000,4,1,0,0,0,0
47520,-100,4,1,0,0,0,0
50065,-52.6315789473684,4,1,0,0,0,0
50111,-1000,4,1,0,0,0,0
50156,-52.6315789473684,4,1,0,0,0,0
50202,-1000,4,1,0,0,0,0
50247,-52.6315789473684,4,1,0,0,0,0
50293,-1000,4,1,0,0,0,0
50338,-52.6315789473684,4,1,0,0,0,0
50384,-1000,4,1,0,0,0,0
50429,-66.6666666666667,4,1,0,0,0,0
50520,-83.3333333333333,4,1,0,0,0,0
50611,-125,4,1,0,0,0,0
50702,-200,4,1,0,0,0,0
50793,-100,4,1,0,0,0,0
51884,-66.6666666666667,4,1,0,0,0,0
51975,-83.3333333333333,4,1,0,0,0,0
52065,-125,4,1,0,0,0,0
52156,-200,4,1,0,0,0,0
52247,-100,4,1,0,0,0,0
53338,-66.6666666666667,4,1,0,0,0,0
53429,-83.3333333333333,4,1,0,0,0,0
53520,-125,4,1,0,0,0,0
53611,-200,4,1,0,0,0,0
53702,-100,4,1,0,0,0,0
54793,-66.6666666666667,4,1,0,0,0,0
54884,-200,4,1,0,0,0,0
54975,-66.6666666666667,4,1,0,0,0,0
55065,-200,4,1,0,0,0,0
55156,-100,4,1,0,0,0,0
56247,-52.6315789473684,4,1,0,0,0,0
56293,-1000,4,1,0,0,0,0
56338,-52.6315789473684,4,1,0,0,0,0
56384,-1000,4,1,0,0,0,0
56429,-52.6315789473684,4,1,0,0,0,0
56475,-1000,4,1,0,0,0,0
56520,-62.5,4,1,0,0,0,0
56611,-111.111111111111,4,1,0,0,0,0
56702,-200,4,1,0,0,0,0
56793,-52.6315789473684,4,1,0,0,0,0
56838,-1000,4,1,0,0,0,0
56884,-52.6315789473684,4,1,0,0,0,0
56929,-1000,4,1,0,0,0,0
56975,-52.6315789473684,4,1,0,0,0,0
57020,-1000,4,1,0,0,0,0
57065,-52.6315789473684,4,1,0,0,0,0
57111,-1000,4,1,0,0,0,0
57156,-52.6315789473684,4,1,0,0,0,0
57202,-1000,4,1,0,0,0,0
57247,-52.6315789473684,4,1,0,0,0,0
57293,-100,4,1,0,0,0,0
57338,-52.6315789473684,4,1,0,0,0,0
57384,-1000,4,1,0,0,0,0
57429,-52.6315789473684,4,1,0,0,0,0
57475,-1000,4,1,0,0,0,0
57520,-52.6315789473684,4,1,0,0,0,0
57565,-1000,4,1,0,0,0,0
57611,-62.5,4,1,0,0,0,0
57702,-111.111111111111,4,1,0,0,0,0
57793,-200,4,1,0,0,0,0
57884,-52.6315789473684,4,1,0,0,0,0
57929,-1000,4,1,0,0,0,0
57975,-52.6315789473684,4,1,0,0,0,0
58020,-1000,4,1,0,0,0,0
58065,-52.6315789473684,4,1,0,0,0,0
58111,-1000,4,1,0,0,0,0
58156,-52.6315789473684,4,1,0,0,0,0
58202,-1000,4,1,0,0,0,0
58247,-52.6315789473684,4,1,0,0,0,0
58293,-1000,4,1,0,0,0,0
58338,-52.6315789473684,4,1,0,0,0,0
58384,-100,4,1,0,0,0,0
58429,-62.5,4,1,0,0,0,0
58475,-111.111111111111,4,1,0,0,0,0
58520,-200,4,1,0,0,0,0
58565,-100,4,1,0,0,0,0
58611,-62.5,4,1,0,0,0,0
58656,-111.111111111111,4,1,0,0,0,0
58702,-200,4,1,0,0,0,0
58747,-100,4,1,0,0,0,0
58793,-66.6666666666667,4,1,0,0,0,0
58884,-83.3333333333333,4,1,0,0,0,0
58975,-125,4,1,0,0,0,0
59065,-200,4,1,0,0,0,0
59156,-100,4,1,0,0,0,0
60611,-66.6666666666667,4,1,0,0,0,0
60702,-200,4,1,0,0,0,0
60793,-100,4,1,0,0,0,0
60975,-52.6315789473684,4,1,0,0,0,0
61065,-1000,4,1,0,0,0,0
61156,-52.6315789473684,4,1,0,0,0,0
61247,-1000,4,1,0,0,0,0
61338,-52.6315789473684,4,1,0,0,0,0
61429,-1000,4,1,0,0,0,0
61520,-52.6315789473684,4,1,0,0,0,0
61611,-1000,4,1,0,0,0,0
61702,-66.6666666666667,4,1,0,0,0,0
61793,-83.3333333333333,4,1,0,0,0,0
61884,-125,4,1,0,0,0,0
61975,-200,4,1,0,0,0,0
62065,-111.111111111111,4,1,0,0,0,0
68975,-109.89010989011,4,1,0,0,0,0
69338,-108.695652173913,4,1,0,0,0,0
69702,-107.52688172043,4,1,0,0,0,0
70065,-106.382978723404,4,1,0,0,0,0
70429,-105.263157894737,4,1,0,0,0,0
70793,-104.166666666667,4,1,0,0,0,0
71156,-103.092783505155,4,1,0,0,0,0
71520,-102.040816326531,4,1,0,0,0,0
71884,-101.010101010101,4,1,0,0,0,0
72247,-100,4,1,0,0,0,0
73702,-62.5,4,1,0,0,0,0
73793,-111.111111111111,4,1,0,0,0,0
73884,-200,4,1,0,0,0,0
73975,-66.6666666666667,4,1,0,0,0,0
74065,-83.3333333333333,4,1,0,0,0,0
74156,-125,4,1,0,0,0,0
74247,-200,4,1,0,0,0,0
74338,-62.5,4,1,0,0,0,0
74429,-111.111111111111,4,1,0,0,0,0
74520,-200,4,1,0,0,0,0
74611,-62.5,4,1,0,0,0,0
74702,-111.111111111111,4,1,0,0,0,0
74793,-200,4,1,0,0,0,0
74884,-62.5,4,1,0,0,0,0
74975,-111.111111111111,4,1,0,0,0,0
75065,-200,4,1,0,0,0,0
75156,-66.6666666666667,4,1,0,0,0,0
75247,-83.3333333333333,4,1,0,0,0,0
75338,-125,4,1,0,0,0,0
75429,-200,4,1,0,0,0,0
75520,-62.5,4,1,0,0,0,0
75611,-111.111111111111,4,1,0,0,0,0
75702,-200,4,1,0,0,0,0
75793,-62.5,4,1,0,0,0,0
75884,-111.111111111111,4,1,0,0,0,0
75975,-200,4,1,0,0,0,0
76065,-66.6666666666667,4,1,0,0,0,0
76156,-200,4,1,0,0,0,0
76247,-52.6315789473684,4,1,0,0,0,0
76293,-1000,4,1,0,0,0,0
76338,-52.6315789473684,4,1,0,0,0,0
76384,-1000,4,1,0,0,0,0
76429,-52.6315789473684,4,1,0,0,0,0
76475,-1000,4,1,0,0,0,0
76520,-52.6315789473684,4,1,0,0,0,0
76565,-1000,4,1,0,0,0,0
76611,-66.6666666666667,4,1,0,0,0,0
76702,-83.3333333333333,4,1,0,0,0,0
76793,-125,4,1,0,0,0,0
76884,-200,4,1,0,0,0,0
76975,-62.5,4,1,0,0,0,0
77065,-111.111111111111,4,1,0,0,0,0
77156,-200,4,1,0,0,0,0
77247,-62.5,4,1,0,0,0,0
77338,-111.111111111111,4,1,0,0,0,0
77429,-200,4,1,0,0,0,0
77520,-62.5,4,1,0,0,0,0
77611,-111.111111111111,4,1,0,0,0,0
77702,-200,4,1,0,0,0,0
77793,-62.5,4,1,0,0,0,0
77884,-111.111111111111,4,1,0,0,0,0
77975,-200,4,1,0,0,0,0
78065,-66.6666666666667,4,1,0,0,0,0
78156,-83.3333333333333,4,1,0,0,0,0
78247,-125,4,1,0,0,0,0
78338,-200,4,1,0,0,0,0
78429,-62.5,4,1,0,0,0,0
78520,-111.111111111111,4,1,0,0,0,0
78611,-200,4,1,0,0,0,0
78702,-62.5,4,1,0,0,0,0
78793,-111.111111111111,4,1,0,0,0,0
78884,-200,4,1,0,0,0,0
78975,-66.6666666666667,4,1,0,0,0,0
79065,-200,4,1,0,0,0,0
79156,-52.6315789473684,4,1,0,0,0,0
79179,-1000,4,1,0,0,0,0
79202,-52.6315789473684,4,1,0,0,0,0
79225,-1000,4,1,0,0,0,0
79247,-52.6315789473684,4,1,0,0,0,0
79270,-1000,4,1,0,0,0,0
79293,-52.6315789473684,4,1,0,0,0,0
79315,-1000,4,1,0,0,0,0
79338,-66.6666666666667,4,1,0,0,0,0
79429,-200,4,1,0,0,0,0
79520,-100,4,1,0,0,0,0
82429,-58.8235294117647,4,1,0,0,0,0
82475,-100,4,1,0,0,0,0
83884,-58.8235294117647,4,1,0,0,0,0
83929,-100,4,1,0,0,0,0
84247,-58.8235294117647,4,1,0,0,0,0
84293,-100,4,1,0,0,0,0
84611,-58.8235294117647,4,1,0,0,0,0
84656,-100,4,1,0,0,0,0
84975,-66.6666666666667,4,1,0,0,0,0
85065,-83.3333333333333,4,1,0,0,0,0
85156,-125,4,1,0,0,0,0
85247,-200,4,1,0,0,0,0
85338,-66.6666666666667,4,1,0,0,0,0
85429,-200,4,1,0,0,0,0
85520,-66.6666666666667,4,1,0,0,0,0
85611,-200,4,1,0,0,0,0
85702,-66.6666666666667,4,1,0,0,0,0
85793,-200,4,1,0,0,0,0
85884,-66.6666666666667,4,1,0,0,0,0
85975,-200,4,1,0,0,0,0
86065,-66.6666666666667,4,1,0,0,0,0
86156,-200,4,1,0,0,0,0
86247,-66.6666666666667,4,1,0,0,0,0
86338,-200,4,1,0,0,0,0
86429,-66.6666666666667,4,1,0,0,0,0
86520,-200,4,1,0,0,0,0
86611,-66.6666666666667,4,1,0,0,0,0
86702,-200,4,1,0,0,0,0
86793,-100,4,1,0,0,0,0
92611,-52.6315789473684,4,1,0,0,0,0
92656,-1000,4,1,0,0,0,0
92702,-52.6315789473684,4,1,0,0,0,0
92747,-1000,4,1,0,0,0,0
92793,-52.6315789473684,4,1,0,0,0,0
92838,-1000,4,1,0,0,0,0
92884,-52.6315789473684,4,1,0,0,0,0
92929,-1000,4,1,0,0,0,0
92975,-52.6315789473684,4,1,0,0,0,0
93020,-1000,4,1,0,0,0,0
93065,-52.6315789473684,4,1,0,0,0,0
93111,-1000,4,1,0,0,0,0
93156,-52.6315789473684,4,1,0,0,0,0
93202,-1000,4,1,0,0,0,0
93247,-52.6315789473684,4,1,0,0,0,0
93293,-1000,4,1,0,0,0,0
93338,-100,4,1,0,0,0,0
95520,-58.8235294117647,4,1,0,0,0,0
95565,-100,4,1,0,0,0,0
95793,-58.8235294117647,4,1,0,0,0,0
95838,-100,4,1,0,0,0,0
96065,-58.8235294117647,4,1,0,0,0,0
96111,-100,4,1,0,0,0,0
96338,-52.6315789473684,4,1,0,0,0,0
96384,-1000,4,1,0,0,0,0
96429,-52.6315789473684,4,1,0,0,0,0
96475,-1000,4,1,0,0,0,0
96520,-52.6315789473684,4,1,0,0,0,0
96565,-1000,4,1,0,0,0,0
96611,-66.6666666666667,4,1,0,0,0,0
96702,-83.3333333333333,4,1,0,0,0,0
96793,-125,4,1,0,0,0,0
96884,-200,4,1,0,0,0,0
96975,-100,4,1,0,0,0,0
107156,-62.5,4,1,0,0,0,0
107247,-111.111111111111,4,1,0,0,0,0
107338,-200,4,1,0,0,0,0
107429,-62.5,4,1,0,0,0,0
107520,-111.111111111111,4,1,0,0,0,0
107611,-200,4,1,0,0,0,0
107702,-62.5,4,1,0,0,0,0
107793,-111.111111111111,4,1,0,0,0,0
107884,-200,4,1,0,0,0,0
107975,-62.5,4,1,0,0,0,0
108065,-111.111111111111,4,1,0,0,0,0
108156,-200,4,1,0,0,0,0
108247,-58.8235294117647,4,1,0,0,0,0
108338,-76.9230769230769,4,1,0,0,0,0
108429,-166.666666666667,4,1,0,0,0,0
108520,-250,4,1,0,0,0,0
108611,-100,4,1,0,0,0,0
117338,-58.8235294117647,4,1,0,0,0,0
117384,-66.6666666666667,4,1,0,0,0,0
117429,-83.3333333333333,4,1,0,0,0,0
117475,-111.111111111111,4,1,0,0,0,0
117520,-142.857142857143,4,1,0,0,0,0
117565,-166.666666666667,4,1,0,0,0,0
117611,-250,4,1,0,0,0,0
117656,-100,4,1,0,0,0,0
117702,-58.8235294117647,4,1,0,0,0,0
117747,-66.6666666666667,4,1,0,0,0,0
117793,-83.3333333333333,4,1,0,0,0,0
117838,-111.111111111111,4,1,0,0,0,0
117884,-142.857142857143,4,1,0,0,0,0
117929,-166.666666666667,4,1,0,0,0,0
117975,-250,4,1,0,0,0,0
118020,-100,4,1,0,0,0,0
118065,-58.8235294117647,4,1,0,0,0,0
118111,-66.6666666666667,4,1,0,0,0,0
118156,-83.3333333333333,4,1,0,0,0,0
118202,-111.111111111111,4,1,0,0,0,0
118247,-142.857142857143,4,1,0,0,0,0
118293,-166.666666666667,4,1,0,0,0,0
118338,-250,4,1,0,0,0,0
118384,-100,4,1,0,0,0,0
118429,-58.8235294117647,4,1,0,0,0,0
118475,-66.6666666666667,4,1,0,0,0,0
118520,-83.3333333333333,4,1,0,0,0,0
118565,-111.111111111111,4,1,0,0,0,0
118611,-142.857142857143,4,1,0,0,0,0
118656,-166.666666666667,4,1,0,0,0,0
118702,-250,4,1,0,0,0,0
118747,-100,4,1,0,0,0,0
118793,-66.6666666666667,4,1,0,0,0,0
118884,-200,4,1,0,0,0,0
118975,-100,4,1,0,0,0,0
119065,-200,4,1,0,0,0,0
119156,-100,4,1,0,0,0,0
119429,-58.8235294117647,4,1,0,0,0,0
119475,-100,4,1,0,0,0,0
119702,-58.8235294117647,4,1,0,0,0,0
119747,-100,4,1,0,0,0,0
131884,-111.111111111111,4,1,0,0,0,0
139156,-109.89010989011,4,1,0,0,0,0
139520,-108.695652173913,4,1,0,0,0,0
139884,-107.52688172043,4,1,0,0,0,0
140247,-106.382978723404,4,1,0,0,0,0
140611,-105.263157894737,4,1,0,0,0,0
140975,-104.166666666667,4,1,0,0,0,0
141338,-103.092783505155,4,1,0,0,0,0
141520,-102.040816326531,4,1,0,0,0,0
141702,-101.010101010101,4,1,0,0,0,0
141884,-100,4,1,0,0,0,0
142065,-90.9090909090909,4,1,0,0,0,0
142247,-83.3333333333333,4,1,0,0,0,0
142429,-76.9230769230769,4,1,0,0,0,0
142611,-71.4285714285714,4,1,0,0,0,0
142793,-66.6666666666667,4,1,0,0,0,0
142975,-62.5,4,1,0,0,0,0
143156,-58.8235294117647,4,1,0,0,0,0
143247,-76.9230769230769,4,1,0,0,0,0
143338,-166.666666666667,4,1,0,0,0,0
143429,-250,4,1,0,0,0,0
143520,-100,4,1,0,0,0,0
144975,-62.5,4,1,0,0,0,0
145020,-76.9230769230769,4,1,0,0,0,0
145065,-90.9090909090909,4,1,0,0,0,0
145111,-166.666666666667,4,1,0,0,0,0
145156,-250,4,1,0,0,0,0
145202,-100,4,1,0,0,0,0
145247,-62.5,4,1,0,0,0,0
145293,-76.9230769230769,4,1,0,0,0,0
145338,-90.9090909090909,4,1,0,0,0,0
145384,-166.666666666667,4,1,0,0,0,0
145429,-250,4,1,0,0,0,0
145475,-100,4,1,0,0,0,0
145520,-52.6315789473684,4,1,0,0,0,0
145565,-1000,4,1,0,0,0,0
145611,-52.6315789473684,4,1,0,0,0,0
145656,-1000,4,1,0,0,0,0
145702,-52.6315789473684,4,1,0,0,0,0
145747,-1000,4,1,0,0,0,0
145793,-52.6315789473684,4,1,0,0,0,0
145838,-1000,4,1,0,0,0,0
145884,-52.6315789473684,4,1,0,0,0,0
145929,-1000,4,1,0,0,0,0
145975,-52.6315789473684,4,1,0,0,0,0
146020,-1000,4,1,0,0,0,0
146065,-66.6666666666667,4,1,0,0,0,0
146156,-83.3333333333333,4,1,0,0,0,0
146247,-125,4,1,0,0,0,0
146338,-200,4,1,0,0,0,0
146429,-100,4,1,0,0,0,0
147884,-62.5,4,1,0,0,0,0
147929,-76.9230769230769,4,1,0,0,0,0
147975,-90.9090909090909,4,1,0,0,0,0
148020,-166.666666666667,4,1,0,0,0,0
148065,-250,4,1,0,0,0,0
148111,-100,4,1,0,0,0,0
148156,-62.5,4,1,0,0,0,0
148202,-76.9230769230769,4,1,0,0,0,0
148247,-90.9090909090909,4,1,0,0,0,0
148293,-166.666666666667,4,1,0,0,0,0
148338,-250,4,1,0,0,0,0
148384,-100,4,1,0,0,0,0
148429,-66.6666666666667,4,1,0,0,0,0
148475,-83.3333333333333,4,1,0,0,0,0
148520,-125,4,1,0,0,0,0
148565,-250,4,1,0,0,0,0
148611,-100,4,1,0,0,0,0
149338,-58.8235294117647,4,1,0,0,0,0
149384,-100,4,1,0,0,0,0
150793,-62.5,4,1,0,0,0,0
150838,-76.9230769230769,4,1,0,0,0,0
150884,-90.9090909090909,4,1,0,0,0,0
150929,-166.666666666667,4,1,0,0,0,0
150975,-250,4,1,0,0,0,0
151020,-100,4,1,0,0,0,0
151065,-62.5,4,1,0,0,0,0
151111,-76.9230769230769,4,1,0,0,0,0
151156,-90.9090909090909,4,1,0,0,0,0
151202,-166.666666666667,4,1,0,0,0,0
151247,-250,4,1,0,0,0,0
151293,-100,4,1,0,0,0,0
151338,-52.6315789473684,4,1,0,0,0,0
151384,-1000,4,1,0,0,0,0
151429,-52.6315789473684,4,1,0,0,0,0
151475,-1000,4,1,0,0,0,0
151520,-52.6315789473684,4,1,0,0,0,0
151565,-1000,4,1,0,0,0,0
151611,-52.6315789473684,4,1,0,0,0,0
151656,-1000,4,1,0,0,0,0
151702,-52.6315789473684,4,1,0,0,0,0
151747,-1000,4,1,0,0,0,0
151793,-52.6315789473684,4,1,0,0,0,0
151838,-1000,4,1,0,0,0,0
151884,-66.6666666666667,4,1,0,0,0,0
151975,-83.3333333333333,4,1,0,0,0,0
152065,-125,4,1,0,0,0,0
152156,-200,4,1,0,0,0,0
152247,-100,4,1,0,0,0,0
152793,-58.8235294117647,4,1,0,0,0,0
152838,-100,4,1,0,0,0,0
153338,-58.8235294117647,4,1,0,0,0,0
153384,-100,4,1,0,0,0,0
155338,-58.8235294117647,4,1,0,0,0,0
155384,-100,4,1,0,0,0,0
155884,-58.8235294117647,4,1,0,0,0,0
155929,-100,4,1,0,0,0,0
156793,-58.8235294117647,4,1,0,0,0,0
156838,-100,4,1,0,0,0,0
157338,-58.8235294117647,4,1,0,0,0,0
157384,-100,4,1,0,0,0,0
158247,-62.5,4,1,0,0,0,0
158293,-76.9230769230769,4,1,0,0,0,0
158338,-90.9090909090909,4,1,0,0,0,0
158384,-166.666666666667,4,1,0,0,0,0
158429,-250,4,1,0,0,0,0
158475,-100,4,1,0,0,0,0
158520,-62.5,4,1,0,0,0,0
158565,-76.9230769230769,4,1,0,0,0,0
158611,-90.9090909090909,4,1,0,0,0,0
158656,-166.666666666667,4,1,0,0,0,0
158702,-250,4,1,0,0,0,0
158747,-100,4,1,0,0,0,0
158793,-62.5,4,1,0,0,0,0
158838,-76.9230769230769,4,1,0,0,0,0
158884,-90.9090909090909,4,1,0,0,0,0
158929,-166.666666666667,4,1,0,0,0,0
158975,-250,4,1,0,0,0,0
159020,-100,4,1,0,0,0,0
159065,-62.5,4,1,0,0,0,0
159111,-76.9230769230769,4,1,0,0,0,0
159156,-90.9090909090909,4,1,0,0,0,0
159202,-166.666666666667,4,1,0,0,0,0
159247,-250,4,1,0,0,0,0
159293,-100,4,1,0,0,0,0
159338,-62.5,4,1,0,0,0,0
159384,-111.111111111111,4,1,0,0,0,0
159429,-200,4,1,0,0,0,0
159475,-100,4,1,0,0,0,0
159520,-62.5,4,1,0,0,0,0
159565,-76.9230769230769,4,1,0,0,0,0
159611,-90.9090909090909,4,1,0,0,0,0
159656,-166.666666666667,4,1,0,0,0,0
159702,-250,4,1,0,0,0,0
159747,-100,4,1,0,0,0,0
159793,-62.5,4,1,0,0,0,0
159838,-76.9230769230769,4,1,0,0,0,0
159884,-90.9090909090909,4,1,0,0,0,0
159929,-166.666666666667,4,1,0,0,0,0
159975,-250,4,1,0,0,0,0
160020,-100,4,1,0,0,0,0
160065,-62.5,4,1,0,0,0,0
160111,-76.9230769230769,4,1,0,0,0,0
160156,-90.9090909090909,4,1,0,0,0,0
160202,-166.666666666667,4,1,0,0,0,0
160247,-250,4,1,0,0,0,0
160293,-100,4,1,0,0,0,0
160338,-62.5,4,1,0,0,0,0
160384,-76.9230769230769,4,1,0,0,0,0
160429,-90.9090909090909,4,1,0,0,0,0
160475,-166.666666666667,4,1,0,0,0,0
160520,-250,4,1,0,0,0,0
160565,-100,4,1,0,0,0,0
160611,-58.8235294117647,4,1,0,0,0,0
160656,-100,4,1,0,0,0,0
163884,-95.2380952380952,4,1,0,0,0,0
164065,-90.9090909090909,4,1,0,0,0,0
164247,-86.9565217391304,4,1,0,0,0,0
164429,-83.3333333333333,4,1,0,0,0,0
164611,-80,4,1,0,0,0,0
164793,-76.9230769230769,4,1,0,0,0,0
164975,-74.0740740740741,4,1,0,0,0,0
165156,-71.4285714285714,4,1,0,0,0,0
165338,-68.9655172413793,4,1,0,0,0,0
165520,-66.6666666666667,4,1,0,0,0,0
165702,-64.5161290322581,4,1,0,0,0,0
165884,-62.5,4,1,0,0,0,0
166065,-60.6060606060606,4,1,0,0,0,0
166247,-58.8235294117647,4,1,0,0,0,0
166429,-66.6666666666667,4,1,0,0,0,0
166520,-83.3333333333333,4,1,0,0,0,0
166611,-125,4,1,0,0,0,0
166702,-200,4,1,0,0,0,0
166793,-100,4,1,0,0,0,1
169702,-58.8235294117647,4,1,0,0,0,1
169747,-100,4,1,0,0,0,1
170065,-58.8235294117647,4,1,0,0,0,1
170111,-100,4,1,0,0,0,1
170611,-58.8235294117647,4,1,0,0,0,1
170656,-100,4,1,0,0,0,1
170975,-58.8235294117647,4,1,0,0,0,1
171020,-100,4,1,0,0,0,1
171338,-58.8235294117647,4,1,0,0,0,1
171384,-100,4,1,0,0,0,1
171611,-58.8235294117647,4,1,0,0,0,1
171656,-100,4,1,0,0,0,1
171884,-58.8235294117647,4,1,0,0,0,1
171929,-100,4,1,0,0,0,1
172156,-58.8235294117647,4,1,0,0,0,1
172202,-100,4,1,0,0,0,1
172429,-58.8235294117647,4,1,0,0,0,1
172475,-100,4,1,0,0,0,1
175520,-66.6666666666667,4,1,0,0,0,0
175611,-83.3333333333333,4,1,0,0,0,0
175702,-125,4,1,0,0,0,0
175793,-200,4,1,0,0,0,0
175884,-66.6666666666667,4,1,0,0,0,0
175975,-200,4,1,0,0,0,0
176065,-66.6666666666667,4,1,0,0,0,0
176156,-200,4,1,0,0,0,0
176247,-66.6666666666667,4,1,0,0,0,0
176338,-200,4,1,0,0,0,0
176429,-66.6666666666667,4,1,0,0,0,0
176520,-200,4,1,0,0,0,0
176611,-66.6666666666667,4,1,0,0,0,0
176702,-200,4,1,0,0,0,0
176793,-66.6666666666667,4,1,0,0,0,0
176838,-200,4,1,0,0,0,0
176884,-66.6666666666667,4,1,0,0,0,0
176929,-200,4,1,0,0,0,0
176975,-58.8235294117647,4,1,0,0,0,0
177020,-100,4,1,0,0,0,0
177247,-58.8235294117647,4,1,0,0,0,0
177293,-100,4,1,0,0,0,0
177520,-58.8235294117647,4,1,0,0,0,0
177565,-100,4,1,0,0,0,0
177793,-58.8235294117647,4,1,0,0,0,0
177838,-100,4,1,0,0,0,0
178065,-66.6666666666667,4,1,0,0,0,0
178156,-83.3333333333333,4,1,0,0,0,0
178247,-125,4,1,0,0,0,0
178338,-200,4,1,0,0,0,0
178429,-100,4,1,0,0,0,1
181338,-58.8235294117647,4,1,0,0,0,1
181384,-100,4,1,0,0,0,1
181702,-58.8235294117647,4,1,0,0,0,1
181747,-100,4,1,0,0,0,1
182247,-58.8235294117647,4,1,0,0,0,1
182293,-100,4,1,0,0,0,1
182611,-58.8235294117647,4,1,0,0,0,1
182656,-100,4,1,0,0,0,1
182975,-58.8235294117647,4,1,0,0,0,1
183020,-100,4,1,0,0,0,1
183247,-58.8235294117647,4,1,0,0,0,1
183293,-100,4,1,0,0,0,1
183520,-58.8235294117647,4,1,0,0,0,1
183565,-100,4,1,0,0,0,1
183793,-58.8235294117647,4,1,0,0,0,1
183838,-100,4,1,0,0,0,1
184065,-58.8235294117647,4,1,0,0,0,1
184111,-100,4,1,0,0,0,1
184247,-66.6666666666667,4,1,0,0,0,1
184293,-200,4,1,0,0,0,1
184338,-66.6666666666667,4,1,0,0,0,1
184384,-200,4,1,0,0,0,1
184429,-66.6666666666667,4,1,0,0,0,1
184475,-200,4,1,0,0,0,1
184520,-66.6666666666667,4,1,0,0,0,1
184565,-200,4,1,0,0,0,1
184611,-66.6666666666667,4,1,0,0,0,1
184656,-200,4,1,0,0,0,1
184702,-66.6666666666667,4,1,0,0,0,1
184747,-200,4,1,0,0,0,1
184793,-66.6666666666667,4,1,0,0,0,1
184838,-200,4,1,0,0,0,1
184884,-66.6666666666667,4,1,0,0,0,1
184929,-200,4,1,0,0,0,1
184975,-66.6666666666667,4,1,0,0,0,1
185020,-200,4,1,0,0,0,1
185065,-66.6666666666667,4,1,0,0,0,1
185111,-200,4,1,0,0,0,1
185156,-66.6666666666667,4,1,0,0,0,1
185202,-200,4,1,0,0,0,1
185247,-66.6666666666667,4,1,0,0,0,1
185293,-200,4,1,0,0,0,1
185338,-66.6666666666667,4,1,0,0,0,1
185384,-200,4,1,0,0,0,1
185429,-66.6666666666667,4,1,0,0,0,1
185475,-200,4,1,0,0,0,1
185520,-66.6666666666667,4,1,0,0,0,1
185565,-200,4,1,0,0,0,1
185611,-66.6666666666667,4,1,0,0,0,1
185656,-200,4,1,0,0,0,1
185702,-66.6666666666667,4,1,0,0,0,1
185747,-200,4,1,0,0,0,1
185793,-66.6666666666667,4,1,0,0,0,1
185838,-200,4,1,0,0,0,1
185884,-66.6666666666667,4,1,0,0,0,1
185929,-200,4,1,0,0,0,1
185975,-66.6666666666667,4,1,0,0,0,1
186020,-200,4,1,0,0,0,1
186065,-66.6666666666667,4,1,0,0,0,1
186111,-200,4,1,0,0,0,1
186156,-66.6666666666667,4,1,0,0,0,1
186202,-200,4,1,0,0,0,1
186247,-66.6666666666667,4,1,0,0,0,1
186293,-200,4,1,0,0,0,1
186338,-66.6666666666667,4,1,0,0,0,1
186384,-200,4,1,0,0,0,1
186429,-52.6315789473684,4,1,0,0,0,1
186452,-1000,4,1,0,0,0,1
186475,-52.6315789473684,4,1,0,0,0,1
186497,-1000,4,1,0,0,0,1
186520,-52.6315789473684,4,1,0,0,0,1
186543,-1000,4,1,0,0,0,1
186565,-52.6315789473684,4,1,0,0,0,1
186588,-1000,4,1,0,0,0,1
186611,-52.6315789473684,4,1,0,0,0,1
186634,-1000,4,1,0,0,0,1
186656,-52.6315789473684,4,1,0,0,0,1
186679,-1000,4,1,0,0,0,1
186702,-52.6315789473684,4,1,0,0,0,1
186725,-1000,4,1,0,0,0,1
186747,-52.6315789473684,4,1,0,0,0,1
186770,-1000,4,1,0,0,0,1
186793,-52.6315789473684,4,1,0,0,0,1
186815,-1000,4,1,0,0,0,1
186838,-52.6315789473684,4,1,0,0,0,1
186861,-1000,4,1,0,0,0,1
186884,-52.6315789473684,4,1,0,0,0,1
186906,-1000,4,1,0,0,0,1
186929,-52.6315789473684,4,1,0,0,0,1
186952,-1000,4,1,0,0,0,1
186975,-52.6315789473684,4,1,0,0,0,1
186997,-1000,4,1,0,0,0,1
187020,-52.6315789473684,4,1,0,0,0,1
187043,-1000,4,1,0,0,0,1
187065,-52.6315789473684,4,1,0,0,0,1
187088,-1000,4,1,0,0,0,1
187111,-52.6315789473684,4,1,0,0,0,1
187134,-1000,4,1,0,0,0,1
187156,-52.6315789473684,4,1,0,0,0,1
187247,-1000,4,1,0,0,0,1
187338,-52.6315789473684,4,1,0,0,0,1
187429,-1000,4,1,0,0,0,1
187520,-52.6315789473684,4,1,0,0,0,1
187611,-1000,4,1,0,0,0,1
187702,-52.6315789473684,4,1,0,0,0,1
187793,-1000,4,1,0,0,0,1
187884,-66.6666666666667,4,1,0,0,0,1
187944,-200,4,1,0,0,0,1
188005,-66.6666666666667,4,1,0,0,0,1
188065,-200,4,1,0,0,0,1
188126,-66.6666666666667,4,1,0,0,0,1
188187,-200,4,1,0,0,0,1
188247,-66.6666666666667,4,1,0,0,0,1
188308,-200,4,1,0,0,0,1
188368,-66.6666666666667,4,1,0,0,0,1
188429,-200,4,1,0,0,0,1
188490,-66.6666666666667,4,1,0,0,0,1
188550,-200,4,1,0,0,0,1
188611,-52.6315789473684,4,1,0,0,0,1
188656,-1000,4,1,0,0,0,1
188702,-52.6315789473684,4,1,0,0,0,1
188747,-1000,4,1,0,0,0,1
188793,-52.6315789473684,4,1,0,0,0,1
188838,-1000,4,1,0,0,0,1
188884,-52.6315789473684,4,1,0,0,0,1
188929,-1000,4,1,0,0,0,1
188975,-66.6666666666667,4,1,0,0,0,1
189065,-200,4,1,0,0,0,1
189156,-62.5,4,1,0,0,0,1
189247,-111.111111111111,4,1,0,0,0,1
189338,-200,4,1,0,0,0,1
189429,-62.5,4,1,0,0,0,1
189520,-111.111111111111,4,1,0,0,0,1
189611,-200,4,1,0,0,0,1
189702,-66.6666666666667,4,1,0,0,0,1
189793,-83.3333333333333,4,1,0,0,0,1
189884,-125,4,1,0,0,0,1
189975,-200,4,1,0,0,0,1
190065,-100,4,1,0,0,0,1
192611,-66.6666666666667,4,1,0,0,0,1
192702,-83.3333333333333,4,1,0,0,0,1
192793,-125,4,1,0,0,0,1
192884,-200,4,1,0,0,0,1
192975,-66.6666666666667,4,1,0,0,0,0
193065,-83.3333333333333,4,1,0,0,0,0
193156,-125,4,1,0,0,0,0
193247,-200,4,1,0,0,0,0
193338,-100,4,1,0,0,0,0
194520,-52.6315789473684,4,1,0,0,0,0
194543,-1000,4,1,0,0,0,0
194565,-52.6315789473684,4,1,0,0,0,0
194588,-1000,4,1,0,0,0,0
194611,-52.6315789473684,4,1,0,0,0,0
194634,-1000,4,1,0,0,0,0
194656,-52.6315789473684,4,1,0,0,0,0
194679,-1000,4,1,0,0,0,0
194702,-52.6315789473684,4,1,0,0,0,0
194725,-1000,4,1,0,0,0,0
194747,-52.6315789473684,4,1,0,0,0,0
194770,-1000,4,1,0,0,0,0
194793,-100,4,1,0,0,0,0
195520,-52.6315789473684,4,1,0,0,0,0
195543,-1000,4,1,0,0,0,0
195565,-52.6315789473684,4,1,0,0,0,0
195588,-1000,4,1,0,0,0,0
195611,-52.6315789473684,4,1,0,0,0,0
195634,-1000,4,1,0,0,0,0
195656,-52.6315789473684,4,1,0,0,0,0
195679,-1000,4,1,0,0,0,0
195702,-66.6666666666667,4,1,0,0,0,0
195793,-200,4,1,0,0,0,0
195884,-66.6666666666667,4,1,0,0,0,0
195975,-83.3333333333333,4,1,0,0,0,0
196065,-125,4,1,0,0,0,0
196156,-200,4,1,0,0,0,0
196247,-100,4,1,0,0,0,0
197338,-52.6315789473684,4,1,0,0,0,0
197361,-1000,4,1,0,0,0,0
197384,-52.6315789473684,4,1,0,0,0,0
197406,-1000,4,1,0,0,0,0
197429,-52.6315789473684,4,1,0,0,0,0
197452,-1000,4,1,0,0,0,0
197475,-52.6315789473684,4,1,0,0,0,0
197497,-1000,4,1,0,0,0,0
197520,-52.6315789473684,4,1,0,0,0,0
197543,-1000,4,1,0,0,0,0
197565,-52.6315789473684,4,1,0,0,0,0
197588,-1000,4,1,0,0,0,0
197611,-52.6315789473684,4,1,0,0,0,0
197656,-1000,4,1,0,0,0,0
197702,-52.6315789473684,4,1,0,0,0,0
197747,-1000,4,1,0,0,0,0
197793,-52.6315789473684,4,1,0,0,0,0
197838,-1000,4,1,0,0,0,0
197884,-52.6315789473684,4,1,0,0,0,0
197929,-1000,4,1,0,0,0,0
197975,-52.6315789473684,4,1,0,0,0,0
198020,-1000,4,1,0,0,0,0
198065,-52.6315789473684,4,1,0,0,0,0
198111,-1000,4,1,0,0,0,0
198156,-52.6315789473684,4,1,0,0,0,0
198202,-1000,4,1,0,0,0,0
198247,-66.6666666666667,4,1,0,0,0,0
198293,-200,4,1,0,0,0,0
198338,-100,4,1,0,0,0,0
199156,-66.6666666666667,4,1,0,0,0,0
199202,-200,4,1,0,0,0,0
199247,-66.6666666666667,4,1,0,0,0,0
199293,-200,4,1,0,0,0,0
199338,-66.6666666666667,4,1,0,0,0,0
199384,-200,4,1,0,0,0,0
199429,-66.6666666666667,4,1,0,0,0,0
199475,-200,4,1,0,0,0,0
199520,-66.6666666666667,4,1,0,0,0,0
199565,-200,4,1,0,0,0,0
199611,-66.6666666666667,4,1,0,0,0,0
199656,-200,4,1,0,0,0,0
199702,-66.6666666666667,4,1,0,0,0,0
199747,-200,4,1,0,0,0,0
199793,-66.6666666666667,4,1,0,0,0,0
199838,-200,4,1,0,0,0,0
199884,-66.6666666666667,4,1,0,0,0,0
199929,-200,4,1,0,0,0,0
199975,-66.6666666666667,4,1,0,0,0,0
200020,-200,4,1,0,0,0,0
200065,-66.6666666666667,4,1,0,0,0,0
200111,-200,4,1,0,0,0,0
200156,-66.6666666666667,4,1,0,0,0,0
200202,-200,4,1,0,0,0,0
200247,-66.6666666666667,4,1,0,0,0,0
200293,-200,4,1,0,0,0,0
200338,-66.6666666666667,4,1,0,0,0,0
200384,-200,4,1,0,0,0,0
200429,-66.6666666666667,4,1,0,0,0,0
200475,-200,4,1,0,0,0,0
200520,-66.6666666666667,4,1,0,0,0,0
200565,-200,4,1,0,0,0,0
200611,-66.6666666666667,4,1,0,0,0,0
200656,-200,4,1,0,0,0,0
200702,-66.6666666666667,4,1,0,0,0,0
200747,-200,4,1,0,0,0,0
200793,-66.6666666666667,4,1,0,0,0,0
200838,-200,4,1,0,0,0,0
200884,-66.6666666666667,4,1,0,0,0,0
200929,-200,4,1,0,0,0,0
200975,-66.6666666666667,4,1,0,0,0,0
201020,-200,4,1,0,0,0,0
201065,-66.6666666666667,4,1,0,0,0,0
201111,-200,4,1,0,0,0,0
201156,-66.6666666666667,4,1,0,0,0,0
201202,-200,4,1,0,0,0,0
201247,-66.6666666666667,4,1,0,0,0,0
201293,-200,4,1,0,0,0,0
201338,-66.6666666666667,4,1,0,0,0,0
201384,-200,4,1,0,0,0,0
201429,-66.6666666666667,4,1,0,0,0,0
201475,-200,4,1,0,0,0,0
201520,-66.6666666666667,4,1,0,0,0,0
201565,-200,4,1,0,0,0,0
201611,-66.6666666666667,4,1,0,0,0,0
201656,-200,4,1,0,0,0,0
201702,-52.6315789473684,4,1,0,0,0,0
201725,-1000,4,1,0,0,0,0
201747,-52.6315789473684,4,1,0,0,0,0
201770,-1000,4,1,0,0,0,0
201793,-52.6315789473684,4,1,0,0,0,0
201815,-1000,4,1,0,0,0,0
201838,-52.6315789473684,4,1,0,0,0,0
201861,-1000,4,1,0,0,0,0
201884,-52.6315789473684,4,1,0,0,0,0
201906,-1000,4,1,0,0,0,0
201929,-52.6315789473684,4,1,0,0,0,0
201952,-1000,4,1,0,0,0,0
201975,-52.6315789473684,4,1,0,0,0,0
201997,-1000,4,1,0,0,0,0
202020,-52.6315789473684,4,1,0,0,0,0
202043,-1000,4,1,0,0,0,0
202065,-52.6315789473684,4,1,0,0,0,0
202088,-1000,4,1,0,0,0,0
202111,-52.6315789473684,4,1,0,0,0,0
202134,-1000,4,1,0,0,0,0
202156,-52.6315789473684,4,1,0,0,0,0
202179,-1000,4,1,0,0,0,0
202202,-52.6315789473684,4,1,0,0,0,0
202225,-1000,4,1,0,0,0,0
202247,-52.6315789473684,4,1,0,0,0,0
202270,-1000,4,1,0,0,0,0
202293,-52.6315789473684,4,1,0,0,0,0
202315,-1000,4,1,0,0,0,0
202338,-52.6315789473684,4,1,0,0,0,0
202361,-1000,4,1,0,0,0,0
202384,-52.6315789473684,4,1,0,0,0,0
202406,-1000,4,1,0,0,0,0
202429,-52.6315789473684,4,1,0,0,0,0
202452,-1000,4,1,0,0,0,0
202475,-52.6315789473684,4,1,0,0,0,0
202497,-1000,4,1,0,0,0,0
202520,-52.6315789473684,4,1,0,0,0,0
202543,-1000,4,1,0,0,0,0
202565,-52.6315789473684,4,1,0,0,0,0
202588,-1000,4,1,0,0,0,0
202611,-52.6315789473684,4,1,0,0,0,0
202634,-1000,4,1,0,0,0,0
202656,-52.6315789473684,4,1,0,0,0,0
202679,-1000,4,1,0,0,0,0
202702,-52.6315789473684,4,1,0,0,0,0
202725,-1000,4,1,0,0,0,0
202747,-52.6315789473684,4,1,0,0,0,0
202770,-1000,4,1,0,0,0,0
202793,-52.6315789473684,4,1,0,0,0,0
202815,-1000,4,1,0,0,0,0
202838,-52.6315789473684,4,1,0,0,0,0
202861,-1000,4,1,0,0,0,0
202884,-52.6315789473684,4,1,0,0,0,0
202906,-1000,4,1,0,0,0,0
202929,-52.6315789473684,4,1,0,0,0,0
202952,-1000,4,1,0,0,0,0
202975,-52.6315789473684,4,1,0,0,0,0
202997,-1000,4,1,0,0,0,0
203020,-52.6315789473684,4,1,0,0,0,0
203043,-1000,4,1,0,0,0,0
203065,-52.6315789473684,4,1,0,0,0,0
203088,-1000,4,1,0,0,0,0
203111,-52.6315789473684,4,1,0,0,0,0
203134,-1000,4,1,0,0,0,0
203156,-62.5,4,1,0,0,0,0
203247,-111.111111111111,4,1,0,0,0,0
203338,-200,4,1,0,0,0,0
203429,-62.5,4,1,0,0,0,0
203520,-111.111111111111,4,1,0,0,0,0
203611,-200,4,1,0,0,0,0
203702,-62.5,4,1,0,0,0,0
203793,-111.111111111111,4,1,0,0,0,0
203884,-200,4,1,0,0,0,0
203975,-62.5,4,1,0,0,0,0
204065,-111.111111111111,4,1,0,0,0,0
204156,-200,4,1,0,0,0,0
204247,-66.6666666666667,4,1,0,0,0,0
204338,-83.3333333333333,4,1,0,0,0,0
204429,-125,4,1,0,0,0,0
204520,-200,4,1,0,0,0,0
204611,-100,4,1,0,0,0,0
212975,-66.6666666666667,4,1,0,0,0,0
213065,-200,4,1,0,0,0,0
213156,-100,4,1,0,0,0,0

[HitObjects]
64,192,975,128,0,3793:0:0:0:0:
448,192,975,128,0,3793:0:0:0:0:
192,192,975,128,0,3793:0:0:0:0:
64,192,3884,5,0,0:0:0:0:
448,192,3884,1,0,0:0:0:0:
192,192,3884,1,0,0:0:0:0:
320,192,4247,128,0,4520:0:0:0:0:
192,192,4520,128,0,4793:0:0:0:0:
64,192,4793,128,0,4975:0:0:0:0:
320,192,4975,128,0,5156:0:0:0:0:
448,192,5156,1,0,0:0:0:0:
64,192,5338,1,0,0:0:0:0:
448,192,5520,1,0,0:0:0:0:
320,192,5611,1,0,0:0:0:0:
64,192,5793,1,0,0:0:0:0:
192,192,5884,1,0,0:0:0:0:
448,192,6065,128,0,6247:0:0:0:0:
320,192,6247,128,0,6429:0:0:0:0:
64,192,6429,1,0,0:0:0:0:
192,192,6429,1,0,0:0:0:0:
448,192,6611,1,0,0:0:0:0:
320,192,6611,1,0,0:0:0:0:
64,192,6793,1,0,0:0:0:0:
192,192,6793,1,0,0:0:0:0:
448,192,6793,1,0,0:0:0:0:
192,192,7156,128,0,7429:0:0:0:0:
448,192,7429,128,0,7702:0:0:0:0:
64,192,7702,128,0,7884:0:0:0:0:
320,192,7884,128,0,8065:0:0:0:0:
192,192,8065,128,0,8247:0:0:0:0:
448,192,8247,1,0,0:0:0:0:
320,192,8247,1,0,0:0:0:0:
64,192,8247,1,0,0:0:0:0:
448,192,8520,1,0,0:0:0:0:
320,192,8520,1,0,0:0:0:0:
64,192,8520,1,0,0:0:0:0:
448,192,8793,1,0,0:0:0:0:
192,192,8793,1,0,0:0:0:0:
64,192,8793,1,0,0:0:0:0:
448,192,9065,1,0,0:0:0:0:
64,192,9065,1,0,0:0:0:0:
192,192,9065,1,0,0:0:0:0:
448,192,9338,1,0,0:0:0:0:
320,192,9338,1,0,0:0:0:0:
64,192,9338,1,0,0:0:0:0:
192,192,9429,1,0,0:0:0:0:
448,192,9520,1,0,0:0:0:0:
320,192,9611,1,0,0:0:0:0:
192,192,9702,1,0,0:0:0:0:
64,192,9702,1,0,0:0:0:0:
448,192,9702,1,0,0:0:0:0:
192,192,10065,128,0,10338:0:0:0:0:
320,192,10338,128,0,10611:0:0:0:0:
64,192,10611,128,0,10793:0:0:0:0:
448,192,10793,128,0,10975:0:0:0:0:
192,192,10975,1,0,0:0:0:0:
448,192,11156,1,0,0:0:0:0:
64,192,11338,1,0,0:0:0:0:
192,192,11429,1,0,0:0:0:0:
448,192,11611,1,0,0:0:0:0:
320,192,11702,1,0,0:0:0:0:
64,192,11884,128,0,12065:0:0:0:0:
192,192,12065,128,0,12247:0:0:0:0:
320,192,12247,1,0,0:0:0:0:
448,192,12247,1,0,0:0:0:0:
192,192,12429,1,0,0:0:0:0:
64,192,12429,1,0,0:0:0:0:
64,192,12611,1,0,0:0:0:0:
320,192,12611,1,0,0:0:0:0:
448,192,12611,1,0,0:0:0:0:
320,192,12975,128,0,13247:0:0:0:0:
192,192,13247,128,0,13520:0:0:0:0:
64,192,13520,128,0,13702:0:0:0:0:
448,192,13702,128,0,13884:0:0:0:0:
320,192,13884,128,0,14065:0:0:0:0:
64,192,14065,1,0,0:0:0:0:
192,192,14065,1,0,0:0:0:0:
448,192,14065,1,0,0:0:0:0:
64,192,14429,1,0,0:0:0:0:
192,192,14429,1,0,0:0:0:0:
448,192,14429,1,0,0:0:0:0:
320,192,14520,1,0,0:0:0:0:
64,192,14611,1,0,0:0:0:0:
192,192,14702,1,0,0:0:0:0:
64,192,14793,1,0,0:0:0:0:
320,192,14793,1,0,0:0:0:0:
448,192,14793,1,0,0:0:0:0:
192,192,14884,1,0,0:0:0:0:
448,192,14975,1,0,0:0:0:0:
320,192,15065,1,0,0:0:0:0:
192,192,15156,1,0,0:0:0:0:
64,192,15156,1,0,0:0:0:0:
448,192,15156,1,0,0:0:0:0:
320,192,15247,1,0,0:0:0:0:
64,192,15338,1,0,0:0:0:0:
192,192,15429,1,0,0:0:0:0:
320,192,15520,1,0,0:0:0:0:
448,192,15520,1,0,0:0:0:0:
64,192,15520,1,0,0:0:0:0:
64,192,15884,1,0,0:0:0:0:
192,192,15884,1,0,0:0:0:0:
448,192,15884,1,0,0:0:0:0:
320,192,16065,1,0,0:0:0:0:
192,192,16156,1,0,0:0:0:0:
64,192,16156,1,0,0:0:0:0:
448,192,16429,1,0,0:0:0:0:
320,192,16429,1,0,0:0:0:0:
64,192,16611,1,0,0:0:0:0:
192,192,16611,1,0,0:0:0:0:
448,192,16611,1,0,0:0:0:0:
320,192,16793,1,0,0:0:0:0:
192,192,16884,1,0,0:0:0:0:
64,192,16975,1,0,0:0:0:0:
320,192,16975,1,0,0:0:0:0:
448,192,16975,1,0,0:0:0:0:
192,192,17156,1,0,0:0:0:0:
64,192,17338,1,0,0:0:0:0:
320,192,17338,1,0,0:0:0:0:
448,192,17338,1,0,0:0:0:0:
192,192,17520,1,0,0:0:0:0:
448,192,17611,1,0,0:0:0:0:
320,192,17611,1,0,0:0:0:0:
64,192,17884,1,0,0:0:0:0:
192,192,17884,1,0,0:0:0:0:
64,192,18065,1,0,0:0:0:0:
320,192,18065,1,0,0:0:0:0:
448,192,18065,1,0,0:0:0:0:
320,192,18247,128,0,18429:0:0:0:0:
64,192,18429,1,0,0:0:0:0:
192,192,18429,1,0,0:0:0:0:
448,192,18429,1,0,0:0:0:0:
448,192,18793,1,0,0:0:0:0:
320,192,18793,1,0,0:0:0:0:
64,192,18793,1,0,0:0:0:0:
192,192,18975,1,0,0:0:0:0:
320,192,19065,1,0,0:0:0:0:
448,192,19065,1,0,0:0:0:0:
64,192,19338,1,0,0:0:0:0:
192,192,19338,1,0,0:0:0:0:
448,192,19520,1,0,0:0:0:0:
320,192,19520,1,0,0:0:0:0:
64,192,19520,1,0,0:0:0:0:
192,192,19702,1,0,0:0:0:0:
320,192,19793,1,0,0:0:0:0:
448,192,19884,1,0,0:0:0:0:
192,192,19884,1,0,0:0:0:0:
64,192,19884,1,0,0:0:0:0:
448,192,20156,1,0,0:0:0:0:
320,192,20156,1,0,0:0:0:0:
320,192,20247,1,0,0:0:0:0:
448,192,20247,1,0,0:0:0:0:
64,192,20247,1,0,0:0:0:0:
64,192,20429,1,0,0:0:0:0:
192,192,20520,1,0,0:0:0:0:
320,192,20520,1,0,0:0:0:0:
64,192,20793,1,0,0:0:0:0:
192,192,20793,1,0,0:0:0:0:
64,192,20975,1,0,0:0:0:0:
320,192,20975,1,0,0:0:0:0:
448,192,20975,1,0,0:0:0:0:
192,192,21156,128,0,21338:0:0:0:0:
64,192,21338,1,0,0:0:0:0:
320,192,21338,1,0,0:0:0:0:
448,192,21338,1,0,0:0:0:0:
192,192,21520,1,0,0:0:0:0:
320,192,21520,1,0,0:0:0:0:
64,192,21702,1,0,0:0:0:0:
192,192,21702,1,0,0:0:0:0:
320,192,21884,1,0,0:0:0:0:
448,192,21884,1,0,0:0:0:0:
64,192,22065,1,0,0:0:0:0:
192,192,22065,1,0,0:0:0:0:
448,192,22065,1,0,0:0:0:0:
192,192,22247,1,0,0:0:0:0:
320,192,22247,1,0,0:0:0:0:
64,192,22429,1,0,0:0:0:0:
448,192,22429,1,0,0:0:0:0:
448,192,22611,1,0,0:0:0:0:
192,192,22611,1,0,0:0:0:0:
64,192,22793,1,0,0:0:0:0:
320,192,22793,1,0,0:0:0:0:
448,192,22884,1,0,0:0:0:0:
64,192,22975,1,0,0:0:0:0:
192,192,23065,1,0,0:0:0:0:
320,192,23156,1,0,0:0:0:0:
448,192,23156,1,0,0:0:0:0:
64,192,23247,1,0,0:0:0:0:
192,192,23338,1,0,0:0:0:0:
448,192,23429,1,0,0:0:0:0:
64,192,23520,1,0,0:0:0:0:
192,192,23565,1,0,0:0:0:0:
320,192,23611,1,0,0:0:0:0:
448,192,23656,1,0,0:0:0:0:
64,192,23702,1,0,0:0:0:0:
192,192,23747,1,0,0:0:0:0:
320,192,23793,1,0,0:0:0:0:
448,192,23838,1,0,0:0:0:0:
64,192,23884,1,0,0:0:0:0:
192,192,23929,1,0,0:0:0:0:
320,192,23975,1,0,0:0:0:0:
448,192,24020,1,0,0:0:0:0:
64,192,24065,1,0,0:0:0:0:
192,192,24111,1,0,0:0:0:0:
320,192,24156,1,0,0:0:0:0:
448,192,24202,1,0,0:0:0:0:
64,192,24247,128,0,25611:0:0:0:0:
192,192,24247,128,0,25611:0:0:0:0:
64,192,25702,1,0,0:0:0:0:
192,192,25702,1,0,0:0:0:0:
448,192,25702,1,0,0:0:0:0:
64,192,25975,1,0,0:0:0:0:
192,192,25975,1,0,0:0:0:0:
448,192,25975,1,0,0:0:0:0:
64,192,26247,1,0,0:0:0:0:
320,192,26247,1,0,0:0:0:0:
448,192,26247,1,0,0:0:0:0:
448,192,26429,128,0,27156:0:0:0:0:
320,192,26429,128,0,26793:0:0:0:0:
64,192,26793,1,0,0:0:0:0:
192,192,26793,1,0,0:0:0:0:
192,192,27156,1,0,0:0:0:0:
320,192,27156,1,0,0:0:0:0:
64,192,27156,128,0,27520:0:0:0:0:
320,192,27520,1,0,0:0:0:0:
448,192,27520,128,0,27702:0:0:0:0:
64,192,27702,128,0,27884:0:0:0:0:
320,192,27884,1,0,0:0:0:0:
448,192,27884,128,0,28065:0:0:0:0:
64,192,28065,128,0,28247:0:0:0:0:
192,192,28247,1,0,0:0:0:0:
320,192,28247,1,0,0:0:0:0:
448,192,28429,128,0,28611:0:0:0:0:
64,192,28429,1,0,0:0:0:0:
64,192,28611,1,0,0:0:0:0:
320,192,28611,1,0,0:0:0:0:
64,192,28975,128,0,29156:0:0:0:0:
192,192,28975,1,0,0:0:0:0:
448,192,29156,128,0,29338:0:0:0:0:
320,192,29156,1,0,0:0:0:0:
64,192,29338,128,0,29520:0:0:0:0:
192,192,29338,1,0,0:0:0:0:
448,192,29520,128,0,29702:0:0:0:0:
64,192,29702,1,0,0:0:0:0:
192,192,29793,1,0,0:0:0:0:
320,192,29793,1,0,0:0:0:0:
64,192,29884,1,0,0:0:0:0:
448,192,29884,1,0,0:0:0:0:
320,192,29975,1,0,0:0:0:0:
192,192,30065,1,0,0:0:0:0:
64,192,30065,1,0,0:0:0:0:
448,192,30065,1,0,0:0:0:0:
64,192,30429,128,0,30702:0:0:0:0:
192,192,30429,1,0,0:0:0:0:
448,192,30429,1,0,0:0:0:0:
64,192,30793,128,0,30884:0:0:0:0:
448,192,30793,1,0,0:0:0:0:
64,192,30975,128,0,31065:0:0:0:0:
64,192,31156,128,0,31247:0:0:0:0:
448,192,31156,1,0,0:0:0:0:
64,192,31338,128,0,31429:0:0:0:0:
192,192,31338,1,0,0:0:0:0:
320,192,31520,128,0,31611:0:0:0:0:
448,192,31520,128,0,31611:0:0:0:0:
64,192,31520,1,0,0:0:0:0:
320,192,31702,128,0,31793:0:0:0:0:
448,192,31702,128,0,31793:0:0:0:0:
64,192,31702,1,0,0:0:0:0:
320,192,31884,128,0,31975:0:0:0:0:
448,192,31884,128,0,31975:0:0:0:0:
64,192,31884,1,0,0:0:0:0:
192,192,32065,1,0,0:0:0:0:
64,192,32156,1,0,0:0:0:0:
448,192,32156,1,0,0:0:0:0:
320,192,32247,1,0,0:0:0:0:
64,192,32338,1,0,0:0:0:0:
448,192,32429,1,0,0:0:0:0:
320,192,32520,1,0,0:0:0:0:
64,192,32611,1,0,0:0:0:0:
192,192,32702,1,0,0:0:0:0:
64,192,32793,1,0,0:0:0:0:
320,192,32793,1,0,0:0:0:0:
448,192,32793,1,0,0:0:0:0:
64,192,32975,1,0,0:0:0:0:
192,192,32975,1,0,0:0:0:0:
448,192,32975,128,0,33338:0:0:0:0:
192,192,33338,1,0,0:0:0:0:
64,192,33338,128,0,33884:0:0:0:0:
192,192,33520,128,0,33702:0:0:0:0:
448,192,33702,128,0,34065:0:0:0:0:
320,192,33702,1,0,0:0:0:0:
320,192,33884,128,0,34065:0:0:0:0:
64,192,34065,1,0,0:0:0:0:
192,192,34065,1,0,0:0:0:0:
192,192,34247,1,0,0:0:0:0:
448,192,34247,1,0,0:0:0:0:
320,192,34429,1,0,0:0:0:0:
64,192,34429,128,0,34793:0:0:0:0:
320,192,34793,1,0,0:0:0:0:
448,192,34793,1,0,0:0:0:0:
64,192,35065,128,0,35520:0:0:0:0:
192,192,35065,1,0,0:0:0:0:
320,192,35338,1,0,0:0:0:0:
448,192,35338,1,0,0:0:0:0:
192,192,35520,1,0,0:0:0:0:
320,192,35611,1,0,0:0:0:0:
448,192,35611,1,0,0:0:0:0:
64,192,35702,1,0,0:0:0:0:
192,192,35762,1,0,0:0:0:0:
320,192,35823,1,0,0:0:0:0:
448,192,35884,1,0,0:0:0:0:
64,192,35884,1,0,0:0:0:0:
448,192,36065,1,0,0:0:0:0:
448,192,36156,1,0,0:0:0:0:
192,192,36247,1,0,0:0:0:0:
64,192,36247,1,0,0:0:0:0:
320,192,36338,1,0,0:0:0:0:
64,192,36429,1,0,0:0:0:0:
192,192,36429,1,0,0:0:0:0:
448,192,36520,1,0,0:0:0:0:
64,192,36611,1,0,0:0:0:0:
192,192,36702,1,0,0:0:0:0:
320,192,36793,1,0,0:0:0:0:
448,192,36884,1,0,0:0:0:0:
64,192,36975,128,0,37156:0:0:0:0:
320,192,37156,128,0,37338:0:0:0:0:
64,192,37338,1,0,0:0:0:0:
448,192,37338,128,0,38611:0:0:0:0:
64,192,38611,128,0,38793:0:0:0:0:
320,192,38793,1,0,0:0:0:0:
192,192,38793,1,0,0:0:0:0:
64,192,38975,1,0,0:0:0:0:
448,192,39156,1,0,0:0:0:0:
320,192,39156,1,0,0:0:0:0:
64,192,39338,128,0,39520:0:0:0:0:
192,192,39520,1,0,0:0:0:0:
448,192,39520,128,0,39884:0:0:0:0:
320,192,39702,1,0,0:0:0:0:
64,192,39884,1,0,0:0:0:0:
192,192,39975,1,0,0:0:0:0:
320,192,40065,1,0,0:0:0:0:
448,192,40156,1,0,0:0:0:0:
64,192,40247,1,0,0:0:0:0:
192,192,40247,1,0,0:0:0:0:
320,192,40338,1,0,0:0:0:0:
448,192,40429,1,0,0:0:0:0:
64,192,40520,1,0,0:0:0:0:
192,192,40611,1,0,0:0:0:0:
320,192,40611,1,0,0:0:0:0:
448,192,40702,1,0,0:0:0:0:
64,192,40793,1,0,0:0:0:0:
192,192,40884,1,0,0:0:0:0:
320,192,40975,1,0,0:0:0:0:
448,192,40975,1,0,0:0:0:0:
64,192,41065,1,0,0:0:0:0:
448,192,41156,1,0,0:0:0:0:
320,192,41156,1,0,0:0:0:0:
64,192,41247,1,0,0:0:0:0:
320,192,41338,128,0,41429:0:0:0:0:
448,192,41429,1,0,0:0:0:0:
64,192,41520,1,0,0:0:0:0:
192,192,41520,1,0,0:0:0:0:
448,192,41611,1,0,0:0:0:0:
192,192,41702,1,0,0:0:0:0:
64,192,41702,1,0,0:0:0:0:
448,192,42065,128,0,42338:0:0:0:0:
320,192,42065,1,0,0:0:0:0:
64,192,42065,1,0,0:0:0:0:
448,192,42429,128,0,42520:0:0:0:0:
64,192,42429,1,0,0:0:0:0:
448,192,42611,128,0,42702:0:0:0:0:
448,192,42793,128,0,42884:0:0:0:0:
64,192,42793,1,0,0:0:0:0:
448,192,42975,128,0,43065:0:0:0:0:
320,192,42975,1,0,0:0:0:0:
192,192,43156,128,0,43247:0:0:0:0:
64,192,43156,128,0,43247:0:0:0:0:
448,192,43156,1,0,0:0:0:0:
192,192,43338,128,0,43429:0:0:0:0:
64,192,43338,128,0,43429:0:0:0:0:
448,192,43338,1,0,0:0:0:0:
192,192,43520,128,0,43611:0:0:0:0:
64,192,43520,128,0,43611:0:0:0:0:
448,192,43520,1,0,0:0:0:0:
320,192,43702,1,0,0:0:0:0:
448,192,43793,1,0,0:0:0:0:
64,192,43793,1,0,0:0:0:0:
192,192,43884,1,0,0:0:0:0:
448,192,43975,1,0,0:0:0:0:
64,192,44065,1,0,0:0:0:0:
192,192,44156,1,0,0:0:0:0:
448,192,44247,1,0,0:0:0:0:
320,192,44338,1,0,0:0:0:0:
448,192,44429,1,0,0:0:0:0:
192,192,44429,1,0,0:0:0:0:
64,192,44429,1,0,0:0:0:0:
192,192,44611,1,0,0:0:0:0:
64,192,44611,128,0,44975:0:0:0:0:
320,192,44793,1,0,0:0:0:0:
320,192,44975,1,0,0:0:0:0:
448,192,44975,128,0,46065:0:0:0:0:
192,192,45156,1,0,0:0:0:0:
64,192,45338,1,0,0:0:0:0:
192,192,45338,1,0,0:0:0:0:
320,192,45520,1,0,0:0:0:0:
64,192,45702,1,0,0:0:0:0:
192,192,45702,1,0,0:0:0:0:
192,192,45884,1,0,0:0:0:0:
320,192,45884,1,0,0:0:0:0:
320,192,46065,1,0,0:0:0:0:
64,192,46065,128,0,46338:0:0:0:0:
448,192,46429,1,0,0:0:0:0:
320,192,46429,128,0,46520:0:0:0:0:
192,192,46611,1,0,0:0:0:0:
64,192,46702,1,0,0:0:0:0:
448,192,46702,128,0,46884:0:0:0:0:
192,192,46975,1,0,0:0:0:0:
64,192,46975,128,0,47156:0:0:0:0:
448,192,47156,1,0,0:0:0:0:
192,192,47247,1,0,0:0:0:0:
320,192,47247,1,0,0:0:0:0:
64,192,47338,1,0,0:0:0:0:
448,192,47399,1,0,0:0:0:0:
320,192,47459,1,0,0:0:0:0:
192,192,47520,1,0,0:0:0:0:
64,192,47520,128,0,47611:0:0:0:0:
64,192,47702,128,0,47793:0:0:0:0:
192,192,47702,1,0,0:0:0:0:
320,192,47884,1,0,0:0:0:0:
448,192,47884,1,0,0:0:0:0:
64,192,48065,1,0,0:0:0:0:
448,192,48065,1,0,0:0:0:0:
320,192,48156,1,0,0:0:0:0:
192,192,48247,1,0,0:0:0:0:
64,192,48247,1,0,0:0:0:0:
64,192,48338,1,0,0:0:0:0:
192,192,48338,1,0,0:0:0:0:
320,192,48429,1,0,0:0:0:0:
448,192,48429,1,0,0:0:0:0:
320,192,48520,1,0,0:0:0:0:
448,192,48520,1,0,0:0:0:0:
64,192,48611,128,0,48793:0:0:0:0:
192,192,48611,1,0,0:0:0:0:
448,192,48793,128,0,48975:0:0:0:0:
320,192,48975,1,0,0:0:0:0:
64,192,48975,128,0,50065:0:0:0:0:
192,192,49520,1,0,0:0:0:0:
448,192,49702,1,0,0:0:0:0:
192,192,49884,1,0,0:0:0:0:
320,192,49884,1,0,0:0:0:0:
448,192,50065,1,0,0:0:0:0:
320,192,50156,1,0,0:0:0:0:
192,192,50247,1,0,0:0:0:0:
64,192,50338,1,0,0:0:0:0:
320,192,50429,1,0,0:0:0:0:
448,192,50429,128,0,50793:0:0:0:0:
64,192,50793,1,0,0:0:0:0:
192,192,50793,1,0,0:0:0:0:
448,192,50975,1,0,0:0:0:0:
64,192,51065,1,0,0:0:0:0:
320,192,51065,1,0,0:0:0:0:
192,192,51156,1,0,0:0:0:0:
448,192,51247,1,0,0:0:0:0:
320,192,51338,1,0,0:0:0:0:
192,192,51338,1,0,0:0:0:0:
64,192,51429,1,0,0:0:0:0:
448,192,51520,1,0,0:0:0:0:
64,192,51611,1,0,0:0:0:0:
192,192,51611,1,0,0:0:0:0:
320,192,51702,1,0,0:0:0:0:
448,192,51702,1,0,0:0:0:0:
192,192,51884,1,0,0:0:0:0:
64,192,51884,128,0,52247:0:0:0:0:
320,192,52247,1,0,0:0:0:0:
448,192,52247,1,0,0:0:0:0:
64,192,52429,1,0,0:0:0:0:
192,192,52520,1,0,0:0:0:0:
448,192,52520,1,0,0:0:0:0:
320,192,52611,1,0,0:0:0:0:
64,192,52702,1,0,0:0:0:0:
448,192,52793,1,0,0:0:0:0:
320,192,52793,1,0,0:0:0:0:
448,192,52884,1,0,0:0:0:0:
320,192,52884,1,0,0:0:0:0:
64,192,52975,1,0,0:0:0:0:
192,192,53065,1,0,0:0:0:0:
448,192,53156,1,0,0:0:0:0:
320,192,53156,1,0,0:0:0:0:
64,192,53338,1,0,0:0:0:0:
192,192,53338,1,0,0:0:0:0:
448,192,53338,1,0,0:0:0:0:
64,192,53702,1,0,0:0:0:0:
320,192,53702,1,0,0:0:0:0:
448,192,53702,1,0,0:0:0:0:
192,192,53884,1,0,0:0:0:0:
320,192,53975,1,0,0:0:0:0:
448,192,53975,1,0,0:0:0:0:
64,192,54065,1,0,0:0:0:0:
448,192,54156,1,0,0:0:0:0:
192,192,54247,1,0,0:0:0:0:
320,192,54247,1,0,0:0:0:0:
64,192,54338,1,0,0:0:0:0:
320,192,54429,1,0,0:0:0:0:
64,192,54520,1,0,0:0:0:0:
448,192,54520,1,0,0:0:0:0:
64,192,54793,1,0,0:0:0:0:
192,192,54793,1,0,0:0:0:0:
320,192,54975,1,0,0:0:0:0:
448,192,54975,1,0,0:0:0:0:
192,192,55156,1,0,0:0:0:0:
64,192,55156,1,0,0:0:0:0:
448,192,55156,1,0,0:0:0:0:
320,192,55338,1,0,0:0:0:0:
64,192,55429,1,0,0:0:0:0:
192,192,55429,1,0,0:0:0:0:
448,192,55520,1,0,0:0:0:0:
320,192,55611,1,0,0:0:0:0:
64,192,55702,1,0,0:0:0:0:
192,192,55793,1,0,0:0:0:0:
448,192,55884,1,0,0:0:0:0:
64,192,55975,1,0,0:0:0:0:
192,192,55975,1,0,0:0:0:0:
320,192,56065,1,0,0:0:0:0:
448,192,56065,1,0,0:0:0:0:
64,192,56247,128,0,56520:0:0:0:0:
192,192,56247,128,0,56520:0:0:0:0:
448,192,56247,128,0,56520:0:0:0:0:
320,192,56520,1,0,0:0:0:0:
64,192,56793,128,0,57247:0:0:0:0:
448,192,56793,128,0,57247:0:0:0:0:
192,192,56793,128,0,57247:0:0:0:0:
64,192,57338,128,0,57611:0:0:0:0:
448,192,57338,128,0,57611:0:0:0:0:
320,192,57338,128,0,57611:0:0:0:0:
192,192,57611,1,0,0:0:0:0:
320,192,57884,1,0,0:0:0:0:
448,192,57884,1,0,0:0:0:0:
64,192,57884,128,0,58338:0:0:0:0:
320,192,58429,128,0,58520:0:0:0:0:
448,192,58429,128,0,58520:0:0:0:0:
192,192,58611,128,0,58702:0:0:0:0:
320,192,58611,128,0,58702:0:0:0:0:
64,192,58793,128,0,59156:0:0:0:0:
192,192,58793,128,0,59156:0:0:0:0:
320,192,59156,1,0,0:0:0:0:
448,192,59156,128,0,60247:0:0:0:0:
64,192,59338,1,0,0:0:0:0:
192,192,59520,1,0,0:0:0:0:
320,192,59702,1,0,0:0:0:0:
64,192,59884,1,0,0:0:0:0:
192,192,60065,1,0,0:0:0:0:
320,192,60247,1,0,0:0:0:0:
64,192,60338,1,0,0:0:0:0:
192,192,60429,1,0,0:0:0:0:
320,192,60520,1,0,0:0:0:0:
64,192,60611,128,0,60793:0:0:0:0:
448,192,60611,128,0,60793:0:0:0:0:
64,192,60975,128,0,61702:0:0:0:0:
448,192,60975,128,0,61702:0:0:0:0:
320,192,61702,1,0,0:0:0:0:
192,192,61702,1,0,0:0:0:0:
64,192,62065,1,0,0:0:0:0:
192,192,62065,1,0,0:0:0:0:
448,192,62065,128,0,64975:0:0:0:0:
320,192,62429,1,0,0:0:0:0:
192,192,62793,1,0,0:0:0:0:
64,192,63156,1,0,0:0:0:0:
320,192,63520,1,0,0:0:0:0:
192,192,63884,1,0,0:0:0:0:
64,192,64247,1,0,0:0:0:0:
320,192,64611,1,0,0:0:0:0:
64,192,64975,128,0,66429:0:0:0:0:
320,192,65247,1,0,0:0:0:0:
448,192,65338,1,0,0:0:0:0:
192,192,65520,1,0,0:0:0:0:
320,192,65611,1,0,0:0:0:0:
448,192,65793,1,0,0:0:0:0:
320,192,65884,1,0,0:0:0:0:
192,192,66065,1,0,0:0:0:0:
448,192,66247,1,0,0:0:0:0:
320,192,66338,1,0,0:0:0:0:
192,192,66429,128,0,67884:0:0:0:0:
448,192,66611,1,0,0:0:0:0:
320,192,66702,1,0,0:0:0:0:
64,192,66793,1,0,0:0:0:0:
448,192,66975,1,0,0:0:0:0:
320,192,67065,1,0,0:0:0:0:
64,192,67156,1,0,0:0:0:0:
320,192,67520,1,0,0:0:0:0:
448,192,67884,128,0,69338:0:0:0:0:
64,192,68247,1,0,0:0:0:0:
320,192,68611,1,0,0:0:0:0:
64,192,68793,1,0,0:0:0:0:
192,192,68975,1,0,0:0:0:0:
320,192,69156,1,0,0:0:0:0:
192,192,69247,1,0,0:0:0:0:
64,192,69338,128,0,70793:0:0:0:0:
448,192,69520,1,0,0:0:0:0:
320,192,69611,1,0,0:0:0:0:
192,192,69702,1,0,0:0:0:0:
448,192,69884,1,0,0:0:0:0:
192,192,69975,1,0,0:0:0:0:
320,192,70065,1,0,0:0:0:0:
448,192,70156,1,0,0:0:0:0:
192,192,70247,1,0,0:0:0:0:
320,192,70429,1,0,0:0:0:0:
448,192,70611,1,0,0:0:0:0:
320,192,70702,1,0,0:0:0:0:
192,192,70793,128,0,72247:0:0:0:0:
448,192,70975,1,0,0:0:0:0:
320,192,71065,1,0,0:0:0:0:
64,192,71156,1,0,0:0:0:0:
448,192,71338,1,0,0:0:0:0:
320,192,71429,1,0,0:0:0:0:
64,192,71520,1,0,0:0:0:0:
448,192,71611,1,0,0:0:0:0:
64,192,71702,1,0,0:0:0:0:
320,192,71793,1,0,0:0:0:0:
448,192,71884,1,0,0:0:0:0:
320,192,72065,1,0,0:0:0:0:
64,192,72156,1,0,0:0:0:0:
448,192,72247,1,0,0:0:0:0:
320,192,72247,1,0,0:0:0:0:
320,192,72338,1,0,0:0:0:0:
448,192,72338,1,0,0:0:0:0:
64,192,72520,1,0,0:0:0:0:
192,192,72520,1,0,0:0:0:0:
320,192,72611,1,0,0:0:0:0:
448,192,72611,1,0,0:0:0:0:
320,192,72793,1,0,0:0:0:0:
448,192,72793,1,0,0:0:0:0:
64,192,72975,1,0,0:0:0:0:
192,192,72975,1,0,0:0:0:0:
320,192,73065,1,0,0:0:0:0:
448,192,73156,1,0,0:0:0:0:
64,192,73156,1,0,0:0:0:0:
192,192,73247,1,0,0:0:0:0:
320,192,73338,1,0,0:0:0:0:
448,192,73338,1,0,0:0:0:0:
64,192,73429,1,0,0:0:0:0:
192,192,73520,1,0,0:0:0:0:
448,192,73611,1,0,0:0:0:0:
64,192,73702,1,0,0:0:0:0:
192,192,73702,1,0,0:0:0:0:
320,192,73702,1,0,0:0:0:0:
64,192,73975,1,0,0:0:0:0:
192,192,73975,1,0,0:0:0:0:
448,192,73975,1,0,0:0:0:0:
64,192,74338,1,0,0:0:0:0:
192,192,74338,1,0,0:0:0:0:
448,192,74338,1,0,0:0:0:0:
64,192,74611,1,0,0:0:0:0:
320,192,74611,1,0,0:0:0:0:
448,192,74611,1,0,0:0:0:0:
64,192,74884,1,0,0:0:0:0:
320,192,74884,1,0,0:0:0:0:
448,192,74884,1,0,0:0:0:0:
64,192,75156,1,0,0:0:0:0:
320,192,75156,1,0,0:0:0:0:
448,192,75156,1,0,0:0:0:0:
64,192,75520,1,0,0:0:0:0:
192,192,75520,1,0,0:0:0:0:
448,192,75520,1,0,0:0:0:0:
64,192,75793,1,0,0:0:0:0:
192,192,75793,1,0,0:0:0:0:
448,192,75793,1,0,0:0:0:0:
64,192,76065,1,0,0:0:0:0:
192,192,76065,1,0,0:0:0:0:
448,192,76065,1,0,0:0:0:0:
320,192,76247,128,0,76611:0:0:0:0:
64,192,76611,1,0,0:0:0:0:
192,192,76611,1,0,0:0:0:0:
448,192,76611,1,0,0:0:0:0:
64,192,76975,1,0,0:0:0:0:
320,192,76975,1,0,0:0:0:0:
448,192,76975,1,0,0:0:0:0:
64,192,77247,1,0,0:0:0:0:
192,192,77247,1,0,0:0:0:0:
448,192,77247,1,0,0:0:0:0:
64,192,77520,1,0,0:0:0:0:
192,192,77520,1,0,0:0:0:0:
448,192,77520,1,0,0:0:0:0:
64,192,77793,1,0,0:0:0:0:
320,192,77793,1,0,0:0:0:0:
448,192,77793,1,0,0:0:0:0:
192,192,78065,1,0,0:0:0:0:
320,192,78065,1,0,0:0:0:0:
448,192,78065,1,0,0:0:0:0:
64,192,78429,1,0,0:0:0:0:
192,192,78429,1,0,0:0:0:0:
320,192,78429,1,0,0:0:0:0:
64,192,78702,1,0,0:0:0:0:
192,192,78702,1,0,0:0:0:0:
448,192,78702,1,0,0:0:0:0:
64,192,78975,1,0,0:0:0:0:
192,192,78975,1,0,0:0:0:0:
448,192,78975,1,0,0:0:0:0:
448,192,79156,1,0,0:0:0:0:
320,192,79202,1,0,0:0:0:0:
64,192,79247,1,0,0:0:0:0:
192,192,79293,1,0,0:0:0:0:
448,192,79338,128,0,79520:0:0:0:0:
64,192,79520,1,0,0:0:0:0:
192,192,79520,1,0,0:0:0:0:
320,192,79611,1,0,0:0:0:0:
448,192,79702,1,0,0:0:0:0:
64,192,79702,1,0,0:0:0:0:
192,192,79793,1,0,0:0:0:0:
448,192,79884,1,0,0:0:0:0:
320,192,79884,1,0,0:0:0:0:
64,192,79975,1,0,0:0:0:0:
192,192,80065,1,0,0:0:0:0:
320,192,80065,1,0,0:0:0:0:
448,192,80156,1,0,0:0:0:0:
64,192,80247,1,0,0:0:0:0:
192,192,80247,1,0,0:0:0:0:
320,192,80338,1,0,0:0:0:0:
448,192,80429,1,0,0:0:0:0:
64,192,80429,1,0,0:0:0:0:
320,192,80520,1,0,0:0:0:0:
192,192,80611,1,0,0:0:0:0:
448,192,80611,1,0,0:0:0:0:
64,192,80702,1,0,0:0:0:0:
320,192,80793,1,0,0:0:0:0:
192,192,80793,1,0,0:0:0:0:
448,192,80884,1,0,0:0:0:0:
64,192,80975,1,0,0:0:0:0:
320,192,80975,1,0,0:0:0:0:
192,192,81065,1,0,0:0:0:0:
448,192,81156,1,0,0:0:0:0:
64,192,81156,1,0,0:0:0:0:
320,192,81247,1,0,0:0:0:0:
192,192,81338,1,0,0:0:0:0:
448,192,81338,1,0,0:0:0:0:
64,192,81429,1,0,0:0:0:0:
192,192,81520,1,0,0:0:0:0:
320,192,81520,1,0,0:0:0:0:
448,192,81611,1,0,0:0:0:0:
64,192,81702,1,0,0:0:0:0:
320,192,81702,1,0,0:0:0:0:
192,192,81793,1,0,0:0:0:0:
64,192,81884,1,0,0:0:0:0:
448,192,81884,1,0,0:0:0:0:
320,192,81975,1,0,0:0:0:0:
192,192,82065,1,0,0:0:0:0:
64,192,82065,1,0,0:0:0:0:
448,192,82156,1,0,0:0:0:0:
320,192,82247,1,0,0:0:0:0:
192,192,82247,1,0,0:0:0:0:
64,192,82338,1,0,0:0:0:0:
448,192,82429,1,0,0:0:0:0:
320,192,82429,1,0,0:0:0:0:
192,192,82429,1,0,0:0:0:0:
64,192,82520,1,0,0:0:0:0:
448,192,82611,1,0,0:0:0:0:
320,192,82611,1,0,0:0:0:0:
192,192,82702,1,0,0:0:0:0:
64,192,82793,1,0,0:0:0:0:
448,192,82793,1,0,0:0:0:0:
320,192,82884,1,0,0:0:0:0:
192,192,82975,1,0,0:0:0:0:
64,192,82975,1,0,0:0:0:0:
448,192,83065,1,0,0:0:0:0:
320,192,83156,1,0,0:0:0:0:
192,192,83156,1,0,0:0:0:0:
64,192,83247,1,0,0:0:0:0:
448,192,83338,1,0,0:0:0:0:
320,192,83338,1,0,0:0:0:0:
192,192,83429,1,0,0:0:0:0:
64,192,83520,1,0,0:0:0:0:
448,192,83520,1,0,0:0:0:0:
320,192,83611,1,0,0:0:0:0:
192,192,83702,1,0,0:0:0:0:
64,192,83702,1,0,0:0:0:0:
320,192,83793,1,0,0:0:0:0:
448,192,83884,128,0,84065:0:0:0:0:
64,192,83975,1,0,0:0:0:0:
192,192,84065,1,0,0:0:0:0:
320,192,84156,5,0,0:0:0:0:
448,192,84247,128,0,84429:0:0:0:0:
64,192,84338,1,0,0:0:0:0:
192,192,84429,1,0,0:0:0:0:
320,192,84520,1,0,0:0:0:0:
448,192,84611,128,0,84793:0:0:0:0:
64,192,84702,1,0,0:0:0:0:
192,192,84793,1,0,0:0:0:0:
320,192,84884,1,0,0:0:0:0:
64,192,84975,1,0,0:0:0:0:
192,192,84975,1,0,0:0:0:0:
448,192,84975,1,0,0:0:0:0:
64,192,85338,5,0,0:0:0:0:
192,192,85338,1,0,0:0:0:0:
448,192,85338,1,0,0:0:0:0:
320,192,85520,128,0,85702:0:0:0:0:
64,192,85702,1,0,0:0:0:0:
192,192,85702,1,0,0:0:0:0:
448,192,85884,128,0,86065:0:0:0:0:
64,192,86065,1,0,0:0:0:0:
192,192,86065,1,0,0:0:0:0:
320,192,86247,128,0,86429:0:0:0:0:
64,192,86429,1,0,0:0:0:0:
192,192,86429,1,0,0:0:0:0:
320,192,86611,1,0,0:0:0:0:
448,192,86611,1,0,0:0:0:0:
64,192,86793,1,0,0:0:0:0:
448,192,86793,1,0,0:0:0:0:
192,192,86884,1,0,0:0:0:0:
320,192,86975,1,0,0:0:0:0:
64,192,87156,1,0,0:0:0:0:
448,192,87156,1,0,0:0:0:0:
192,192,87338,128,0,87520:0:0:0:0:
320,192,87520,1,0,0:0:0:0:
448,192,87520,1,0,0:0:0:0:
64,192,87520,128,0,87611:0:0:0:0:
64,192,87702,128,0,87793:0:0:0:0:
192,192,87884,1,0,0:0:0:0:
448,192,87884,1,0,0:0:0:0:
320,192,87975,1,0,0:0:0:0:
64,192,88065,1,0,0:0:0:0:
448,192,88065,1,0,0:0:0:0:
192,192,88156,1,0,0:0:0:0:
320,192,88247,1,0,0:0:0:0:
64,192,88247,1,0,0:0:0:0:
448,192,88429,1,0,0:0:0:0:
320,192,88611,1,0,0:0:0:0:
192,192,88611,128,0,88975:0:0:0:0:
64,192,88793,1,0,0:0:0:0:
320,192,88975,1,0,0:0:0:0:
448,192,88975,1,0,0:0:0:0:
64,192,89065,1,0,0:0:0:0:
448,192,89156,1,0,0:0:0:0:
64,192,89338,1,0,0:0:0:0:
192,192,89338,1,0,0:0:0:0:
448,192,89429,1,0,0:0:0:0:
64,192,89611,1,0,0:0:0:0:
320,192,89702,1,0,0:0:0:0:
448,192,89702,1,0,0:0:0:0:
192,192,89884,1,0,0:0:0:0:
64,192,90065,1,0,0:0:0:0:
320,192,90065,1,0,0:0:0:0:
448,192,90065,1,0,0:0:0:0:
320,192,90247,1,0,0:0:0:0:
64,192,90429,1,0,0:0:0:0:
448,192,90429,1,0,0:0:0:0:
192,192,90429,1,0,0:0:0:0:
192,192,90611,1,0,0:0:0:0:
320,192,90793,1,0,0:0:0:0:
448,192,90793,1,0,0:0:0:0:
192,192,90975,1,0,0:0:0:0:
64,192,90975,1,0,0:0:0:0:
64,192,91156,1,0,0:0:0:0:
320,192,91156,1,0,0:0:0:0:
448,192,91156,1,0,0:0:0:0:
192,192,91338,1,0,0:0:0:0:
64,192,91520,1,0,0:0:0:0:
448,192,91520,128,0,91611:0:0:0:0:
320,192,91611,128,0,91702:0:0:0:0:
64,192,91702,128,0,92429:0:0:0:0:
192,192,91884,1,0,0:0:0:0:
320,192,91884,1,0,0:0:0:0:
448,192,92065,128,0,92156:0:0:0:0:
448,192,92247,128,0,92429:0:0:0:0:
192,192,92247,1,0,0:0:0:0:
192,192,92429,1,0,0:0:0:0:
320,192,92429,1,0,0:0:0:0:
448,192,92611,1,0,0:0:0:0:
320,192,92611,1,0,0:0:0:0:
64,192,92702,1,0,0:0:0:0:
192,192,92793,1,0,0:0:0:0:
448,192,92884,1,0,0:0:0:0:
64,192,92975,1,0,0:0:0:0:
192,192,92975,1,0,0:0:0:0:
448,192,93065,1,0,0:0:0:0:
320,192,93156,1,0,0:0:0:0:
64,192,93247,1,0,0:0:0:0:
320,192,93338,1,0,0:0:0:0:
448,192,93338,1,0,0:0:0:0:
192,192,93338,1,0,0:0:0:0:
448,192,93520,1,0,0:0:0:0:
64,192,93611,1,0,0:0:0:0:
192,192,93611,1,0,0:0:0:0:
320,192,93611,1,0,0:0:0:0:
320,192,93793,1,0,0:0:0:0:
448,192,93793,1,0,0:0:0:0:
320,192,93884,1,0,0:0:0:0:
448,192,93884,1,0,0:0:0:0:
64,192,94065,1,0,0:0:0:0:
192,192,94065,1,0,0:0:0:0:
448,192,94065,1,0,0:0:0:0:
192,192,94247,1,0,0:0:0:0:
64,192,94429,1,0,0:0:0:0:
448,192,94429,1,0,0:0:0:0:
448,192,94611,1,0,0:0:0:0:
64,192,94793,1,0,0:0:0:0:
320,192,94793,1,0,0:0:0:0:
64,192,94975,1,0,0:0:0:0:
192,192,95156,1,0,0:0:0:0:
448,192,95156,1,0,0:0:0:0:
448,192,95338,1,0,0:0:0:0:
64,192,95520,1,0,0:0:0:0:
192,192,95520,1,0,0:0:0:0:
320,192,95520,1,0,0:0:0:0:
448,192,95702,1,0,0:0:0:0:
64,192,95793,1,0,0:0:0:0:
192,192,95793,1,0,0:0:0:0:
320,192,95793,1,0,0:0:0:0:
64,192,96065,1,0,0:0:0:0:
448,192,96065,1,0,0:0:0:0:
320,192,96065,1,0,0:0:0:0:
64,192,96338,128,0,96611:0:0:0:0:
192,192,96338,1,0,0:0:0:0:
448,192,96338,1,0,0:0:0:0:
320,192,96611,1,0,0:0:0:0:
448,192,96611,1,0,0:0:0:0:
64,192,96975,1,0,0:0:0:0:
192,192,96975,1,0,0:0:0:0:
448,192,96975,1,0,0:0:0:0:
320,192,97338,1,0,0:0:0:0:
192,192,97338,1,0,0:0:0:0:
448,192,97520,1,0,0:0:0:0:
64,192,97702,1,0,0:0:0:0:
192,192,97702,1,0,0:0:0:0:
320,192,97884,1,0,0:0:0:0:
64,192,98065,1,0,0:0:0:0:
448,192,98065,1,0,0:0:0:0:
192,192,98247,1,0,0:0:0:0:
448,192,98247,1,0,0:0:0:0:
64,192,98429,1,0,0:0:0:0:
320,192,98429,1,0,0:0:0:0:
448,192,98611,1,0,0:0:0:0:
64,192,98702,1,0,0:0:0:0:
192,192,98793,1,0,0:0:0:0:
320,192,98793,1,0,0:0:0:0:
448,192,98884,1,0,0:0:0:0:
64,192,98975,1,0,0:0:0:0:
192,192,99065,1,0,0:0:0:0:
448,192,99156,1,0,0:0:0:0:
320,192,99156,1,0,0:0:0:0:
64,192,99247,1,0,0:0:0:0:
448,192,99338,1,0,0:0:0:0:
320,192,99429,1,0,0:0:0:0:
192,192,99520,1,0,0:0:0:0:
64,192,99520,1,0,0:0:0:0:
448,192,99611,1,0,0:0:0:0:
64,192,99702,128,0,99884:0:0:0:0:
64,192,99975,128,0,100065:0:0:0:0:
448,192,100065,1,0,0:0:0:0:
320,192,100065,1,0,0:0:0:0:
64,192,100156,128,0,100247:0:0:0:0:
192,192,100247,1,0,0:0:0:0:
448,192,100247,1,0,0:0:0:0:
320,192,100247,1,0,0:0:0:0:
64,192,100429,1,0,0:0:0:0:
192,192,100611,1,0,0:0:0:0:
448,192,100611,1,0,0:0:0:0:
320,192,100793,1,0,0:0:0:0:
448,192,100975,1,0,0:0:0:0:
64,192,100975,128,0,101338:0:0:0:0:
192,192,101156,1,0,0:0:0:0:
320,192,101338,1,0,0:0:0:0:
448,192,101338,1,0,0:0:0:0:
192,192,101520,1,0,0:0:0:0:
64,192,101702,1,0,0:0:0:0:
448,192,101702,1,0,0:0:0:0:
320,192,101793,1,0,0:0:0:0:
64,192,101884,1,0,0:0:0:0:
448,192,101975,1,0,0:0:0:0:
192,192,102065,1,0,0:0:0:0:
64,192,102065,1,0,0:0:0:0:
320,192,102247,1,0,0:0:0:0:
64,192,102429,1,0,0:0:0:0:
448,192,102429,1,0,0:0:0:0:
192,192,102429,1,0,0:0:0:0:
192,192,102611,1,0,0:0:0:0:
320,192,102611,1,0,0:0:0:0:
448,192,102793,1,0,0:0:0:0:
64,192,102793,128,0,102884:0:0:0:0:
320,192,102793,1,0,0:0:0:0:
192,192,102975,1,0,0:0:0:0:
64,192,103156,1,0,0:0:0:0:
448,192,103156,1,0,0:0:0:0:
320,192,103156,128,0,103247:0:0:0:0:
320,192,103429,128,0,103520:0:0:0:0:
64,192,103520,1,0,0:0:0:0:
448,192,103520,1,0,0:0:0:0:
192,192,103702,128,0,103793:0:0:0:0:
192,192,103884,128,0,103975:0:0:0:0:
448,192,103884,1,0,0:0:0:0:
320,192,104065,1,0,0:0:0:0:
64,192,104247,1,0,0:0:0:0:
192,192,104247,1,0,0:0:0:0:
448,192,104247,128,0,104338:0:0:0:0:
320,192,104429,1,0,0:0:0:0:
64,192,104520,128,0,104611:0:0:0:0:
192,192,104611,1,0,0:0:0:0:
448,192,104611,1,0,0:0:0:0:
320,192,104793,128,0,104884:0:0:0:0:
64,192,104975,1,0,0:0:0:0:
192,192,104975,1,0,0:0:0:0:
448,192,104975,128,0,105065:0:0:0:0:
192,192,105156,128,0,105247:0:0:0:0:
320,192,105338,1,0,0:0:0:0:
448,192,105338,1,0,0:0:0:0:
64,192,105338,128,0,105429:0:0:0:0:
192,192,105520,1,0,0:0:0:0:
64,192,105702,1,0,0:0:0:0:
448,192,105702,128,0,107156:0:0:0:0:
320,192,105884,1,0,0:0:0:0:
192,192,105884,1,0,0:0:0:0:
64,192,106429,1,0,0:0:0:0:
320,192,106429,1,0,0:0:0:0:
192,192,106793,1,0,0:0:0:0:
320,192,106793,1,0,0:0:0:0:
64,192,106975,1,0,0:0:0:0:
192,192,106975,1,0,0:0:0:0:
64,192,107065,5,0,0:0:0:0:
192,192,107065,1,0,0:0:0:0:
64,192,107156,1,0,0:0:0:0:
320,192,107156,1,0,0:0:0:0:
192,192,107156,1,0,0:0:0:0:
192,192,107429,1,0,0:0:0:0:
448,192,107429,1,0,0:0:0:0:
320,192,107429,1,0,0:0:0:0:
64,192,107702,1,0,0:0:0:0:
448,192,107702,1,0,0:0:0:0:
320,192,107702,1,0,0:0:0:0:
64,192,107975,1,0,0:0:0:0:
192,192,107975,1,0,0:0:0:0:
448,192,107975,1,0,0:0:0:0:
448,192,108247,128,0,108611:0:0:0:0:
64,192,108247,1,0,0:0:0:0:
192,192,108611,1,0,0:0:0:0:
320,192,108611,1,0,0:0:0:0:
64,192,108611,128,0,109156:0:0:0:0:
448,192,108793,1,0,0:0:0:0:
192,192,108975,1,0,0:0:0:0:
320,192,108975,1,0,0:0:0:0:
448,192,109156,128,0,109247:0:0:0:0:
320,192,109247,128,0,109338:0:0:0:0:
64,192,109338,128,0,109884:0:0:0:0:
192,192,109338,1,0,0:0:0:0:
320,192,109520,1,0,0:0:0:0:
448,192,109702,1,0,0:0:0:0:
192,192,109702,1,0,0:0:0:0:
320,192,109884,128,0,109975:0:0:0:0:
448,192,109975,128,0,110065:0:0:0:0:
192,192,110065,128,0,110247:0:0:0:0:
64,192,110065,1,0,0:0:0:0:
320,192,110247,128,0,110429:0:0:0:0:
64,192,110429,128,0,110611:0:0:0:0:
448,192,110429,1,0,0:0:0:0:
192,192,110611,128,0,110793:0:0:0:0:
448,192,110793,128,0,110975:0:0:0:0:
320,192,110793,1,0,0:0:0:0:
64,192,110975,128,0,111156:0:0:0:0:
448,192,111156,128,0,111338:0:0:0:0:
320,192,111156,1,0,0:0:0:0:
64,192,111247,1,0,0:0:0:0:
192,192,111247,1,0,0:0:0:0:
64,192,111338,1,0,0:0:0:0:
192,192,111338,128,0,111520:0:0:0:0:
320,192,111520,128,0,111702:0:0:0:0:
448,192,111520,1,0,0:0:0:0:
64,192,111520,1,0,0:0:0:0:
448,192,111702,128,0,112975:0:0:0:0:
64,192,111884,1,0,0:0:0:0:
192,192,111884,1,0,0:0:0:0:
320,192,111884,1,0,0:0:0:0:
192,192,112065,1,0,0:0:0:0:
64,192,112247,1,0,0:0:0:0:
320,192,112247,1,0,0:0:0:0:
64,192,112429,1,0,0:0:0:0:
192,192,112611,1,0,0:0:0:0:
320,192,112611,1,0,0:0:0:0:
320,192,112793,1,0,0:0:0:0:
64,192,112975,1,0,0:0:0:0:
192,192,112975,128,0,113065:0:0:0:0:
320,192,113065,128,0,113156:0:0:0:0:
448,192,113156,128,0,113247:0:0:0:0:
64,192,113247,128,0,113338:0:0:0:0:
192,192,113338,128,0,113429:0:0:0:0:
320,192,113338,1,0,0:0:0:0:
448,192,113429,128,0,113520:0:0:0:0:
320,192,113520,128,0,113611:0:0:0:0:
64,192,113611,128,0,113702:0:0:0:0:
192,192,113702,128,0,113793:0:0:0:0:
448,192,113702,1,0,0:0:0:0:
320,192,113793,128,0,113884:0:0:0:0:
448,192,113884,128,0,113975:0:0:0:0:
64,192,113884,1,0,0:0:0:0:
192,192,113975,128,0,114065:0:0:0:0:
64,192,114065,128,0,114156:0:0:0:0:
320,192,114065,1,0,0:0:0:0:
448,192,114156,128,0,114247:0:0:0:0:
192,192,114247,128,0,114338:0:0:0:0:
320,192,114247,1,0,0:0:0:0:
64,192,114338,128,0,114429:0:0:0:0:
448,192,114429,1,0,0:0:0:0:
320,192,114429,128,0,114975:0:0:0:0:
192,192,114611,1,0,0:0:0:0:
64,192,114793,1,0,0:0:0:0:
192,192,114793,1,0,0:0:0:0:
448,192,114793,1,0,0:0:0:0:
64,192,114975,128,0,115065:0:0:0:0:
192,192,115065,128,0,115156:0:0:0:0:
448,192,115156,128,0,115702:0:0:0:0:
320,192,115156,1,0,0:0:0:0:
64,192,115338,1,0,0:0:0:0:
64,192,115520,1,0,0:0:0:0:
320,192,115520,1,0,0:0:0:0:
320,192,115702,128,0,115793:0:0:0:0:
192,192,115793,128,0,115884:0:0:0:0:
64,192,115884,128,0,116065:0:0:0:0:
448,192,115884,1,0,0:0:0:0:
320,192,116065,128,0,116247:0:0:0:0:
192,192,116247,128,0,116429:0:0:0:0:
448,192,116247,1,0,0:0:0:0:
64,192,116429,128,0,116611:0:0:0:0:
320,192,116520,1,0,0:0:0:0:
448,192,116611,128,0,116793:0:0:0:0:
192,192,116611,1,0,0:0:0:0:
320,192,116793,128,0,116975:0:0:0:0:
64,192,116975,128,0,117156:0:0:0:0:
192,192,116975,1,0,0:0:0:0:
320,192,117065,1,0,0:0:0:0:
448,192,117065,1,0,0:0:0:0:
320,192,117156,1,0,0:0:0:0:
448,192,117156,1,0,0:0:0:0:
192,192,117338,128,0,117611:0:0:0:0:
64,192,117338,128,0,117611:0:0:0:0:
64,192,117702,128,0,117975:0:0:0:0:
320,192,117702,128,0,117975:0:0:0:0:
448,192,117702,128,0,117975:0:0:0:0:
64,192,118065,128,0,118338:0:0:0:0:
192,192,118065,128,0,118338:0:0:0:0:
448,192,118065,128,0,118338:0:0:0:0:
64,192,118429,128,0,118702:0:0:0:0:
320,192,118429,128,0,118702:0:0:0:0:
448,192,118429,128,0,118702:0:0:0:0:
320,192,118793,1,0,0:0:0:0:
448,192,118793,1,0,0:0:0:0:
64,192,118975,1,0,0:0:0:0:
192,192,118975,1,0,0:0:0:0:
320,192,119156,1,0,0:0:0:0:
448,192,119156,1,0,0:0:0:0:
64,192,119338,1,0,0:0:0:0:
192,192,119429,1,0,0:0:0:0:
320,192,119429,1,0,0:0:0:0:
448,192,119429,1,0,0:0:0:0:
448,192,119611,1,0,0:0:0:0:
320,192,119702,1,0,0:0:0:0:
192,192,119702,1,0,0:0:0:0:
64,192,119702,1,0,0:0:0:0:
448,192,119793,1,0,0:0:0:0:
64,192,119884,1,0,0:0:0:0:
192,192,119884,1,0,0:0:0:0:
320,192,119975,1,0,0:0:0:0:
448,192,120065,1,0,0:0:0:0:
64,192,120065,1,0,0:0:0:0:
320,192,120247,1,0,0:0:0:0:
448,192,120247,128,0,120793:0:0:0:0:
192,192,120247,1,0,0:0:0:0:
64,192,120429,1,0,0:0:0:0:
320,192,120611,1,0,0:0:0:0:
192,192,120611,1,0,0:0:0:0:
64,192,120793,128,0,120884:0:0:0:0:
192,192,120884,128,0,120975:0:0:0:0:
448,192,120975,128,0,121520:0:0:0:0:
320,192,120975,1,0,0:0:0:0:
192,192,121156,1,0,0:0:0:0:
64,192,121338,1,0,0:0:0:0:
320,192,121338,1,0,0:0:0:0:
192,192,121520,128,0,121611:0:0:0:0:
64,192,121611,128,0,121702:0:0:0:0:
320,192,121702,128,0,121884:0:0:0:0:
448,192,121702,1,0,0:0:0:0:
192,192,121884,128,0,122065:0:0:0:0:
448,192,122065,128,0,122247:0:0:0:0:
64,192,122065,1,0,0:0:0:0:
320,192,122247,128,0,122429:0:0:0:0:
64,192,122429,128,0,122611:0:0:0:0:
192,192,122429,1,0,0:0:0:0:
448,192,122611,128,0,122793:0:0:0:0:
64,192,122793,128,0,122975:0:0:0:0:
192,192,122793,1,0,0:0:0:0:
448,192,122884,1,0,0:0:0:0:
320,192,122884,1,0,0:0:0:0:
448,192,122975,1,0,0:0:0:0:
320,192,122975,128,0,123156:0:0:0:0:
64,192,123156,1,0,0:0:0:0:
192,192,123156,128,0,123338:0:0:0:0:
448,192,123156,1,0,0:0:0:0:
64,192,123338,128,0,124611:0:0:0:0:
448,192,123520,1,0,0:0:0:0:
320,192,123520,1,0,0:0:0:0:
192,192,123520,1,0,0:0:0:0:
320,192,123702,1,0,0:0:0:0:
448,192,123884,1,0,0:0:0:0:
192,192,123884,1,0,0:0:0:0:
448,192,124065,1,0,0:0:0:0:
320,192,124247,1,0,0:0:0:0:
192,192,124247,1,0,0:0:0:0:
192,192,124429,1,0,0:0:0:0:
448,192,124611,1,0,0:0:0:0:
320,192,124611,128,0,124702:0:0:0:0:
192,192,124702,128,0,124793:0:0:0:0:
64,192,124793,128,0,124884:0:0:0:0:
448,192,124884,128,0,124975:0:0:0:0:
192,192,124975,1,0,0:0:0:0:
320,192,124975,128,0,125065:0:0:0:0:
64,192,125065,128,0,125156:0:0:0:0:
192,192,125156,128,0,125247:0:0:0:0:
448,192,125247,128,0,125338:0:0:0:0:
320,192,125338,128,0,125429:0:0:0:0:
64,192,125338,1,0,0:0:0:0:
192,192,125429,128,0,125520:0:0:0:0:
64,192,125520,128,0,125611:0:0:0:0:
448,192,125520,1,0,0:0:0:0:
320,192,125611,128,0,125702:0:0:0:0:
448,192,125702,128,0,125793:0:0:0:0:
192,192,125702,1,0,0:0:0:0:
64,192,125793,128,0,125884:0:0:0:0:
192,192,125884,1,0,0:0:0:0:
320,192,125884,128,0,125975:0:0:0:0:
448,192,125975,128,0,126065:0:0:0:0:
64,192,126065,1,0,0:0:0:0:
192,192,126065,128,0,126611:0:0:0:0:
320,192,126247,1,0,0:0:0:0:
448,192,126429,1,0,0:0:0:0:
320,192,126429,1,0,0:0:0:0:
64,192,126429,1,0,0:0:0:0:
448,192,126611,128,0,126702:0:0:0:0:
320,192,126702,128,0,126793:0:0:0:0:
64,192,126793,128,0,127338:0:0:0:0:
192,192,126793,1,0,0:0:0:0:
448,192,126975,1,0,0:0:0:0:
448,192,127156,1,0,0:0:0:0:
192,192,127156,1,0,0:0:0:0:
192,192,127338,128,0,127429:0:0:0:0:
320,192,127429,128,0,127520:0:0:0:0:
448,192,127520,128,0,127702:0:0:0:0:
64,192,127520,1,0,0:0:0:0:
192,192,127702,128,0,127884:0:0:0:0:
320,192,127884,128,0,128065:0:0:0:0:
64,192,127884,1,0,0:0:0:0:
448,192,128065,128,0,128247:0:0:0:0:
192,192,128156,1,0,0:0:0:0:
64,192,128247,128,0,128429:0:0:0:0:
320,192,128247,1,0,0:0:0:0:
192,192,128429,128,0,128611:0:0:0:0:
448,192,128611,128,0,128793:0:0:0:0:
320,192,128611,1,0,0:0:0:0:
192,192,128793,1,0,0:0:0:0:
64,192,128793,128,0,128975:0:0:0:0:
448,192,128975,1,0,0:0:0:0:
320,192,128975,128,0,129156:0:0:0:0:
192,192,129156,128,0,130429:0:0:0:0:
64,192,129156,1,0,0:0:0:0:
320,192,129338,1,0,0:0:0:0:
448,192,129338,1,0,0:0:0:0:
64,192,129520,1,0,0:0:0:0:
448,192,129611,1,0,0:0:0:0:
320,192,129611,1,0,0:0:0:0:
64,192,129884,1,0,0:0:0:0:
320,192,129884,1,0,0:0:0:0:
448,192,129975,1,0,0:0:0:0:
64,192,130156,1,0,0:0:0:0:
448,192,130156,1,0,0:0:0:0:
320,192,130247,1,0,0:0:0:0:
448,192,130429,128,0,130793:0:0:0:0:
64,192,130793,1,0,0:0:0:0:
192,192,130793,1,0,0:0:0:0:
320,192,130884,1,0,0:0:0:0:
448,192,130884,1,0,0:0:0:0:
64,192,130975,1,0,0:0:0:0:
192,192,130975,1,0,0:0:0:0:
320,192,131065,1,0,0:0:0:0:
448,192,131065,1,0,0:0:0:0:
64,192,131156,1,0,0:0:0:0:
192,192,131156,1,0,0:0:0:0:
320,192,131247,1,0,0:0:0:0:
448,192,131247,1,0,0:0:0:0:
192,192,131338,1,0,0:0:0:0:
64,192,131429,1,0,0:0:0:0:
448,192,131520,1,0,0:0:0:0:
320,192,131611,1,0,0:0:0:0:
192,192,131884,1,0,0:0:0:0:
64,192,131884,128,0,133338:0:0:0:0:
448,192,133338,128,0,134793:0:0:0:0:
320,192,133702,1,0,0:0:0:0:
192,192,134065,1,0,0:0:0:0:
64,192,134429,1,0,0:0:0:0:
192,192,134793,128,0,136247:0:0:0:0:
64,192,135065,1,0,0:0:0:0:
448,192,135338,1,0,0:0:0:0:
320,192,135429,1,0,0:0:0:0:
448,192,135611,1,0,0:0:0:0:
64,192,135702,1,0,0:0:0:0:
320,192,135884,1,0,0:0:0:0:
448,192,136065,1,0,0:0:0:0:
64,192,136156,1,0,0:0:0:0:
320,192,136247,128,0,137702:0:0:0:0:
448,192,136429,1,0,0:0:0:0:
192,192,136520,1,0,0:0:0:0:
64,192,136611,1,0,0:0:0:0:
448,192,136793,1,0,0:0:0:0:
64,192,136884,1,0,0:0:0:0:
192,192,136975,1,0,0:0:0:0:
448,192,137065,1,0,0:0:0:0:
192,192,137338,1,0,0:0:0:0:
64,192,137702,128,0,139156:0:0:0:0:
192,192,138065,1,0,0:0:0:0:
448,192,138429,1,0,0:0:0:0:
192,192,138611,1,0,0:0:0:0:
320,192,138793,1,0,0:0:0:0:
192,192,138975,1,0,0:0:0:0:
320,192,139065,1,0,0:0:0:0:
448,192,139156,128,0,140611:0:0:0:0:
320,192,139338,1,0,0:0:0:0:
64,192,139429,1,0,0:0:0:0:
192,192,139520,1,0,0:0:0:0:
320,192,139702,1,0,0:0:0:0:
192,192,139793,1,0,0:0:0:0:
64,192,139884,1,0,0:0:0:0:
320,192,139975,1,0,0:0:0:0:
192,192,140065,1,0,0:0:0:0:
320,192,140156,1,0,0:0:0:0:
64,192,140247,1,0,0:0:0:0:
320,192,140429,1,0,0:0:0:0:
64,192,140520,1,0,0:0:0:0:
192,192,140611,1,0,0:0:0:0:
320,192,140702,128,0,141065:0:0:0:0:
64,192,140793,1,0,0:0:0:0:
192,192,140884,1,0,0:0:0:0:
448,192,140975,1,0,0:0:0:0:
448,192,141156,128,0,141520:0:0:0:0:
64,192,141247,1,0,0:0:0:0:
320,192,141338,1,0,0:0:0:0:
192,192,141429,1,0,0:0:0:0:
64,192,141520,128,0,141702:0:0:0:0:
320,192,141702,128,0,141884:0:0:0:0:
64,192,141884,128,0,142065:0:0:0:0:
192,192,141975,1,0,0:0:0:0:
448,192,142065,128,0,143156:0:0:0:0:
320,192,142065,128,0,143156:0:0:0:0:
64,192,143156,1,0,0:0:0:0:
192,192,143156,1,0,0:0:0:0:
64,192,143520,1,0,0:0:0:0:
192,192,143520,1,0,0:0:0:0:
448,192,143520,1,0,0:0:0:0:
320,192,143611,1,0,0:0:0:0:
64,192,143702,1,0,0:0:0:0:
448,192,143793,128,0,144247:0:0:0:0:
320,192,143793,128,0,144247:0:0:0:0:
192,192,143884,1,0,0:0:0:0:
64,192,144247,1,0,0:0:0:0:
192,192,144338,1,0,0:0:0:0:
448,192,144429,1,0,0:0:0:0:
64,192,144520,128,0,144884:0:0:0:0:
192,192,144520,128,0,144884:0:0:0:0:
320,192,144611,1,0,0:0:0:0:
320,192,144793,1,0,0:0:0:0:
64,192,144975,128,0,145156:0:0:0:0:
448,192,144975,128,0,145156:0:0:0:0:
192,192,144975,128,0,145156:0:0:0:0:
64,192,145247,128,0,145429:0:0:0:0:
448,192,145247,128,0,145429:0:0:0:0:
192,192,145247,128,0,145429:0:0:0:0:
320,192,145520,128,0,146065:0:0:0:0:
64,192,145520,128,0,146065:0:0:0:0:
448,192,145520,128,0,146065:0:0:0:0:
192,192,146065,1,0,0:0:0:0:
64,192,146429,1,0,0:0:0:0:
448,192,146429,1,0,0:0:0:0:
320,192,146429,1,0,0:0:0:0:
192,192,146520,1,0,0:0:0:0:
320,192,146611,1,0,0:0:0:0:
192,192,146702,128,0,147156:0:0:0:0:
64,192,146702,128,0,147156:0:0:0:0:
448,192,146793,1,0,0:0:0:0:
448,192,147156,1,0,0:0:0:0:
320,192,147247,1,0,0:0:0:0:
192,192,147338,1,0,0:0:0:0:
320,192,147429,128,0,147793:0:0:0:0:
448,192,147429,128,0,147793:0:0:0:0:
64,192,147520,1,0,0:0:0:0:
64,192,147702,1,0,0:0:0:0:
64,192,147884,128,0,148065:0:0:0:0:
448,192,147884,128,0,148065:0:0:0:0:
320,192,147884,128,0,148065:0:0:0:0:
64,192,148156,128,0,148338:0:0:0:0:
320,192,148156,128,0,148338:0:0:0:0:
448,192,148156,128,0,148338:0:0:0:0:
64,192,148429,128,0,148611:0:0:0:0:
192,192,148429,128,0,148611:0:0:0:0:
448,192,148429,128,0,148975:0:0:0:0:
320,192,148611,1,0,0:0:0:0:
64,192,148702,1,0,0:0:0:0:
192,192,148793,1,0,0:0:0:0:
320,192,148884,1,0,0:0:0:0:
64,192,148975,1,0,0:0:0:0:
192,192,149065,1,0,0:0:0:0:
448,192,149156,1,0,0:0:0:0:
320,192,149247,1,0,0:0:0:0:
192,192,149338,1,0,0:0:0:0:
64,192,149338,1,0,0:0:0:0:
448,192,149338,1,0,0:0:0:0:
320,192,149429,1,0,0:0:0:0:
192,192,149520,1,0,0:0:0:0:
64,192,149611,128,0,150065:0:0:0:0:
448,192,149611,128,0,150065:0:0:0:0:
320,192,149702,1,0,0:0:0:0:
320,192,150065,1,0,0:0:0:0:
192,192,150156,1,0,0:0:0:0:
320,192,150247,1,0,0:0:0:0:
448,192,150338,128,0,150702:0:0:0:0:
64,192,150338,128,0,150702:0:0:0:0:
192,192,150429,1,0,0:0:0:0:
320,192,150611,1,0,0:0:0:0:
64,192,150793,128,0,150975:0:0:0:0:
192,192,150793,128,0,150975:0:0:0:0:
448,192,150793,128,0,150975:0:0:0:0:
64,192,151065,128,0,151247:0:0:0:0:
448,192,151065,128,0,151247:0:0:0:0:
320,192,151065,128,0,151247:0:0:0:0:
64,192,151338,128,0,151884:0:0:0:0:
192,192,151338,128,0,151884:0:0:0:0:
448,192,151338,128,0,151884:0:0:0:0:
320,192,151884,1,0,0:0:0:0:
64,192,152247,1,0,0:0:0:0:
192,192,152247,1,0,0:0:0:0:
448,192,152247,128,0,152429:0:0:0:0:
320,192,152429,128,0,152611:0:0:0:0:
64,192,152611,128,0,152793:0:0:0:0:
320,192,152793,1,0,0:0:0:0:
448,192,152793,1,0,0:0:0:0:
192,192,152793,128,0,153156:0:0:0:0:
448,192,153156,128,0,153338:0:0:0:0:
320,192,153338,1,0,0:0:0:0:
192,192,153338,1,0,0:0:0:0:
64,192,153338,128,0,153520:0:0:0:0:
320,192,153520,128,0,153702:0:0:0:0:
448,192,153702,128,0,155156:0:0:0:0:
192,192,153702,1,0,0:0:0:0:
64,192,153702,128,0,155156:0:0:0:0:
320,192,153884,1,0,0:0:0:0:
320,192,154065,1,0,0:0:0:0:
320,192,154247,1,0,0:0:0:0:
192,192,154429,1,0,0:0:0:0:
192,192,154611,1,0,0:0:0:0:
192,192,154793,1,0,0:0:0:0:
320,192,155156,1,0,0:0:0:0:
192,192,155156,1,0,0:0:0:0:
64,192,155247,1,0,0:0:0:0:
320,192,155338,128,0,155611:0:0:0:0:
448,192,155338,128,0,155611:0:0:0:0:
64,192,155702,1,0,0:0:0:0:
192,192,155702,1,0,0:0:0:0:
448,192,155793,1,0,0:0:0:0:
320,192,155884,128,0,156156:0:0:0:0:
192,192,155884,128,0,156156:0:0:0:0:
64,192,156247,1,0,0:0:0:0:
448,192,156247,1,0,0:0:0:0:
192,192,156338,1,0,0:0:0:0:
320,192,156338,1,0,0:0:0:0:
64,192,156429,1,0,0:0:0:0:
448,192,156429,1,0,0:0:0:0:
64,192,156793,128,0,157065:0:0:0:0:
192,192,156793,128,0,157065:0:0:0:0:
320,192,157156,1,0,0:0:0:0:
448,192,157156,1,0,0:0:0:0:
64,192,157247,1,0,0:0:0:0:
192,192,157338,128,0,157611:0:0:0:0:
320,192,157338,128,0,157611:0:0:0:0:
64,192,157702,1,0,0:0:0:0:
448,192,157702,1,0,0:0:0:0:
320,192,157793,1,0,0:0:0:0:
192,192,157793,1,0,0:0:0:0:
64,192,157884,1,0,0:0:0:0:
448,192,157884,1,0,0:0:0:0:
64,192,158247,128,0,158429:0:0:0:0:
192,192,158247,128,0,158429:0:0:0:0:
448,192,158247,128,0,158429:0:0:0:0:
64,192,158520,128,0,158702:0:0:0:0:
192,192,158520,128,0,158702:0:0:0:0:
448,192,158520,128,0,158702:0:0:0:0:
64,192,158793,128,0,158975:0:0:0:0:
192,192,158793,128,0,158975:0:0:0:0:
448,192,158793,128,0,158975:0:0:0:0:
64,192,159065,128,0,159247:0:0:0:0:
192,192,159065,128,0,159247:0:0:0:0:
448,192,159065,128,0,159247:0:0:0:0:
64,192,159338,128,0,159429:0:0:0:0:
192,192,159338,128,0,159429:0:0:0:0:
448,192,159338,128,0,159429:0:0:0:0:
64,192,159520,128,0,159702:0:0:0:0:
320,192,159520,128,0,159702:0:0:0:0:
448,192,159520,128,0,159702:0:0:0:0:
64,192,159793,128,0,159975:0:0:0:0:
320,192,159793,128,0,159975:0:0:0:0:
448,192,159793,128,0,159975:0:0:0:0:
64,192,160065,128,0,160247:0:0:0:0:
320,192,160065,128,0,160247:0:0:0:0:
448,192,160065,128,0,160247:0:0:0:0:
64,192,160338,128,0,160520:0:0:0:0:
320,192,160338,128,0,160520:0:0:0:0:
448,192,160338,128,0,160520:0:0:0:0:
64,192,160611,128,0,160702:0:0:0:0:
320,192,160611,128,0,160702:0:0:0:0:
448,192,160611,128,0,160702:0:0:0:0:
64,192,160975,128,0,161702:0:0:0:0:
448,192,161156,1,0,0:0:0:0:
192,192,161338,1,0,0:0:0:0:
448,192,161520,1,0,0:0:0:0:
320,192,161702,128,0,162429:0:0:0:0:
64,192,161884,1,0,0:0:0:0:
192,192,162065,1,0,0:0:0:0:
448,192,162247,1,0,0:0:0:0:
64,192,162429,128,0,163156:0:0:0:0:
192,192,162611,1,0,0:0:0:0:
448,192,162793,1,0,0:0:0:0:
192,192,162975,1,0,0:0:0:0:
448,192,163156,1,0,0:0:0:0:
320,192,163202,1,0,0:0:0:0:
192,192,163247,1,0,0:0:0:0:
64,192,163293,1,0,0:0:0:0:
448,192,163338,1,0,0:0:0:0:
320,192,163384,1,0,0:0:0:0:
192,192,163429,1,0,0:0:0:0:
64,192,163475,1,0,0:0:0:0:
448,192,163520,1,0,0:0:0:0:
320,192,163565,1,0,0:0:0:0:
192,192,163611,1,0,0:0:0:0:
64,192,163656,1,0,0:0:0:0:
448,192,163702,1,0,0:0:0:0:
320,192,163747,1,0,0:0:0:0:
192,192,163793,1,0,0:0:0:0:
64,192,163838,1,0,0:0:0:0:
448,192,163884,128,0,165338:0:0:0:0:
320,192,163884,128,0,165338:0:0:0:0:
192,192,164611,128,0,166429:0:0:0:0:
64,192,165338,128,0,166429:0:0:0:0:
320,192,166429,5,0,0:0:0:0:
448,192,166429,1,0,0:0:0:0:
64,192,166793,1,0,0:0:0:0:
448,192,166793,1,0,0:0:0:0:
320,192,166793,1,0,0:0:0:0:
192,192,166884,1,0,0:0:0:0:
448,192,166975,1,0,0:0:0:0:
320,192,167065,1,0,0:0:0:0:
192,192,167156,1,0,0:0:0:0:
64,192,167156,1,0,0:0:0:0:
448,192,167156,1,0,0:0:0:0:
320,192,167247,1,0,0:0:0:0:
64,192,167338,1,0,0:0:0:0:
448,192,167429,1,0,0:0:0:0:
320,192,167520,1,0,0:0:0:0:
192,192,167520,1,0,0:0:0:0:
64,192,167611,1,0,0:0:0:0:
448,192,167702,1,0,0:0:0:0:
192,192,167793,1,0,0:0:0:0:
320,192,167884,1,0,0:0:0:0:
64,192,167884,1,0,0:0:0:0:
448,192,167884,1,0,0:0:0:0:
192,192,167975,1,0,0:0:0:0:
448,192,168065,1,0,0:0:0:0:
64,192,168156,1,0,0:0:0:0:
192,192,168247,1,0,0:0:0:0:
320,192,168247,1,0,0:0:0:0:
448,192,168338,1,0,0:0:0:0:
64,192,168429,1,0,0:0:0:0:
448,192,168520,1,0,0:0:0:0:
320,192,168611,1,0,0:0:0:0:
192,192,168611,1,0,0:0:0:0:
64,192,168611,1,0,0:0:0:0:
448,192,168702,1,0,0:0:0:0:
64,192,168793,1,0,0:0:0:0:
192,192,168884,1,0,0:0:0:0:
320,192,168975,1,0,0:0:0:0:
448,192,168975,1,0,0:0:0:0:
192,192,169065,1,0,0:0:0:0:
64,192,169156,1,0,0:0:0:0:
448,192,169247,1,0,0:0:0:0:
320,192,169338,1,0,0:0:0:0:
192,192,169338,1,0,0:0:0:0:
64,192,169338,1,0,0:0:0:0:
448,192,169429,1,0,0:0:0:0:
64,192,169520,1,0,0:0:0:0:
192,192,169611,1,0,0:0:0:0:
64,192,169702,128,0,169975:0:0:0:0:
320,192,169702,128,0,169975:0:0:0:0:
448,192,169702,128,0,169975:0:0:0:0:
64,192,170065,128,0,170247:0:0:0:0:
192,192,170065,128,0,170247:0:0:0:0:
448,192,170065,128,0,170247:0:0:0:0:
320,192,170338,1,0,0:0:0:0:
448,192,170429,1,0,0:0:0:0:
64,192,170429,1,0,0:0:0:0:
320,192,170611,128,0,170793:0:0:0:0:
192,192,170611,128,0,170793:0:0:0:0:
64,192,170793,1,0,0:0:0:0:
448,192,170793,1,0,0:0:0:0:
64,192,170975,128,0,171156:0:0:0:0:
192,192,170975,128,0,171156:0:0:0:0:
320,192,171156,1,0,0:0:0:0:
448,192,171156,1,0,0:0:0:0:
320,192,171338,128,0,171520:0:0:0:0:
448,192,171338,128,0,171520:0:0:0:0:
192,192,171611,128,0,171793:0:0:0:0:
320,192,171611,128,0,171793:0:0:0:0:
64,192,171884,128,0,172065:0:0:0:0:
192,192,171884,128,0,172065:0:0:0:0:
320,192,172156,128,0,172338:0:0:0:0:
448,192,172156,128,0,172338:0:0:0:0:
192,192,172247,1,0,0:0:0:0:
64,192,172247,1,0,0:0:0:0:
64,192,172429,128,0,172611:0:0:0:0:
192,192,172429,128,0,172611:0:0:0:0:
320,192,172611,1,0,0:0:0:0:
448,192,172611,1,0,0:0:0:0:
192,192,172702,1,0,0:0:0:0:
64,192,172793,1,0,0:0:0:0:
448,192,172884,1,0,0:0:0:0:
192,192,172975,1,0,0:0:0:0:
64,192,172975,1,0,0:0:0:0:
320,192,172975,1,0,0:0:0:0:
448,192,173065,1,0,0:0:0:0:
320,192,173156,1,0,0:0:0:0:
64,192,173247,1,0,0:0:0:0:
192,192,173338,1,0,0:0:0:0:
448,192,173338,1,0,0:0:0:0:
320,192,173429,1,0,0:0:0:0:
64,192,173520,1,0,0:0:0:0:
192,192,173611,1,0,0:0:0:0:
320,192,173702,1,0,0:0:0:0:
448,192,173702,1,0,0:0:0:0:
64,192,173702,1,0,0:0:0:0:
192,192,173793,1,0,0:0:0:0:
448,192,173884,1,0,0:0:0:0:
64,192,173975,1,0,0:0:0:0:
192,192,174065,1,0,0:0:0:0:
320,192,174065,1,0,0:0:0:0:
448,192,174156,1,0,0:0:0:0:
64,192,174247,1,0,0:0:0:0:
192,192,174338,1,0,0:0:0:0:
320,192,174429,1,0,0:0:0:0:
448,192,174429,1,0,0:0:0:0:
64,192,174429,1,0,0:0:0:0:
192,192,174520,1,0,0:0:0:0:
448,192,174611,1,0,0:0:0:0:
320,192,174702,1,0,0:0:0:0:
192,192,174793,1,0,0:0:0:0:
64,192,174793,1,0,0:0:0:0:
448,192,174793,1,0,0:0:0:0:
320,192,174884,1,0,0:0:0:0:
192,192,174975,1,0,0:0:0:0:
64,192,175065,1,0,0:0:0:0:
320,192,175156,1,0,0:0:0:0:
448,192,175156,1,0,0:0:0:0:
192,192,175156,1,0,0:0:0:0:
64,192,175247,1,0,0:0:0:0:
192,192,175338,1,0,0:0:0:0:
448,192,175429,1,0,0:0:0:0:
320,192,175520,1,0,0:0:0:0:
64,192,175520,128,0,175884:0:0:0:0:
192,192,175520,128,0,175884:0:0:0:0:
320,192,175884,128,0,176247:0:0:0:0:
448,192,176065,128,0,176247:0:0:0:0:
192,192,176247,128,0,176611:0:0:0:0:
64,192,176247,1,0,0:0:0:0:
64,192,176429,128,0,176611:0:0:0:0:
320,192,176611,1,0,0:0:0:0:
448,192,176611,1,0,0:0:0:0:
64,192,176793,1,0,0:0:0:0:
192,192,176793,1,0,0:0:0:0:
320,192,176884,1,0,0:0:0:0:
448,192,176884,1,0,0:0:0:0:
448,192,176975,1,0,0:0:0:0:
64,192,176975,128,0,177156:0:0:0:0:
192,192,176975,128,0,177156:0:0:0:0:
192,192,177247,128,0,177429:0:0:0:0:
320,192,177247,128,0,177429:0:0:0:0:
320,192,177520,128,0,177702:0:0:0:0:
448,192,177520,128,0,177702:0:0:0:0:
64,192,177520,1,0,0:0:0:0:
64,192,177793,128,0,177975:0:0:0:0:
192,192,177793,128,0,177975:0:0:0:0:
320,192,178065,1,0,0:0:0:0:
448,192,178065,1,0,0:0:0:0:
64,192,178065,1,0,0:0:0:0:
448,192,178429,1,0,0:0:0:0:
64,192,178429,1,0,0:0:0:0:
192,192,178429,1,0,0:0:0:0:
320,192,178520,1,0,0:0:0:0:
64,192,178611,1,0,0:0:0:0:
192,192,178702,1,0,0:0:0:0:
448,192,178793,1,0,0:0:0:0:
64,192,178793,1,0,0:0:0:0:
320,192,178793,1,0,0:0:0:0:
192,192,178884,1,0,0:0:0:0:
448,192,178975,1,0,0:0:0:0:
64,192,179065,1,0,0:0:0:0:
192,192,179156,1,0,0:0:0:0:
320,192,179156,1,0,0:0:0:0:
448,192,179247,1,0,0:0:0:0:
64,192,179338,1,0,0:0:0:0:
320,192,179429,1,0,0:0:0:0:
192,192,179520,1,0,0:0:0:0:
448,192,179520,1,0,0:0:0:0:
64,192,179520,1,0,0:0:0:0:
320,192,179611,1,0,0:0:0:0:
64,192,179702,1,0,0:0:0:0:
448,192,179793,1,0,0:0:0:0:
320,192,179884,1,0,0:0:0:0:
192,192,179884,1,0,0:0:0:0:
64,192,179975,1,0,0:0:0:0:
448,192,180065,1,0,0:0:0:0:
64,192,180156,1,0,0:0:0:0:
192,192,180247,1,0,0:0:0:0:
320,192,180247,1,0,0:0:0:0:
448,192,180247,1,0,0:0:0:0:
64,192,180338,1,0,0:0:0:0:
448,192,180429,1,0,0:0:0:0:
320,192,180520,1,0,0:0:0:0:
192,192,180611,1,0,0:0:0:0:
64,192,180611,1,0,0:0:0:0:
320,192,180702,1,0,0:0:0:0:
448,192,180793,1,0,0:0:0:0:
192,192,180884,1,0,0:0:0:0:
64,192,180975,1,0,0:0:0:0:
320,192,180975,1,0,0:0:0:0:
448,192,180975,1,0,0:0:0:0:
192,192,181065,1,0,0:0:0:0:
448,192,181156,1,0,0:0:0:0:
64,192,181156,1,0,0:0:0:0:
320,192,181247,1,0,0:0:0:0:
192,192,181338,128,0,181611:0:0:0:0:
64,192,181338,128,0,181611:0:0:0:0:
448,192,181338,128,0,181611:0:0:0:0:
448,192,181702,128,0,181884:0:0:0:0:
320,192,181702,128,0,181884:0:0:0:0:
64,192,181702,128,0,181884:0:0:0:0:
192,192,181975,1,0,0:0:0:0:
64,192,182065,1,0,0:0:0:0:
448,192,182065,1,0,0:0:0:0:
192,192,182247,128,0,182429:0:0:0:0:
320,192,182247,128,0,182429:0:0:0:0:
448,192,182429,1,0,0:0:0:0:
64,192,182429,1,0,0:0:0:0:
448,192,182611,128,0,182793:0:0:0:0:
320,192,182611,128,0,182793:0:0:0:0:
192,192,182793,1,0,0:0:0:0:
64,192,182793,1,0,0:0:0:0:
192,192,182975,128,0,183156:0:0:0:0:
64,192,182975,128,0,183156:0:0:0:0:
320,192,183247,128,0,183429:0:0:0:0:
192,192,183247,128,0,183429:0:0:0:0:
448,192,183520,128,0,183702:0:0:0:0:
320,192,183520,128,0,183702:0:0:0:0:
192,192,183793,128,0,183975:0:0:0:0:
64,192,183793,128,0,183975:0:0:0:0:
320,192,183884,1,0,0:0:0:0:
448,192,183884,1,0,0:0:0:0:
320,192,184065,128,0,184247:0:0:0:0:
192,192,184065,128,0,184247:0:0:0:0:
64,192,184247,1,0,0:0:0:0:
448,192,184247,1,0,0:0:0:0:
192,192,184338,1,0,0:0:0:0:
320,192,184338,1,0,0:0:0:0:
64,192,184429,1,0,0:0:0:0:
448,192,184429,1,0,0:0:0:0:
192,192,184520,1,0,0:0:0:0:
320,192,184520,1,0,0:0:0:0:
64,192,184611,1,0,0:0:0:0:
448,192,184611,1,0,0:0:0:0:
192,192,184702,1,0,0:0:0:0:
320,192,184702,1,0,0:0:0:0:
64,192,184793,1,0,0:0:0:0:
448,192,184793,1,0,0:0:0:0:
192,192,184884,1,0,0:0:0:0:
320,192,184884,1,0,0:0:0:0:
64,192,184975,1,0,0:0:0:0:
448,192,184975,1,0,0:0:0:0:
192,192,185065,1,0,0:0:0:0:
320,192,185065,1,0,0:0:0:0:
64,192,185156,1,0,0:0:0:0:
448,192,185156,1,0,0:0:0:0:
192,192,185247,1,0,0:0:0:0:
320,192,185247,1,0,0:0:0:0:
64,192,185338,1,0,0:0:0:0:
448,192,185338,1,0,0:0:0:0:
192,192,185429,1,0,0:0:0:0:
320,192,185429,1,0,0:0:0:0:
64,192,185520,1,0,0:0:0:0:
448,192,185520,1,0,0:0:0:0:
192,192,185611,1,0,0:0:0:0:
320,192,185702,1,0,0:0:0:0:
448,192,185702,1,0,0:0:0:0:
64,192,185793,1,0,0:0:0:0:
192,192,185793,1,0,0:0:0:0:
320,192,185884,1,0,0:0:0:0:
448,192,185884,1,0,0:0:0:0:
64,192,185975,1,0,0:0:0:0:
192,192,185975,1,0,0:0:0:0:
320,192,186065,1,0,0:0:0:0:
448,192,186065,1,0,0:0:0:0:
64,192,186156,1,0,0:0:0:0:
192,192,186156,1,0,0:0:0:0:
320,192,186247,1,0,0:0:0:0:
448,192,186247,1,0,0:0:0:0:
64,192,186338,1,0,0:0:0:0:
192,192,186338,1,0,0:0:0:0:
448,192,186429,1,0,0:0:0:0:
320,192,186475,1,0,0:0:0:0:
192,192,186520,1,0,0:0:0:0:
64,192,186565,1,0,0:0:0:0:
448,192,186611,1,0,0:0:0:0:
320,192,186656,1,0,0:0:0:0:
192,192,186702,1,0,0:0:0:0:
64,192,186747,1,0,0:0:0:0:
448,192,186793,1,0,0:0:0:0:
320,192,186838,1,0,0:0:0:0:
192,192,186884,1,0,0:0:0:0:
64,192,186929,1,0,0:0:0:0:
448,192,186975,1,0,0:0:0:0:
320,192,187020,1,0,0:0:0:0:
192,192,187065,1,0,0:0:0:0:
64,192,187111,1,0,0:0:0:0:
320,192,187156,128,0,187884:0:0:0:0:
448,192,187156,128,0,187884:0:0:0:0:
64,192,187884,1,0,0:0:0:0:
192,192,187884,1,0,0:0:0:0:
64,192,188005,1,0,0:0:0:0:
192,192,188005,1,0,0:0:0:0:
320,192,188126,1,0,0:0:0:0:
448,192,188126,1,0,0:0:0:0:
320,192,188247,1,0,0:0:0:0:
448,192,188247,1,0,0:0:0:0:
64,192,188368,1,0,0:0:0:0:
192,192,188368,1,0,0:0:0:0:
64,192,188490,1,0,0:0:0:0:
192,192,188490,1,0,0:0:0:0:
320,192,188611,1,0,0:0:0:0:
64,192,188611,1,0,0:0:0:0:
448,192,188611,128,0,188975:0:0:0:0:
64,192,188975,1,0,0:0:0:0:
192,192,188975,1,0,0:0:0:0:
320,192,188975,1,0,0:0:0:0:
64,192,189156,1,0,0:0:0:0:
192,192,189156,1,0,0:0:0:0:
320,192,189156,1,0,0:0:0:0:
192,192,189429,1,0,0:0:0:0:
320,192,189429,1,0,0:0:0:0:
448,192,189429,1,0,0:0:0:0:
192,192,189702,1,0,0:0:0:0:
320,192,189702,1,0,0:0:0:0:
448,192,189702,1,0,0:0:0:0:
64,192,190065,128,0,191520:0:0:0:0:
448,192,190065,1,0,0:0:0:0:
320,192,190065,1,0,0:0:0:0:
192,192,190156,1,0,0:0:0:0:
448,192,190247,1,0,0:0:0:0:
320,192,190338,1,0,0:0:0:0:
192,192,190429,1,0,0:0:0:0:
448,192,190520,1,0,0:0:0:0:
192,192,190611,1,0,0:0:0:0:
320,192,190702,1,0,0:0:0:0:
448,192,190793,1,0,0:0:0:0:
192,192,190884,1,0,0:0:0:0:
448,192,190975,1,0,0:0:0:0:
320,192,191065,1,0,0:0:0:0:
192,192,191156,1,0,0:0:0:0:
448,192,191247,1,0,0:0:0:0:
192,192,191338,1,0,0:0:0:0:
320,192,191429,1,0,0:0:0:0:
192,192,191520,1,0,0:0:0:0:
448,192,191520,128,0,192611:0:0:0:0:
320,192,191611,1,0,0:0:0:0:
64,192,191702,1,0,0:0:0:0:
192,192,191793,1,0,0:0:0:0:
320,192,191884,1,0,0:0:0:0:
64,192,191975,1,0,0:0:0:0:
192,192,192065,1,0,0:0:0:0:
64,192,192156,1,0,0:0:0:0:
320,192,192247,1,0,0:0:0:0:
192,192,192338,1,0,0:0:0:0:
64,192,192429,1,0,0:0:0:0:
320,192,192520,1,0,0:0:0:0:
192,192,192611,1,0,0:0:0:0:
64,192,192611,1,0,0:0:0:0:
320,192,192975,1,0,0:0:0:0:
448,192,192975,1,0,0:0:0:0:
64,192,192975,128,0,193338:0:0:0:0:
320,192,193338,1,0,0:0:0:0:
448,192,193338,1,0,0:0:0:0:
192,192,193429,1,0,0:0:0:0:
64,192,193520,1,0,0:0:0:0:
64,192,193702,1,0,0:0:0:0:
192,192,193702,1,0,0:0:0:0:
448,192,193793,128,0,193975:0:0:0:0:
64,192,193975,1,0,0:0:0:0:
192,192,194065,1,0,0:0:0:0:
320,192,194065,128,0,194247:0:0:0:0:
64,192,194247,1,0,0:0:0:0:
192,192,194338,1,0,0:0:0:0:
448,192,194429,1,0,0:0:0:0:
320,192,194429,1,0,0:0:0:0:
64,192,194520,1,0,0:0:0:0:
192,192,194565,1,0,0:0:0:0:
448,192,194611,1,0,0:0:0:0:
320,192,194656,1,0,0:0:0:0:
64,192,194702,1,0,0:0:0:0:
192,192,194747,1,0,0:0:0:0:
320,192,194793,1,0,0:0:0:0:
448,192,194793,128,0,194884:0:0:0:0:
64,192,194884,128,0,194975:0:0:0:0:
448,192,194975,128,0,195065:0:0:0:0:
192,192,195065,128,0,195156:0:0:0:0:
320,192,195156,1,0,0:0:0:0:
64,192,195156,128,0,195247:0:0:0:0:
448,192,195247,128,0,195338:0:0:0:0:
64,192,195338,128,0,195429:0:0:0:0:
320,192,195429,128,0,195520:0:0:0:0:
64,192,195520,1,0,0:0:0:0:
192,192,195520,1,0,0:0:0:0:
448,192,195565,1,0,0:0:0:0:
320,192,195611,1,0,0:0:0:0:
192,192,195656,1,0,0:0:0:0:
64,192,195702,1,0,0:0:0:0:
448,192,195702,1,0,0:0:0:0:
192,192,195884,1,0,0:0:0:0:
320,192,195884,1,0,0:0:0:0:
448,192,195884,1,0,0:0:0:0:
448,192,196247,1,0,0:0:0:0:
320,192,196247,1,0,0:0:0:0:
64,192,196247,128,0,196338:0:0:0:0:
192,192,196338,128,0,196429:0:0:0:0:
448,192,196429,128,0,196520:0:0:0:0:
320,192,196520,128,0,196611:0:0:0:0:
192,192,196611,1,0,0:0:0:0:
64,192,196611,128,0,196702:0:0:0:0:
448,192,196702,128,0,196793:0:0:0:0:
192,192,196793,128,0,196884:0:0:0:0:
64,192,196884,128,0,196975:0:0:0:0:
320,192,196975,1,0,0:0:0:0:
448,192,196975,1,0,0:0:0:0:
448,192,197156,128,0,197338:0:0:0:0:
192,192,197338,1,0,0:0:0:0:
64,192,197338,1,0,0:0:0:0:
320,192,197384,1,0,0:0:0:0:
448,192,197429,1,0,0:0:0:0:
64,192,197475,1,0,0:0:0:0:
192,192,197520,1,0,0:0:0:0:
320,192,197565,1,0,0:0:0:0:
448,192,197611,1,0,0:0:0:0:
64,192,197702,1,0,0:0:0:0:
192,192,197702,1,0,0:0:0:0:
320,192,197793,1,0,0:0:0:0:
448,192,197884,1,0,0:0:0:0:
64,192,197975,1,0,0:0:0:0:
320,192,198065,1,0,0:0:0:0:
448,192,198065,1,0,0:0:0:0:
64,192,198156,1,0,0:0:0:0:
192,192,198247,1,0,0:0:0:0:
320,192,198247,1,0,0:0:0:0:
448,192,198338,1,0,0:0:0:0:
64,192,198338,1,0,0:0:0:0:
192,192,198429,1,0,0:0:0:0:
448,192,198520,1,0,0:0:0:0:
64,192,198611,1,0,0:0:0:0:
192,192,198611,128,0,198702:0:0:0:0:
448,192,198702,128,0,198793:0:0:0:0:
64,192,198793,128,0,198884:0:0:0:0:
320,192,198884,128,0,198975:0:0:0:0:
64,192,198975,128,0,199065:0:0:0:0:
448,192,199065,128,0,199156:0:0:0:0:
64,192,199156,1,0,0:0:0:0:
192,192,199156,1,0,0:0:0:0:
192,192,199247,1,0,0:0:0:0:
64,192,199247,1,0,0:0:0:0:
448,192,199338,1,0,0:0:0:0:
320,192,199338,1,0,0:0:0:0:
448,192,199429,1,0,0:0:0:0:
320,192,199429,1,0,0:0:0:0:
192,192,199520,1,0,0:0:0:0:
64,192,199520,1,0,0:0:0:0:
192,192,199611,1,0,0:0:0:0:
64,192,199611,1,0,0:0:0:0:
448,192,199702,1,0,0:0:0:0:
320,192,199702,1,0,0:0:0:0:
448,192,199793,1,0,0:0:0:0:
320,192,199793,1,0,0:0:0:0:
192,192,199884,1,0,0:0:0:0:
64,192,199884,1,0,0:0:0:0:
192,192,199975,1,0,0:0:0:0:
320,192,199975,1,0,0:0:0:0:
448,192,200065,1,0,0:0:0:0:
320,192,200065,1,0,0:0:0:0:
64,192,200156,1,0,0:0:0:0:
192,192,200156,1,0,0:0:0:0:
448,192,200247,1,0,0:0:0:0:
320,192,200247,1,0,0:0:0:0:
448,192,200338,1,0,0:0:0:0:
320,192,200338,1,0,0:0:0:0:
192,192,200429,1,0,0:0:0:0:
64,192,200429,1,0,0:0:0:0:
192,192,200520,1,0,0:0:0:0:
64,192,200520,1,0,0:0:0:0:
448,192,200611,1,0,0:0:0:0:
320,192,200611,1,0,0:0:0:0:
320,192,200702,1,0,0:0:0:0:
192,192,200702,1,0,0:0:0:0:
192,192,200793,1,0,0:0:0:0:
64,192,200793,1,0,0:0:0:0:
448,192,200884,1,0,0:0:0:0:
320,192,200884,1,0,0:0:0:0:
192,192,200975,1,0,0:0:0:0:
64,192,200975,1,0,0:0:0:0:
448,192,201065,1,0,0:0:0:0:
320,192,201065,1,0,0:0:0:0:
192,192,201156,1,0,0:0:0:0:
64,192,201156,1,0,0:0:0:0:
192,192,201247,1,0,0:0:0:0:
64,192,201247,1,0,0:0:0:0:
448,192,201338,1,0,0:0:0:0:
320,192,201338,1,0,0:0:0:0:
448,192,201429,1,0,0:0:0:0:
320,192,201429,1,0,0:0:0:0:
192,192,201520,1,0,0:0:0:0:
64,192,201520,1,0,0:0:0:0:
448,192,201611,1,0,0:0:0:0:
320,192,201611,1,0,0:0:0:0:
64,192,201702,1,0,0:0:0:0:
192,192,201747,1,0,0:0:0:0:
320,192,201793,1,0,0:0:0:0:
448,192,201838,1,0,0:0:0:0:
192,192,201884,1,0,0:0:0:0:
64,192,201929,1,0,0:0:0:0:
448,192,201975,1,0,0:0:0:0:
320,192,202020,1,0,0:0:0:0:
192,192,202065,1,0,0:0:0:0:
64,192,202111,1,0,0:0:0:0:
320,192,202156,1,0,0:0:0:0:
448,192,202202,1,0,0:0:0:0:
64,192,202247,1,0,0:0:0:0:
192,192,202293,1,0,0:0:0:0:
320,192,202338,1,0,0:0:0:0:
448,192,202384,1,0,0:0:0:0:
192,192,202429,1,0,0:0:0:0:
64,192,202475,1,0,0:0:0:0:
320,192,202520,1,0,0:0:0:0:
448,192,202565,1,0,0:0:0:0:
64,192,202611,1,0,0:0:0:0:
192,192,202656,1,0,0:0:0:0:
320,192,202702,1,0,0:0:0:0:
448,192,202747,1,0,0:0:0:0:
192,192,202793,1,0,0:0:0:0:
64,192,202838,1,0,0:0:0:0:
448,192,202884,1,0,0:0:0:0:
320,192,202929,1,0,0:0:0:0:
192,192,202975,1,0,0:0:0:0:
64,192,203020,1,0,0:0:0:0:
448,192,203065,1,0,0:0:0:0:
320,192,203111,1,0,0:0:0:0:
192,192,203156,1,0,0:0:0:0:
64,192,203156,1,0,0:0:0:0:
448,192,203429,1,0,0:0:0:0:
320,192,203429,1,0,0:0:0:0:
64,192,203429,1,0,0:0:0:0:
448,192,203702,1,0,0:0:0:0:
192,192,203702,1,0,0:0:0:0:
64,192,203702,1,0,0:0:0:0:
448,192,203975,1,0,0:0:0:0:
320,192,203975,1,0,0:0:0:0:
64,192,203975,1,0,0:0:0:0:
448,192,204247,1,0,0:0:0:0:
192,192,204247,1,0,0:0:0:0:
64,192,204247,1,0,0:0:0:0:
64,192,204611,128,0,206065:0:0:0:0:
448,192,205247,1,0,0:0:0:0:
192,192,205338,128,0,207520:0:0:0:0:
320,192,206065,128,0,207520:0:0:0:0:
64,192,207520,128,0,210247:0:0:0:0:
448,192,207520,128,0,208975:0:0:0:0:
192,192,208975,1,0,0:0:0:0:
320,192,209065,1,0,0:0:0:0:
448,192,209156,1,0,0:0:0:0:
192,192,209247,1,0,0:0:0:0:
448,192,209338,1,0,0:0:0:0:
320,192,209429,1,0,0:0:0:0:
192,192,209520,1,0,0:0:0:0:
448,192,209611,1,0,0:0:0:0:
320,192,209702,1,0,0:0:0:0:
192,192,209884,1,0,0:0:0:0:
448,192,210065,1,0,0:0:0:0:
320,192,210247,1,0,0:0:0:0:
448,192,210611,128,0,212884:0:0:0:0:
192,192,210611,128,0,212884:0:0:0:0:
320,192,210611,128,0,212884:0:0:0:0:
64,192,210611,128,0,212884:0:0:0:0:
64,192,212975,1,0,0:0:0:0:
192,192,212975,1,0,0:0:0:0:
448,192,212975,1,0,0:0:0:0:
64,192,213156,1,0,0:0:0:0:
192,192,213156,1,0,0:0:0:0:
320,192,213156,1,0,0:0:0:0:
448,192,213156,1,0,0:0:0:0:
