osu file format v14

[General]
AudioFilename: audio.mp3
AudioLeadIn: 0
PreviewTime: 108584
Countdown: 0
SampleSet: Soft
StackLeniency: 0.8
Mode: 0
LetterboxInBreaks: 0
WidescreenStoryboard: 1

[Editor]
Bookmarks: 3948,15584,27220,38857,50493,62129,73766,85402,97039,108675,120311,131948,143584,155220,166857,178493,190129
DistanceSpacing: 1.2
BeatDivisor: 4
GridSize: 32
TimelineZoom: 4.299997

[Metadata]
Title:NEO GRAVITY (Extended)
TitleUnicode:NEO GRAVITY (Extended)
Artist:lapix
ArtistUnicode:lapix
Creator:-PC
Version:Hard
Source:SOUND VOLTEX III GRAVITY WARS
Tags:arbane sdvx hitech the 5th kac original song contest konami bemani
BeatmapID:1860373
BeatmapSetID:881188

[Difficulty]
HPDrainRate:5
CircleSize:3.5
OverallDifficulty:6
ApproachRate:8
SliderMultiplier:1.69999990463257
SliderTickRate:1

[Events]
//Background and Video events
0,0,"neogravity.jpg",0,0
//Break Periods
2,62329,73016
2,131948,142834
//Storyboard Layer 0 (Background)
//Storyboard Layer 1 (Fail)
//Storyboard Layer 2 (Pass)
//Storyboard Layer 3 (Foreground)
//Storyboard Layer 4 (Overlay)
//Storyboard Sound Samples

[TimingPoints]
1039,363.636363636364,4,2,0,70,1,0
14220,-100,4,2,0,40,0,0
14493,-100,4,2,0,70,0,0
14584,-100,4,2,0,50,0,0
14857,-100,4,2,0,70,0,0
14948,-100,4,2,0,60,0,0
15220,-100,4,2,0,70,0,0
65039,-100,4,2,0,50,0,0
65584,-100,4,2,0,55,0,0
66311,-100,4,2,0,60,0,0
67039,-100,4,2,0,55,0,0
67584,-100,4,2,0,50,0,0
67857,-100,4,2,0,5,0,0
67948,-100,4,2,0,50,0,0
69039,-100,4,2,0,55,0,0
70493,-100,4,2,0,60,0,0
70857,-100,4,2,0,65,0,0
71402,-100,4,2,0,70,0,0
72311,-100,4,2,0,75,0,0
72675,-100,4,2,0,70,0,0
79584,-100,4,3,0,70,0,0
82493,-166.666666666667,4,3,0,70,0,0
83948,-100,4,2,0,70,0,0
92766,-100,4,2,0,30,0,0
93039,-100,4,2,0,70,0,0
93129,-100,4,2,0,30,0,0
93402,-100,4,2,0,70,0,0
108311,-125,4,2,0,70,0,0
108675,-100,4,2,0,70,0,0
113584,-100,4,2,0,40,0,0
113675,-100,4,2,0,70,0,0
120311,-100,4,2,0,70,0,0
127584,-100,4,2,0,65,0,0
127766,-100,4,2,0,60,0,0
127948,-100,4,2,0,55,0,0
128311,-100,4,2,0,50,0,0
129039,-100,4,2,0,40,0,0
129402,-100,4,2,0,30,0,0
129948,-100,4,2,0,50,0,0
130493,-100,4,2,0,40,0,0
130857,-100,4,1,0,50,0,0
131039,-100,4,1,0,55,0,0
131220,-100,4,1,0,60,0,0
131402,-100,4,1,0,65,0,0
131584,-100,4,2,0,65,0,0
131675,-100,4,2,0,40,0,0
143220,-125,4,2,0,60,0,0
155220,-100,4,2,0,60,0,0
155402,-100,4,2,0,70,0,0
156311,-100,4,2,0,60,0,0
156857,-100,4,2,0,70,0,0
161084,-100,4,2,0,20,0,0
161402,-100,4,2,0,23,0,0
161766,-100,4,2,0,70,0,0
161811,-100,4,2,0,26,0,0
162129,-100,4,2,0,30,0,0
162493,-100,4,2,0,70,0,0
162516,-100,4,2,0,33,0,0
162857,-100,4,2,0,40,0,0
163220,-100,4,2,0,70,0,0
163243,-100,4,2,0,45,0,0
163584,-100,4,2,0,50,0,0
163948,-100,4,2,0,70,0,0
164039,-100,4,2,0,50,0,0
164493,-100,4,2,0,60,0,0
165039,-100,4,2,0,70,0,0
165402,-100,4,2,0,70,0,0
166857,-100,4,2,0,70,0,0
184311,-100,4,2,0,60,0,0
186493,-100,4,2,0,70,0,0
186539,-100,4,2,0,50,0,0
186857,-100,4,2,0,70,0,0
186902,-100,4,2,0,50,0,0
187220,-100,4,2,0,70,0,0
192675,-100,4,2,0,60,0,0
193039,-100,4,2,0,70,0,0
204311,-125,4,2,0,70,0,0
204675,-200,4,2,0,70,0,0
207039,-100,4,2,0,5,0,0
207584,-100,4,2,0,70,0,0
210493,-100,4,2,0,5,0,0
210675,-666.666666666667,4,2,0,70,0,0
213039,-100,4,2,0,70,0,0

[HitObjects]
508,262,3948,6,0,P|451:262|414:206,1,127.499992847443,4|0,1:0|0:0,0:0:0:0:
414,186,4311,2,0,P|436:116|475:75,2,127.499992847443,2|0|0,0:0|0:0|0:0,0:0:0:0:
337,278,5039,2,0,P|319:217|278:169,1,127.499992847443,2|0,0:0|0:0,0:0:0:0:
230,152,5402,5,2,0:1:0:0:
172,214,5584,1,0,0:0:0:0:
159,210,5675,1,2,0:1:0:0:
97,151,5857,1,0,0:0:0:0:
84,155,5948,1,2,0:1:0:0:
27,218,6129,6,0,L|18:315,1,84.9999952316285,2|2,0:1|0:1,0:0:0:0:
133,384,6493,1,2,1:2:0:0:
118,283,6675,1,2,1:2:0:0:
202,339,6857,6,0,P|258:348|303:300,1,127.499992847443,4|0,1:0|0:0,0:0:0:0:
307,279,7220,2,0,P|297:207|266:160,2,127.499992847443,2|0|0,0:0|0:0|0:0,0:0:0:0:
202,339,7948,2,0,P|154:330|129:300,1,84.9999952316285,2|2,0:1|0:1,0:0:0:0:
108,195,8311,6,0,L|195:186,1,84.9999952316285,4|0,1:2|0:0,0:0:0:0:
232,169,8584,2,0,L|316:177,1,84.9999952316285,4|0,1:2|0:0,0:0:0:0:
359,180,8857,5,4,1:2:0:0:
315,332,9129,1,4,1:2:0:0:
479,281,9402,2,0,L|474:238,3,42.4999976158142,4|2|2|2,1:2|0:3|0:3|0:3,0:0:0:0:
447,216,9766,6,0,P|456:159|408:114,1,127.499992847443,4|0,1:0|0:0,0:0:0:0:
387,111,10129,2,0,P|315:120|268:152,2,127.499992847443,2|0|0,0:0|0:0|0:0,0:0:0:0:
501,43,10857,2,0,P|452:39|410:25,1,84.9999952316285,0|0,0:0|0:0,0:0:0:0:
337,1,11220,5,2,0:1:0:0:
256,28,11402,1,0,0:0:0:0:
259,40,11493,1,2,0:1:0:0:
329,87,11675,1,0,0:0:0:0:
332,75,11766,1,2,0:1:0:0:
257,116,11948,6,0,L|266:214,1,84.9999952316285,2|2,0:1|0:1,0:0:0:0:
161,294,12311,1,2,1:2:0:0:
180,198,12493,1,2,1:2:0:0:
245,276,12675,6,0,P|254:332|206:377,1,127.499992847443,4|0,1:0|0:0,0:0:0:0:
185,381,13038,2,0,P|113:371|66:340,2,127.499992847443,2|0|0,0:0|0:0|0:0,0:0:0:0:
334,332,13766,2,0,P|325:284|295:259,1,84.9999952316285,2|2,0:1|0:1,0:0:0:0:
176,206,14129,6,0,P|151:211|127:209,3,42.4999976158143,4|0|0|0,1:2|1:0|1:0|1:0,0:0:0:0:
109,175,14493,2,0,P|92:155|81:134,3,42.4999976158143,4|0|0|0,1:2|1:0|1:0|1:0,0:0:0:0:
102,102,14857,2,0,P|110:77|123:58,3,42.4999976158143,4|0|0|0,1:2|1:0|1:0|1:0,0:0:0:0:
161,59,15220,2,0,P|185:53|210:56,3,42.4999976158143,4|0|0|0,1:2|1:0|1:0|1:0,0:0:0:0:
228,89,15584,6,0,B|221:155|221:155|237:183|237:183|229:266,1,169.999990463257,4|2,1:2|1:3,0:0:0:0:
342,194,16129,1,2,0:0:0:0:
362,187,16220,2,0,P|407:188|484:258,1,127.499992847443,0|0,1:0|1:0,0:0:0:0:
477,320,16675,2,0,P|448:363|402:375,1,84.9999952316285,2|2,1:3|1:2,0:0:0:0:
306,309,17039,6,0,B|202:294|253:369|149:356,1,169.999990463257,4|2,1:2|1:3,0:0:0:0:
60,267,17584,1,2,0:0:0:0:
50,248,17675,2,0,P|72:181|121:159,1,127.499992847443,0|0,1:0|1:0,0:0:0:0:
202,182,18129,1,2,1:3:0:0:
161,73,18311,1,2,1:2:0:0:
161,73,18402,1,2,1:2:0:0:
161,73,18493,6,0,B|247:89|247:89|293:14,1,169.999990463257,6|2,1:2|1:3,0:0:0:0:
417,32,19039,1,2,0:0:0:0:
435,42,19129,2,0,P|461:92|466:166,1,127.499992847443,0|0,1:0|1:0,0:0:0:0:
420,234,19584,2,0,L|323:225,1,84.9999952316285,2|2,1:3|1:2,0:0:0:0:
209,206,19948,6,0,B|148:213|148:213|126:226|126:226|104:218|104:218|38:226,1,169.999990463257,4|2,1:2|1:3,0:0:0:0:
0,105,20493,1,2,0:0:0:0:
16,118,20584,2,0,P|79:124|128:83,1,127.499992847443,0|0,1:0|1:0,0:0:0:0:
149,3,21039,1,2,1:3:0:0:
266,52,21220,1,2,1:2:0:0:
266,52,21311,1,2,1:2:0:0:
266,52,21402,6,0,L|359:46,1,84.9999952316285,4|0,1:2|1:2,0:0:0:0:
512,33,21766,2,0,L|419:39,1,84.9999952316285,0|0,1:2|1:2,0:0:0:0:
301,141,22129,2,0,L|217:136,1,84.9999952316285,4|0,1:2|1:2,0:0:0:0:
379,147,22493,2,0,L|463:152,1,84.9999952316285,0|0,1:2|1:2,0:0:0:0:
496,276,22857,6,0,L|449:271,3,42.4999976158143,4|0|0|0,1:2|1:0|1:0|1:0,0:0:0:0:
411,265,23220,2,0,L|364:260,3,42.4999976158143,4|0|0|0,1:2|1:0|1:0|1:0,0:0:0:0:
304,304,23584,6,0,L|301:331,16,21.2499988079071,0|0|0|0|0|0|0|0|0|0|0|0|0|0|0|0|4,1:0|1:0|1:0|1:0|1:0|1:0|1:0|1:0|1:0|1:0|1:0|1:0|1:0|1:0|1:0|1:0|1:0,0:0:0:0:
256,192,24402,12,0,25402,0:0:0:0:
180,202,25766,5,4,1:2:0:0:
330,165,26039,1,4,1:2:0:0:
367,315,26311,1,4,1:2:0:0:
302,249,26493,2,0,L|314:74,1,169.999990463257,0|8,1:0|1:0,0:0:0:0:
18,26,27220,6,0,L|36:233,1,169.999990463257,6|0,1:0|1:0,0:0:0:0:
62,275,27766,1,2,0:0:0:0:
133,225,27948,2,0,L|141:181,4,42.4999976158143,0|0|0|0|0,1:0|0:0|0:0|0:0|1:0,0:0:0:0:
111,368,28493,1,0,0:0:0:0:
192,336,28675,6,0,P|248:315|315:317,1,127.499992847443,2|0,1:3|0:0,0:0:0:0:
335,322,29039,2,0,P|372:322|421:303,1,84.9999952316285,4|0,1:2|0:0,0:0:0:0:
335,176,29402,2,0,P|361:203|409:223,1,84.9999952316285,8|0,1:3|0:0,0:0:0:0:
483,252,29766,1,2,0:0:0:0:
491,249,29857,1,2,0:0:0:0:
497,243,29948,1,6,1:2:0:0:
501,236,30039,1,2,0:0:0:0:
504,228,30129,6,0,B|493:175|493:175|504:165|504:165|510:103,1,127.499992847443,4|0,1:0|0:0,0:0:0:0:
510,84,30493,2,0,P|455:125|392:126,1,127.499992847443,4|0,1:0|0:0,0:0:0:0:
378,117,30857,2,0,L|367:28,2,84.9999952316285,2|2|2,1:3|0:3|1:3,0:0:0:0:
387,201,31402,1,2,0:3:0:0:
309,169,31584,5,4,1:2:0:0:
352,306,31766,1,4,1:2:0:0:
208,291,31948,1,4,1:2:0:0:
287,252,32129,5,0,0:0:0:0:
267,243,32220,2,0,P|232:209|231:134,1,127.499992847443,4|2,1:2|1:2,0:0:0:0:
116,106,32675,2,0,L|130:158,2,42.4999976158143,0|2|4,1:0|1:2|1:2,0:0:0:0:
227,42,33039,6,0,P|295:67|323:119,1,127.499992847443,6|0,1:0|0:0,0:0:0:0:
323,133,33402,2,0,P|320:175|304:221,1,84.9999952316285,0|2,1:0|0:0,0:0:0:0:
410,298,33766,2,0,P|396:257|393:215,1,84.9999952316285,0|2,1:0|0:0,0:0:0:0:
453,154,34129,1,4,1:2:0:0:
458,69,34311,1,4,1:2:0:0:
387,20,34493,5,4,1:0:0:0:
201,168,34857,2,0,L|218:303,2,127.499992847443,2|4|2,1:3|1:0|1:3,0:0:0:0:
122,102,35584,2,0,L|73:96,3,42.4999976158143,0|4|2|2,0:0|1:0|0:0|0:0,0:0:0:0:
53,118,35948,6,0,P|34:173|43:250,1,127.499992847443,4|8,1:0|1:3,0:0:0:0:
57,253,36311,1,4,1:3:0:0:
156,232,36493,1,4,1:3:0:0:
231,300,36675,1,8,0:3:0:0:
243,301,36766,1,8,0:3:0:0:
255,303,36857,1,8,0:3:0:0:
267,304,36948,1,8,0:3:0:0:
279,306,37039,2,0,L|362:287,1,84.9999952316285,8|0,0:3|1:0,0:0:0:0:
510,249,37402,5,4,1:0:0:0:
277,216,38129,6,0,B|302:183|302:183|298:139,1,84.9999952316285,2|2,0:0|0:0,0:0:0:0:
231,86,38493,1,2,0:0:0:0:
231,86,38584,1,2,0:0:0:0:
231,86,38675,1,8,0:3:0:0:
212,169,38857,6,0,B|106:139|150:204|47:180,1,169.999990463257,6|0,1:0|1:0,0:0:0:0:
4,107,39402,1,2,0:0:0:0:
62,45,39584,2,0,L|68:-1,4,42.4999976158143,0|2|2|2|0,1:0|0:0|0:0|0:0|1:2,0:0:0:0:
44,178,40129,1,0,1:2:0:0:
108,233,40311,6,0,P|132:237|186:197,1,84.9999952316285,6|2,1:2|0:2,0:0:0:0:
286,280,40675,2,0,P|289:321|319:350,1,84.9999952316285,0|0,1:0|0:0,0:0:0:0:
403,335,41039,5,6,1:2:0:0:
407,314,41129,2,0,L|419:229,1,84.9999952316285,2|2,0:2|0:2,0:0:0:0:
436,103,41493,2,0,L|477:93,2,42.4999976158143,0|6|0,1:0|0:2|1:0,0:0:0:0:
414,107,41766,6,0,P|358:102|301:-2,1,169.999990463257,4|4,1:0|1:2,0:0:0:0:
301,4,42493,2,0,P|264:37|213:43,1,84.9999952316285,2|2,1:3|0:3,0:0:0:0:
92,70,42857,2,0,P|132:81|162:110,1,84.9999952316285,2|2,1:2|1:2,0:0:0:0:
196,188,43220,5,4,1:2:0:0:
147,339,43402,1,4,1:2:0:0:
56,225,43584,1,4,1:2:0:0:
138,250,43765,5,2,0:0:0:0:
155,262,43856,2,0,P|202:272|266:232,1,127.499992847443,2|4,1:2|1:2,0:0:0:0:
360,314,44311,2,0,L|314:307,2,42.4999976158143,0|0|4,1:0|1:0|1:2,0:0:0:0:
338,185,44675,6,0,P|344:120|303:64,1,127.499992847443,4|0,1:0|0:0,0:0:0:0:
290,62,45039,2,0,B|236:66|236:66|215:78|215:78|157:84,1,127.499992847443,2|0,1:2|0:0,0:0:0:0:
89,45,45493,1,0,0:0:0:0:
71,57,45584,2,0,P|57:120|72:166,1,84.9999952316285,0|6,0:0|0:2,0:0:0:0:
88,237,45948,1,0,1:0:0:0:
26,317,46129,6,0,B|63:313|101:325|101:325|106:322|106:322|108:328|108:328|142:339|179:368,1,169.999990463257,4|2,1:0|1:3,0:0:0:0:
322,232,46766,2,0,B|342:252|353:280|353:280|357:281|357:281|355:285|355:285|365:311|367:346,1,127.499992847443,4|2,1:0|1:3,0:0:0:0:
480,384,47220,2,0,P|483:360|491:336,3,42.4999976158143,0|0|2|2,0:0|1:0|0:0|1:2,0:0:0:0:
473,311,47584,6,0,L|460:215,1,84.9999952316285,4|0,1:0|1:0,0:0:0:0:
439,64,47948,2,0,L|450:148,1,84.9999952316285,2|0,1:2|1:0,0:0:0:0:
383,256,48311,1,2,1:2:0:0:
380,269,48402,1,0,1:0:0:0:
378,282,48493,1,0,1:0:0:0:
376,295,48584,1,0,1:0:0:0:
374,308,48675,2,0,P|343:343|284:341,1,84.9999952316285,2|0,1:2|1:2,0:0:0:0:
180,261,49039,5,0,1:0:0:0:
256,192,49129,12,0,50129,0:0:0:0:
331,123,50493,5,4,1:0:0:0:
97,115,50857,2,0,B|84:155|84:155|109:207,1,84.9999952316285,4|0,1:2|0:0,0:0:0:0:
120,204,51129,2,0,L|249:187,2,127.499992847443,4|4|4,1:2|1:2|1:2,0:0:0:0:
96,240,51766,2,0,L|107:292,1,42.4999976158143,0|0,1:0|0:0,0:0:0:0:
109,302,51948,5,4,1:0:0:0:
279,378,52311,2,0,B|321:385|321:385|369:350,1,84.9999952316285,4|0,1:2|0:0,0:0:0:0:
364,340,52584,2,0,B|369:283|369:283|378:278|378:278|384:215,1,127.499992847443,4|4,1:2|1:2,0:0:0:0:
419,194,52948,2,0,L|412:150,2,42.4999976158143,0|2|2,1:0|0:3|0:3,0:0:0:0:
424,214,53220,1,0,1:0:0:0:
300,240,53402,6,0,P|236:229|165:233,1,127.499992847443,6|0,1:0|0:0,0:0:0:0:
154,240,53766,2,0,B|130:208|130:208|24:227,2,127.499992847443,4|4|4,1:2|1:2|1:2,0:0:0:0:
173,340,54493,2,0,L|162:400,2,42.4999976158143,0|4|0,0:0|1:2|0:0,0:0:0:0:
237,246,54857,5,2,1:3:0:0:
304,319,55039,1,2,1:3:0:0:
399,291,55220,2,0,L|383:156,1,127.499992847443,4|4,1:0|1:2,0:0:0:0:
503,51,55766,1,0,1:0:0:0:
491,46,55857,1,2,1:3:0:0:
397,4,56039,1,8,1:3:0:0:
385,9,56130,1,0,1:0:0:0:
337,98,56311,6,0,P|301:128|213:125,1,127.499992847443,4|2,1:0|1:3,0:0:0:0:
24,0,56857,2,0,P|113:19|154:89,1,169.999990463257,4|0,1:0|0:0,0:0:0:0:
150,168,57402,6,0,L|135:294,1,127.499992847443,4|2,1:0|1:3,0:0:0:0:
278,377,57948,2,0,B|270:303|270:303|246:288|246:288|237:221,1,169.999990463257,4|0,1:0|0:0,0:0:0:0:
224,140,58493,5,0,1:0:0:0:
346,102,58675,1,0,1:0:0:0:
249,18,58857,2,0,P|178:24|112:61,1,127.499992847443,0|0,1:0|0:0,0:0:0:0:
114,84,59220,6,0,P|70:66|19:68,1,84.9999952316285,4|0,1:0|0:0,0:0:0:0:
0,192,59584,2,0,P|42:190|80:173,1,84.9999952316285,0|0,0:0|0:0,0:0:0:0:
195,170,59948,2,0,P|190:145|192:121,3,42.4999976158143,0|0|0|0,0:0|0:0|0:0|0:0,0:0:0:0:
226,103,60312,2,0,P|246:86|267:75,3,42.4999976158143,0|0|0|0,1:0|1:0|1:0|1:0,0:0:0:0:
303,81,60675,5,0,1:0:0:0:
509,125,61039,2,0,B|366:146|366:146|338:190|338:190|196:171,1,339.999980926514,4|0,1:0|0:0,0:0:0:0:
0,147,62129,5,4,0:1:0:0:
54,55,73766,6,0,P|115:74|122:132,1,127.499992847443,4|0,1:0|0:0,0:0:0:0:
117,144,74129,2,0,B|169:139|169:139|183:129|183:129|244:122,2,127.499992847443,4|4|4,1:2|1:2|1:2,0:0:0:0:
226,252,74948,1,4,1:2:0:0:
45,290,75220,6,0,P|91:298|167:345,1,127.499992847443,4|0,1:0|0:0,0:0:0:0:
168,351,75584,2,0,B|163:292|163:292|154:281|154:281|148:223,2,127.499992847443,4|4|4,1:2|1:2|1:2,0:0:0:0:
268,376,76311,2,0,L|273:333,3,42.4999976158143,2|0|2|0,0:0|0:0|0:0|0:0,0:0:0:0:
305,306,76675,6,0,P|365:287|372:226,1,127.499992847443,4|0,1:0|3:0,0:0:0:0:
367,217,77039,2,0,B|425:222|425:222|430:229|430:229|496:235,2,127.499992847443,4|4|4,1:2|1:2|1:2,0:0:0:0:
486,313,77857,1,4,1:2:0:0:
482,153,78129,6,0,P|422:134|415:73,1,127.499992847443,4|0,1:2|3:0,0:0:0:0:
424,66,78493,2,0,L|329:62,1,84.9999952316285,4|0,1:2|3:0,0:0:0:0:
297,96,78766,6,0,B|222:89|263:148|183:138,1,127.499992847443,4|4,1:2|1:2,0:0:0:0:
92,59,79220,2,0,L|98:24,4,21.2499988079071,0|0|0|0|0,1:0|1:0|1:0|1:0|0:0,0:0:0:0:
44,152,79584,6,0,L|96:144,7,42.4999976158143,4|0|0|0|0|0|0|0,1:0|0:0|0:0|0:0|0:0|0:0|0:0|0:0,0:0:0:0:
129,212,80311,2,0,L|172:219,7,42.4999976158143,0|0|0|0|0|0|0|0,0:0|0:0|0:0|0:0|0:0|0:0|0:0|0:0,0:0:0:0:
255,197,81039,6,0,L|262:152,7,42.4999976158143,0|0|0|0|0|0|0|0,0:0|0:0|0:0|0:0|0:0|0:0|0:0|0:0,0:0:0:0:
333,226,81766,2,0,L|340:271,7,42.4999976158143,0|0|0|0|0|0|0|0,0:0|0:0|0:0|0:0|0:0|0:0|0:0|0:0,0:0:0:0:
399,164,82493,6,0,L|417:166,22,16.9999985275269,4|0|0|0|0|0|0|0|0|0|0|0|0|0|0|0|0|0|0|0|0|0|0,1:2|0:0|0:0|0:0|0:0|0:0|0:0|0:0|0:0|0:0|0:0|0:0|0:0|0:0|0:0|0:0|0:0|0:0|0:0|0:0|0:0|0:0|0:0,0:0:0:0:
475,114,83948,5,2,0:0:0:0:
329,140,84311,1,2,0:0:0:0:
379,0,84675,2,0,L|394:90,1,84.9999952316285,2|0,0:0|0:0,0:0:0:0:
428,245,85039,1,8,1:0:0:0:
231,344,85402,6,0,B|290:338|290:338|295:332|295:332|361:325,1,127.499992847443,4|0,1:2|0:0,0:0:0:0:
397,317,85766,2,0,P|426:285|427:240,1,84.9999952316285,0|2,1:0|0:0,0:0:0:0:
474,158,86129,2,0,P|461:116|422:93,1,84.9999952316285,0|2,1:0|0:0,0:0:0:0:
384,7,86493,1,0,1:0:0:0:
328,71,86675,1,0,1:0:0:0:
245,49,86857,6,0,P|163:46|78:86,1,169.999990463257,4|0,1:2|1:0,0:0:0:0:
24,194,87402,2,0,L|22:238,2,42.4999976158143,2|2|0,0:0|0:0|1:0,0:0:0:0:
106,170,87766,1,2,0:0:0:0:
129,262,87948,1,0,1:0:0:0:
129,262,88039,1,2,1:2:0:0:
129,262,88129,1,4,1:2:0:0:
206,226,88311,6,0,L|231:95,1,127.499992847443,4|0,1:0|0:0,0:0:0:0:
241,59,88675,2,0,P|277:21|326:22,1,84.9999952316285,0|2,1:0|0:0,0:0:0:0:
393,65,89039,2,0,P|444:77|467:120,1,84.9999952316285,0|2,1:0|0:0,0:0:0:0:
462,200,89402,1,0,1:0:0:0:
449,195,89493,1,2,0:0:0:0:
384,250,89675,1,2,0:0:0:0:
371,253,89766,5,0,1:0:0:0:
435,308,89948,1,2,0:1:0:0:
398,384,90129,2,0,B|388:368|388:368|320:359,1,84.9999952316285,4|2,1:2|0:1,0:0:0:0:
194,352,90493,2,0,B|184:368|184:368|116:377,1,84.9999952316285,4|2,1:2|0:1,0:0:0:0:
20,293,90857,1,0,1:0:0:0:
147,295,91039,1,0,1:0:0:0:
47,215,91220,6,0,P|19:177|10:87,1,127.499992847443,4|0,1:2|0:0,0:0:0:0:
14,56,91584,2,0,P|46:27|85:27,1,84.9999952316285,0|2,1:0|0:0,0:0:0:0:
160,93,91948,1,0,1:0:0:0:
252,61,92129,2,0,L|257:18,2,42.4999976158143,2|2|0,0:0|0:0|1:0,0:0:0:0:
315,135,92493,1,0,1:0:0:0:
223,167,92675,5,0,1:2:0:0:
225,175,92766,1,0,1:0:0:0:
227,183,92857,1,0,1:0:0:0:
229,191,92948,1,0,1:0:0:0:
231,199,93039,2,0,L|241:247,3,42.4999976158143,0|0|0|0,1:2|1:0|1:0|1:0,0:0:0:0:
222,279,93402,6,0,B|279:283|279:283|292:272|292:272|348:276,1,127.499992847443,4|4,1:2|1:2,0:0:0:0:
433,223,93857,1,2,1:3:0:0:
437,210,93948,1,2,1:3:0:0:
394,118,94129,6,0,B|366:98|366:98|266:115,1,127.499992847443,4|0,1:0|0:0,0:0:0:0:
225,130,94493,2,0,P|177:126|149:87,1,84.9999952316285,0|2,1:0|0:0,0:0:0:0:
130,5,94857,1,0,1:0:0:0:
42,46,95039,2,0,L|-15:38,2,42.4999976158143,2|2|0,0:0|0:0|1:0,0:0:0:0:
65,142,95402,1,2,0:0:0:0:
8,223,95584,6,0,B|11:265|11:265|55:300,1,84.9999952316285,0|0,1:2|3:0,0:0:0:0:
69,293,95857,2,0,B|123:285|123:285|130:295|130:295|201:284,2,127.499992847443,4|4|4,1:2|1:2|1:2,0:0:0:0:
159,202,96675,1,8,1:0:0:0:
330,384,97039,6,0,L|148:368,1,169.999990463257,4|0,1:2|1:0,0:0:0:0:
76,359,97584,1,2,0:0:0:0:
191,286,97766,2,0,P|224:249|220:172,1,127.499992847443,2|0,1:0|0:0,0:0:0:0:
187,136,98129,2,0,L|88:130,1,84.9999952316285,0|0,1:0|1:0,0:0:0:0:
28,55,98493,6,0,B|88:47|88:47|92:41|92:41|151:33,1,127.499992847443,4|2,1:2|0:0,0:0:0:0:
250,61,98948,1,2,0:0:0:0:
267,49,99039,2,0,L|395:33,1,127.499992847443,2|2,0:0|0:0,0:0:0:0:
512,125,99493,1,2,0:0:0:0:
500,122,99584,1,0,1:0:0:0:
487,119,99675,1,0,1:0:0:0:
475,115,99766,2,0,B|375:104|423:177|320:163,1,169.999990463257,2|0,0:3|1:0,0:0:0:0:
195,110,100311,5,12,1:0:0:0:
245,194,100493,1,2,0:0:0:0:
192,276,100675,2,0,P|139:280|104:246,1,84.9999952316285,0|2,1:0|0:0,0:0:0:0:
16,262,101039,2,0,P|-13:217|-2:171,1,84.9999952316285,0|2,1:0|0:0,0:0:0:0:
52,111,101402,5,0,1:0:0:0:
0,43,101584,1,2,0:3:0:0:
83,26,101766,2,0,B|89:37|89:37|165:44,1,84.9999952316285,0|0,1:0|0:0,0:0:0:0:
275,97,102129,2,0,B|281:85|281:85|357:78,1,84.9999952316285,0|0,1:0|0:0,0:0:0:0:
499,38,102493,1,2,1:3:0:0:
376,3,102675,1,0,1:0:0:0:
335,160,102857,6,0,P|325:221|321:305,1,127.499992847443,4|0,1:2|0:0,0:0:0:0:
311,304,103220,2,0,B|259:303|281:327|232:328,1,84.9999952316285,4|0,1:0|0:0,0:0:0:0:
167,261,103584,1,0,1:0:0:0:
91,364,103766,2,0,P|138:369|176:383,2,84.9999952316285,0|0|0,0:0|1:0|0:0,0:0:0:0:
7,380,104311,5,4,1:2:0:0:
167,261,104584,2,0,P|163:205|147:116,1,127.499992847443,0|0,0:0|0:0,0:0:0:0:
84,63,105039,2,0,L|0:56,1,84.9999952316285,4|0,1:2|0:0,0:0:0:0:
174,24,105402,2,0,L|274:32,1,84.9999952316285,4|0,1:2|0:0,0:0:0:0:
364,63,105766,5,4,1:0:0:0:
283,119,105948,2,0,B|277:186|277:186|299:215|299:215|292:289,1,169.999990463257,0|0,1:0|0:0,0:0:0:0:
280,378,106493,1,2,1:3:0:0:
396,331,106675,2,0,P|443:334|490:358,1,84.9999952316285,0|0,0:0|1:0,0:0:0:0:
493,247,107039,1,0,1:0:0:0:
493,247,107129,1,0,1:0:0:0:
493,247,107220,6,0,B|516:229|516:229|505:162|505:162|476:152,1,127.499992847443,4|4,1:2|1:2,0:0:0:0:
315,195,107766,1,4,1:2:0:0:
235,49,108039,1,4,1:2:0:0:
82,112,108311,2,0,P|66:164|58:227,1,101.999994277954,4|0,1:2|0:0,0:0:0:0:
60,232,108675,6,0,B|169:233|102:294|210:293,1,169.999990463257,4|0,1:0|1:0,0:0:0:0:
265,228,109220,1,2,0:0:0:0:
265,228,109311,1,0,0:0:0:0:
265,228,109402,2,0,P|325:227|419:172,1,169.999990463257,0|0,1:0|1:0,0:0:0:0:
462,265,109948,2,0,L|504:261,2,42.4999976158143,2|0|2,0:1|0:0|1:0,0:0:0:0:
488,339,110311,5,2,0:2:0:0:
390,307,110493,1,2,1:2:0:0:
291,332,110675,1,0,0:0:0:0:
291,332,110766,1,2,0:0:0:0:
291,332,110857,2,0,P|242:341|215:378,1,84.9999952316285,0|2,1:0|0:2,0:0:0:0:
79,383,111220,2,0,P|117:366|137:329,1,84.9999952316285,0|0,1:0|1:0,0:0:0:0:
194,245,111584,6,0,B|224:250|224:250|249:243|249:243|278:246,1,84.9999952316285,4|0,1:0|0:0,0:0:0:0:
131,186,111948,2,0,P|97:132|92:24,1,169.999990463257,2|0,1:0|1:0,0:0:0:0:
90,28,112493,2,0,L|6:14,2,84.9999952316285,2|0|2,0:0|1:0|0:0,0:0:0:0:
177,69,113039,5,4,1:2:0:0:
192,75,113129,1,2,0:0:0:0:
209,75,113220,1,0,0:0:0:0:
225,70,113311,1,0,0:0:0:0:
239,60,113402,2,0,L|251:8,2,42.4999976158143,4|0|0,1:2|0:0|1:0,0:0:0:0:
283,133,113766,5,4,1:2:0:0:
298,216,113948,1,4,1:2:0:0:
363,269,114129,6,0,P|389:279|412:280,1,42.4999976158143,4|0,1:2|0:0,0:0:0:0:
436,208,114311,2,0,P|456:202|475:192,1,42.4999976158143,4|0,1:2|0:0,0:0:0:0:
512,267,114493,6,0,L|498:98,1,169.999990463257,8|4,1:3|1:0,0:0:0:0:
444,33,115039,1,0,0:0:0:0:
444,33,115129,1,2,0:0:0:0:
444,33,115220,2,0,B|331:25|386:90|281:82,1,169.999990463257,0|0,1:0|1:0,0:0:0:0:
195,42,115766,2,0,L|190:-4,2,42.4999976158143,0|2|0,0:0|0:0|1:0,0:0:0:0:
117,33,116129,5,2,0:0:0:0:
166,122,116311,1,2,1:2:0:0:
134,219,116493,1,0,0:0:0:0:
134,219,116584,1,2,0:0:0:0:
134,219,116675,2,0,P|125:262|94:288,1,84.9999952316285,0|2,1:0|0:0,0:0:0:0:
0,169,117039,2,0,P|37:146|78:152,1,84.9999952316285,0|2,1:0|1:3,0:0:0:0:
134,219,117402,6,0,B|185:221|185:221|205:236|205:236|259:237,1,127.499992847443,0|0,1:0|0:0,0:0:0:0:
291,260,117765,2,0,L|300:174,1,84.9999952316285,4|0,1:2|0:0,0:0:0:0:
399,128,118129,6,0,L|406:108,4,21.2499988079071,4|0|0|0|2,1:2|0:0|0:0|0:0|0:0,0:0:0:0:
444,227,118493,2,0,L|428:212,4,21.2499988079071,4|0|0|0|2,1:2|0:0|0:0|0:0|0:0,0:0:0:0:
512,299,118857,6,0,L|418:309,1,84.9999952316285,4|0,1:0|1:0,0:0:0:0:
347,248,119220,2,0,P|324:311|270:327,2,127.499992847443,4|4|0,1:2|1:2|1:0,0:0:0:0:
317,160,119948,1,8,1:0:0:0:
317,160,120039,1,8,0:3:0:0:
317,160,120129,1,4,0:3:0:0:
243,229,120311,6,0,B|139:243|192:174|87:188,1,169.999990463257,4|0,1:0|1:0,0:0:0:0:
9,205,120857,1,2,0:0:0:0:
9,205,120948,1,0,0:0:0:0:
9,205,121039,2,0,P|56:191|118:86,1,169.999990463257,0|0,1:0|1:0,0:0:0:0:
206,43,121584,2,0,L|203:-3,2,42.4999976158143,2|0|2,0:1|0:0|1:0,0:0:0:0:
282,31,121948,5,2,0:0:0:0:
245,125,122129,1,2,1:2:0:0:
276,222,122311,1,0,0:0:0:0:
276,222,122402,1,2,0:0:0:0:
276,222,122493,2,0,P|306:246|357:250,1,84.9999952316285,0|2,1:0|0:0,0:0:0:0:
488,174,122857,2,0,P|446:177|412:203,1,84.9999952316285,0|0,1:0|1:0,0:0:0:0:
421,302,123220,6,0,B|428:331|428:331|423:356|423:356|429:385,1,84.9999952316285,4|0,1:0|0:0,0:0:0:0:
355,255,123584,2,0,P|302:219|194:210,1,169.999990463257,2|0,1:0|1:0,0:0:0:0:
198,208,124129,2,0,L|215:112,2,84.9999952316285,2|0|2,0:0|1:0|0:0,0:0:0:0:
146,287,124675,5,4,1:2:0:0:
129,287,124765,1,0,0:0:0:0:
114,293,124856,1,0,0:0:0:0:
101,304,124947,1,0,0:0:0:0:
92,319,125038,2,0,L|101:371,2,42.4999976158143,4|0|0,1:2|0:0|0:0,0:0:0:0:
180,381,125402,5,4,1:2:0:0:
263,366,125584,1,4,1:2:0:0:
316,301,125765,6,0,P|326:275|327:252,1,42.4999976158143,4|0,1:2|0:0,0:0:0:0:
385,210,125947,2,0,P|379:190|369:171,1,42.4999976158143,4|0,1:2|0:0,0:0:0:0:
435,131,126129,6,0,L|266:143,1,169.999990463257,8|4,1:3|1:0,0:0:0:0:
214,81,126675,1,2,0:0:0:0:
214,81,126766,1,0,0:0:0:0:
214,81,126857,2,0,B|109:68|160:139|58:124,1,169.999990463257,0|0,1:0|1:0,0:0:0:0:
25,220,127402,2,0,L|72:210,2,42.4999976158143,0|2|0,0:0|0:0|1:0,0:0:0:0:
59,290,127766,5,2,0:0:0:0:
145,235,127948,1,2,1:2:0:0:
250,271,128129,1,0,0:0:0:0:
250,271,128220,1,2,0:0:0:0:
250,271,128311,2,0,P|290:312|291:342,1,84.9999952316285,0|2,1:0|0:0,0:0:0:0:
162,384,128675,2,0,P|156:326|174:303,1,84.9999952316285,0|0,1:0|1:0,0:0:0:0:
250,271,129039,6,0,L|261:173,1,84.9999952316285,0|0,1:0|1:0,0:0:0:0:
332,142,129402,2,0,B|385:150|385:150|392:171|392:171|452:179,1,127.499992847443,0|0,1:0|1:0,0:0:0:0:
507,49,129948,5,0,1:0:0:0:
512,37,130039,1,2,1:3:0:0:
422,12,130220,1,2,1:3:0:0:
417,0,130311,1,0,1:0:0:0:
346,61,130493,5,0,1:0:0:0:
256,192,130675,12,0,131584,0:0:0:0:
28,84,143584,6,0,L|16:21,2,33.9999980926514,4|0|2,1:0|0:0|0:0,0:0:0:0:
36,103,143857,2,0,P|80:114|132:141,1,101.999994277954,2|0,0:0|0:0,0:0:0:0:
189,222,144311,2,0,L|177:285,2,33.9999980926514,2|0|2,0:0|0:0|0:0,0:0:0:0:
197,203,144584,2,0,P|241:192|292:166,1,101.999994277954,2|0,0:0|0:0,0:0:0:0:
347,93,145039,5,4,1:2:0:0:
426,233,145311,1,4,1:2:0:0:
291,166,145584,2,0,B|369:175|369:175|402:153|402:153|487:159,1,203.999988555908,4|8,1:2|1:0,0:0:0:0:
487,159,146493,6,0,L|492:117,2,33.9999980926514,4|0|2,1:0|0:0|0:0,0:0:0:0:
484,179,146766,2,0,P|428:174|375:143,1,101.999994277954,2|0,0:0|0:0,0:0:0:0:
319,229,147220,2,0,L|324:271,2,33.9999980926514,2|0|2,0:0|0:0|0:0,0:0:0:0:
316,209,147493,2,0,P|260:214|207:245,1,101.999994277954,2|0,0:0|0:0,0:0:0:0:
158,308,147948,5,4,1:2:0:0:
15,231,148220,1,4,1:2:0:0:
86,153,148403,1,2,0:0:0:0:
88,174,148493,2,0,B|97:252|97:252|75:285|75:285|81:370,1,203.999988555908,4|2,1:2|0:0,0:0:0:0:
81,370,149402,6,0,L|46:375,2,33.9999980926514,4|0|2,1:0|0:0|0:0,0:0:0:0:
107,366,149675,2,0,P|154:364|211:378,1,101.999994277954,2|0,0:0|0:0,0:0:0:0:
280,305,150129,2,0,L|245:300,2,33.9999980926514,2|0|2,0:0|0:0|0:0,0:0:0:0:
306,309,150402,2,0,P|353:311|410:297,1,101.999994277954,2|0,0:0|0:0,0:0:0:0:
460,219,150857,5,4,1:2:0:0:
414,375,151129,1,4,1:2:0:0:
280,305,151402,2,0,B|199:300|199:300|166:322|166:322|81:316,1,203.999988555908,4|8,1:2|1:0,0:0:0:0:
83,316,152311,6,0,P|72:354|72:384,2,67.9999961853028,4|0|2,1:2|0:0|0:0,0:0:0:0:
22,250,152857,2,0,P|17:191|-3:108,1,135.999992370606,4|2,1:2|0:0,0:0:0:0:
92,49,153402,2,0,P|85:83|83:116,1,67.9999961853028,4|2,1:2|0:0,0:0:0:0:
138,194,153766,6,0,B|242:217|345:154|331:71|256:26|179:70|175:154|272:218|375:196,1,475.99997329712,4|8,1:2|0:0,0:1:0:0:
428,116,155220,5,0,1:0:0:0:
428,116,155311,1,0,1:0:0:0:
428,116,155402,2,0,B|469:130|469:130|482:222,1,127.499992847443,4|0,1:2|0:0,0:0:0:0:
459,260,155766,2,0,L|412:268,1,42.4999976158143,0|0,1:0|1:0,0:0:0:0:
396,272,155948,1,4,1:2:0:0:
257,369,156311,2,0,L|303:374,2,42.4999976158143,2|0|2,1:2|3:0|1:2,0:0:0:0:
235,367,156584,2,0,P|193:356|159:331,1,84.9999952316285,0|0,0:0|0:0,0:0:0:0:
150,312,156857,6,0,B|179:269|179:269|170:182,1,127.499992847443,4|0,1:2|0:0,0:0:0:0:
191,146,157220,2,0,L|235:135,1,42.4999976158143,0|0,1:0|1:0,0:0:0:0:
253,130,157402,1,4,1:2:0:0:
94,69,157766,2,0,L|49:64,2,42.4999976158143,0|0|4,1:0|1:0|1:2,0:0:0:0:
94,69,158311,6,0,B|143:74|143:74|167:53|167:53|213:56,1,127.499992847443,4|4,1:2|1:2,0:1:0:0:
385,142,158857,1,4,1:2:0:0:
257,283,159129,2,0,P|292:237|307:169,1,127.499992847443,4|4,1:2|1:2,0:1:0:0:
296,81,159584,5,6,1:0:0:0:
385,249,159857,1,2,1:0:0:0:
213,165,160129,1,6,1:0:0:0:
401,131,160402,1,2,1:0:0:0:
268,269,160675,1,6,1:0:0:0:
138,125,161039,6,0,L|146:75,7,42.4999976158143,0|0|0|0|0|0|0|0,1:0|1:2|1:2|1:2|1:0|1:0|1:0|1:0,0:0:0:0:
67,163,161766,2,0,L|75:213,7,42.4999976158143,0|0|0|0|0|0|0|0,0:0|1:2|1:2|1:2|1:0|1:0|1:0|1:0,0:0:0:0:
8,108,162493,6,0,L|-14:104,14,21.2499988079071,0|0|0|0|0|0|0|0|0|0|0|0|0|0|0,0:0|1:0|1:0|1:0|1:0|1:0|1:0|1:0|1:0|1:0|1:0|1:0|1:0|1:0|1:0,0:0:0:0:
63,51,163220,2,0,L|85:47,14,21.2499988079071,0|0|0|0|0|0|0|0|0|0|0|0|0|0|0,0:0|1:0|1:0|1:0|1:0|1:0|1:0|1:0|1:0|1:0|1:0|1:0|1:0|1:0|1:0,0:0:0:0:
0,0,163948,5,4,1:0:0:0:
256,192,164129,12,0,166493,0:0:0:0:
204,239,166857,6,0,P|175:232|154:221,2,42.4999976158143,4|0|2,1:0|0:0|0:0,0:0:0:0:
225,241,167129,2,0,P|264:237|313:221,1,84.9999952316285,2|0,0:0|0:0,0:0:0:0:
347,190,167402,1,2,0:0:0:0:
433,254,167584,1,2,1:2:0:0:
433,254,167675,2,0,L|487:266,2,42.4999976158143,0|2|0,0:0|0:0|0:0,0:0:0:0:
362,294,167948,2,0,P|353:313|350:334,3,42.4999976158143,0|2|0|2,1:0|0:0|0:0|0:0,0:0:0:0:
437,337,168311,5,2,1:2:0:0:
437,337,168402,1,0,0:0:0:0:
437,337,168493,1,2,0:0:0:0:
285,372,168675,1,0,1:0:0:0:
272,376,168766,2,0,P|222:370|192:344,1,84.9999952316285,2|0,0:0|0:0,0:0:0:0:
187,298,169039,5,2,1:2:0:0:
190,264,169129,1,0,0:0:0:0:
177,232,169220,1,2,0:0:0:0:
146,217,169311,1,2,0:0:0:0:
111,217,169402,2,0,P|87:224|71:242,2,42.4999976158143,0|2|2,1:0|0:0|0:0,0:0:0:0:
177,140,169766,6,0,B|198:156|229:145|229:145|253:112|236:77,1,127.499992847443,6|0,1:0|0:0,0:0:0:0:
224,58,170129,2,2,B|281:53|281:53|298:62|298:62|348:57,2,127.499992847443,4|6|4,1:2|1:2|1:2,0:1:0:0:
314,149,170857,1,0,0:0:0:0:
439,114,171039,2,2,P|457:70|452:30,1,84.9999952316285,4|0,1:2|0:0,0:1:0:0:
453,33,171402,2,2,P|466:83|518:146,2,127.499992847443,4|4|4,1:2|1:2|1:2,0:1:0:0:
265,67,172311,6,2,P|246:65|222:57,1,42.4999976158143,4|0,1:2|0:0,0:1:0:0:
152,92,172493,2,2,P|138:78|123:58,1,42.4999976158143,4|0,1:2|0:0,0:1:0:0:
41,43,172675,6,0,P|37:20|39:-3,2,42.4999976158143,4|0|2,1:0|0:0|0:0,0:0:0:0:
45,63,172948,2,0,P|53:116|44:162,1,84.9999952316285,2|0,0:0|0:0,0:0:0:0:
30,194,173220,1,2,0:0:0:0:
121,240,173402,1,0,1:0:0:0:
121,240,173493,2,0,L|170:233,2,42.4999976158143,0|2|0,0:0|0:0|0:0,0:0:0:0:
58,290,173766,2,0,P|51:314|53:341,3,42.4999976158143,0|2|0|2,1:0|0:0|0:0|0:0,0:0:0:0:
138,325,174129,5,2,1:2:0:0:
138,325,174220,1,0,0:0:0:0:
138,325,174311,1,2,0:0:0:0:
247,257,174493,1,0,1:0:0:0:
259,256,174584,2,0,P|299:277|325:319,1,84.9999952316285,2|0,0:0|0:0,0:0:0:0:
333,359,174857,6,0,L|384:363,3,42.4999976158143,6|0|0|2,1:2|0:0|0:0|0:0,0:0:0:0:
251,357,175220,2,0,L|208:353,3,42.4999976158143,4|2|0|2,1:2|0:0|0:0|0:0,0:0:0:0:
298,290,175584,6,0,P|318:247|319:200,1,84.9999952316285,0|0,1:0|1:0,0:0:0:0:
278,116,175948,2,0,B|213:120|213:120|185:149|185:149|118:155,1,169.999990463257,0|0,1:0|1:0,0:0:0:0:
92,81,176493,2,0,P|49:50|37:11,1,84.9999952316285,0|4,1:0|3:0,0:0:0:0:
146,15,176857,1,0,0:0:0:0:
146,15,176948,1,4,0:3:0:0:
146,15,177039,5,4,1:2:0:0:
42,159,177311,1,4,1:2:0:0:
172,280,177584,1,4,1:2:0:0:
111,111,177857,1,4,1:2:0:0:
268,27,178129,1,8,1:0:0:0:
450,107,178493,6,0,P|479:114|500:125,2,42.4999976158143,4|0|2,1:0|0:0|0:0,0:0:0:0:
429,105,178765,2,0,P|390:109|341:125,1,84.9999952316285,2|0,0:0|0:0,0:0:0:0:
307,156,179038,1,2,0:0:0:0:
266,249,179220,1,2,1:2:0:0:
266,249,179311,2,0,L|254:303,2,42.4999976158143,0|2|0,0:0|0:0|0:0,0:0:0:0:
226,178,179584,2,0,P|207:169|186:166,3,42.4999976158143,0|2|0|2,1:2|0:0|0:0|0:0,0:0:0:0:
186,250,179947,5,2,1:2:0:0:
186,250,180038,1,0,0:0:0:0:
186,250,180129,1,2,0:0:0:0:
302,164,180311,1,0,1:0:0:0:
315,160,180402,2,0,P|365:166|395:192,1,84.9999952316285,2|0,0:0|0:0,0:0:0:0:
400,238,180675,5,2,1:2:0:0:
397,272,180765,1,0,0:0:0:0:
410,304,180856,1,2,0:0:0:0:
441,319,180947,1,2,0:0:0:0:
476,319,181038,2,0,P|500:312|516:294,2,42.4999976158143,0|2|2,1:0|0:0|1:2,0:0:0:0:
394,380,181402,6,0,B|361:389|330:380|330:380|310:353|267:346,1,127.499992847443,6|0,1:0|0:0,0:0:0:0:
258,357,181765,2,2,B|253:300|253:300|262:283|262:283|257:233,2,127.499992847443,4|4|4,1:2|1:2|1:2,0:1:0:0:
340,258,182493,1,0,0:0:0:0:
253,150,182675,2,2,P|209:132|169:137,1,84.9999952316285,4|0,1:2|0:0,0:1:0:0:
172,135,183038,2,2,P|222:122|285:70,2,127.499992847443,4|4|4,1:2|1:2|1:2,0:1:0:0:
89,113,183766,1,4,1:2:0:0:
18,161,183948,6,2,P|13:196|19:223,1,42.4999976158143,4|0,1:2|0:0,0:1:0:0:
83,240,184129,2,2,P|88:260|98:279,1,42.4999976158143,4|0,1:2|0:0,0:1:0:0:
52,345,184311,6,0,L|10:354,3,42.4999976158143,4|0|0|0,1:2|1:0|1:2|1:0,0:0:0:0:
134,355,184675,2,0,L|175:345,3,42.4999976158143,4|0|0|0,1:2|1:0|1:0|1:2,0:0:0:0:
221,274,185039,6,0,L|214:212,3,42.4999976158143,4|0|0|0,1:2|1:0|1:0|1:0,0:0:0:0:
297,313,185402,2,0,L|292:355,3,42.4999976158143,4|0|0|0,1:2|1:0|1:0|1:0,0:0:0:0:
333,242,185766,6,0,L|374:232,3,42.4999976158143,4|0|0|0,1:2|1:2|1:0|1:0,0:0:0:0:
496,232,186130,2,0,L|455:242,3,42.4999976158143,4|0|0|0,1:2|1:0|1:2|1:0,0:0:0:0:
405,304,186493,6,0,L|403:339,14,21.2499988079071,4|0|0|0|0|0|0|0|4|0|0|0|0|0|0,1:2|1:0|1:0|1:0|1:0|1:0|1:0|1:0|1:2|1:0|1:0|1:0|1:0|1:0|1:0,0:0:0:0:
408,223,187220,5,6,1:0:0:0:
408,223,187948,6,0,P|434:212|453:189,2,56.6666634877523,0|4|0,1:0|0:2|1:0,0:0:0:0:
328,193,188311,2,0,P|318:166|322:138,1,56.6666634877523,4|0,0:2|1:0,0:0:0:0:
404,116,188554,1,4,0:2:0:0:
362,41,188675,6,0,B|302:36|302:36|272:55|272:55|196:49,1,169.999990463257,6|4,1:0|1:2,0:0:0:0:
115,119,189220,2,2,B|88:92|88:92|108:4,2,127.499992847443,4|4|4,1:2|1:2|1:2,0:1:0:0:
62,306,190129,5,4,1:0:0:0:
256,192,190311,12,4,191584,1:0:0:0:
462,290,192675,5,8,1:0:0:0:
337,174,193039,6,0,B|267:160|292:208|214:194,1,127.499992847443,4|0,1:0|0:0,0:0:0:0:
195,189,193402,2,0,P|168:165|162:150,2,42.4999976158143,0|2|0,1:0|0:0|0:0,0:0:0:0:
242,279,193766,1,0,1:0:0:0:
242,279,193857,2,0,P|202:295|172:324,1,84.9999952316285,0|0,0:0|0:0,0:0:0:0:
159,373,194129,1,0,1:0:0:0:
19,344,194311,2,0,L|62:338,2,42.4999976158143,2|2|0,0:0|0:0|1:0,0:0:0:0:
80,249,194675,5,2,0:0:0:0:
186,333,194857,2,0,P|194:354|200:384,3,42.4999976158143,0|2|2|2,1:0|0:0|0:1|0:0,0:0:0:0:
272,348,195220,1,0,1:0:0:0:
290,371,195311,1,2,0:0:0:0:
318,378,195402,1,2,0:1:0:0:
347,372,195493,1,2,0:0:0:0:
370,353,195584,2,0,B|369:315|369:315|361:306|361:306|360:270,1,84.9999952316285,0|0,1:0|1:1,0:0:0:0:
455,158,195948,6,0,B|449:215|449:215|475:254|475:254|467:319,1,169.999990463257,4|0,1:0|1:0,0:0:0:0:
467,340,196402,2,0,L|504:372,2,42.4999976158143,2|2|2,0:0|0:1|0:1,0:0:0:0:
393,291,196675,1,0,1:0:0:0:
393,291,196766,2,2,L|356:323,2,42.4999976158143,2|2|2,0:0|0:0|0:0,0:1:0:0:
463,241,197039,2,2,L|454:157,1,84.9999952316285,0|0,1:0|1:0,0:1:0:0:
443,76,197402,5,4,1:2:0:0:
334,172,197584,1,4,1:2:0:0:
314,15,197766,1,4,1:2:0:0:
359,87,197947,5,2,0:0:0:0:
339,96,198038,2,0,P|290:98|234:47,1,127.499992847443,6|4,1:2|1:0,0:0:0:0:
233,31,198402,2,0,B|180:26|180:26|162:39|162:39|91:33,1,127.499992847443,2|4,0:3|1:0,0:0:0:0:
1,84,198857,2,0,L|11:40,2,42.4999976158143,0|0|0,0:0|0:0|0:0,0:0:0:0:
62,195,199220,5,4,1:2:0:0:
62,195,199311,1,0,1:0:0:0:
62,195,199402,1,0,1:0:0:0:
163,183,199584,1,4,1:2:0:0:
163,183,199675,2,0,P|194:217|200:262,1,84.9999952316285,0|0,1:0|1:0,0:0:0:0:
169,295,199948,1,4,1:2:0:0:
270,292,200129,1,0,1:0:0:0:
355,347,200311,5,4,1:2:0:0:
383,355,200402,1,2,1:2:0:0:
411,346,200493,1,0,1:0:0:0:
431,324,200584,1,2,1:2:0:0:
436,294,200675,2,0,P|433:264|422:237,3,42.4999976158143,4|2|0|0,1:2|1:2|1:0|1:0,0:0:0:0:
470,188,201039,6,0,L|515:193,3,42.4999976158143,4|2|0|0,1:2|1:2|1:0|1:0,0:0:0:0:
403,139,201402,2,0,L|358:144,3,42.4999976158143,6|2|2|2,1:2|1:2|1:2|1:2,0:0:0:0:
463,83,201766,6,0,L|466:60,30,21.2499988079071,0|0|0|0|0|0|0|0|0|0|0|0|0|0|0|0|0|0|0|0|0|0|0|0|0|0|0|0|0|0|0,3:0|3:0|3:0|3:0|3:0|3:0|3:0|3:0|3:0|3:0|3:0|3:0|3:0|3:0|3:0|3:0|3:0|0:0|3:0|0:0|3:0|0:0|3:0|3:0|3:0|3:0|3:0|3:0|3:0|3:0|3:0,0:0:0:0:
400,19,203220,6,0,B|367:8|367:8|386:107,1,127.499992847443,4|4,1:2|1:2,0:0:0:0:
266,241,203766,2,0,B|233:252|233:252|252:153,1,127.499992847443,4|4,1:2|1:2,0:0:0:0:
145,14,204311,2,0,P|95:21|50:45,1,101.999994277954,4|0,1:2|0:0,0:0:0:0:
35,63,204675,6,0,B|235:46|85:307|419:307|268:46|468:65,1,552.499969005585,4|4,1:1|0:1,0:0:0:0:
256,192,207584,12,4,210493,1:0:0:0:
171,192,210675,6,0,L|339:192,1,165.749985643387,0|4,1:0|1:2,1:0:0:0:
256,270,213220,5,4,1:2:0:0:
