osu file format v14

[General]
AudioFilename: audio.mp3
AudioLeadIn: 0
PreviewTime: 75466
Countdown: 0
SampleSet: Soft
StackLeniency: 0.7
Mode: 3
LetterboxInBreaks: 0
SpecialStyle: 0
WidescreenStoryboard: 1

[Editor]
Bookmarks: 0,12331,23302,34285,45245,56228,67188,78171,89131,100113,111074,113828,124788,135771,146731,157713,168674,179656,190628,201588,212571,223531,234513,245474
DistanceSpacing: 1.1
BeatDivisor: 4
GridSize: 32
TimelineZoom: 1.7

[Metadata]
Title:Labyrinth
TitleUnicode:Labyrinth
Artist:lapix
ArtistUnicode:lapix
Creator:Kamuy
Version:capo (insane)
Source:
Tags:psystyle nation drumstep dnb m3-39 electronic instrumental BZRN-001 bizzare megarex
BeatmapID:2702502
BeatmapSetID:1125388

[Difficulty]
HPDrainRate:7.7
CircleSize:4
OverallDifficulty:6.9
ApproachRate:5
SliderMultiplier:1.4
SliderTickRate:1

[Events]
//Background and Video events
0,0,"EN_GWSCUwAEZnj0.png",0,0
//Break Periods
//Storyboard Layer 0 (Background)
//Storyboard Layer 1 (Fail)
//Storyboard Layer 2 (Pass)
//Storyboard Layer 3 (Foreground)
//Storyboard Layer 4 (Overlay)
//Storyboard Sound Samples

[TimingPoints]
38,342.857142857143,4,2,1,20,1,0
1409,-100,4,2,1,50,0,0
12380,-100,4,2,1,60,0,0
28838,-100,4,2,1,65,0,0
34323,-100,4,2,1,55,0,0
56780,-100,4,2,1,45,0,0
61238,-100,4,2,1,55,0,0
62266,-100,4,2,1,45,0,0
67238,-100,4,2,1,50,0,0
76838,-100,4,2,1,65,0,0
78209,-100,4,2,1,75,0,1
111123,-100,4,2,1,60,0,0
113866,-100,4,2,1,70,0,0
123466,-100,4,2,1,60,0,0
124838,-100,4,2,1,70,0,0
134438,-100,4,2,1,50,0,0
135809,-100,4,2,1,55,0,0
179695,-100,4,2,1,50,0,0
189295,-100,4,2,1,65,0,0
190666,-100,4,2,1,75,0,1
234552,-100,4,2,1,75,0,0
234723,-100,4,2,1,50,0,0

[HitObjects]
192,192,895,128,0,1066:0:0:0:0:
320,192,980,128,0,1152:0:0:0:0:
448,192,1066,128,0,1409:0:0:0:0:
320,192,1238,128,0,1409:0:0:0:0:
192,192,1409,1,0,0:0:0:0:
64,192,1409,1,0,0:0:0:0:
448,192,1580,1,0,0:0:0:0:
320,192,1752,1,0,0:0:0:0:
192,192,1923,1,0,0:0:0:0:
192,192,2095,1,0,0:0:0:0:
192,192,2266,1,0,0:0:0:0:
192,192,2352,1,0,0:0:0:0:
192,192,2609,1,0,0:0:0:0:
64,192,2952,1,0,0:0:0:0:
448,192,3123,1,0,0:0:0:0:
192,192,3295,1,0,0:0:0:0:
320,192,3466,1,0,0:0:0:0:
448,192,3638,1,0,0:0:0:0:
192,192,3809,1,0,0:0:0:0:
64,192,3980,1,0,0:0:0:0:
192,192,4152,1,0,0:0:0:0:
448,192,4323,1,0,0:0:0:0:
320,192,4495,1,0,0:0:0:0:
192,192,4666,1,0,0:0:0:0:
192,192,4838,1,0,0:0:0:0:
192,192,5009,1,0,0:0:0:0:
192,192,5095,1,0,0:0:0:0:
192,192,5352,1,0,0:0:0:0:
64,192,5695,128,0,5866:0:0:0:0:
320,192,5723,128,0,5866:0:0:0:0:
448,192,5866,128,0,5952:0:0:0:0:
448,192,6038,128,0,6095:0:0:0:0:
64,192,6209,128,0,6380:0:0:0:0:
320,192,6238,128,0,6380:0:0:0:0:
448,192,6380,128,0,6466:0:0:0:0:
192,192,6466,128,0,6895:0:0:0:0:
448,192,6552,128,0,6895:0:0:0:0:
64,192,6895,128,0,7066:0:0:0:0:
320,192,6923,128,0,7066:0:0:0:0:
448,192,7066,1,0,0:0:0:0:
320,192,7238,1,0,0:0:0:0:
192,192,7409,1,0,0:0:0:0:
448,192,7580,1,0,0:0:0:0:
320,192,7666,1,0,0:0:0:0:
192,192,7752,1,0,0:0:0:0:
64,192,7838,1,0,0:0:0:0:
448,192,8095,1,0,0:0:0:0:
320,192,8180,1,0,0:0:0:0:
192,192,8266,1,0,0:0:0:0:
64,192,8352,1,0,0:0:0:0:
320,192,8438,128,0,8523:0:0:0:0:
448,192,8609,1,0,0:0:0:0:
320,192,8695,128,0,8752:0:0:0:0:
192,192,8780,128,0,8838:0:0:0:0:
64,192,8866,1,0,0:0:0:0:
320,192,8952,128,0,9080:0:0:0:0:
448,192,9123,1,0,0:0:0:0:
320,192,9209,128,0,9338:0:0:0:0:
192,192,9295,1,0,0:0:0:0:
64,192,9380,1,0,0:0:0:0:
320,192,9466,128,0,9552:0:0:0:0:
448,192,9638,1,0,0:0:0:0:
64,192,9666,1,0,0:0:0:0:
320,192,9723,1,0,0:0:0:0:
192,192,9809,1,0,0:0:0:0:
64,192,9895,1,0,0:0:0:0:
320,192,9980,1,0,0:0:0:0:
448,192,10152,1,0,0:0:0:0:
320,192,10238,1,0,0:0:0:0:
192,192,10323,1,0,0:0:0:0:
64,192,10409,1,0,0:0:0:0:
192,192,10495,1,0,0:0:0:0:
192,192,10580,1,0,0:0:0:0:
192,192,10838,1,0,0:0:0:0:
64,192,11180,128,0,11352:0:0:0:0:
320,192,11209,128,0,11352:0:0:0:0:
448,192,11352,128,0,11438:0:0:0:0:
448,192,11523,128,0,11580:0:0:0:0:
64,192,11695,128,0,11866:0:0:0:0:
320,192,11723,128,0,11866:0:0:0:0:
448,192,11866,128,0,11952:0:0:0:0:
192,192,11952,128,0,12038:0:0:0:0:
448,192,12038,128,0,12380:0:0:0:0:
192,192,12380,1,0,0:0:0:0:
64,192,12380,1,0,0:0:0:0:
448,192,12552,1,0,0:0:0:0:
320,192,12638,1,0,0:0:0:0:
192,192,12638,1,0,0:0:0:0:
64,192,12723,1,0,0:0:0:0:
448,192,12723,1,0,0:0:0:0:
192,192,12895,1,0,0:0:0:0:
64,192,12895,1,0,0:0:0:0:
448,192,12980,1,0,0:0:0:0:
192,192,12980,1,0,0:0:0:0:
320,192,13066,1,0,0:0:0:0:
448,192,13066,1,0,0:0:0:0:
64,192,13238,1,0,0:0:0:0:
192,192,13323,1,0,0:0:0:0:
320,192,13323,1,0,0:0:0:0:
448,192,13409,1,0,0:0:0:0:
64,192,13409,1,0,0:0:0:0:
448,192,13580,1,0,0:0:0:0:
448,192,13666,1,0,0:0:0:0:
192,192,13752,1,0,0:0:0:0:
64,192,13752,1,0,0:0:0:0:
64,192,13923,1,0,0:0:0:0:
320,192,14009,1,0,0:0:0:0:
192,192,14009,1,0,0:0:0:0:
64,192,14095,1,0,0:0:0:0:
448,192,14095,1,0,0:0:0:0:
320,192,14266,1,0,0:0:0:0:
448,192,14266,1,0,0:0:0:0:
320,192,14352,1,0,0:0:0:0:
64,192,14352,1,0,0:0:0:0:
192,192,14438,1,0,0:0:0:0:
64,192,14438,1,0,0:0:0:0:
448,192,14609,1,0,0:0:0:0:
320,192,14695,1,0,0:0:0:0:
192,192,14695,1,0,0:0:0:0:
64,192,14780,1,0,0:0:0:0:
448,192,14780,1,0,0:0:0:0:
64,192,14952,1,0,0:0:0:0:
64,192,15038,1,0,0:0:0:0:
320,192,15123,1,0,0:0:0:0:
448,192,15123,1,0,0:0:0:0:
192,192,15209,1,0,0:0:0:0:
64,192,15209,1,0,0:0:0:0:
448,192,15295,1,0,0:0:0:0:
320,192,15380,1,0,0:0:0:0:
192,192,15380,1,0,0:0:0:0:
64,192,15466,1,0,0:0:0:0:
448,192,15466,1,0,0:0:0:0:
192,192,15638,1,0,0:0:0:0:
64,192,15638,1,0,0:0:0:0:
192,192,15723,1,0,0:0:0:0:
448,192,15723,1,0,0:0:0:0:
320,192,15809,1,0,0:0:0:0:
448,192,15809,1,0,0:0:0:0:
64,192,15980,1,0,0:0:0:0:
320,192,16066,1,0,0:0:0:0:
192,192,16066,1,0,0:0:0:0:
448,192,16152,1,0,0:0:0:0:
64,192,16152,1,0,0:0:0:0:
448,192,16323,1,0,0:0:0:0:
448,192,16409,1,0,0:0:0:0:
192,192,16495,1,0,0:0:0:0:
64,192,16495,1,0,0:0:0:0:
64,192,16666,1,0,0:0:0:0:
448,192,16695,1,0,0:0:0:0:
320,192,16752,1,0,0:0:0:0:
192,192,16752,1,0,0:0:0:0:
64,192,16838,1,0,0:0:0:0:
448,192,16838,1,0,0:0:0:0:
320,192,17009,1,0,0:0:0:0:
448,192,17009,1,0,0:0:0:0:
320,192,17095,1,0,0:0:0:0:
64,192,17095,1,0,0:0:0:0:
192,192,17180,1,0,0:0:0:0:
64,192,17180,1,0,0:0:0:0:
448,192,17352,1,0,0:0:0:0:
192,192,17438,1,0,0:0:0:0:
320,192,17438,1,0,0:0:0:0:
448,192,17523,1,0,0:0:0:0:
64,192,17523,1,0,0:0:0:0:
192,192,17609,1,0,0:0:0:0:
448,192,17695,1,0,0:0:0:0:
448,192,17780,1,0,0:0:0:0:
192,192,17866,1,0,0:0:0:0:
64,192,17866,1,0,0:0:0:0:
448,192,18038,1,0,0:0:0:0:
320,192,18123,1,0,0:0:0:0:
192,192,18123,1,0,0:0:0:0:
64,192,18209,1,0,0:0:0:0:
448,192,18209,1,0,0:0:0:0:
192,192,18380,1,0,0:0:0:0:
64,192,18380,1,0,0:0:0:0:
192,192,18466,1,0,0:0:0:0:
448,192,18466,1,0,0:0:0:0:
448,192,18552,1,0,0:0:0:0:
64,192,18552,1,0,0:0:0:0:
320,192,18638,1,0,0:0:0:0:
192,192,18723,1,0,0:0:0:0:
64,192,18809,1,0,0:0:0:0:
448,192,18809,1,0,0:0:0:0:
320,192,18895,1,0,0:0:0:0:
192,192,18895,1,0,0:0:0:0:
448,192,19066,1,0,0:0:0:0:
448,192,19152,1,0,0:0:0:0:
192,192,19238,1,0,0:0:0:0:
320,192,19238,1,0,0:0:0:0:
64,192,19323,1,0,0:0:0:0:
320,192,19409,1,0,0:0:0:0:
192,192,19495,1,0,0:0:0:0:
64,192,19495,1,0,0:0:0:0:
448,192,19580,1,0,0:0:0:0:
320,192,19580,1,0,0:0:0:0:
192,192,19666,1,0,0:0:0:0:
64,192,19752,1,0,0:0:0:0:
192,192,19838,1,0,0:0:0:0:
320,192,19923,1,0,0:0:0:0:
448,192,19923,1,0,0:0:0:0:
64,192,20009,1,0,0:0:0:0:
448,192,20095,1,0,0:0:0:0:
320,192,20180,1,0,0:0:0:0:
64,192,20180,1,0,0:0:0:0:
192,192,20266,1,0,0:0:0:0:
448,192,20266,1,0,0:0:0:0:
64,192,20352,1,0,0:0:0:0:
448,192,20438,1,0,0:0:0:0:
448,192,20523,1,0,0:0:0:0:
192,192,20609,1,0,0:0:0:0:
64,192,20609,1,0,0:0:0:0:
320,192,20695,1,0,0:0:0:0:
448,192,20695,1,0,0:0:0:0:
64,192,20780,1,0,0:0:0:0:
192,192,20866,1,0,0:0:0:0:
320,192,20866,1,0,0:0:0:0:
448,192,20952,1,0,0:0:0:0:
64,192,20952,1,0,0:0:0:0:
320,192,21123,1,0,0:0:0:0:
448,192,21123,1,0,0:0:0:0:
320,192,21209,1,0,0:0:0:0:
64,192,21209,1,0,0:0:0:0:
192,192,21295,1,0,0:0:0:0:
64,192,21295,1,0,0:0:0:0:
448,192,21466,1,0,0:0:0:0:
320,192,21552,1,0,0:0:0:0:
192,192,21552,1,0,0:0:0:0:
64,192,21638,1,0,0:0:0:0:
448,192,21638,1,0,0:0:0:0:
64,192,21809,1,0,0:0:0:0:
64,192,21895,1,0,0:0:0:0:
320,192,21980,1,0,0:0:0:0:
448,192,21980,1,0,0:0:0:0:
64,192,22152,1,0,0:0:0:0:
448,192,22180,1,0,0:0:0:0:
320,192,22238,1,0,0:0:0:0:
192,192,22238,1,0,0:0:0:0:
64,192,22323,1,0,0:0:0:0:
448,192,22323,1,0,0:0:0:0:
320,192,22495,1,0,0:0:0:0:
448,192,22495,1,0,0:0:0:0:
320,192,22580,1,0,0:0:0:0:
64,192,22580,1,0,0:0:0:0:
192,192,22666,1,0,0:0:0:0:
64,192,22666,1,0,0:0:0:0:
448,192,22838,1,0,0:0:0:0:
192,192,22923,1,0,0:0:0:0:
320,192,22923,1,0,0:0:0:0:
448,192,23009,1,0,0:0:0:0:
64,192,23009,1,0,0:0:0:0:
192,192,23095,1,0,0:0:0:0:
448,192,23180,1,0,0:0:0:0:
448,192,23266,1,0,0:0:0:0:
64,192,23352,128,0,23609:0:0:0:0:
192,192,23380,1,0,0:0:0:0:
320,192,23523,1,0,0:0:0:0:
448,192,23523,1,0,0:0:0:0:
64,192,23695,128,0,23952:0:0:0:0:
192,192,23695,1,0,0:0:0:0:
320,192,23866,1,0,0:0:0:0:
448,192,23866,1,0,0:0:0:0:
192,192,24038,128,0,24295:0:0:0:0:
64,192,24038,1,0,0:0:0:0:
320,192,24209,1,0,0:0:0:0:
448,192,24209,1,0,0:0:0:0:
192,192,24380,128,0,24638:0:0:0:0:
64,192,24380,1,0,0:0:0:0:
320,192,24552,1,0,0:0:0:0:
448,192,24552,1,0,0:0:0:0:
448,192,24638,1,0,0:0:0:0:
192,192,24723,1,0,0:0:0:0:
320,192,24723,128,0,24980:0:0:0:0:
192,192,24895,1,0,0:0:0:0:
64,192,24895,1,0,0:0:0:0:
64,192,25066,1,0,0:0:0:0:
320,192,25066,128,0,25323:0:0:0:0:
192,192,25238,1,0,0:0:0:0:
64,192,25238,1,0,0:0:0:0:
320,192,25409,1,0,0:0:0:0:
448,192,25409,128,0,25666:0:0:0:0:
192,192,25580,1,0,0:0:0:0:
64,192,25580,1,0,0:0:0:0:
64,192,25752,1,0,0:0:0:0:
448,192,25752,128,0,26009:0:0:0:0:
320,192,25923,1,0,0:0:0:0:
192,192,25923,1,0,0:0:0:0:
192,192,26009,1,0,0:0:0:0:
320,192,26095,128,0,26352:0:0:0:0:
448,192,26123,1,0,0:0:0:0:
64,192,26266,1,0,0:0:0:0:
192,192,26266,1,0,0:0:0:0:
320,192,26438,128,0,26695:0:0:0:0:
448,192,26438,1,0,0:0:0:0:
192,192,26609,1,0,0:0:0:0:
64,192,26609,1,0,0:0:0:0:
192,192,26780,128,0,27038:0:0:0:0:
320,192,26780,1,0,0:0:0:0:
320,192,26952,1,0,0:0:0:0:
448,192,26952,1,0,0:0:0:0:
192,192,27123,128,0,27380:0:0:0:0:
64,192,27123,1,0,0:0:0:0:
320,192,27295,1,0,0:0:0:0:
448,192,27295,1,0,0:0:0:0:
320,192,27380,1,0,0:0:0:0:
192,192,27466,1,0,0:0:0:0:
64,192,27466,128,0,27723:0:0:0:0:
448,192,27638,1,0,0:0:0:0:
320,192,27666,1,0,0:0:0:0:
64,192,27809,128,0,28066:0:0:0:0:
192,192,27809,1,0,0:0:0:0:
320,192,27980,1,0,0:0:0:0:
448,192,27980,1,0,0:0:0:0:
192,192,28152,128,0,28409:0:0:0:0:
64,192,28180,1,0,0:0:0:0:
448,192,28323,1,0,0:0:0:0:
320,192,28323,1,0,0:0:0:0:
192,192,28495,128,0,28752:0:0:0:0:
64,192,28495,1,0,0:0:0:0:
320,192,28666,1,0,0:0:0:0:
448,192,28666,1,0,0:0:0:0:
448,192,28752,1,0,0:0:0:0:
320,192,28838,128,0,29095:0:0:0:0:
192,192,28866,1,0,0:0:0:0:
64,192,28923,1,0,0:0:0:0:
448,192,29009,1,0,0:0:0:0:
192,192,29095,1,0,0:0:0:0:
320,192,29180,128,0,29438:0:0:0:0:
64,192,29180,1,0,0:0:0:0:
448,192,29266,1,0,0:0:0:0:
192,192,29352,1,0,0:0:0:0:
64,192,29438,1,0,0:0:0:0:
448,192,29523,128,0,29780:0:0:0:0:
320,192,29523,1,0,0:0:0:0:
192,192,29609,1,0,0:0:0:0:
64,192,29695,1,0,0:0:0:0:
320,192,29780,1,0,0:0:0:0:
448,192,29866,128,0,30123:0:0:0:0:
192,192,29866,1,0,0:0:0:0:
64,192,29952,1,0,0:0:0:0:
320,192,30038,1,0,0:0:0:0:
192,192,30123,1,0,0:0:0:0:
320,192,30209,128,0,30466:0:0:0:0:
448,192,30209,1,0,0:0:0:0:
64,192,30295,1,0,0:0:0:0:
192,192,30380,1,0,0:0:0:0:
448,192,30466,1,0,0:0:0:0:
320,192,30552,128,0,30809:0:0:0:0:
64,192,30552,1,0,0:0:0:0:
448,192,30638,1,0,0:0:0:0:
192,192,30723,1,0,0:0:0:0:
64,192,30809,1,0,0:0:0:0:
192,192,30895,128,0,31152:0:0:0:0:
448,192,30980,1,0,0:0:0:0:
320,192,31066,1,0,0:0:0:0:
64,192,31152,1,0,0:0:0:0:
192,192,31238,128,0,31495:0:0:0:0:
448,192,31238,1,0,0:0:0:0:
320,192,31323,1,0,0:0:0:0:
64,192,31409,1,0,0:0:0:0:
320,192,31495,1,0,0:0:0:0:
64,192,31580,128,0,31838:0:0:0:0:
192,192,31580,1,0,0:0:0:0:
448,192,31666,1,0,0:0:0:0:
320,192,31752,1,0,0:0:0:0:
192,192,31838,1,0,0:0:0:0:
64,192,31923,128,0,32180:0:0:0:0:
448,192,31923,1,0,0:0:0:0:
192,192,32009,1,0,0:0:0:0:
320,192,32095,1,0,0:0:0:0:
320,192,32180,1,0,0:0:0:0:
448,192,32266,128,0,32523:0:0:0:0:
64,192,32266,1,0,0:0:0:0:
192,192,32352,1,0,0:0:0:0:
320,192,32438,1,0,0:0:0:0:
192,192,32523,1,0,0:0:0:0:
448,192,32609,128,0,32866:0:0:0:0:
64,192,32609,1,0,0:0:0:0:
320,192,32695,1,0,0:0:0:0:
192,192,32780,1,0,0:0:0:0:
192,192,32866,1,0,0:0:0:0:
448,192,32952,1,0,0:0:0:0:
64,192,32952,1,0,0:0:0:0:
192,192,33638,1,0,0:0:0:0:
448,192,33638,1,0,0:0:0:0:
448,192,33723,1,0,0:0:0:0:
64,192,33809,1,0,0:0:0:0:
320,192,33809,1,0,0:0:0:0:
192,192,33895,1,0,0:0:0:0:
320,192,33980,1,0,0:0:0:0:
64,192,33980,1,0,0:0:0:0:
192,192,34066,1,0,0:0:0:0:
320,192,34152,1,0,0:0:0:0:
448,192,34152,1,0,0:0:0:0:
192,192,34238,1,0,0:0:0:0:
64,192,34238,1,0,0:0:0:0:
64,192,34323,128,0,34838:0:0:0:0:
192,192,34323,128,0,34923:0:0:0:0:
320,192,34323,1,0,0:0:0:0:
64,192,35009,128,0,35609:0:0:0:0:
192,192,35052,128,0,35566:0:0:0:0:
320,192,35095,128,0,35523:0:0:0:0:
448,192,35180,128,0,35480:0:0:0:0:
192,192,35695,128,0,36209:0:0:0:0:
320,192,35695,128,0,36295:0:0:0:0:
448,192,35695,1,0,0:0:0:0:
64,192,36380,128,0,36980:0:0:0:0:
320,192,36423,128,0,36938:0:0:0:0:
448,192,36466,128,0,36895:0:0:0:0:
192,192,36552,128,0,36852:0:0:0:0:
320,192,37066,128,0,37580:0:0:0:0:
448,192,37066,128,0,37666:0:0:0:0:
192,192,37066,1,0,0:0:0:0:
192,192,37752,128,0,38352:0:0:0:0:
320,192,37795,128,0,38309:0:0:0:0:
448,192,37838,128,0,38266:0:0:0:0:
64,192,37923,128,0,38223:0:0:0:0:
320,192,38438,128,0,38523:0:0:0:0:
448,192,38438,128,0,38566:0:0:0:0:
64,192,38438,128,0,38609:0:0:0:0:
192,192,38780,128,0,38866:0:0:0:0:
448,192,38780,128,0,38909:0:0:0:0:
64,192,38780,128,0,38952:0:0:0:0:
192,192,39123,128,0,39209:0:0:0:0:
320,192,39123,128,0,39252:0:0:0:0:
448,192,39123,128,0,39295:0:0:0:0:
64,192,39466,128,0,39552:0:0:0:0:
320,192,39466,128,0,39595:0:0:0:0:
192,192,39466,128,0,39638:0:0:0:0:
64,192,39809,128,0,40323:0:0:0:0:
192,192,39809,128,0,40409:0:0:0:0:
448,192,39809,1,0,0:0:0:0:
64,192,40495,128,0,41095:0:0:0:0:
192,192,40538,128,0,41052:0:0:0:0:
320,192,40580,128,0,41009:0:0:0:0:
448,192,40666,128,0,40966:0:0:0:0:
192,192,41180,128,0,41695:0:0:0:0:
320,192,41180,128,0,41780:0:0:0:0:
448,192,41180,1,0,0:0:0:0:
64,192,41866,128,0,42466:0:0:0:0:
320,192,41909,128,0,42423:0:0:0:0:
448,192,41952,128,0,42380:0:0:0:0:
192,192,42038,128,0,42338:0:0:0:0:
320,192,42552,128,0,43323:0:0:0:0:
192,192,42552,1,0,0:0:0:0:
448,192,42552,128,0,43838:0:0:0:0:
320,192,43409,128,0,43923:0:0:0:0:
192,192,43752,128,0,44009:0:0:0:0:
448,192,43923,128,0,44352:0:0:0:0:
320,192,44009,128,0,44266:0:0:0:0:
192,192,44095,128,0,44438:0:0:0:0:
64,192,44180,128,0,44609:0:0:0:0:
448,192,44438,128,0,44695:0:0:0:0:
320,192,44523,128,0,44780:0:0:0:0:
192,192,44609,128,0,44866:0:0:0:0:
64,192,44695,128,0,45038:0:0:0:0:
448,192,44780,128,0,45038:0:0:0:0:
192,192,44952,128,0,45123:0:0:0:0:
320,192,45038,128,0,45209:0:0:0:0:
448,192,45123,128,0,45295:0:0:0:0:
64,192,45295,128,0,45809:0:0:0:0:
192,192,45295,128,0,45895:0:0:0:0:
320,192,45295,1,0,0:0:0:0:
64,192,45980,128,0,46495:0:0:0:0:
192,192,46023,128,0,46409:0:0:0:0:
320,192,46066,128,0,46323:0:0:0:0:
448,192,46152,128,0,46238:0:0:0:0:
448,192,46323,1,0,0:0:0:0:
320,192,46409,1,0,0:0:0:0:
192,192,46495,1,0,0:0:0:0:
64,192,46580,1,0,0:0:0:0:
192,192,46666,128,0,47180:0:0:0:0:
320,192,46666,128,0,47266:0:0:0:0:
448,192,46666,1,0,0:0:0:0:
64,192,47352,128,0,47866:0:0:0:0:
320,192,47395,128,0,47780:0:0:0:0:
448,192,47438,128,0,47695:0:0:0:0:
192,192,47523,128,0,47609:0:0:0:0:
192,192,47695,1,0,0:0:0:0:
448,192,47780,1,0,0:0:0:0:
320,192,47866,1,0,0:0:0:0:
64,192,47952,1,0,0:0:0:0:
320,192,48038,128,0,48552:0:0:0:0:
448,192,48038,128,0,48638:0:0:0:0:
192,192,48038,1,0,0:0:0:0:
192,192,48723,128,0,49238:0:0:0:0:
320,192,48766,128,0,49152:0:0:0:0:
448,192,48809,128,0,49066:0:0:0:0:
64,192,48895,128,0,48980:0:0:0:0:
64,192,49066,1,0,0:0:0:0:
448,192,49152,1,0,0:0:0:0:
320,192,49238,1,0,0:0:0:0:
192,192,49323,1,0,0:0:0:0:
320,192,49409,128,0,49495:0:0:0:0:
448,192,49409,128,0,49538:0:0:0:0:
64,192,49409,128,0,49580:0:0:0:0:
192,192,49752,128,0,49838:0:0:0:0:
448,192,49752,128,0,49880:0:0:0:0:
64,192,49752,128,0,49923:0:0:0:0:
192,192,50095,128,0,50180:0:0:0:0:
320,192,50095,128,0,50223:0:0:0:0:
448,192,50095,128,0,50266:0:0:0:0:
64,192,50438,128,0,50523:0:0:0:0:
320,192,50438,128,0,50566:0:0:0:0:
192,192,50438,128,0,50609:0:0:0:0:
64,192,50780,128,0,51295:0:0:0:0:
192,192,50780,128,0,51380:0:0:0:0:
320,192,50780,1,0,0:0:0:0:
64,192,51466,128,0,51980:0:0:0:0:
192,192,51509,128,0,51895:0:0:0:0:
320,192,51552,128,0,51809:0:0:0:0:
448,192,51638,128,0,51723:0:0:0:0:
448,192,51809,1,0,0:0:0:0:
320,192,51895,1,0,0:0:0:0:
192,192,51980,1,0,0:0:0:0:
64,192,52066,1,0,0:0:0:0:
192,192,52152,128,0,52666:0:0:0:0:
320,192,52152,128,0,52752:0:0:0:0:
448,192,52152,1,0,0:0:0:0:
64,192,52838,128,0,53352:0:0:0:0:
320,192,52880,128,0,53266:0:0:0:0:
448,192,52923,128,0,53180:0:0:0:0:
192,192,53009,128,0,53095:0:0:0:0:
192,192,53180,1,0,0:0:0:0:
448,192,53266,1,0,0:0:0:0:
320,192,53352,1,0,0:0:0:0:
64,192,53438,1,0,0:0:0:0:
320,192,53523,128,0,54295:0:0:0:0:
192,192,53523,1,0,0:0:0:0:
448,192,53523,128,0,54809:0:0:0:0:
320,192,54380,128,0,54895:0:0:0:0:
192,192,54723,128,0,54980:0:0:0:0:
448,192,54895,128,0,55323:0:0:0:0:
320,192,54980,128,0,55238:0:0:0:0:
192,192,55066,128,0,55409:0:0:0:0:
64,192,55152,128,0,55580:0:0:0:0:
448,192,55409,128,0,55666:0:0:0:0:
320,192,55495,128,0,55752:0:0:0:0:
192,192,55580,128,0,55838:0:0:0:0:
64,192,55666,128,0,56009:0:0:0:0:
448,192,55752,128,0,56009:0:0:0:0:
192,192,55923,128,0,56095:0:0:0:0:
320,192,56009,128,0,56180:0:0:0:0:
448,192,56095,128,0,56266:0:0:0:0:
320,192,56266,1,0,0:0:0:0:
192,192,56266,128,0,56866:0:0:0:0:
64,192,56266,128,0,56780:0:0:0:0:
448,192,56780,128,0,56952:0:0:0:0:
448,192,57123,128,0,57209:0:0:0:0:
320,192,57295,128,0,57380:0:0:0:0:
192,192,57466,128,0,57552:0:0:0:0:
448,192,57895,128,0,58066:0:0:0:0:
448,192,58152,128,0,58238:0:0:0:0:
320,192,58323,128,0,58409:0:0:0:0:
192,192,58495,128,0,58580:0:0:0:0:
64,192,58666,128,0,58923:0:0:0:0:
448,192,59523,1,0,0:0:0:0:
448,192,59866,1,0,0:0:0:0:
320,192,60038,1,0,0:0:0:0:
192,192,60209,1,0,0:0:0:0:
64,192,60552,1,0,0:0:0:0:
320,192,60580,1,0,0:0:0:0:
448,192,60638,1,0,0:0:0:0:
448,192,60895,1,0,0:0:0:0:
64,192,61066,1,0,0:0:0:0:
320,192,61095,1,0,0:0:0:0:
192,192,61238,128,0,61409:0:0:0:0:
64,192,61238,128,0,61323:0:0:0:0:
320,192,61238,1,0,0:0:0:0:
192,192,61580,128,0,61666:0:0:0:0:
320,192,61580,1,0,0:0:0:0:
64,192,61580,128,0,61623:0:0:0:0:
64,192,61752,128,0,62266:0:0:0:0:
192,192,61752,128,0,62352:0:0:0:0:
320,192,61752,1,0,0:0:0:0:
448,192,62266,128,0,62438:0:0:0:0:
448,192,62609,128,0,62695:0:0:0:0:
320,192,62780,128,0,62866:0:0:0:0:
192,192,62952,128,0,63038:0:0:0:0:
448,192,63380,128,0,63552:0:0:0:0:
448,192,63638,128,0,63723:0:0:0:0:
320,192,63809,128,0,63895:0:0:0:0:
192,192,63980,128,0,64066:0:0:0:0:
64,192,64152,128,0,64409:0:0:0:0:
448,192,65009,1,0,0:0:0:0:
448,192,65352,1,0,0:0:0:0:
320,192,65523,1,0,0:0:0:0:
192,192,65695,1,0,0:0:0:0:
448,192,66123,1,0,0:0:0:0:
448,192,66380,1,0,0:0:0:0:
192,192,66552,1,0,0:0:0:0:
448,192,66552,1,0,0:0:0:0:
448,192,66638,1,0,0:0:0:0:
320,192,66723,1,0,0:0:0:0:
64,192,66723,1,0,0:0:0:0:
192,192,66809,1,0,0:0:0:0:
64,192,66895,1,0,0:0:0:0:
320,192,66895,1,0,0:0:0:0:
192,192,66980,1,0,0:0:0:0:
448,192,67066,1,0,0:0:0:0:
320,192,67066,1,0,0:0:0:0:
192,192,67152,1,0,0:0:0:0:
64,192,67152,1,0,0:0:0:0:
192,192,67238,1,0,0:0:0:0:
64,192,67238,1,0,0:0:0:0:
320,192,67409,1,0,0:0:0:0:
192,192,67580,1,0,0:0:0:0:
448,192,67752,128,0,67923:0:0:0:0:
192,192,67923,1,0,0:0:0:0:
448,192,68095,128,0,68180:0:0:0:0:
320,192,68266,128,0,68352:0:0:0:0:
192,192,68438,128,0,68523:0:0:0:0:
64,192,68609,1,0,0:0:0:0:
320,192,68780,1,0,0:0:0:0:
448,192,68866,128,0,69038:0:0:0:0:
192,192,68952,1,0,0:0:0:0:
448,192,69123,128,0,69209:0:0:0:0:
320,192,69295,128,0,69380:0:0:0:0:
192,192,69466,128,0,69552:0:0:0:0:
64,192,69638,128,0,69723:0:0:0:0:
320,192,69809,1,0,0:0:0:0:
192,192,69980,1,0,0:0:0:0:
320,192,70152,1,0,0:0:0:0:
192,192,70323,1,0,0:0:0:0:
448,192,70495,128,0,70666:0:0:0:0:
192,192,70666,1,0,0:0:0:0:
448,192,70838,128,0,70923:0:0:0:0:
320,192,71009,128,0,71095:0:0:0:0:
192,192,71180,128,0,71266:0:0:0:0:
64,192,71352,1,0,0:0:0:0:
320,192,71523,1,0,0:0:0:0:
448,192,71609,128,0,71780:0:0:0:0:
192,192,71695,1,0,0:0:0:0:
448,192,71866,128,0,71909:0:0:0:0:
320,192,72038,128,0,72123:0:0:0:0:
192,192,72209,128,0,72295:0:0:0:0:
64,192,72380,128,0,72466:0:0:0:0:
320,192,72552,1,0,0:0:0:0:
64,192,72723,1,0,0:0:0:0:
448,192,72723,1,0,0:0:0:0:
192,192,72809,1,0,0:0:0:0:
320,192,72895,1,0,0:0:0:0:
448,192,72980,1,0,0:0:0:0:
64,192,73066,1,0,0:0:0:0:
192,192,73152,1,0,0:0:0:0:
448,192,73238,128,0,73409:0:0:0:0:
64,192,73323,1,0,0:0:0:0:
320,192,73409,1,0,0:0:0:0:
192,192,73495,1,0,0:0:0:0:
448,192,73580,128,0,73666:0:0:0:0:
64,192,73666,1,0,0:0:0:0:
320,192,73752,128,0,73838:0:0:0:0:
64,192,73838,1,0,0:0:0:0:
192,192,73923,128,0,74009:0:0:0:0:
448,192,74009,1,0,0:0:0:0:
320,192,74095,1,0,0:0:0:0:
192,192,74180,1,0,0:0:0:0:
64,192,74266,1,0,0:0:0:0:
448,192,74352,128,0,74523:0:0:0:0:
192,192,74438,1,0,0:0:0:0:
64,192,74523,1,0,0:0:0:0:
448,192,74609,128,0,74695:0:0:0:0:
192,192,74695,1,0,0:0:0:0:
320,192,74780,128,0,74866:0:0:0:0:
64,192,74866,1,0,0:0:0:0:
192,192,74952,128,0,75038:0:0:0:0:
448,192,75038,1,0,0:0:0:0:
64,192,75123,128,0,75209:0:0:0:0:
192,192,75209,1,0,0:0:0:0:
320,192,75295,1,0,0:0:0:0:
448,192,75380,1,0,0:0:0:0:
64,192,75466,1,0,0:0:0:0:
192,192,75466,128,0,75552:0:0:0:0:
320,192,75466,128,0,75723:0:0:0:0:
64,192,75638,128,0,75723:0:0:0:0:
64,192,75809,128,0,75895:0:0:0:0:
192,192,75809,128,0,76066:0:0:0:0:
320,192,75980,128,0,76066:0:0:0:0:
192,192,76152,128,0,76409:0:0:0:0:
320,192,76152,128,0,76238:0:0:0:0:
448,192,76323,128,0,76409:0:0:0:0:
64,192,76323,128,0,76409:0:0:0:0:
320,192,76495,128,0,76752:0:0:0:0:
448,192,76495,128,0,76580:0:0:0:0:
64,192,76752,128,0,76838:0:0:0:0:
320,192,76838,1,0,0:0:0:0:
448,192,76838,1,0,0:0:0:0:
320,192,76923,1,0,0:0:0:0:
448,192,76923,1,0,0:0:0:0:
192,192,77009,1,0,0:0:0:0:
320,192,77095,1,0,0:0:0:0:
192,192,77180,1,0,0:0:0:0:
64,192,77180,1,0,0:0:0:0:
64,192,77266,1,0,0:0:0:0:
192,192,77266,1,0,0:0:0:0:
448,192,77352,1,0,0:0:0:0:
64,192,77438,1,0,0:0:0:0:
192,192,77523,1,0,0:0:0:0:
448,192,77523,1,0,0:0:0:0:
192,192,77609,1,0,0:0:0:0:
448,192,77609,1,0,0:0:0:0:
320,192,77695,1,0,0:0:0:0:
64,192,77780,1,0,0:0:0:0:
192,192,77866,1,0,0:0:0:0:
320,192,77866,1,0,0:0:0:0:
448,192,77866,1,0,0:0:0:0:
448,192,78209,128,0,78295:0:0:0:0:
64,192,78209,128,0,78466:0:0:0:0:
320,192,78209,128,0,78338:0:0:0:0:
192,192,78209,128,0,78380:0:0:0:0:
448,192,78380,128,0,78552:0:0:0:0:
320,192,78552,1,0,0:0:0:0:
192,192,78552,1,0,0:0:0:0:
64,192,78552,1,0,0:0:0:0:
448,192,78723,128,0,78895:0:0:0:0:
192,192,78809,1,0,0:0:0:0:
64,192,78809,1,0,0:0:0:0:
64,192,78895,1,0,0:0:0:0:
448,192,79066,128,0,79152:0:0:0:0:
320,192,79066,1,0,0:0:0:0:
192,192,79152,1,0,0:0:0:0:
320,192,79238,128,0,79323:0:0:0:0:
192,192,79238,1,0,0:0:0:0:
64,192,79238,1,0,0:0:0:0:
448,192,79323,1,0,0:0:0:0:
192,192,79409,128,0,79495:0:0:0:0:
64,192,79495,1,0,0:0:0:0:
320,192,79580,1,0,0:0:0:0:
448,192,79580,128,0,79638:0:0:0:0:
320,192,79666,1,0,0:0:0:0:
64,192,79752,128,0,79838:0:0:0:0:
192,192,79780,128,0,79866:0:0:0:0:
448,192,79838,128,0,80009:0:0:0:0:
320,192,79923,1,0,0:0:0:0:
192,192,79923,1,0,0:0:0:0:
64,192,79923,1,0,0:0:0:0:
64,192,80009,1,0,0:0:0:0:
448,192,80095,128,0,80180:0:0:0:0:
320,192,80095,1,0,0:0:0:0:
64,192,80180,1,0,0:0:0:0:
192,192,80180,128,0,80309:0:0:0:0:
320,192,80266,128,0,80352:0:0:0:0:
448,192,80309,128,0,80395:0:0:0:0:
192,192,80438,128,0,80523:0:0:0:0:
64,192,80480,128,0,80566:0:0:0:0:
448,192,80523,1,0,0:0:0:0:
64,192,80609,128,0,80866:0:0:0:0:
320,192,80609,1,0,0:0:0:0:
192,192,80609,1,0,0:0:0:0:
320,192,80780,1,0,0:0:0:0:
448,192,80866,1,0,0:0:0:0:
320,192,80952,128,0,81080:0:0:0:0:
192,192,80952,128,0,81123:0:0:0:0:
64,192,80952,128,0,81209:0:0:0:0:
448,192,80952,128,0,81038:0:0:0:0:
448,192,81123,128,0,81295:0:0:0:0:
320,192,81295,1,0,0:0:0:0:
192,192,81295,128,0,81380:0:0:0:0:
64,192,81323,128,0,81409:0:0:0:0:
448,192,81466,128,0,81638:0:0:0:0:
320,192,81466,1,0,0:0:0:0:
192,192,81552,1,0,0:0:0:0:
64,192,81552,1,0,0:0:0:0:
64,192,81638,1,0,0:0:0:0:
448,192,81809,128,0,81895:0:0:0:0:
320,192,81809,1,0,0:0:0:0:
192,192,81895,1,0,0:0:0:0:
320,192,81980,128,0,82066:0:0:0:0:
192,192,81980,1,0,0:0:0:0:
64,192,81980,1,0,0:0:0:0:
448,192,82066,1,0,0:0:0:0:
192,192,82152,128,0,82238:0:0:0:0:
64,192,82238,1,0,0:0:0:0:
320,192,82323,1,0,0:0:0:0:
448,192,82323,1,0,0:0:0:0:
320,192,82409,1,0,0:0:0:0:
64,192,82495,1,0,0:0:0:0:
448,192,82580,128,0,82752:0:0:0:0:
192,192,82580,1,0,0:0:0:0:
320,192,82666,1,0,0:0:0:0:
192,192,82666,1,0,0:0:0:0:
64,192,82666,1,0,0:0:0:0:
448,192,82838,128,0,82880:0:0:0:0:
320,192,82838,1,0,0:0:0:0:
320,192,83009,128,0,83095:0:0:0:0:
448,192,83052,128,0,83138:0:0:0:0:
192,192,83180,128,0,83266:0:0:0:0:
64,192,83180,1,0,0:0:0:0:
64,192,83352,128,0,83609:0:0:0:0:
192,192,83352,1,0,0:0:0:0:
448,192,83352,1,0,0:0:0:0:
448,192,83438,1,0,0:0:0:0:
320,192,83438,1,0,0:0:0:0:
192,192,83523,1,0,0:0:0:0:
320,192,83695,128,0,83823:0:0:0:0:
64,192,83695,128,0,83952:0:0:0:0:
192,192,83695,128,0,83866:0:0:0:0:
448,192,83695,128,0,83780:0:0:0:0:
448,192,83866,128,0,84038:0:0:0:0:
192,192,84038,1,0,0:0:0:0:
64,192,84038,1,0,0:0:0:0:
320,192,84038,1,0,0:0:0:0:
448,192,84123,1,0,0:0:0:0:
64,192,84209,1,0,0:0:0:0:
192,192,84209,1,0,0:0:0:0:
448,192,84295,1,0,0:0:0:0:
64,192,84380,1,0,0:0:0:0:
448,192,84466,1,0,0:0:0:0:
64,192,84552,128,0,84638:0:0:0:0:
192,192,84595,128,0,84680:0:0:0:0:
448,192,84638,128,0,84723:0:0:0:0:
64,192,84723,1,0,0:0:0:0:
320,192,84723,1,0,0:0:0:0:
192,192,84723,1,0,0:0:0:0:
448,192,84809,1,0,0:0:0:0:
192,192,84895,128,0,84980:0:0:0:0:
64,192,84938,128,0,85023:0:0:0:0:
448,192,84980,1,0,0:0:0:0:
320,192,85066,128,0,85152:0:0:0:0:
192,192,85095,128,0,85180:0:0:0:0:
320,192,85238,128,0,85323:0:0:0:0:
192,192,85266,128,0,85352:0:0:0:0:
320,192,85409,1,0,0:0:0:0:
448,192,85409,1,0,0:0:0:0:
64,192,85409,1,0,0:0:0:0:
192,192,85495,1,0,0:0:0:0:
320,192,85580,128,0,85666:0:0:0:0:
448,192,85623,128,0,85709:0:0:0:0:
64,192,85666,128,0,85752:0:0:0:0:
192,192,85752,1,0,0:0:0:0:
64,192,85838,1,0,0:0:0:0:
192,192,85923,128,0,86009:0:0:0:0:
320,192,85966,128,0,86052:0:0:0:0:
448,192,86009,128,0,86095:0:0:0:0:
320,192,86095,1,0,0:0:0:0:
192,192,86095,1,0,0:0:0:0:
64,192,86095,1,0,0:0:0:0:
448,192,86180,1,0,0:0:0:0:
64,192,86266,1,0,0:0:0:0:
192,192,86266,1,0,0:0:0:0:
320,192,86352,1,0,0:0:0:0:
320,192,86438,128,0,86566:0:0:0:0:
64,192,86438,128,0,86695:0:0:0:0:
192,192,86438,128,0,86609:0:0:0:0:
448,192,86438,128,0,86523:0:0:0:0:
448,192,86609,128,0,86780:0:0:0:0:
320,192,86780,128,0,86895:0:0:0:0:
192,192,86809,128,0,86895:0:0:0:0:
64,192,86838,128,0,86895:0:0:0:0:
64,192,86952,128,0,87066:0:0:0:0:
192,192,86980,128,0,87066:0:0:0:0:
320,192,87009,128,0,87066:0:0:0:0:
448,192,87038,1,0,0:0:0:0:
192,192,87123,128,0,87209:0:0:0:0:
320,192,87152,128,0,87238:0:0:0:0:
64,192,87295,128,0,87380:0:0:0:0:
448,192,87323,128,0,87409:0:0:0:0:
320,192,87466,1,0,0:0:0:0:
192,192,87466,1,0,0:0:0:0:
64,192,87466,1,0,0:0:0:0:
448,192,87552,1,0,0:0:0:0:
192,192,87638,1,0,0:0:0:0:
64,192,87638,1,0,0:0:0:0:
448,192,87723,1,0,0:0:0:0:
448,192,87809,128,0,88066:0:0:0:0:
320,192,87809,128,0,87980:0:0:0:0:
64,192,87809,128,0,87895:0:0:0:0:
320,192,88152,128,0,88409:0:0:0:0:
448,192,88152,128,0,88323:0:0:0:0:
192,192,88152,128,0,88238:0:0:0:0:
448,192,88495,128,0,88580:0:0:0:0:
64,192,88495,128,0,88538:0:0:0:0:
192,192,88495,128,0,88666:0:0:0:0:
320,192,88580,1,0,0:0:0:0:
64,192,88666,1,0,0:0:0:0:
448,192,88666,1,0,0:0:0:0:
448,192,88752,1,0,0:0:0:0:
192,192,88752,1,0,0:0:0:0:
64,192,88838,128,0,89095:0:0:0:0:
192,192,88838,128,0,89009:0:0:0:0:
320,192,88838,128,0,88923:0:0:0:0:
448,192,89180,128,0,89266:0:0:0:0:
64,192,89180,128,0,89438:0:0:0:0:
320,192,89180,128,0,89309:0:0:0:0:
192,192,89180,128,0,89352:0:0:0:0:
448,192,89352,128,0,89523:0:0:0:0:
320,192,89523,1,0,0:0:0:0:
192,192,89523,1,0,0:0:0:0:
64,192,89523,1,0,0:0:0:0:
448,192,89695,128,0,89866:0:0:0:0:
192,192,89780,1,0,0:0:0:0:
64,192,89780,1,0,0:0:0:0:
64,192,89866,1,0,0:0:0:0:
448,192,90038,128,0,90123:0:0:0:0:
320,192,90038,1,0,0:0:0:0:
192,192,90123,1,0,0:0:0:0:
320,192,90209,128,0,90295:0:0:0:0:
192,192,90209,1,0,0:0:0:0:
64,192,90209,1,0,0:0:0:0:
448,192,90295,1,0,0:0:0:0:
192,192,90380,128,0,90466:0:0:0:0:
64,192,90466,1,0,0:0:0:0:
320,192,90552,1,0,0:0:0:0:
448,192,90552,128,0,90609:0:0:0:0:
320,192,90638,1,0,0:0:0:0:
64,192,90723,128,0,90809:0:0:0:0:
192,192,90752,128,0,90838:0:0:0:0:
448,192,90809,128,0,90980:0:0:0:0:
320,192,90895,1,0,0:0:0:0:
192,192,90895,1,0,0:0:0:0:
64,192,90895,1,0,0:0:0:0:
64,192,90980,1,0,0:0:0:0:
448,192,91066,128,0,91152:0:0:0:0:
320,192,91066,1,0,0:0:0:0:
64,192,91152,1,0,0:0:0:0:
192,192,91152,128,0,91280:0:0:0:0:
320,192,91238,128,0,91323:0:0:0:0:
448,192,91280,128,0,91366:0:0:0:0:
192,192,91409,128,0,91495:0:0:0:0:
64,192,91452,128,0,91538:0:0:0:0:
448,192,91495,1,0,0:0:0:0:
64,192,91580,128,0,91838:0:0:0:0:
320,192,91580,1,0,0:0:0:0:
192,192,91580,1,0,0:0:0:0:
320,192,91752,1,0,0:0:0:0:
448,192,91838,1,0,0:0:0:0:
320,192,91923,128,0,92052:0:0:0:0:
192,192,91923,128,0,92095:0:0:0:0:
64,192,91923,128,0,92180:0:0:0:0:
448,192,91923,128,0,92009:0:0:0:0:
448,192,92095,128,0,92266:0:0:0:0:
320,192,92266,1,0,0:0:0:0:
192,192,92266,128,0,92352:0:0:0:0:
64,192,92295,128,0,92380:0:0:0:0:
448,192,92438,128,0,92609:0:0:0:0:
320,192,92438,1,0,0:0:0:0:
192,192,92523,1,0,0:0:0:0:
64,192,92523,1,0,0:0:0:0:
64,192,92609,128,0,92666:0:0:0:0:
448,192,92780,128,0,92866:0:0:0:0:
320,192,92780,1,0,0:0:0:0:
192,192,92866,1,0,0:0:0:0:
320,192,92952,128,0,93038:0:0:0:0:
192,192,92952,1,0,0:0:0:0:
64,192,92952,1,0,0:0:0:0:
448,192,93038,1,0,0:0:0:0:
192,192,93123,128,0,93209:0:0:0:0:
64,192,93209,1,0,0:0:0:0:
320,192,93295,1,0,0:0:0:0:
448,192,93295,1,0,0:0:0:0:
320,192,93380,1,0,0:0:0:0:
64,192,93466,1,0,0:0:0:0:
448,192,93552,128,0,93723:0:0:0:0:
192,192,93552,1,0,0:0:0:0:
320,192,93638,1,0,0:0:0:0:
192,192,93638,1,0,0:0:0:0:
64,192,93638,1,0,0:0:0:0:
448,192,93809,128,0,93852:0:0:0:0:
320,192,93809,1,0,0:0:0:0:
320,192,93980,128,0,94066:0:0:0:0:
448,192,94023,128,0,94109:0:0:0:0:
192,192,94152,128,0,94238:0:0:0:0:
64,192,94152,1,0,0:0:0:0:
64,192,94323,128,0,94580:0:0:0:0:
192,192,94323,1,0,0:0:0:0:
448,192,94323,1,0,0:0:0:0:
448,192,94409,1,0,0:0:0:0:
320,192,94409,1,0,0:0:0:0:
192,192,94495,1,0,0:0:0:0:
320,192,94666,128,0,94795:0:0:0:0:
64,192,94666,128,0,94923:0:0:0:0:
192,192,94666,128,0,94838:0:0:0:0:
448,192,94666,128,0,94752:0:0:0:0:
448,192,94838,128,0,95009:0:0:0:0:
192,192,95009,1,0,0:0:0:0:
64,192,95009,1,0,0:0:0:0:
320,192,95009,1,0,0:0:0:0:
448,192,95095,1,0,0:0:0:0:
64,192,95180,1,0,0:0:0:0:
192,192,95180,1,0,0:0:0:0:
448,192,95266,1,0,0:0:0:0:
64,192,95352,1,0,0:0:0:0:
448,192,95438,1,0,0:0:0:0:
64,192,95523,128,0,95609:0:0:0:0:
192,192,95566,128,0,95652:0:0:0:0:
448,192,95609,128,0,95695:0:0:0:0:
64,192,95695,1,0,0:0:0:0:
320,192,95695,1,0,0:0:0:0:
192,192,95695,1,0,0:0:0:0:
448,192,95780,1,0,0:0:0:0:
192,192,95866,128,0,95952:0:0:0:0:
64,192,95909,128,0,95995:0:0:0:0:
448,192,95952,1,0,0:0:0:0:
320,192,96038,128,0,96123:0:0:0:0:
192,192,96066,128,0,96152:0:0:0:0:
320,192,96209,128,0,96295:0:0:0:0:
192,192,96238,128,0,96323:0:0:0:0:
320,192,96380,1,0,0:0:0:0:
448,192,96380,1,0,0:0:0:0:
64,192,96380,1,0,0:0:0:0:
192,192,96466,1,0,0:0:0:0:
320,192,96552,128,0,96638:0:0:0:0:
448,192,96595,128,0,96680:0:0:0:0:
64,192,96638,128,0,96723:0:0:0:0:
192,192,96723,1,0,0:0:0:0:
64,192,96809,1,0,0:0:0:0:
192,192,96895,128,0,96980:0:0:0:0:
320,192,96938,128,0,97023:0:0:0:0:
448,192,96980,128,0,97066:0:0:0:0:
320,192,97066,1,0,0:0:0:0:
192,192,97066,1,0,0:0:0:0:
64,192,97066,1,0,0:0:0:0:
448,192,97152,1,0,0:0:0:0:
64,192,97238,1,0,0:0:0:0:
192,192,97238,1,0,0:0:0:0:
320,192,97323,1,0,0:0:0:0:
64,192,97409,1,0,0:0:0:0:
192,192,97409,128,0,97495:0:0:0:0:
320,192,97409,128,0,97666:0:0:0:0:
64,192,97580,128,0,97666:0:0:0:0:
448,192,97580,128,0,97752:0:0:0:0:
64,192,97752,128,0,97838:0:0:0:0:
192,192,97752,128,0,98009:0:0:0:0:
320,192,97923,128,0,98009:0:0:0:0:
192,192,98095,128,0,98352:0:0:0:0:
320,192,98095,128,0,98180:0:0:0:0:
448,192,98266,128,0,98352:0:0:0:0:
64,192,98266,128,0,98352:0:0:0:0:
320,192,98438,128,0,98695:0:0:0:0:
448,192,98438,128,0,98523:0:0:0:0:
64,192,98695,128,0,98780:0:0:0:0:
320,192,98780,1,0,0:0:0:0:
448,192,98780,1,0,0:0:0:0:
320,192,98866,1,0,0:0:0:0:
448,192,98866,1,0,0:0:0:0:
192,192,98952,1,0,0:0:0:0:
320,192,99038,1,0,0:0:0:0:
192,192,99123,1,0,0:0:0:0:
64,192,99123,1,0,0:0:0:0:
64,192,99209,1,0,0:0:0:0:
192,192,99209,1,0,0:0:0:0:
448,192,99295,1,0,0:0:0:0:
64,192,99380,1,0,0:0:0:0:
192,192,99466,1,0,0:0:0:0:
448,192,99466,1,0,0:0:0:0:
192,192,99552,1,0,0:0:0:0:
448,192,99552,1,0,0:0:0:0:
320,192,99638,1,0,0:0:0:0:
64,192,99723,1,0,0:0:0:0:
192,192,99809,1,0,0:0:0:0:
320,192,99809,1,0,0:0:0:0:
448,192,99809,1,0,0:0:0:0:
320,192,100152,128,0,100238:0:0:0:0:
448,192,100152,1,0,0:0:0:0:
192,192,100180,128,0,100266:0:0:0:0:
64,192,100323,128,0,100380:0:0:0:0:
320,192,100409,128,0,100495:0:0:0:0:
192,192,100438,128,0,100523:0:0:0:0:
64,192,100495,1,0,0:0:0:0:
448,192,100495,1,0,0:0:0:0:
448,192,100666,128,0,100838:0:0:0:0:
320,192,100709,128,0,100795:0:0:0:0:
64,192,100752,1,0,0:0:0:0:
192,192,100752,128,0,100838:0:0:0:0:
448,192,101009,128,0,101095:0:0:0:0:
320,192,101009,1,0,0:0:0:0:
192,192,101095,1,0,0:0:0:0:
320,192,101180,128,0,101266:0:0:0:0:
192,192,101180,1,0,0:0:0:0:
64,192,101180,1,0,0:0:0:0:
448,192,101266,1,0,0:0:0:0:
192,192,101352,128,0,101438:0:0:0:0:
64,192,101395,128,0,101480:0:0:0:0:
320,192,101523,1,0,0:0:0:0:
448,192,101523,128,0,101580:0:0:0:0:
320,192,101609,1,0,0:0:0:0:
64,192,101695,128,0,101780:0:0:0:0:
192,192,101723,128,0,101809:0:0:0:0:
448,192,101780,128,0,101952:0:0:0:0:
320,192,101866,1,0,0:0:0:0:
192,192,101866,1,0,0:0:0:0:
64,192,101866,1,0,0:0:0:0:
64,192,101952,1,0,0:0:0:0:
448,192,102038,128,0,102123:0:0:0:0:
320,192,102038,1,0,0:0:0:0:
64,192,102123,1,0,0:0:0:0:
192,192,102123,128,0,102252:0:0:0:0:
320,192,102209,128,0,102295:0:0:0:0:
448,192,102252,128,0,102338:0:0:0:0:
192,192,102380,128,0,102466:0:0:0:0:
64,192,102423,128,0,102509:0:0:0:0:
448,192,102466,1,0,0:0:0:0:
64,192,102552,128,0,102809:0:0:0:0:
320,192,102552,1,0,0:0:0:0:
192,192,102552,1,0,0:0:0:0:
320,192,102723,1,0,0:0:0:0:
448,192,102809,1,0,0:0:0:0:
192,192,102895,128,0,103152:0:0:0:0:
448,192,102895,128,0,102980:0:0:0:0:
320,192,102895,128,0,103023:0:0:0:0:
64,192,102895,128,0,103066:0:0:0:0:
448,192,103066,128,0,103238:0:0:0:0:
320,192,103238,128,0,103323:0:0:0:0:
192,192,103238,1,0,0:0:0:0:
64,192,103238,1,0,0:0:0:0:
320,192,103409,128,0,103495:0:0:0:0:
448,192,103409,1,0,0:0:0:0:
192,192,103495,1,0,0:0:0:0:
64,192,103495,1,0,0:0:0:0:
192,192,103580,128,0,103666:0:0:0:0:
448,192,103609,128,0,103695:0:0:0:0:
192,192,103752,128,0,103838:0:0:0:0:
64,192,103752,1,0,0:0:0:0:
448,192,103780,128,0,103866:0:0:0:0:
320,192,103923,128,0,104009:0:0:0:0:
192,192,103923,1,0,0:0:0:0:
64,192,103923,1,0,0:0:0:0:
448,192,103952,128,0,104038:0:0:0:0:
192,192,104095,128,0,104180:0:0:0:0:
64,192,104123,128,0,104209:0:0:0:0:
448,192,104266,128,0,104523:0:0:0:0:
320,192,104266,1,0,0:0:0:0:
64,192,104352,1,0,0:0:0:0:
320,192,104438,1,0,0:0:0:0:
192,192,104523,1,0,0:0:0:0:
64,192,104523,1,0,0:0:0:0:
448,192,104609,128,0,104866:0:0:0:0:
64,192,104609,1,0,0:0:0:0:
320,192,104609,1,0,0:0:0:0:
192,192,104780,1,0,0:0:0:0:
64,192,104780,1,0,0:0:0:0:
64,192,104952,128,0,105295:0:0:0:0:
192,192,104995,128,0,105080:0:0:0:0:
448,192,105038,128,0,105123:0:0:0:0:
320,192,105123,128,0,105209:0:0:0:0:
192,192,105152,128,0,105238:0:0:0:0:
320,192,105295,1,0,0:0:0:0:
448,192,105295,1,0,0:0:0:0:
448,192,105380,1,0,0:0:0:0:
320,192,105380,1,0,0:0:0:0:
64,192,105466,1,0,0:0:0:0:
320,192,105638,128,0,105723:0:0:0:0:
448,192,105638,1,0,0:0:0:0:
192,192,105666,128,0,105752:0:0:0:0:
64,192,105809,128,0,105866:0:0:0:0:
320,192,105895,128,0,105980:0:0:0:0:
192,192,105923,128,0,106009:0:0:0:0:
64,192,105980,1,0,0:0:0:0:
448,192,105980,1,0,0:0:0:0:
448,192,106152,128,0,106323:0:0:0:0:
320,192,106152,1,0,0:0:0:0:
64,192,106323,1,0,0:0:0:0:
448,192,106495,128,0,106580:0:0:0:0:
320,192,106538,128,0,106623:0:0:0:0:
320,192,106666,128,0,106752:0:0:0:0:
192,192,106666,1,0,0:0:0:0:
64,192,106666,1,0,0:0:0:0:
448,192,106752,1,0,0:0:0:0:
192,192,106838,128,0,106923:0:0:0:0:
320,192,107009,1,0,0:0:0:0:
448,192,107009,128,0,107066:0:0:0:0:
320,192,107095,1,0,0:0:0:0:
64,192,107180,128,0,107266:0:0:0:0:
192,192,107209,128,0,107295:0:0:0:0:
448,192,107266,128,0,107438:0:0:0:0:
320,192,107352,1,0,0:0:0:0:
192,192,107352,1,0,0:0:0:0:
64,192,107352,1,0,0:0:0:0:
448,192,107523,128,0,107566:0:0:0:0:
320,192,107523,1,0,0:0:0:0:
320,192,107695,128,0,107780:0:0:0:0:
448,192,107738,128,0,107823:0:0:0:0:
192,192,107866,128,0,107952:0:0:0:0:
64,192,107909,128,0,107995:0:0:0:0:
64,192,108038,128,0,108295:0:0:0:0:
192,192,108038,1,0,0:0:0:0:
448,192,108038,1,0,0:0:0:0:
320,192,108209,1,0,0:0:0:0:
448,192,108209,1,0,0:0:0:0:
64,192,108380,128,0,108638:0:0:0:0:
192,192,108380,128,0,108552:0:0:0:0:
320,192,108380,128,0,108509:0:0:0:0:
448,192,108380,128,0,108466:0:0:0:0:
448,192,108552,128,0,108723:0:0:0:0:
320,192,108723,128,0,108809:0:0:0:0:
192,192,108723,1,0,0:0:0:0:
64,192,108723,1,0,0:0:0:0:
320,192,108895,128,0,108980:0:0:0:0:
448,192,108895,1,0,0:0:0:0:
320,192,109066,128,0,109580:0:0:0:0:
192,192,109409,1,0,0:0:0:0:
448,192,109409,1,0,0:0:0:0:
192,192,109580,1,0,0:0:0:0:
64,192,109580,1,0,0:0:0:0:
320,192,109752,5,0,0:0:0:0:
448,192,109752,1,0,0:0:0:0:
320,192,109838,1,0,0:0:0:0:
448,192,109838,1,0,0:0:0:0:
192,192,109923,1,0,0:0:0:0:
320,192,110009,1,0,0:0:0:0:
192,192,110095,1,0,0:0:0:0:
64,192,110095,1,0,0:0:0:0:
64,192,110180,1,0,0:0:0:0:
192,192,110180,1,0,0:0:0:0:
448,192,110266,1,0,0:0:0:0:
64,192,110352,1,0,0:0:0:0:
192,192,110438,1,0,0:0:0:0:
448,192,110438,1,0,0:0:0:0:
192,192,110523,1,0,0:0:0:0:
448,192,110523,1,0,0:0:0:0:
320,192,110609,1,0,0:0:0:0:
64,192,110695,1,0,0:0:0:0:
192,192,110780,1,0,0:0:0:0:
320,192,110780,1,0,0:0:0:0:
448,192,110780,1,0,0:0:0:0:
64,192,111123,128,0,111638:0:0:0:0:
320,192,111123,1,0,0:0:0:0:
192,192,111123,128,0,111723:0:0:0:0:
448,192,111238,1,0,0:0:0:0:
448,192,111352,1,0,0:0:0:0:
320,192,111466,1,0,0:0:0:0:
320,192,111580,1,0,0:0:0:0:
320,192,111695,1,0,0:0:0:0:
192,192,111809,1,0,0:0:0:0:
192,192,111923,1,0,0:0:0:0:
192,192,112038,1,0,0:0:0:0:
64,192,112152,1,0,0:0:0:0:
64,192,112266,1,0,0:0:0:0:
64,192,112380,1,0,0:0:0:0:
320,192,112495,1,0,0:0:0:0:
320,192,112609,1,0,0:0:0:0:
320,192,112723,1,0,0:0:0:0:
192,192,112838,1,0,0:0:0:0:
192,192,112952,1,0,0:0:0:0:
192,192,113066,1,0,0:0:0:0:
448,192,113180,1,0,0:0:0:0:
448,192,113295,1,0,0:0:0:0:
192,192,113352,1,0,0:0:0:0:
448,192,113409,1,0,0:0:0:0:
192,192,113438,1,0,0:0:0:0:
64,192,113523,1,0,0:0:0:0:
320,192,113523,1,0,0:0:0:0:
64,192,113638,1,0,0:0:0:0:
64,192,113752,1,0,0:0:0:0:
192,192,113866,128,0,113923:0:0:0:0:
320,192,113895,128,0,113980:0:0:0:0:
192,192,113980,1,0,0:0:0:0:
192,192,114095,1,0,0:0:0:0:
448,192,114209,1,0,0:0:0:0:
64,192,114209,1,0,0:0:0:0:
448,192,114323,1,0,0:0:0:0:
448,192,114438,1,0,0:0:0:0:
192,192,114466,1,0,0:0:0:0:
320,192,114552,128,0,114609:0:0:0:0:
320,192,114666,1,0,0:0:0:0:
320,192,114780,1,0,0:0:0:0:
192,192,114809,1,0,0:0:0:0:
64,192,114895,1,0,0:0:0:0:
320,192,114895,128,0,114952:0:0:0:0:
320,192,115009,1,0,0:0:0:0:
320,192,115123,1,0,0:0:0:0:
192,192,115238,128,0,115295:0:0:0:0:
192,192,115352,1,0,0:0:0:0:
192,192,115466,1,0,0:0:0:0:
320,192,115580,1,0,0:0:0:0:
192,192,115580,128,0,115638:0:0:0:0:
192,192,115695,1,0,0:0:0:0:
192,192,115809,1,0,0:0:0:0:
448,192,115838,1,0,0:0:0:0:
320,192,115923,128,0,115980:0:0:0:0:
320,192,116038,1,0,0:0:0:0:
320,192,116152,1,0,0:0:0:0:
192,192,116180,1,0,0:0:0:0:
448,192,116266,1,0,0:0:0:0:
64,192,116266,1,0,0:0:0:0:
448,192,116380,1,0,0:0:0:0:
448,192,116495,1,0,0:0:0:0:
192,192,116609,128,0,116666:0:0:0:0:
320,192,116638,128,0,116723:0:0:0:0:
192,192,116723,1,0,0:0:0:0:
192,192,116838,1,0,0:0:0:0:
448,192,116952,1,0,0:0:0:0:
64,192,116952,1,0,0:0:0:0:
448,192,117066,1,0,0:0:0:0:
448,192,117180,1,0,0:0:0:0:
192,192,117209,1,0,0:0:0:0:
320,192,117295,128,0,117352:0:0:0:0:
320,192,117409,1,0,0:0:0:0:
320,192,117523,1,0,0:0:0:0:
192,192,117552,1,0,0:0:0:0:
64,192,117638,1,0,0:0:0:0:
320,192,117638,128,0,117695:0:0:0:0:
320,192,117752,1,0,0:0:0:0:
320,192,117866,1,0,0:0:0:0:
192,192,117980,128,0,118038:0:0:0:0:
192,192,118095,1,0,0:0:0:0:
192,192,118209,1,0,0:0:0:0:
320,192,118323,1,0,0:0:0:0:
192,192,118323,128,0,118380:0:0:0:0:
192,192,118438,1,0,0:0:0:0:
192,192,118552,1,0,0:0:0:0:
448,192,118580,1,0,0:0:0:0:
320,192,118666,128,0,118723:0:0:0:0:
320,192,118780,1,0,0:0:0:0:
320,192,118895,1,0,0:0:0:0:
192,192,118923,1,0,0:0:0:0:
448,192,119009,1,0,0:0:0:0:
64,192,119009,1,0,0:0:0:0:
192,192,119095,128,0,119180:0:0:0:0:
448,192,119123,1,0,0:0:0:0:
448,192,119238,1,0,0:0:0:0:
64,192,119266,128,0,119352:0:0:0:0:
320,192,119352,128,0,119409:0:0:0:0:
192,192,119380,128,0,119466:0:0:0:0:
320,192,119466,1,0,0:0:0:0:
320,192,119580,1,0,0:0:0:0:
64,192,119695,128,0,119752:0:0:0:0:
448,192,119695,1,0,0:0:0:0:
64,192,119809,1,0,0:0:0:0:
64,192,119923,1,0,0:0:0:0:
320,192,119952,1,0,0:0:0:0:
192,192,120038,1,0,0:0:0:0:
192,192,120152,1,0,0:0:0:0:
192,192,120266,1,0,0:0:0:0:
320,192,120295,1,0,0:0:0:0:
448,192,120380,1,0,0:0:0:0:
192,192,120380,128,0,120438:0:0:0:0:
192,192,120495,1,0,0:0:0:0:
192,192,120609,1,0,0:0:0:0:
320,192,120723,128,0,120780:0:0:0:0:
320,192,120838,1,0,0:0:0:0:
320,192,120952,1,0,0:0:0:0:
192,192,121066,1,0,0:0:0:0:
320,192,121066,128,0,121123:0:0:0:0:
320,192,121180,1,0,0:0:0:0:
320,192,121295,1,0,0:0:0:0:
64,192,121323,1,0,0:0:0:0:
192,192,121409,128,0,121466:0:0:0:0:
192,192,121523,1,0,0:0:0:0:
192,192,121638,1,0,0:0:0:0:
320,192,121666,1,0,0:0:0:0:
64,192,121752,1,0,0:0:0:0:
448,192,121752,1,0,0:0:0:0:
64,192,121866,1,0,0:0:0:0:
64,192,121980,1,0,0:0:0:0:
320,192,122095,128,0,122152:0:0:0:0:
192,192,122123,128,0,122209:0:0:0:0:
320,192,122209,1,0,0:0:0:0:
320,192,122323,1,0,0:0:0:0:
64,192,122438,128,0,122495:0:0:0:0:
448,192,122438,1,0,0:0:0:0:
64,192,122552,1,0,0:0:0:0:
64,192,122666,1,0,0:0:0:0:
320,192,122695,1,0,0:0:0:0:
192,192,122780,1,0,0:0:0:0:
192,192,122895,1,0,0:0:0:0:
192,192,123009,1,0,0:0:0:0:
320,192,123038,1,0,0:0:0:0:
448,192,123123,1,0,0:0:0:0:
192,192,123123,128,0,123180:0:0:0:0:
192,192,123238,1,0,0:0:0:0:
192,192,123352,1,0,0:0:0:0:
448,192,123466,128,0,123580:0:0:0:0:
64,192,123466,1,0,0:0:0:0:
448,192,123695,1,0,0:0:0:0:
320,192,123809,128,0,123923:0:0:0:0:
64,192,123809,1,0,0:0:0:0:
320,192,124038,1,0,0:0:0:0:
192,192,124152,128,0,124266:0:0:0:0:
448,192,124152,1,0,0:0:0:0:
320,192,124323,128,0,124409:0:0:0:0:
192,192,124380,1,0,0:0:0:0:
448,192,124409,128,0,124495:0:0:0:0:
64,192,124495,128,0,124609:0:0:0:0:
320,192,124495,1,0,0:0:0:0:
64,192,124723,1,0,0:0:0:0:
448,192,124838,128,0,124895:0:0:0:0:
64,192,124866,128,0,124952:0:0:0:0:
448,192,124952,1,0,0:0:0:0:
448,192,125066,1,0,0:0:0:0:
320,192,125180,1,0,0:0:0:0:
192,192,125180,128,0,125238:0:0:0:0:
192,192,125295,1,0,0:0:0:0:
192,192,125409,1,0,0:0:0:0:
448,192,125438,1,0,0:0:0:0:
64,192,125523,128,0,125580:0:0:0:0:
64,192,125638,1,0,0:0:0:0:
64,192,125752,1,0,0:0:0:0:
448,192,125780,1,0,0:0:0:0:
320,192,125866,1,0,0:0:0:0:
64,192,125866,128,0,125923:0:0:0:0:
64,192,125980,1,0,0:0:0:0:
64,192,126095,128,0,126209:0:0:0:0:
448,192,126209,128,0,126266:0:0:0:0:
448,192,126323,1,0,0:0:0:0:
448,192,126438,128,0,126495:0:0:0:0:
64,192,126552,1,0,0:0:0:0:
448,192,126552,128,0,126609:0:0:0:0:
448,192,126666,1,0,0:0:0:0:
448,192,126780,128,0,126838:0:0:0:0:
192,192,126809,1,0,0:0:0:0:
64,192,126895,128,0,126952:0:0:0:0:
64,192,127009,1,0,0:0:0:0:
64,192,127123,128,0,127180:0:0:0:0:
320,192,127152,1,0,0:0:0:0:
448,192,127238,1,0,0:0:0:0:
192,192,127238,128,0,127295:0:0:0:0:
192,192,127352,1,0,0:0:0:0:
192,192,127466,1,0,0:0:0:0:
448,192,127580,128,0,127638:0:0:0:0:
64,192,127609,128,0,127695:0:0:0:0:
448,192,127695,1,0,0:0:0:0:
448,192,127809,1,0,0:0:0:0:
320,192,127923,1,0,0:0:0:0:
192,192,127923,128,0,127980:0:0:0:0:
192,192,128038,1,0,0:0:0:0:
192,192,128152,128,0,128209:0:0:0:0:
448,192,128180,1,0,0:0:0:0:
64,192,128266,128,0,128323:0:0:0:0:
64,192,128380,1,0,0:0:0:0:
64,192,128495,1,0,0:0:0:0:
448,192,128523,1,0,0:0:0:0:
320,192,128609,1,0,0:0:0:0:
64,192,128609,128,0,128666:0:0:0:0:
64,192,128723,1,0,0:0:0:0:
64,192,128838,128,0,128952:0:0:0:0:
448,192,128952,128,0,129009:0:0:0:0:
448,192,129066,1,0,0:0:0:0:
448,192,129180,128,0,129238:0:0:0:0:
64,192,129295,1,0,0:0:0:0:
448,192,129295,128,0,129352:0:0:0:0:
448,192,129409,1,0,0:0:0:0:
448,192,129523,128,0,129580:0:0:0:0:
192,192,129552,1,0,0:0:0:0:
64,192,129638,128,0,129695:0:0:0:0:
64,192,129752,1,0,0:0:0:0:
64,192,129866,128,0,129923:0:0:0:0:
448,192,129895,1,0,0:0:0:0:
192,192,129980,1,0,0:0:0:0:
320,192,129980,128,0,130038:0:0:0:0:
448,192,130066,1,0,0:0:0:0:
320,192,130095,1,0,0:0:0:0:
320,192,130209,1,0,0:0:0:0:
64,192,130323,128,0,130380:0:0:0:0:
448,192,130352,128,0,130438:0:0:0:0:
64,192,130438,1,0,0:0:0:0:
448,192,130495,1,0,0:0:0:0:
64,192,130552,1,0,0:0:0:0:
192,192,130666,1,0,0:0:0:0:
320,192,130666,128,0,130723:0:0:0:0:
320,192,130780,1,0,0:0:0:0:
64,192,130838,1,0,0:0:0:0:
320,192,130895,128,0,130952:0:0:0:0:
448,192,131009,128,0,131066:0:0:0:0:
448,192,131123,1,0,0:0:0:0:
192,192,131180,1,0,0:0:0:0:
448,192,131238,128,0,131295:0:0:0:0:
64,192,131352,1,0,0:0:0:0:
448,192,131352,128,0,131409:0:0:0:0:
448,192,131466,1,0,0:0:0:0:
192,192,131523,1,0,0:0:0:0:
448,192,131580,128,0,131695:0:0:0:0:
64,192,131695,128,0,131752:0:0:0:0:
448,192,131780,1,0,0:0:0:0:
64,192,131809,1,0,0:0:0:0:
320,192,131866,1,0,0:0:0:0:
64,192,131923,128,0,131980:0:0:0:0:
192,192,131952,1,0,0:0:0:0:
320,192,132038,1,0,0:0:0:0:
64,192,132038,128,0,132095:0:0:0:0:
448,192,132123,1,0,0:0:0:0:
64,192,132152,1,0,0:0:0:0:
320,192,132209,1,0,0:0:0:0:
64,192,132266,128,0,132323:0:0:0:0:
192,192,132295,1,0,0:0:0:0:
448,192,132380,128,0,132438:0:0:0:0:
64,192,132466,1,0,0:0:0:0:
448,192,132495,1,0,0:0:0:0:
192,192,132552,1,0,0:0:0:0:
448,192,132609,128,0,132666:0:0:0:0:
64,192,132638,1,0,0:0:0:0:
192,192,132723,1,0,0:0:0:0:
320,192,132723,128,0,132780:0:0:0:0:
64,192,132809,1,0,0:0:0:0:
320,192,132838,1,0,0:0:0:0:
192,192,132895,1,0,0:0:0:0:
320,192,132952,1,0,0:0:0:0:
448,192,132980,1,0,0:0:0:0:
192,192,133066,128,0,133123:0:0:0:0:
64,192,133095,128,0,133180:0:0:0:0:
448,192,133152,1,0,0:0:0:0:
192,192,133180,1,0,0:0:0:0:
320,192,133238,1,0,0:0:0:0:
192,192,133295,128,0,133352:0:0:0:0:
64,192,133323,1,0,0:0:0:0:
320,192,133409,1,0,0:0:0:0:
448,192,133409,128,0,133466:0:0:0:0:
192,192,133495,1,0,0:0:0:0:
448,192,133523,1,0,0:0:0:0:
64,192,133580,1,0,0:0:0:0:
448,192,133638,128,0,133695:0:0:0:0:
192,192,133666,1,0,0:0:0:0:
64,192,133752,128,0,133809:0:0:0:0:
320,192,133838,1,0,0:0:0:0:
64,192,133866,1,0,0:0:0:0:
448,192,133923,1,0,0:0:0:0:
64,192,133980,128,0,134038:0:0:0:0:
192,192,134009,1,0,0:0:0:0:
448,192,134095,1,0,0:0:0:0:
320,192,134095,128,0,134152:0:0:0:0:
192,192,134180,1,0,0:0:0:0:
320,192,134209,1,0,0:0:0:0:
64,192,134266,1,0,0:0:0:0:
320,192,134323,128,0,134438:0:0:0:0:
448,192,134352,1,0,0:0:0:0:
192,192,134438,1,0,0:0:0:0:
64,192,134438,128,0,135123:0:0:0:0:
448,192,135123,5,0,0:0:0:0:
192,192,135123,1,0,0:0:0:0:
448,192,135209,1,0,0:0:0:0:
320,192,135295,1,0,0:0:0:0:
64,192,135295,1,0,0:0:0:0:
192,192,135380,1,0,0:0:0:0:
320,192,135466,1,0,0:0:0:0:
64,192,135466,1,0,0:0:0:0:
192,192,135552,1,0,0:0:0:0:
448,192,135638,1,0,0:0:0:0:
320,192,135638,1,0,0:0:0:0:
192,192,135723,1,0,0:0:0:0:
64,192,135723,1,0,0:0:0:0:
64,192,135809,128,0,136323:0:0:0:0:
192,192,135809,128,0,136409:0:0:0:0:
320,192,135809,1,0,0:0:0:0:
64,192,136495,128,0,137095:0:0:0:0:
192,192,136538,128,0,137052:0:0:0:0:
320,192,136580,128,0,137009:0:0:0:0:
448,192,136666,128,0,136966:0:0:0:0:
192,192,137180,128,0,137695:0:0:0:0:
320,192,137180,128,0,137780:0:0:0:0:
448,192,137180,1,0,0:0:0:0:
64,192,137866,128,0,138466:0:0:0:0:
320,192,137909,128,0,138423:0:0:0:0:
448,192,137952,128,0,138380:0:0:0:0:
192,192,138038,128,0,138338:0:0:0:0:
320,192,138552,128,0,139066:0:0:0:0:
448,192,138552,128,0,139152:0:0:0:0:
192,192,138552,1,0,0:0:0:0:
192,192,139238,128,0,139838:0:0:0:0:
320,192,139280,128,0,139795:0:0:0:0:
448,192,139323,128,0,139752:0:0:0:0:
64,192,139409,128,0,139709:0:0:0:0:
320,192,139923,128,0,140009:0:0:0:0:
448,192,139923,128,0,140052:0:0:0:0:
64,192,139923,128,0,140095:0:0:0:0:
192,192,140266,128,0,140352:0:0:0:0:
448,192,140266,128,0,140395:0:0:0:0:
64,192,140266,128,0,140438:0:0:0:0:
192,192,140609,128,0,140695:0:0:0:0:
320,192,140609,128,0,140738:0:0:0:0:
448,192,140609,128,0,140780:0:0:0:0:
64,192,140952,128,0,141038:0:0:0:0:
320,192,140952,128,0,141080:0:0:0:0:
192,192,140952,128,0,141123:0:0:0:0:
64,192,141295,128,0,141809:0:0:0:0:
192,192,141295,128,0,141895:0:0:0:0:
448,192,141295,1,0,0:0:0:0:
64,192,141980,128,0,142580:0:0:0:0:
192,192,142023,128,0,142538:0:0:0:0:
320,192,142066,128,0,142495:0:0:0:0:
448,192,142152,128,0,142452:0:0:0:0:
192,192,142666,128,0,143180:0:0:0:0:
320,192,142666,128,0,143266:0:0:0:0:
448,192,142666,1,0,0:0:0:0:
64,192,143352,128,0,143952:0:0:0:0:
320,192,143395,128,0,143909:0:0:0:0:
448,192,143438,128,0,143866:0:0:0:0:
192,192,143523,128,0,143823:0:0:0:0:
320,192,144038,128,0,144809:0:0:0:0:
192,192,144038,1,0,0:0:0:0:
448,192,144038,128,0,145323:0:0:0:0:
320,192,144895,128,0,145409:0:0:0:0:
192,192,145238,128,0,145495:0:0:0:0:
448,192,145409,128,0,145838:0:0:0:0:
320,192,145495,128,0,145752:0:0:0:0:
192,192,145580,128,0,145923:0:0:0:0:
64,192,145666,128,0,146095:0:0:0:0:
448,192,145923,128,0,146180:0:0:0:0:
320,192,146009,128,0,146266:0:0:0:0:
192,192,146095,128,0,146352:0:0:0:0:
64,192,146180,128,0,146523:0:0:0:0:
448,192,146266,128,0,146523:0:0:0:0:
192,192,146438,128,0,146609:0:0:0:0:
320,192,146523,128,0,146695:0:0:0:0:
448,192,146609,128,0,146780:0:0:0:0:
64,192,146780,128,0,147295:0:0:0:0:
192,192,146780,128,0,147380:0:0:0:0:
320,192,146780,1,0,0:0:0:0:
64,192,147466,128,0,147980:0:0:0:0:
192,192,147509,128,0,147895:0:0:0:0:
320,192,147552,128,0,147809:0:0:0:0:
448,192,147638,128,0,147723:0:0:0:0:
448,192,147809,1,0,0:0:0:0:
320,192,147895,1,0,0:0:0:0:
192,192,147980,1,0,0:0:0:0:
64,192,148066,1,0,0:0:0:0:
192,192,148152,128,0,148666:0:0:0:0:
320,192,148152,128,0,148752:0:0:0:0:
448,192,148152,1,0,0:0:0:0:
64,192,148838,128,0,149352:0:0:0:0:
320,192,148880,128,0,149266:0:0:0:0:
448,192,148923,128,0,149180:0:0:0:0:
192,192,149009,128,0,149095:0:0:0:0:
192,192,149180,1,0,0:0:0:0:
448,192,149266,1,0,0:0:0:0:
320,192,149352,1,0,0:0:0:0:
64,192,149438,1,0,0:0:0:0:
320,192,149523,128,0,150038:0:0:0:0:
448,192,149523,128,0,150123:0:0:0:0:
192,192,149523,1,0,0:0:0:0:
192,192,150209,128,0,150723:0:0:0:0:
320,192,150252,128,0,150638:0:0:0:0:
448,192,150295,128,0,150552:0:0:0:0:
64,192,150380,128,0,150466:0:0:0:0:
64,192,150552,1,0,0:0:0:0:
448,192,150638,1,0,0:0:0:0:
320,192,150723,1,0,0:0:0:0:
192,192,150809,1,0,0:0:0:0:
320,192,150895,128,0,150980:0:0:0:0:
448,192,150895,128,0,151023:0:0:0:0:
64,192,150895,128,0,151066:0:0:0:0:
192,192,151238,128,0,151323:0:0:0:0:
448,192,151238,128,0,151366:0:0:0:0:
64,192,151238,128,0,151409:0:0:0:0:
192,192,151580,128,0,151666:0:0:0:0:
320,192,151580,128,0,151709:0:0:0:0:
448,192,151580,128,0,151752:0:0:0:0:
64,192,151923,128,0,152009:0:0:0:0:
320,192,151923,128,0,152052:0:0:0:0:
192,192,151923,128,0,152095:0:0:0:0:
64,192,152266,128,0,152780:0:0:0:0:
192,192,152266,128,0,152866:0:0:0:0:
320,192,152266,1,0,0:0:0:0:
64,192,152952,128,0,153466:0:0:0:0:
192,192,152995,128,0,153380:0:0:0:0:
320,192,153038,128,0,153295:0:0:0:0:
448,192,153123,128,0,153209:0:0:0:0:
448,192,153295,1,0,0:0:0:0:
320,192,153380,1,0,0:0:0:0:
192,192,153466,1,0,0:0:0:0:
64,192,153552,1,0,0:0:0:0:
192,192,153638,128,0,154152:0:0:0:0:
320,192,153638,128,0,154238:0:0:0:0:
448,192,153638,1,0,0:0:0:0:
64,192,154323,128,0,154838:0:0:0:0:
320,192,154366,128,0,154752:0:0:0:0:
448,192,154409,128,0,154666:0:0:0:0:
192,192,154495,128,0,154580:0:0:0:0:
192,192,154666,1,0,0:0:0:0:
448,192,154752,1,0,0:0:0:0:
320,192,154838,1,0,0:0:0:0:
64,192,154923,1,0,0:0:0:0:
320,192,155009,128,0,155780:0:0:0:0:
192,192,155009,1,0,0:0:0:0:
448,192,155009,128,0,156295:0:0:0:0:
320,192,155866,128,0,156380:0:0:0:0:
192,192,156209,128,0,156466:0:0:0:0:
448,192,156380,128,0,156809:0:0:0:0:
320,192,156466,128,0,156723:0:0:0:0:
192,192,156552,128,0,156895:0:0:0:0:
64,192,156638,128,0,157066:0:0:0:0:
448,192,156895,128,0,157152:0:0:0:0:
320,192,156980,128,0,157238:0:0:0:0:
192,192,157066,128,0,157323:0:0:0:0:
64,192,157152,128,0,157495:0:0:0:0:
448,192,157238,128,0,157495:0:0:0:0:
192,192,157409,128,0,157580:0:0:0:0:
320,192,157495,128,0,157666:0:0:0:0:
448,192,157580,128,0,157752:0:0:0:0:
320,192,157752,1,0,0:0:0:0:
192,192,157752,128,0,158352:0:0:0:0:
64,192,157752,128,0,158266:0:0:0:0:
448,192,158095,1,0,0:0:0:0:
320,192,158266,1,0,0:0:0:0:
192,192,158438,1,0,0:0:0:0:
64,192,158438,1,0,0:0:0:0:
64,192,158609,1,0,0:0:0:0:
64,192,158780,1,0,0:0:0:0:
448,192,158780,1,0,0:0:0:0:
320,192,158952,1,0,0:0:0:0:
320,192,159038,1,0,0:0:0:0:
192,192,159123,1,0,0:0:0:0:
64,192,159295,1,0,0:0:0:0:
192,192,159380,1,0,0:0:0:0:
448,192,159466,1,0,0:0:0:0:
320,192,159638,1,0,0:0:0:0:
192,192,159638,1,0,0:0:0:0:
448,192,159723,1,0,0:0:0:0:
192,192,159809,1,0,0:0:0:0:
64,192,159809,1,0,0:0:0:0:
192,192,159980,1,0,0:0:0:0:
320,192,159980,1,0,0:0:0:0:
448,192,160152,1,0,0:0:0:0:
64,192,160152,1,0,0:0:0:0:
320,192,160323,1,0,0:0:0:0:
320,192,160409,1,0,0:0:0:0:
192,192,160495,1,0,0:0:0:0:
64,192,160666,1,0,0:0:0:0:
192,192,160752,1,0,0:0:0:0:
448,192,160838,1,0,0:0:0:0:
448,192,161009,1,0,0:0:0:0:
320,192,161095,1,0,0:0:0:0:
192,192,161180,1,0,0:0:0:0:
64,192,161180,1,0,0:0:0:0:
64,192,161352,1,0,0:0:0:0:
448,192,161523,1,0,0:0:0:0:
64,192,161523,1,0,0:0:0:0:
320,192,161695,1,0,0:0:0:0:
320,192,161780,1,0,0:0:0:0:
192,192,161866,1,0,0:0:0:0:
64,192,162038,1,0,0:0:0:0:
192,192,162123,1,0,0:0:0:0:
448,192,162209,1,0,0:0:0:0:
448,192,162380,1,0,0:0:0:0:
320,192,162466,1,0,0:0:0:0:
192,192,162552,1,0,0:0:0:0:
64,192,162552,1,0,0:0:0:0:
192,192,162723,1,0,0:0:0:0:
320,192,162723,1,0,0:0:0:0:
64,192,162895,1,0,0:0:0:0:
448,192,162895,1,0,0:0:0:0:
320,192,163066,1,0,0:0:0:0:
320,192,163152,1,0,0:0:0:0:
192,192,163238,1,0,0:0:0:0:
64,192,163409,1,0,0:0:0:0:
192,192,163495,1,0,0:0:0:0:
448,192,163580,1,0,0:0:0:0:
320,192,163752,1,0,0:0:0:0:
192,192,163923,1,0,0:0:0:0:
64,192,163923,1,0,0:0:0:0:
64,192,164095,1,0,0:0:0:0:
448,192,164266,1,0,0:0:0:0:
64,192,164266,1,0,0:0:0:0:
320,192,164438,1,0,0:0:0:0:
320,192,164523,1,0,0:0:0:0:
192,192,164609,1,0,0:0:0:0:
64,192,164780,1,0,0:0:0:0:
192,192,164866,1,0,0:0:0:0:
448,192,164952,1,0,0:0:0:0:
320,192,165123,1,0,0:0:0:0:
192,192,165123,1,0,0:0:0:0:
448,192,165209,1,0,0:0:0:0:
192,192,165295,1,0,0:0:0:0:
64,192,165295,1,0,0:0:0:0:
192,192,165466,1,0,0:0:0:0:
320,192,165466,1,0,0:0:0:0:
448,192,165638,1,0,0:0:0:0:
64,192,165638,1,0,0:0:0:0:
320,192,165809,1,0,0:0:0:0:
320,192,165895,1,0,0:0:0:0:
192,192,165980,1,0,0:0:0:0:
64,192,166152,1,0,0:0:0:0:
192,192,166238,1,0,0:0:0:0:
448,192,166323,1,0,0:0:0:0:
448,192,166495,1,0,0:0:0:0:
320,192,166580,1,0,0:0:0:0:
192,192,166666,1,0,0:0:0:0:
64,192,166666,1,0,0:0:0:0:
192,192,166838,1,0,0:0:0:0:
320,192,166838,1,0,0:0:0:0:
64,192,167009,1,0,0:0:0:0:
448,192,167009,1,0,0:0:0:0:
320,192,167180,1,0,0:0:0:0:
320,192,167266,1,0,0:0:0:0:
192,192,167352,1,0,0:0:0:0:
64,192,167523,1,0,0:0:0:0:
192,192,167609,1,0,0:0:0:0:
448,192,167695,1,0,0:0:0:0:
448,192,167866,1,0,0:0:0:0:
64,192,167952,1,0,0:0:0:0:
192,192,168038,1,0,0:0:0:0:
448,192,168038,1,0,0:0:0:0:
448,192,168123,1,0,0:0:0:0:
320,192,168209,1,0,0:0:0:0:
64,192,168209,1,0,0:0:0:0:
192,192,168295,1,0,0:0:0:0:
64,192,168380,1,0,0:0:0:0:
320,192,168380,1,0,0:0:0:0:
192,192,168466,1,0,0:0:0:0:
448,192,168552,1,0,0:0:0:0:
320,192,168552,1,0,0:0:0:0:
192,192,168638,1,0,0:0:0:0:
64,192,168638,1,0,0:0:0:0:
64,192,168723,128,0,169238:0:0:0:0:
192,192,168723,128,0,169323:0:0:0:0:
320,192,168723,1,0,0:0:0:0:
320,192,169066,1,0,0:0:0:0:
448,192,169238,128,0,169409:0:0:0:0:
448,192,169580,128,0,169666:0:0:0:0:
320,192,169752,128,0,169838:0:0:0:0:
64,192,169752,1,0,0:0:0:0:
192,192,169923,128,0,170009:0:0:0:0:
64,192,170095,128,0,170609:0:0:0:0:
320,192,170095,1,0,0:0:0:0:
192,192,170095,128,0,170695:0:0:0:0:
448,192,170352,128,0,170523:0:0:0:0:
320,192,170438,1,0,0:0:0:0:
448,192,170609,128,0,170695:0:0:0:0:
320,192,170780,128,0,170866:0:0:0:0:
192,192,170952,128,0,171038:0:0:0:0:
64,192,171123,128,0,171380:0:0:0:0:
448,192,171123,1,0,0:0:0:0:
192,192,171466,128,0,172066:0:0:0:0:
320,192,171466,1,0,0:0:0:0:
64,192,171466,128,0,171980:0:0:0:0:
320,192,171809,1,0,0:0:0:0:
448,192,171980,128,0,172152:0:0:0:0:
448,192,172323,128,0,172409:0:0:0:0:
320,192,172495,128,0,172580:0:0:0:0:
64,192,172495,1,0,0:0:0:0:
192,192,172666,128,0,172752:0:0:0:0:
64,192,172838,128,0,173352:0:0:0:0:
320,192,172838,1,0,0:0:0:0:
192,192,172838,128,0,173523:0:0:0:0:
448,192,173095,128,0,173266:0:0:0:0:
320,192,173180,128,0,173438:0:0:0:0:
448,192,173352,128,0,173395:0:0:0:0:
320,192,173523,128,0,173609:0:0:0:0:
64,192,173695,128,0,173780:0:0:0:0:
192,192,173695,128,0,173866:0:0:0:0:
320,192,173695,1,0,0:0:0:0:
192,192,174038,128,0,174123:0:0:0:0:
64,192,174038,128,0,174080:0:0:0:0:
320,192,174038,1,0,0:0:0:0:
192,192,174209,128,0,174809:0:0:0:0:
64,192,174209,128,0,174723:0:0:0:0:
320,192,174209,128,0,174466:0:0:0:0:
320,192,174552,1,0,0:0:0:0:
448,192,174723,128,0,174895:0:0:0:0:
448,192,175066,128,0,175152:0:0:0:0:
320,192,175238,128,0,175323:0:0:0:0:
64,192,175238,1,0,0:0:0:0:
192,192,175409,128,0,175495:0:0:0:0:
64,192,175580,128,0,176095:0:0:0:0:
320,192,175580,1,0,0:0:0:0:
192,192,175580,128,0,176180:0:0:0:0:
448,192,175838,128,0,176009:0:0:0:0:
320,192,175923,1,0,0:0:0:0:
448,192,176095,128,0,176180:0:0:0:0:
320,192,176266,128,0,176352:0:0:0:0:
192,192,176438,128,0,176523:0:0:0:0:
64,192,176609,128,0,176866:0:0:0:0:
448,192,176609,1,0,0:0:0:0:
192,192,176952,128,0,177552:0:0:0:0:
320,192,176952,1,0,0:0:0:0:
64,192,176952,128,0,177466:0:0:0:0:
320,192,177295,1,0,0:0:0:0:
448,192,177466,128,0,177638:0:0:0:0:
448,192,177809,128,0,177895:0:0:0:0:
320,192,177980,128,0,178066:0:0:0:0:
64,192,177980,1,0,0:0:0:0:
192,192,178152,128,0,178238:0:0:0:0:
64,192,178323,128,0,178838:0:0:0:0:
320,192,178323,1,0,0:0:0:0:
192,192,178323,128,0,178923:0:0:0:0:
448,192,178580,128,0,178752:0:0:0:0:
320,192,178666,1,0,0:0:0:0:
448,192,178838,128,0,178880:0:0:0:0:
448,192,179009,1,0,0:0:0:0:
192,192,179009,128,0,179095:0:0:0:0:
448,192,179095,1,0,0:0:0:0:
64,192,179180,1,0,0:0:0:0:
320,192,179180,128,0,179266:0:0:0:0:
192,192,179266,1,0,0:0:0:0:
320,192,179352,1,0,0:0:0:0:
64,192,179352,1,0,0:0:0:0:
192,192,179438,1,0,0:0:0:0:
448,192,179523,1,0,0:0:0:0:
320,192,179523,1,0,0:0:0:0:
64,192,179609,1,0,0:0:0:0:
192,192,179609,1,0,0:0:0:0:
192,192,179695,1,0,0:0:0:0:
64,192,179695,1,0,0:0:0:0:
320,192,179866,1,0,0:0:0:0:
192,192,180038,1,0,0:0:0:0:
448,192,180209,128,0,180380:0:0:0:0:
192,192,180380,1,0,0:0:0:0:
448,192,180552,128,0,180638:0:0:0:0:
320,192,180723,128,0,180809:0:0:0:0:
192,192,180895,128,0,180980:0:0:0:0:
64,192,181066,1,0,0:0:0:0:
320,192,181238,1,0,0:0:0:0:
448,192,181323,128,0,181495:0:0:0:0:
192,192,181409,1,0,0:0:0:0:
448,192,181580,128,0,181666:0:0:0:0:
320,192,181752,128,0,181838:0:0:0:0:
192,192,181923,128,0,182009:0:0:0:0:
64,192,182095,128,0,182180:0:0:0:0:
320,192,182266,1,0,0:0:0:0:
192,192,182438,1,0,0:0:0:0:
320,192,182609,1,0,0:0:0:0:
192,192,182780,1,0,0:0:0:0:
448,192,182952,128,0,183123:0:0:0:0:
192,192,183123,1,0,0:0:0:0:
448,192,183295,128,0,183380:0:0:0:0:
320,192,183466,128,0,183552:0:0:0:0:
192,192,183638,128,0,183723:0:0:0:0:
64,192,183809,1,0,0:0:0:0:
320,192,183980,1,0,0:0:0:0:
448,192,184066,128,0,184238:0:0:0:0:
192,192,184152,1,0,0:0:0:0:
448,192,184323,128,0,184366:0:0:0:0:
320,192,184495,128,0,184580:0:0:0:0:
192,192,184666,128,0,184752:0:0:0:0:
64,192,184838,128,0,184923:0:0:0:0:
320,192,185009,1,0,0:0:0:0:
64,192,185180,128,0,186552:0:0:0:0:
192,192,185180,128,0,185523:0:0:0:0:
320,192,185523,128,0,186038:0:0:0:0:
448,192,185695,128,0,185866:0:0:0:0:
192,192,185866,128,0,186209:0:0:0:0:
448,192,186038,128,0,186123:0:0:0:0:
320,192,186209,128,0,186295:0:0:0:0:
192,192,186380,128,0,186466:0:0:0:0:
320,192,186552,128,0,187152:0:0:0:0:
192,192,186638,1,0,0:0:0:0:
64,192,186723,1,0,0:0:0:0:
448,192,186809,128,0,186980:0:0:0:0:
192,192,186895,1,0,0:0:0:0:
64,192,186980,1,0,0:0:0:0:
448,192,187066,128,0,187409:0:0:0:0:
192,192,187152,1,0,0:0:0:0:
320,192,187238,128,0,187666:0:0:0:0:
64,192,187323,1,0,0:0:0:0:
192,192,187409,128,0,187495:0:0:0:0:
448,192,187495,128,0,187752:0:0:0:0:
64,192,187580,128,0,187666:0:0:0:0:
192,192,187666,1,0,0:0:0:0:
320,192,187752,1,0,0:0:0:0:
448,192,187838,1,0,0:0:0:0:
64,192,187923,5,0,0:0:0:0:
192,192,187923,128,0,188009:0:0:0:0:
320,192,187923,128,0,188180:0:0:0:0:
64,192,188095,128,0,188180:0:0:0:0:
64,192,188266,128,0,188352:0:0:0:0:
192,192,188266,128,0,188523:0:0:0:0:
448,192,188266,128,0,188352:0:0:0:0:
320,192,188438,128,0,188523:0:0:0:0:
448,192,188438,128,0,188523:0:0:0:0:
192,192,188609,128,0,188866:0:0:0:0:
320,192,188609,128,0,188695:0:0:0:0:
64,192,188609,128,0,188695:0:0:0:0:
448,192,188780,128,0,188866:0:0:0:0:
64,192,188780,128,0,188866:0:0:0:0:
320,192,188780,128,0,188866:0:0:0:0:
320,192,188952,128,0,189209:0:0:0:0:
448,192,188952,128,0,189038:0:0:0:0:
192,192,188952,128,0,189038:0:0:0:0:
64,192,189209,128,0,189295:0:0:0:0:
320,192,189295,1,0,0:0:0:0:
448,192,189295,1,0,0:0:0:0:
320,192,189380,1,0,0:0:0:0:
448,192,189380,1,0,0:0:0:0:
192,192,189466,1,0,0:0:0:0:
320,192,189552,1,0,0:0:0:0:
192,192,189638,1,0,0:0:0:0:
64,192,189638,1,0,0:0:0:0:
64,192,189723,1,0,0:0:0:0:
192,192,189723,1,0,0:0:0:0:
448,192,189809,1,0,0:0:0:0:
64,192,189895,1,0,0:0:0:0:
192,192,189980,1,0,0:0:0:0:
448,192,189980,1,0,0:0:0:0:
192,192,190066,1,0,0:0:0:0:
448,192,190066,1,0,0:0:0:0:
320,192,190152,1,0,0:0:0:0:
64,192,190238,1,0,0:0:0:0:
192,192,190323,1,0,0:0:0:0:
320,192,190323,1,0,0:0:0:0:
448,192,190323,1,0,0:0:0:0:
448,192,190666,128,0,190752:0:0:0:0:
64,192,190666,128,0,190923:0:0:0:0:
320,192,190666,128,0,190795:0:0:0:0:
192,192,190666,128,0,190838:0:0:0:0:
448,192,190838,128,0,191009:0:0:0:0:
320,192,191009,1,0,0:0:0:0:
192,192,191009,1,0,0:0:0:0:
64,192,191009,1,0,0:0:0:0:
448,192,191180,128,0,191352:0:0:0:0:
192,192,191266,1,0,0:0:0:0:
64,192,191266,1,0,0:0:0:0:
64,192,191352,1,0,0:0:0:0:
448,192,191523,128,0,191609:0:0:0:0:
320,192,191523,1,0,0:0:0:0:
192,192,191609,1,0,0:0:0:0:
320,192,191695,128,0,191780:0:0:0:0:
192,192,191695,1,0,0:0:0:0:
64,192,191695,1,0,0:0:0:0:
448,192,191780,1,0,0:0:0:0:
192,192,191866,128,0,191952:0:0:0:0:
64,192,191952,1,0,0:0:0:0:
320,192,192038,1,0,0:0:0:0:
448,192,192038,128,0,192095:0:0:0:0:
320,192,192123,1,0,0:0:0:0:
64,192,192209,128,0,192295:0:0:0:0:
192,192,192238,128,0,192323:0:0:0:0:
448,192,192295,128,0,192466:0:0:0:0:
320,192,192380,1,0,0:0:0:0:
192,192,192380,1,0,0:0:0:0:
64,192,192380,1,0,0:0:0:0:
64,192,192466,1,0,0:0:0:0:
448,192,192552,128,0,192638:0:0:0:0:
320,192,192552,1,0,0:0:0:0:
64,192,192638,1,0,0:0:0:0:
192,192,192638,128,0,192766:0:0:0:0:
320,192,192723,128,0,192809:0:0:0:0:
448,192,192766,128,0,192852:0:0:0:0:
192,192,192895,128,0,192980:0:0:0:0:
64,192,192938,128,0,193023:0:0:0:0:
448,192,192980,1,0,0:0:0:0:
64,192,193066,128,0,193323:0:0:0:0:
320,192,193066,1,0,0:0:0:0:
192,192,193066,1,0,0:0:0:0:
320,192,193238,1,0,0:0:0:0:
448,192,193323,1,0,0:0:0:0:
320,192,193409,128,0,193538:0:0:0:0:
192,192,193409,128,0,193580:0:0:0:0:
64,192,193409,128,0,193666:0:0:0:0:
448,192,193409,128,0,193495:0:0:0:0:
448,192,193580,128,0,193752:0:0:0:0:
320,192,193752,1,0,0:0:0:0:
192,192,193752,128,0,193838:0:0:0:0:
64,192,193780,128,0,193866:0:0:0:0:
448,192,193923,128,0,194095:0:0:0:0:
320,192,193923,1,0,0:0:0:0:
192,192,194009,1,0,0:0:0:0:
64,192,194009,1,0,0:0:0:0:
64,192,194095,128,0,194152:0:0:0:0:
448,192,194266,128,0,194352:0:0:0:0:
320,192,194266,1,0,0:0:0:0:
192,192,194352,1,0,0:0:0:0:
320,192,194438,128,0,194523:0:0:0:0:
192,192,194438,1,0,0:0:0:0:
64,192,194438,1,0,0:0:0:0:
448,192,194523,1,0,0:0:0:0:
192,192,194609,128,0,194695:0:0:0:0:
64,192,194695,1,0,0:0:0:0:
320,192,194780,1,0,0:0:0:0:
448,192,194780,1,0,0:0:0:0:
320,192,194866,1,0,0:0:0:0:
64,192,194952,1,0,0:0:0:0:
448,192,195038,128,0,195209:0:0:0:0:
192,192,195038,1,0,0:0:0:0:
320,192,195123,1,0,0:0:0:0:
192,192,195123,1,0,0:0:0:0:
64,192,195123,1,0,0:0:0:0:
448,192,195295,128,0,195338:0:0:0:0:
320,192,195295,1,0,0:0:0:0:
320,192,195466,128,0,195552:0:0:0:0:
448,192,195509,128,0,195595:0:0:0:0:
192,192,195638,128,0,195723:0:0:0:0:
64,192,195638,1,0,0:0:0:0:
64,192,195809,128,0,196066:0:0:0:0:
192,192,195809,1,0,0:0:0:0:
448,192,195809,1,0,0:0:0:0:
448,192,195895,1,0,0:0:0:0:
320,192,195895,1,0,0:0:0:0:
192,192,195980,1,0,0:0:0:0:
320,192,196152,128,0,196280:0:0:0:0:
64,192,196152,128,0,196409:0:0:0:0:
192,192,196152,128,0,196323:0:0:0:0:
448,192,196152,128,0,196238:0:0:0:0:
448,192,196323,128,0,196495:0:0:0:0:
192,192,196495,1,0,0:0:0:0:
64,192,196495,1,0,0:0:0:0:
320,192,196495,1,0,0:0:0:0:
448,192,196580,1,0,0:0:0:0:
64,192,196666,1,0,0:0:0:0:
192,192,196666,1,0,0:0:0:0:
448,192,196752,1,0,0:0:0:0:
64,192,196838,1,0,0:0:0:0:
448,192,196923,1,0,0:0:0:0:
64,192,197009,128,0,197095:0:0:0:0:
192,192,197052,128,0,197138:0:0:0:0:
448,192,197095,128,0,197180:0:0:0:0:
64,192,197180,1,0,0:0:0:0:
320,192,197180,1,0,0:0:0:0:
192,192,197180,1,0,0:0:0:0:
448,192,197266,1,0,0:0:0:0:
192,192,197352,128,0,197438:0:0:0:0:
64,192,197395,128,0,197480:0:0:0:0:
448,192,197438,1,0,0:0:0:0:
320,192,197523,128,0,197609:0:0:0:0:
192,192,197552,128,0,197638:0:0:0:0:
320,192,197695,128,0,197780:0:0:0:0:
192,192,197723,128,0,197809:0:0:0:0:
320,192,197866,1,0,0:0:0:0:
448,192,197866,1,0,0:0:0:0:
64,192,197866,1,0,0:0:0:0:
192,192,197952,1,0,0:0:0:0:
320,192,198038,128,0,198123:0:0:0:0:
448,192,198080,128,0,198166:0:0:0:0:
64,192,198123,128,0,198209:0:0:0:0:
192,192,198209,1,0,0:0:0:0:
64,192,198295,1,0,0:0:0:0:
192,192,198380,128,0,198466:0:0:0:0:
320,192,198423,128,0,198509:0:0:0:0:
448,192,198466,128,0,198552:0:0:0:0:
320,192,198552,1,0,0:0:0:0:
192,192,198552,1,0,0:0:0:0:
64,192,198552,1,0,0:0:0:0:
448,192,198638,1,0,0:0:0:0:
64,192,198723,1,0,0:0:0:0:
192,192,198723,1,0,0:0:0:0:
320,192,198809,1,0,0:0:0:0:
320,192,198895,128,0,199023:0:0:0:0:
64,192,198895,128,0,199152:0:0:0:0:
192,192,198895,128,0,199066:0:0:0:0:
448,192,198895,128,0,198980:0:0:0:0:
448,192,199066,128,0,199238:0:0:0:0:
320,192,199238,128,0,199352:0:0:0:0:
192,192,199266,128,0,199352:0:0:0:0:
64,192,199295,128,0,199352:0:0:0:0:
64,192,199409,128,0,199523:0:0:0:0:
192,192,199438,128,0,199523:0:0:0:0:
320,192,199466,128,0,199523:0:0:0:0:
448,192,199495,1,0,0:0:0:0:
192,192,199580,128,0,199666:0:0:0:0:
320,192,199609,128,0,199695:0:0:0:0:
64,192,199752,128,0,199838:0:0:0:0:
448,192,199780,128,0,199866:0:0:0:0:
320,192,199923,1,0,0:0:0:0:
192,192,199923,1,0,0:0:0:0:
64,192,199923,1,0,0:0:0:0:
448,192,200009,1,0,0:0:0:0:
192,192,200095,1,0,0:0:0:0:
64,192,200095,1,0,0:0:0:0:
448,192,200180,1,0,0:0:0:0:
448,192,200266,128,0,200523:0:0:0:0:
320,192,200266,128,0,200438:0:0:0:0:
64,192,200266,128,0,200352:0:0:0:0:
320,192,200609,128,0,200866:0:0:0:0:
448,192,200609,128,0,200780:0:0:0:0:
192,192,200609,128,0,200695:0:0:0:0:
448,192,200952,128,0,201038:0:0:0:0:
64,192,200952,128,0,200995:0:0:0:0:
192,192,200952,128,0,201123:0:0:0:0:
320,192,201038,1,0,0:0:0:0:
64,192,201123,1,0,0:0:0:0:
448,192,201123,1,0,0:0:0:0:
448,192,201209,1,0,0:0:0:0:
192,192,201209,1,0,0:0:0:0:
64,192,201295,128,0,201552:0:0:0:0:
192,192,201295,128,0,201466:0:0:0:0:
320,192,201295,128,0,201380:0:0:0:0:
448,192,201638,128,0,201723:0:0:0:0:
64,192,201638,128,0,201895:0:0:0:0:
320,192,201638,128,0,201766:0:0:0:0:
192,192,201638,128,0,201809:0:0:0:0:
448,192,201809,128,0,201980:0:0:0:0:
320,192,201980,1,0,0:0:0:0:
192,192,201980,1,0,0:0:0:0:
64,192,201980,1,0,0:0:0:0:
448,192,202152,128,0,202323:0:0:0:0:
192,192,202238,1,0,0:0:0:0:
64,192,202238,1,0,0:0:0:0:
64,192,202323,1,0,0:0:0:0:
448,192,202495,128,0,202580:0:0:0:0:
320,192,202495,1,0,0:0:0:0:
192,192,202580,1,0,0:0:0:0:
320,192,202666,128,0,202752:0:0:0:0:
192,192,202666,1,0,0:0:0:0:
64,192,202666,1,0,0:0:0:0:
448,192,202752,1,0,0:0:0:0:
192,192,202838,128,0,202923:0:0:0:0:
64,192,202923,1,0,0:0:0:0:
320,192,203009,1,0,0:0:0:0:
448,192,203009,128,0,203066:0:0:0:0:
320,192,203095,1,0,0:0:0:0:
64,192,203180,128,0,203266:0:0:0:0:
192,192,203209,128,0,203295:0:0:0:0:
448,192,203266,128,0,203438:0:0:0:0:
320,192,203352,1,0,0:0:0:0:
192,192,203352,1,0,0:0:0:0:
64,192,203352,1,0,0:0:0:0:
64,192,203438,1,0,0:0:0:0:
448,192,203523,128,0,203609:0:0:0:0:
320,192,203523,1,0,0:0:0:0:
64,192,203609,1,0,0:0:0:0:
192,192,203609,128,0,203738:0:0:0:0:
320,192,203695,128,0,203780:0:0:0:0:
448,192,203738,128,0,203823:0:0:0:0:
192,192,203866,128,0,203952:0:0:0:0:
64,192,203909,128,0,203995:0:0:0:0:
448,192,203952,1,0,0:0:0:0:
64,192,204038,128,0,204295:0:0:0:0:
320,192,204038,1,0,0:0:0:0:
192,192,204038,1,0,0:0:0:0:
320,192,204209,1,0,0:0:0:0:
448,192,204295,1,0,0:0:0:0:
320,192,204380,128,0,204509:0:0:0:0:
192,192,204380,128,0,204552:0:0:0:0:
64,192,204380,128,0,204638:0:0:0:0:
448,192,204380,128,0,204466:0:0:0:0:
448,192,204552,128,0,204723:0:0:0:0:
320,192,204723,1,0,0:0:0:0:
192,192,204723,128,0,204809:0:0:0:0:
64,192,204752,128,0,204838:0:0:0:0:
448,192,204895,128,0,205066:0:0:0:0:
320,192,204895,1,0,0:0:0:0:
192,192,204980,1,0,0:0:0:0:
64,192,204980,1,0,0:0:0:0:
64,192,205066,128,0,205123:0:0:0:0:
448,192,205238,128,0,205323:0:0:0:0:
320,192,205238,1,0,0:0:0:0:
192,192,205323,1,0,0:0:0:0:
320,192,205409,128,0,205495:0:0:0:0:
192,192,205409,1,0,0:0:0:0:
64,192,205409,1,0,0:0:0:0:
448,192,205495,1,0,0:0:0:0:
192,192,205580,128,0,205666:0:0:0:0:
64,192,205666,1,0,0:0:0:0:
320,192,205752,1,0,0:0:0:0:
448,192,205752,1,0,0:0:0:0:
320,192,205838,1,0,0:0:0:0:
64,192,205923,1,0,0:0:0:0:
448,192,206009,128,0,206180:0:0:0:0:
192,192,206009,1,0,0:0:0:0:
320,192,206095,1,0,0:0:0:0:
192,192,206095,1,0,0:0:0:0:
64,192,206095,1,0,0:0:0:0:
448,192,206266,128,0,206309:0:0:0:0:
320,192,206266,1,0,0:0:0:0:
320,192,206438,128,0,206523:0:0:0:0:
448,192,206480,128,0,206566:0:0:0:0:
192,192,206609,128,0,206695:0:0:0:0:
64,192,206609,1,0,0:0:0:0:
64,192,206780,128,0,207038:0:0:0:0:
192,192,206780,1,0,0:0:0:0:
448,192,206780,1,0,0:0:0:0:
448,192,206866,1,0,0:0:0:0:
320,192,206866,1,0,0:0:0:0:
192,192,206952,1,0,0:0:0:0:
320,192,207123,128,0,207252:0:0:0:0:
64,192,207123,128,0,207380:0:0:0:0:
192,192,207123,128,0,207295:0:0:0:0:
448,192,207123,128,0,207209:0:0:0:0:
448,192,207295,128,0,207466:0:0:0:0:
192,192,207466,1,0,0:0:0:0:
64,192,207466,1,0,0:0:0:0:
320,192,207466,1,0,0:0:0:0:
448,192,207552,1,0,0:0:0:0:
64,192,207638,1,0,0:0:0:0:
192,192,207638,1,0,0:0:0:0:
448,192,207723,1,0,0:0:0:0:
64,192,207809,1,0,0:0:0:0:
448,192,207895,1,0,0:0:0:0:
64,192,207980,128,0,208066:0:0:0:0:
192,192,208023,128,0,208109:0:0:0:0:
448,192,208066,128,0,208152:0:0:0:0:
64,192,208152,1,0,0:0:0:0:
320,192,208152,1,0,0:0:0:0:
192,192,208152,1,0,0:0:0:0:
448,192,208238,1,0,0:0:0:0:
192,192,208323,128,0,208409:0:0:0:0:
64,192,208366,128,0,208452:0:0:0:0:
448,192,208409,1,0,0:0:0:0:
320,192,208495,128,0,208580:0:0:0:0:
192,192,208523,128,0,208609:0:0:0:0:
320,192,208666,128,0,208752:0:0:0:0:
192,192,208695,128,0,208780:0:0:0:0:
320,192,208838,1,0,0:0:0:0:
448,192,208838,1,0,0:0:0:0:
64,192,208838,1,0,0:0:0:0:
192,192,208923,1,0,0:0:0:0:
320,192,209009,128,0,209095:0:0:0:0:
448,192,209052,128,0,209138:0:0:0:0:
64,192,209095,128,0,209180:0:0:0:0:
192,192,209180,1,0,0:0:0:0:
64,192,209266,1,0,0:0:0:0:
192,192,209352,128,0,209438:0:0:0:0:
320,192,209395,128,0,209480:0:0:0:0:
448,192,209438,128,0,209523:0:0:0:0:
320,192,209523,1,0,0:0:0:0:
192,192,209523,1,0,0:0:0:0:
64,192,209523,1,0,0:0:0:0:
448,192,209609,1,0,0:0:0:0:
64,192,209695,1,0,0:0:0:0:
192,192,209695,1,0,0:0:0:0:
320,192,209780,1,0,0:0:0:0:
64,192,209866,1,0,0:0:0:0:
192,192,209866,128,0,209952:0:0:0:0:
320,192,209866,128,0,210123:0:0:0:0:
64,192,210038,128,0,210123:0:0:0:0:
448,192,210038,128,0,210209:0:0:0:0:
64,192,210209,128,0,210295:0:0:0:0:
192,192,210209,128,0,210466:0:0:0:0:
320,192,210380,128,0,210466:0:0:0:0:
192,192,210552,128,0,210809:0:0:0:0:
320,192,210552,128,0,210638:0:0:0:0:
448,192,210723,128,0,210809:0:0:0:0:
64,192,210723,128,0,210809:0:0:0:0:
320,192,210895,128,0,211152:0:0:0:0:
448,192,210895,128,0,210980:0:0:0:0:
64,192,211152,128,0,211238:0:0:0:0:
320,192,211238,1,0,0:0:0:0:
448,192,211238,1,0,0:0:0:0:
320,192,211323,1,0,0:0:0:0:
448,192,211323,1,0,0:0:0:0:
192,192,211409,1,0,0:0:0:0:
320,192,211495,1,0,0:0:0:0:
192,192,211580,1,0,0:0:0:0:
64,192,211580,1,0,0:0:0:0:
64,192,211666,1,0,0:0:0:0:
192,192,211666,1,0,0:0:0:0:
448,192,211752,1,0,0:0:0:0:
64,192,211838,1,0,0:0:0:0:
192,192,211923,1,0,0:0:0:0:
448,192,211923,1,0,0:0:0:0:
192,192,212009,1,0,0:0:0:0:
448,192,212009,1,0,0:0:0:0:
320,192,212095,1,0,0:0:0:0:
64,192,212180,1,0,0:0:0:0:
192,192,212266,1,0,0:0:0:0:
320,192,212266,1,0,0:0:0:0:
448,192,212266,1,0,0:0:0:0:
320,192,212609,128,0,212695:0:0:0:0:
448,192,212609,1,0,0:0:0:0:
192,192,212638,128,0,212723:0:0:0:0:
64,192,212780,128,0,212838:0:0:0:0:
320,192,212866,128,0,212952:0:0:0:0:
192,192,212895,128,0,212980:0:0:0:0:
64,192,212952,1,0,0:0:0:0:
448,192,212952,1,0,0:0:0:0:
448,192,213123,128,0,213295:0:0:0:0:
320,192,213166,128,0,213252:0:0:0:0:
64,192,213209,1,0,0:0:0:0:
192,192,213209,128,0,213295:0:0:0:0:
448,192,213466,128,0,213552:0:0:0:0:
320,192,213466,1,0,0:0:0:0:
192,192,213552,1,0,0:0:0:0:
320,192,213638,128,0,213723:0:0:0:0:
192,192,213638,1,0,0:0:0:0:
64,192,213638,1,0,0:0:0:0:
448,192,213723,1,0,0:0:0:0:
192,192,213809,128,0,213895:0:0:0:0:
64,192,213852,128,0,213938:0:0:0:0:
320,192,213980,1,0,0:0:0:0:
448,192,213980,128,0,214038:0:0:0:0:
320,192,214066,1,0,0:0:0:0:
64,192,214152,128,0,214238:0:0:0:0:
192,192,214180,128,0,214266:0:0:0:0:
448,192,214238,128,0,214409:0:0:0:0:
320,192,214323,1,0,0:0:0:0:
192,192,214323,1,0,0:0:0:0:
64,192,214323,1,0,0:0:0:0:
64,192,214409,1,0,0:0:0:0:
448,192,214495,128,0,214580:0:0:0:0:
320,192,214495,1,0,0:0:0:0:
64,192,214580,1,0,0:0:0:0:
192,192,214580,128,0,214709:0:0:0:0:
320,192,214666,128,0,214752:0:0:0:0:
448,192,214709,128,0,214795:0:0:0:0:
192,192,214838,128,0,214923:0:0:0:0:
64,192,214880,128,0,214966:0:0:0:0:
448,192,214923,1,0,0:0:0:0:
64,192,215009,128,0,215266:0:0:0:0:
320,192,215009,1,0,0:0:0:0:
192,192,215009,1,0,0:0:0:0:
320,192,215180,1,0,0:0:0:0:
448,192,215266,1,0,0:0:0:0:
192,192,215352,128,0,215609:0:0:0:0:
448,192,215352,128,0,215438:0:0:0:0:
320,192,215352,128,0,215480:0:0:0:0:
64,192,215352,128,0,215523:0:0:0:0:
448,192,215523,128,0,215695:0:0:0:0:
320,192,215695,128,0,215780:0:0:0:0:
192,192,215695,1,0,0:0:0:0:
64,192,215695,1,0,0:0:0:0:
320,192,215866,128,0,215952:0:0:0:0:
448,192,215866,1,0,0:0:0:0:
192,192,215952,1,0,0:0:0:0:
64,192,215952,1,0,0:0:0:0:
192,192,216038,128,0,216123:0:0:0:0:
448,192,216066,128,0,216152:0:0:0:0:
192,192,216209,128,0,216295:0:0:0:0:
64,192,216209,1,0,0:0:0:0:
448,192,216238,128,0,216323:0:0:0:0:
320,192,216380,128,0,216466:0:0:0:0:
192,192,216380,1,0,0:0:0:0:
64,192,216380,1,0,0:0:0:0:
448,192,216409,128,0,216495:0:0:0:0:
192,192,216552,128,0,216638:0:0:0:0:
64,192,216580,128,0,216666:0:0:0:0:
448,192,216723,128,0,216980:0:0:0:0:
320,192,216723,1,0,0:0:0:0:
64,192,216809,1,0,0:0:0:0:
320,192,216895,1,0,0:0:0:0:
192,192,216980,1,0,0:0:0:0:
64,192,216980,1,0,0:0:0:0:
448,192,217066,128,0,217323:0:0:0:0:
64,192,217066,1,0,0:0:0:0:
320,192,217066,1,0,0:0:0:0:
192,192,217238,1,0,0:0:0:0:
64,192,217238,1,0,0:0:0:0:
64,192,217409,128,0,217752:0:0:0:0:
192,192,217452,128,0,217538:0:0:0:0:
448,192,217495,128,0,217580:0:0:0:0:
320,192,217580,128,0,217666:0:0:0:0:
192,192,217609,128,0,217695:0:0:0:0:
320,192,217752,1,0,0:0:0:0:
448,192,217752,1,0,0:0:0:0:
448,192,217838,1,0,0:0:0:0:
320,192,217838,1,0,0:0:0:0:
64,192,217923,1,0,0:0:0:0:
320,192,218095,128,0,218223:0:0:0:0:
64,192,218095,128,0,218352:0:0:0:0:
192,192,218095,128,0,218266:0:0:0:0:
448,192,218095,128,0,218180:0:0:0:0:
448,192,218266,128,0,218438:0:0:0:0:
192,192,218438,1,0,0:0:0:0:
64,192,218438,1,0,0:0:0:0:
320,192,218438,1,0,0:0:0:0:
448,192,218523,1,0,0:0:0:0:
64,192,218609,1,0,0:0:0:0:
192,192,218609,1,0,0:0:0:0:
448,192,218695,1,0,0:0:0:0:
64,192,218780,1,0,0:0:0:0:
448,192,218866,1,0,0:0:0:0:
64,192,218952,128,0,219038:0:0:0:0:
192,192,218995,128,0,219080:0:0:0:0:
448,192,219038,128,0,219123:0:0:0:0:
64,192,219123,1,0,0:0:0:0:
320,192,219123,1,0,0:0:0:0:
192,192,219123,1,0,0:0:0:0:
448,192,219209,1,0,0:0:0:0:
192,192,219295,128,0,219380:0:0:0:0:
64,192,219338,128,0,219423:0:0:0:0:
448,192,219380,1,0,0:0:0:0:
320,192,219466,128,0,219552:0:0:0:0:
192,192,219495,128,0,219580:0:0:0:0:
320,192,219638,128,0,219723:0:0:0:0:
192,192,219666,128,0,219752:0:0:0:0:
320,192,219809,1,0,0:0:0:0:
448,192,219809,1,0,0:0:0:0:
64,192,219809,1,0,0:0:0:0:
192,192,219895,1,0,0:0:0:0:
320,192,219980,128,0,220066:0:0:0:0:
448,192,220023,128,0,220109:0:0:0:0:
64,192,220066,128,0,220152:0:0:0:0:
192,192,220152,1,0,0:0:0:0:
64,192,220238,1,0,0:0:0:0:
192,192,220323,128,0,220409:0:0:0:0:
320,192,220366,128,0,220452:0:0:0:0:
448,192,220409,128,0,220495:0:0:0:0:
320,192,220495,1,0,0:0:0:0:
192,192,220495,1,0,0:0:0:0:
64,192,220495,1,0,0:0:0:0:
448,192,220580,1,0,0:0:0:0:
64,192,220666,1,0,0:0:0:0:
192,192,220666,1,0,0:0:0:0:
320,192,220752,1,0,0:0:0:0:
320,192,220838,128,0,220966:0:0:0:0:
64,192,220838,128,0,221095:0:0:0:0:
192,192,220838,128,0,221009:0:0:0:0:
448,192,220838,128,0,220923:0:0:0:0:
448,192,221009,128,0,221180:0:0:0:0:
320,192,221180,128,0,221266:0:0:0:0:
192,192,221209,128,0,221295:0:0:0:0:
64,192,221238,128,0,221295:0:0:0:0:
64,192,221352,128,0,221466:0:0:0:0:
320,192,221352,128,0,221438:0:0:0:0:
192,192,221380,128,0,221466:0:0:0:0:
448,192,221438,1,0,0:0:0:0:
192,192,221523,128,0,221609:0:0:0:0:
320,192,221523,128,0,222038:0:0:0:0:
64,192,221695,128,0,221780:0:0:0:0:
448,192,221723,128,0,221809:0:0:0:0:
192,192,221866,1,0,0:0:0:0:
64,192,221866,1,0,0:0:0:0:
448,192,221952,1,0,0:0:0:0:
192,192,222038,1,0,0:0:0:0:
64,192,222038,1,0,0:0:0:0:
448,192,222123,1,0,0:0:0:0:
448,192,222209,128,0,222466:0:0:0:0:
320,192,222209,128,0,222380:0:0:0:0:
64,192,222209,128,0,222295:0:0:0:0:
320,192,222552,128,0,222809:0:0:0:0:
448,192,222552,128,0,222723:0:0:0:0:
192,192,222552,128,0,222638:0:0:0:0:
448,192,222895,128,0,222980:0:0:0:0:
64,192,222895,128,0,222938:0:0:0:0:
192,192,222895,128,0,223066:0:0:0:0:
320,192,222980,1,0,0:0:0:0:
64,192,223066,1,0,0:0:0:0:
448,192,223066,1,0,0:0:0:0:
448,192,223152,1,0,0:0:0:0:
192,192,223152,1,0,0:0:0:0:
64,192,223238,128,0,223495:0:0:0:0:
192,192,223238,128,0,223409:0:0:0:0:
320,192,223238,128,0,223323:0:0:0:0:
320,192,223580,128,0,223666:0:0:0:0:
448,192,223580,1,0,0:0:0:0:
192,192,223609,128,0,223695:0:0:0:0:
64,192,223752,128,0,223809:0:0:0:0:
320,192,223838,128,0,223923:0:0:0:0:
192,192,223866,128,0,223952:0:0:0:0:
64,192,223923,1,0,0:0:0:0:
448,192,223923,1,0,0:0:0:0:
448,192,224095,128,0,224266:0:0:0:0:
320,192,224138,128,0,224223:0:0:0:0:
64,192,224180,1,0,0:0:0:0:
192,192,224180,128,0,224266:0:0:0:0:
448,192,224438,128,0,224523:0:0:0:0:
320,192,224438,1,0,0:0:0:0:
192,192,224523,1,0,0:0:0:0:
320,192,224609,128,0,224695:0:0:0:0:
192,192,224609,1,0,0:0:0:0:
64,192,224609,1,0,0:0:0:0:
448,192,224695,1,0,0:0:0:0:
192,192,224780,128,0,224866:0:0:0:0:
64,192,224823,128,0,224909:0:0:0:0:
320,192,224952,1,0,0:0:0:0:
448,192,224952,128,0,225009:0:0:0:0:
320,192,225038,1,0,0:0:0:0:
64,192,225123,128,0,225209:0:0:0:0:
192,192,225152,128,0,225238:0:0:0:0:
448,192,225209,128,0,225380:0:0:0:0:
320,192,225295,1,0,0:0:0:0:
192,192,225295,1,0,0:0:0:0:
64,192,225295,1,0,0:0:0:0:
64,192,225380,1,0,0:0:0:0:
448,192,225466,128,0,225552:0:0:0:0:
320,192,225466,1,0,0:0:0:0:
64,192,225552,1,0,0:0:0:0:
192,192,225552,128,0,225680:0:0:0:0:
320,192,225638,128,0,225723:0:0:0:0:
448,192,225680,128,0,225766:0:0:0:0:
192,192,225809,128,0,225895:0:0:0:0:
64,192,225852,128,0,225938:0:0:0:0:
448,192,225895,1,0,0:0:0:0:
64,192,225980,128,0,226238:0:0:0:0:
320,192,225980,1,0,0:0:0:0:
192,192,225980,1,0,0:0:0:0:
320,192,226152,1,0,0:0:0:0:
448,192,226238,1,0,0:0:0:0:
192,192,226323,128,0,226580:0:0:0:0:
448,192,226323,128,0,226409:0:0:0:0:
320,192,226323,128,0,226452:0:0:0:0:
64,192,226323,128,0,226495:0:0:0:0:
448,192,226495,128,0,226666:0:0:0:0:
320,192,226666,128,0,226752:0:0:0:0:
192,192,226666,1,0,0:0:0:0:
64,192,226666,1,0,0:0:0:0:
320,192,226838,128,0,226923:0:0:0:0:
448,192,226838,1,0,0:0:0:0:
192,192,226923,1,0,0:0:0:0:
64,192,226923,1,0,0:0:0:0:
192,192,227009,128,0,227095:0:0:0:0:
448,192,227038,128,0,227123:0:0:0:0:
192,192,227180,128,0,227266:0:0:0:0:
64,192,227180,1,0,0:0:0:0:
448,192,227209,128,0,227295:0:0:0:0:
320,192,227352,128,0,227438:0:0:0:0:
192,192,227352,1,0,0:0:0:0:
64,192,227352,1,0,0:0:0:0:
448,192,227380,128,0,227466:0:0:0:0:
192,192,227523,128,0,227609:0:0:0:0:
64,192,227552,128,0,227638:0:0:0:0:
448,192,227695,128,0,227952:0:0:0:0:
320,192,227695,1,0,0:0:0:0:
64,192,227780,1,0,0:0:0:0:
320,192,227866,1,0,0:0:0:0:
192,192,227952,1,0,0:0:0:0:
64,192,227952,1,0,0:0:0:0:
448,192,228038,128,0,228295:0:0:0:0:
64,192,228038,1,0,0:0:0:0:
320,192,228038,1,0,0:0:0:0:
192,192,228209,1,0,0:0:0:0:
64,192,228209,1,0,0:0:0:0:
64,192,228380,128,0,228723:0:0:0:0:
192,192,228423,128,0,228509:0:0:0:0:
448,192,228466,128,0,228552:0:0:0:0:
320,192,228552,128,0,228638:0:0:0:0:
192,192,228580,128,0,228666:0:0:0:0:
320,192,228723,1,0,0:0:0:0:
448,192,228723,1,0,0:0:0:0:
448,192,228809,1,0,0:0:0:0:
320,192,228809,1,0,0:0:0:0:
64,192,228895,1,0,0:0:0:0:
320,192,229066,128,0,229152:0:0:0:0:
448,192,229066,1,0,0:0:0:0:
192,192,229095,128,0,229180:0:0:0:0:
64,192,229238,128,0,229295:0:0:0:0:
320,192,229323,128,0,229409:0:0:0:0:
192,192,229352,128,0,229438:0:0:0:0:
64,192,229409,1,0,0:0:0:0:
448,192,229409,1,0,0:0:0:0:
448,192,229580,128,0,229752:0:0:0:0:
320,192,229580,1,0,0:0:0:0:
64,192,229752,1,0,0:0:0:0:
448,192,229923,128,0,230009:0:0:0:0:
320,192,229966,128,0,230052:0:0:0:0:
320,192,230095,128,0,230180:0:0:0:0:
192,192,230095,1,0,0:0:0:0:
64,192,230095,1,0,0:0:0:0:
448,192,230180,1,0,0:0:0:0:
192,192,230266,128,0,230352:0:0:0:0:
320,192,230438,1,0,0:0:0:0:
448,192,230438,128,0,230495:0:0:0:0:
320,192,230523,1,0,0:0:0:0:
64,192,230609,128,0,230695:0:0:0:0:
192,192,230638,128,0,230723:0:0:0:0:
448,192,230695,128,0,230866:0:0:0:0:
320,192,230780,1,0,0:0:0:0:
192,192,230780,1,0,0:0:0:0:
64,192,230780,1,0,0:0:0:0:
448,192,230952,128,0,230995:0:0:0:0:
320,192,230952,1,0,0:0:0:0:
320,192,231123,128,0,231209:0:0:0:0:
448,192,231166,128,0,231252:0:0:0:0:
192,192,231295,128,0,231380:0:0:0:0:
64,192,231338,128,0,231423:0:0:0:0:
64,192,231466,128,0,231723:0:0:0:0:
192,192,231466,1,0,0:0:0:0:
448,192,231466,1,0,0:0:0:0:
320,192,231638,1,0,0:0:0:0:
448,192,231638,1,0,0:0:0:0:
64,192,231809,1,0,0:0:0:0:
448,192,231809,1,0,0:0:0:0:
320,192,231895,1,0,0:0:0:0:
448,192,231980,128,0,232152:0:0:0:0:
192,192,231980,1,0,0:0:0:0:
64,192,232066,1,0,0:0:0:0:
320,192,232152,128,0,232238:0:0:0:0:
192,192,232152,1,0,0:0:0:0:
64,192,232152,1,0,0:0:0:0:
320,192,232323,128,0,232409:0:0:0:0:
448,192,232323,1,0,0:0:0:0:
64,192,232409,1,0,0:0:0:0:
320,192,232495,128,0,233009:0:0:0:0:
192,192,232580,1,0,0:0:0:0:
448,192,232666,1,0,0:0:0:0:
64,192,232752,1,0,0:0:0:0:
192,192,232838,1,0,0:0:0:0:
448,192,232838,1,0,0:0:0:0:
192,192,233009,1,0,0:0:0:0:
64,192,233009,1,0,0:0:0:0:
320,192,233180,5,0,0:0:0:0:
448,192,233180,1,0,0:0:0:0:
320,192,233266,1,0,0:0:0:0:
448,192,233266,1,0,0:0:0:0:
192,192,233352,1,0,0:0:0:0:
320,192,233438,1,0,0:0:0:0:
192,192,233523,1,0,0:0:0:0:
64,192,233523,1,0,0:0:0:0:
64,192,233609,5,0,0:0:0:0:
192,192,233609,1,0,0:0:0:0:
448,192,233695,1,0,0:0:0:0:
64,192,233780,1,0,0:0:0:0:
192,192,233866,1,0,0:0:0:0:
448,192,233866,1,0,0:0:0:0:
192,192,233952,1,0,0:0:0:0:
448,192,233952,1,0,0:0:0:0:
320,192,234038,1,0,0:0:0:0:
64,192,234123,1,0,0:0:0:0:
192,192,234209,1,0,0:0:0:0:
320,192,234209,1,0,0:0:0:0:
448,192,234209,1,0,0:0:0:0:
192,192,234552,128,0,234980:0:0:0:0:
320,192,234552,1,0,0:0:0:0:
64,192,234552,128,0,234809:0:0:0:0:
448,192,234723,5,0,0:0:0:0:
320,192,234895,1,0,0:0:0:0:
192,192,235066,1,0,0:0:0:0:
192,192,235409,1,0,0:0:0:0:
192,192,235752,1,0,0:0:0:0:
64,192,236095,1,0,0:0:0:0:
448,192,236266,1,0,0:0:0:0:
192,192,236438,1,0,0:0:0:0:
320,192,236609,1,0,0:0:0:0:
448,192,236780,1,0,0:0:0:0:
192,192,236952,1,0,0:0:0:0:
64,192,237123,1,0,0:0:0:0:
192,192,237295,1,0,0:0:0:0:
448,192,237466,1,0,0:0:0:0:
320,192,237638,1,0,0:0:0:0:
192,192,237809,1,0,0:0:0:0:
192,192,238152,1,0,0:0:0:0:
192,192,238495,1,0,0:0:0:0:
64,192,238838,128,0,239009:0:0:0:0:
320,192,238866,128,0,239009:0:0:0:0:
448,192,239009,128,0,239095:0:0:0:0:
448,192,239180,128,0,239238:0:0:0:0:
64,192,239352,128,0,239523:0:0:0:0:
320,192,239380,128,0,239523:0:0:0:0:
448,192,239523,128,0,239609:0:0:0:0:
192,192,239609,128,0,240038:0:0:0:0:
448,192,239695,128,0,240038:0:0:0:0:
64,192,240038,128,0,240209:0:0:0:0:
320,192,240066,128,0,240209:0:0:0:0:
448,192,240209,1,0,0:0:0:0:
320,192,240380,1,0,0:0:0:0:
192,192,240552,1,0,0:0:0:0:
448,192,240723,1,0,0:0:0:0:
320,192,240809,1,0,0:0:0:0:
192,192,240895,1,0,0:0:0:0:
64,192,240980,1,0,0:0:0:0:
448,192,241238,1,0,0:0:0:0:
320,192,241323,1,0,0:0:0:0:
192,192,241409,1,0,0:0:0:0:
64,192,241495,1,0,0:0:0:0:
320,192,241580,128,0,241666:0:0:0:0:
448,192,241752,1,0,0:0:0:0:
320,192,241838,128,0,241895:0:0:0:0:
192,192,241923,128,0,241980:0:0:0:0:
64,192,242009,1,0,0:0:0:0:
320,192,242095,128,0,242223:0:0:0:0:
448,192,242266,1,0,0:0:0:0:
320,192,242352,128,0,242480:0:0:0:0:
192,192,242438,1,0,0:0:0:0:
64,192,242523,1,0,0:0:0:0:
320,192,242609,128,0,242695:0:0:0:0:
448,192,242780,1,0,0:0:0:0:
64,192,242809,1,0,0:0:0:0:
320,192,242866,1,0,0:0:0:0:
192,192,242952,1,0,0:0:0:0:
64,192,243038,1,0,0:0:0:0:
320,192,243123,1,0,0:0:0:0:
448,192,243295,1,0,0:0:0:0:
320,192,243380,1,0,0:0:0:0:
192,192,243466,1,0,0:0:0:0:
64,192,243552,1,0,0:0:0:0:
192,192,243638,1,0,0:0:0:0:
192,192,243980,1,0,0:0:0:0:
64,192,244323,128,0,244495:0:0:0:0:
320,192,244352,128,0,244495:0:0:0:0:
448,192,244495,128,0,244580:0:0:0:0:
448,192,244666,128,0,244723:0:0:0:0:
64,192,244838,128,0,245009:0:0:0:0:
320,192,244866,128,0,245009:0:0:0:0:
448,192,245009,128,0,245095:0:0:0:0:
192,192,245095,128,0,245523:0:0:0:0:
448,192,245180,128,0,245523:0:0:0:0:
64,192,245523,128,0,245695:0:0:0:0:
320,192,245552,128,0,245695:0:0:0:0:
448,192,245695,128,0,245780:0:0:0:0:
448,192,245866,128,0,245923:0:0:0:0:
448,192,246038,1,0,0:0:0:0:
64,192,247066,1,0,0:0:0:0:
448,192,247238,1,0,0:0:0:0:
192,192,247409,1,0,0:0:0:0:
320,192,247580,1,0,0:0:0:0:
448,192,247752,1,0,0:0:0:0:
192,192,247923,1,0,0:0:0:0:
64,192,248095,1,0,0:0:0:0:
64,192,249809,128,0,249980:0:0:0:0:
320,192,249838,128,0,249980:0:0:0:0:
448,192,249980,128,0,250066:0:0:0:0:
448,192,250152,128,0,250209:0:0:0:0:
64,192,250323,128,0,250495:0:0:0:0:
320,192,250352,128,0,250495:0:0:0:0:
448,192,250495,128,0,250580:0:0:0:0:
192,192,250580,128,0,251009:0:0:0:0:
448,192,250666,128,0,251009:0:0:0:0:
64,192,251009,128,0,251180:0:0:0:0:
320,192,251038,128,0,251180:0:0:0:0:
448,192,251180,128,0,251266:0:0:0:0:
448,192,251352,128,0,251409:0:0:0:0:
448,192,251523,1,0,0:0:0:0:
448,192,251695,1,0,0:0:0:0:
320,192,251780,1,0,0:0:0:0:
192,192,251866,1,0,0:0:0:0:
64,192,251952,1,0,0:0:0:0:
448,192,252209,1,0,0:0:0:0:
320,192,252295,1,0,0:0:0:0:
192,192,252380,1,0,0:0:0:0:
64,192,252466,1,0,0:0:0:0:
320,192,252552,128,0,252638:0:0:0:0:
448,192,252723,1,0,0:0:0:0:
320,192,252809,128,0,252866:0:0:0:0:
192,192,252895,128,0,252952:0:0:0:0:
64,192,252980,1,0,0:0:0:0:
320,192,253066,128,0,253195:0:0:0:0:
448,192,253238,1,0,0:0:0:0:
320,192,253323,128,0,253452:0:0:0:0:
192,192,253409,1,0,0:0:0:0:
64,192,253495,1,0,0:0:0:0:
320,192,253580,128,0,253666:0:0:0:0:
448,192,253752,1,0,0:0:0:0:
64,192,253780,1,0,0:0:0:0:
320,192,253838,1,0,0:0:0:0:
192,192,253923,1,0,0:0:0:0:
64,192,254009,1,0,0:0:0:0:
448,192,254095,128,0,254180:0:0:0:0:
448,192,254266,128,0,254323:0:0:0:0:
448,192,254438,1,0,0:0:0:0:
64,192,255295,128,0,255466:0:0:0:0:
320,192,255323,128,0,255466:0:0:0:0:
448,192,255466,128,0,255552:0:0:0:0:
448,192,255638,128,0,255695:0:0:0:0:
64,192,255809,128,0,255980:0:0:0:0:
320,192,255838,128,0,255980:0:0:0:0:
448,192,255980,128,0,256066:0:0:0:0:
192,192,256066,128,0,257866:0:0:0:0:
448,192,256152,128,0,256495:0:0:0:0:
