osu file format v14

[General]
AudioFilename: audio.mp3
AudioLeadIn: 0
PreviewTime: 85882
Countdown: 0
SampleSet: Soft
StackLeniency: 0.3
Mode: 0
LetterboxInBreaks: 0
WidescreenStoryboard: 1

[Editor]
Bookmarks: 24732,45732,64398,67065,88398,109732,131065,152398,163065,173732,195065
DistanceSpacing: 1.1
BeatDivisor: 4
GridSize: 4
TimelineZoom: 1.8

[Metadata]
Title:LAST GAME feat. Luschel
TitleUnicode:LAST GAME feat. Luschel
Artist:lapix
ArtistUnicode:lapix
Creator:Ambrew
Version:Easy
Source:Electro Planet Music 2
Tags:drumstep carry me away dnb edm electronic
BeatmapID:1793832
BeatmapSetID:857903

[Difficulty]
HPDrainRate:2
CircleSize:2.5
OverallDifficulty:2
ApproachRate:3
SliderMultiplier:0.799999999999999
SliderTickRate:1

[Events]
//Background and Video events
0,0,"685120.jpg",0,0
//Break Periods
2,25135,33625
2,48599,54958
2,64599,65625
//Storyboard Layer 0 (Background)
//Storyboard Layer 1 (Fail)
//Storyboard Layer 2 (Pass)
//Storyboard Layer 3 (Foreground)
//Storyboard Layer 4 (Overlay)
//Storyboard Sound Samples

[TimingPoints]
399,333.333333333333,4,2,1,80,1,0
149732,-100,4,2,1,80,0,1
169732,-100,4,2,1,80,0,0
171065,-100,4,2,1,80,0,1
189732,-100,4,2,1,80,0,0
216398,-100,4,2,1,5,0,0

[Colours]
Combo1 : 255,192,0
Combo2 : 255,0,128
Combo3 : 0,255,255
Combo4 : 255,128,64
Combo5 : 245,41,0
Combo6 : 244,250,137
Combo7 : 51,172,181
Combo8 : 130,49,20

[HitObjects]
8,162,3065,118,0,P|81:136|181:137,1,160,4|8,0:0|0:0,0:0:0:0:
233,186,4065,1,4,0:0:0:0:
301,241,4399,2,0,B|353:246|353:246|414:229|414:229|469:233,1,160,0|8,0:0|0:0,0:0:0:0:
432,57,5732,6,0,P|343:55|237:67,1,160,4|8,0:0|0:0,0:0:0:0:
190,94,6732,1,4,0:0:0:0:
126,155,7065,2,0,P|75:153|38:142,1,79.9999999999999
26,59,7732,1,8,0:0:0:0:
113,48,8065,1,8,0:0:0:0:
190,94,8399,6,0,B|236:104|236:104|364:88,2,160,4|8|0,0:0|0:0|0:0,0:0:0:0:
105,68,10065,1,0,0:0:0:0:
27,110,10399,2,0,P|20:153|21:195,1,79.9999999999999,8|0,0:0|0:0,0:0:0:0:
82,252,11065,6,0,B|110:266|160:250|160:250|205:236|261:247,1,160,4|8,0:0|0:0,0:0:0:0:
322,272,12065,1,4,0:0:0:0:
401,233,12399,2,0,P|409:195|406:152,1,79.9999999999999
494,152,13065,1,8,0:0:0:0:
461,70,13398,1,8,0:0:0:0:
371,73,13732,70,0,B|321:68|321:68|260:84|260:84|208:82,1,160,4|0,0:0|0:0,0:0:0:0:
125,74,14732,1,8,0:0:0:0:
48,116,15065,2,0,B|37:164|37:164|49:288,1,160,4|0,0:0|0:0,0:0:0:0:
128,310,16065,1,8,0:0:0:0:
211,281,16399,6,0,L|298:286,2,79.9999999999999,4|8|0,0:0|0:0|0:0,0:0:0:0:
166,204,17399,1,8,0:0:0:0:
90,158,17732,2,0,P|45:161|-4:194,2,79.9999999999999,4|8|0,0:0|0:0|0:0,0:0:0:0:
73,244,18732,1,8,0:0:0:0:
129,311,19065,6,0,B|177:320|177:320|299:299,1,160,4|0,0:0|0:0,0:0:0:0:
370,274,20065,1,8,0:0:0:0:
434,213,20399,2,0,P|475:217|529:251,2,79.9999999999999,4|8|0,0:0|0:0|0:0,0:0:0:0:
452,299,21399,1,8,0:0:0:0:
376,344,21732,6,0,L|286:339,1,79.9999999999999,4|8,0:0|0:0,0:0:0:0:
214,307,22399,2,0,P|172:310|105:320,1,79.9999999999999,0|8,0:0|0:0,0:0:0:0:
51,344,23065,69,4,0:0:0:0:
315,69,35065,6,0,P|396:63|475:88,2,160,4|0|0,0:0|0:0|0:0,0:0:0:0:
164,160,37065,2,0,B|163:211|163:211|179:272|179:272|176:356,1,160
313,206,38399,6,0,B|311:160|311:160|327:99|327:99|326:48,1,160
448,175,39732,2,0,P|441:229|441:277,1,79.9999999999999
372,310,40399,2,0,P|292:308|192:327,2,160
447,151,42399,2,0,P|440:106|424:65,1,79.9999999999999,0|2,0:0|0:0,0:0:0:0:
343,51,43065,6,0,B|289:51|289:51|233:60|233:60|157:57,1,160
110,218,44399,2,0,P|148:228|190:233,1,79.9999999999999,0|2,0:0|0:0,0:0:0:0:
275,219,45065,2,0,P|312:212|362:209,1,79.9999999999999,0|2,0:0|0:0,0:0:0:0:
256,192,45732,12,2,48399,0:0:0:0:
80,157,56398,70,0,P|134:142|212:139,2,120
285,236,58399,2,0,P|326:233|383:225,1,79.9999999999999
429,168,59065,6,0,B|432:129|432:129|428:86|428:86|431:42,3,120
305,90,61065,2,0,B|309:134|309:134|306:188,1,79.9999999999999
241,228,61732,6,0,P|226:292|227:367,3,120
117,269,63732,2,0,P|114:230|114:178,1,79.9999999999999
147,107,64399,5,0,0:0:0:0:
424,249,67065,6,0,B|345:259|345:259|251:246,1,160,4|8,0:0|0:0,0:0:0:0:
187,205,68065,1,0,0:0:0:0:
115,255,68399,2,0,P|108:296|116:343,1,79.9999999999999,4|0,0:0|0:0,0:0:0:0:
192,371,69065,2,0,P|198:329|190:282,1,79.9999999999999,8|0,0:0|0:0,0:0:0:0:
187,205,69732,102,0,B|187:155|187:155|204:102|204:102|203:33,2,160,4|8|4,0:0|0:0|0:0,0:0:0:0:
226,283,71399,1,0,0:0:0:0:
282,350,71732,2,0,P|327:347|376:324,1,79.9999999999999,8|4,0:0|0:0,0:0:0:0:
444,305,72399,22,0,P|390:252|299:271,1,160,4|8,0:0|0:0,0:0:0:0:
226,283,73399,1,0,0:0:0:0:
141,259,73732,2,0,P|132:218|131:175,1,79.9999999999999,4|0,0:0|0:0,0:0:0:0:
205,132,74399,2,0,P|213:85|205:43,1,79.9999999999999,8|0,0:0|0:0,0:0:0:0:
290,23,75065,6,0,P|298:104|270:206,1,160,4|8,0:0|0:0,0:0:0:0:
223,246,76065,1,0,0:0:0:0:
138,271,76399,2,0,L|43:266,1,79.9999999999999,4|0,0:0|0:0,0:0:0:0:
44,179,77065,1,8,0:0:0:0:
117,131,77398,1,8,0:0:0:0:
204,148,77732,86,0,B|252:147|252:147|312:161|312:161|378:156,2,160,4|8|4,0:0|0:0|0:0,0:0:0:0:
123,183,79399,1,0,0:0:0:0:
40,153,79732,2,0,P|39:112|49:47,1,79.9999999999999,8|0,0:0|0:0,0:0:0:0:
122,33,80399,102,0,P|201:34|292:40,1,160,4|8,0:0|0:0,0:0:0:0:
364,70,81399,1,0,0:0:0:0:
419,137,81732,2,0,P|422:179|409:229,1,79.9999999999999,4|0,0:0|0:0,0:0:0:0:
332,250,82399,2,0,P|329:208|342:158,1,79.9999999999999,8|4,0:0|0:0,0:0:0:0:
278,105,83065,22,0,B|225:99|225:99|105:116,1,160,4|8,0:0|0:0,0:0:0:0:
33,95,84065,1,0,0:0:0:0:
1,177,84399,2,0,P|0:220|7:266,1,79.9999999999999,4|0,0:0|0:0,0:0:0:0:
79,303,85065,2,0,P|117:293|163:288,1,79.9999999999999,8|0,0:0|0:0,0:0:0:0:
244,303,85732,5,4,0:0:0:0:
486,48,87065,86,0,P|446:50|406:57,3,79.9999999999999,8|8|8|4,0:0|0:0|0:0|0:0,0:0:0:0:
327,95,88399,102,0,B|276:107|276:107|157:97,1,160,0|8,0:0|0:0,0:0:0:0:
87,64,89399,1,2,0:0:0:0:
13,111,89732,2,0,B|5:158|5:158|14:220|14:220|10:271,1,160,4|8,0:0|0:0,0:0:0:0:
65,337,90732,1,2,0:0:0:0:
149,313,91065,22,0,B|193:306|193:306|319:316,1,160,4|8,0:0|0:0,0:0:0:0:
392,340,92065,1,2,0:0:0:0:
462,286,92399,2,0,L|470:202,1,79.9999999999999,4|2,0:0|0:0,0:0:0:0:
388,173,93065,1,8,0:0:0:0:
384,85,93398,1,8,0:0:0:0:
308,42,93732,6,0,P|226:39|150:63,2,160,4|8|4,0:0|0:0|0:0,0:0:0:0:
381,93,95399,1,2,0:0:0:0:
436,161,95732,2,0,P|436:202|429:252,1,79.9999999999999,8|2,0:0|0:0,0:0:0:0:
358,289,96399,86,0,B|306:295|306:295|241:287|241:287|175:293,1,160,4|8,0:0|0:0,0:0:0:0:
120,330,97399,1,2,0:0:0:0:
39,295,97732,2,0,P|31:232|33:201,1,79.9999999999999,4|0,0:0|0:0,0:0:0:0:
33,127,98398,1,8,0:0:0:0:
108,81,98732,1,8,0:0:0:0:
192,56,99065,102,0,B|305:47|305:47|362:68,2,160,4|8|4,0:0|0:0|0:0,0:0:0:0:
108,81,100732,1,2,0:0:0:0:
45,142,101065,2,0,P|38:185|40:238,1,79.9999999999999,8|2,0:0|0:0,0:0:0:0:
88,293,101732,22,0,B|126:303|167:290|167:290|224:268|282:295,1,160,4|8,0:0|0:0,0:0:0:0:
327,316,102732,1,2,0:0:0:0:
407,279,103065,2,0,P|415:239|415:197,1,79.9999999999999,4|0,0:0|0:0,0:0:0:0:
346,144,103732,1,8,0:0:0:0:
336,56,104065,1,8,0:0:0:0:
248,54,104399,6,0,B|257:173|257:173|240:224,1,160,4|8,0:0|0:0,0:0:0:0:
185,277,105399,1,2,0:0:0:0:
98,262,105732,2,0,P|56:265|-2:277,2,79.9999999999999,4|2|8,0:0|0:0|0:0,0:0:0:0:
185,277,106732,2,0,P|184:319|174:376,1,79.9999999999999,2|4,0:0|0:0,0:0:0:0:
70,138,109732,22,0,P|149:124|266:120,1,160,4|8,0:0|0:0,0:0:0:0:
252,203,110732,1,0,0:0:0:0:
258,290,111065,2,0,P|227:316|174:319,1,79.9999999999999
104,298,111732,1,0,0:0:0:0:
119,122,112398,6,0,P|162:106|218:200,1,160,4|8,0:0|0:0,0:0:0:0:
206,269,113398,1,4,0:0:0:0:
280,316,113732,2,0,P|321:330|371:332,1,79.9999999999999
378,247,114398,1,8,0:0:0:0:
443,305,114732,1,8,0:0:0:0:
503,242,115065,6,0,B|506:162|506:162|493:70,1,160,4|8,0:0|0:0,0:0:0:0:
421,34,116065,1,0,0:0:0:0:
341,72,116398,2,0,L|252:62,1,79.9999999999999
196,119,117065,2,0,B|154:120|112:112|111:112,1,79.9999999999999,8|0,0:0|0:0,0:0:0:0:
42,161,117732,6,0,B|37:214|37:214|51:270|51:270|48:334,1,160,4|8,0:0|0:0,0:0:0:0:
130,352,118732,1,4,0:0:0:0:
208,311,119065,2,0,P|247:311|291:318,1,79.9999999999999
367,354,119732,2,0,P|407:348|455:337,1,79.9999999999999,8|8,0:0|0:0,0:0:0:0:
505,274,120399,70,0,B|508:197|508:197|497:109,2,160,4|8|4,0:0|0:0|0:0,0:0:0:0:
440,333,122065,1,0,0:0:0:0:
355,306,122399,2,0,P|309:308|258:319,1,79.9999999999999,8|0,0:0|0:0,0:0:0:0:
193,345,123065,6,0,B|145:355|145:355|26:339,2,160,4|8|4,0:0|0:0|0:0,0:0:0:0:
178,258,124732,1,0,0:0:0:0:
234,190,125065,2,0,P|270:177|320:170,1,79.9999999999999,8|8,0:0|0:0,0:0:0:0:
386,215,125732,6,0,P|393:137|312:84,1,160,4|8,0:0|0:0,0:0:0:0:
247,87,126732,1,0,0:0:0:0:
163,60,127065,2,0,P|121:68|78:100,2,79.9999999999999,4|0|8,0:0|0:0|0:0,0:0:0:0:
155,147,128065,1,0,0:0:0:0:
227,196,128399,6,0,B|281:205|281:205|412:180,1,160,4|8,0:0|0:0,0:0:0:0:
422,105,129399,1,0,0:0:0:0:
361,41,129732,2,0,P|317:37|277:36,1,79.9999999999999,8|0,0:0|0:0,0:0:0:0:
199,70,130399,2,0,P|156:76|94:75,1,79.9999999999999
44,123,131065,70,0,P|37:184|38:245,3,120,4|2|2|2,0:0|0:0|0:0|0:0,0:0:0:0:
147,316,133065,2,0,L|230:306,1,79.9999999999999,2|0,0:0|0:0,0:0:0:0:
309,335,133732,6,0,B|356:343|356:343|448:323,3,120,2|2|2|2,0:0|0:0|0:0|0:0,0:0:0:0:
474,204,135732,2,0,P|468:166|457:119,1,79.9999999999999,2|0,0:0|0:0,0:0:0:0:
379,87,136399,6,0,P|319:80|240:80,3,120,2|0|2|2,0:0|0:0|0:0|0:0,0:0:0:0:
131,111,138399,2,0,P|123:153|123:206,1,79.9999999999999,2|0,0:0|0:0,0:0:0:0:
177,258,139065,6,0,B|253:268|253:268|305:255,3,120,2|2|2|2,0:0|0:0|0:0|0:0,0:0:0:0:
363,144,141065,2,0,P|402:145|445:150,1,79.9999999999999,2|0,0:0|0:0,0:0:0:0:
504,212,141732,70,0,P|513:272|511:339,2,120,4|0|0,0:0|0:0|0:0,0:0:0:0:
442,149,143065,2,0,P|433:89|435:22,2,120,0|0|4,0:0|0:0|0:0,0:0:0:0:
370,200,144399,6,0,P|310:198|250:207,2,120,4|0|0,0:0|0:0|0:0,0:0:0:0:
238,186,145898,1,0,0:0:0:0:
127,256,146399,2,0,P|85:254|38:245,1,79.9999999999999,0|4,0:0|0:0,0:0:0:0:
24,162,147065,6,0,L|20:69,1,79.9999999999999,4|4,0:0|0:0,0:0:0:0:
107,66,147732,2,0,L|110:145,1,79.9999999999999,4|4,0:0|0:0,0:0:0:0:
196,127,148398,1,4,0:0:0:0:
196,38,148732,1,4,0:0:0:0:
283,35,149065,1,4,0:0:0:0:
292,123,149398,1,4,0:0:0:0:
300,210,149732,5,4,0:0:0:0:
432,262,152399,22,0,P|356:235|275:239,1,160,4|0,0:0|0:0,0:0:0:0:
195,271,153399,1,8,0:0:0:0:
116,310,153732,2,0,P|75:310|14:283,2,79.9999999999999,4|8|0,0:0|0:0|0:0,0:0:0:0:
91,225,154732,1,8,0:0:0:0:
146,157,155065,38,0,B|192:144|192:144|318:157,1,160,4|0,0:0|0:0,0:0:0:0:
382,195,156065,1,8,0:0:0:0:
463,161,156399,2,0,P|478:118|474:68,1,79.9999999999999,4|8,0:0|0:0,0:0:0:0:
408,30,157065,2,0,P|392:72|396:122,1,79.9999999999999,0|8,0:0|0:0,0:0:0:0:
382,195,157732,86,0,B|332:211|332:211|205:198,1,160,4|0,0:0|0:0,0:0:0:0:
148,156,158732,1,8,0:0:0:0:
75,106,159065,2,0,P|31:111|-12:145,2,79.9999999999999,4|8|0,0:0|0:0|0:0,0:0:0:0:
63,193,160065,1,8,0:0:0:0:
133,246,160399,6,0,B|155:257|213:241|213:241|249:229|304:244,2,160,4|0|4,0:0|0:0|0:0,0:0:0:0:
57,201,162065,2,0,P|56:160|65:120,2,79.9999999999999,10|2|10,0:0|0:0|0:0,0:0:0:0:
133,246,163065,86,0,L|137:337,1,79.9999999999999,4|8,0:0|0:0,0:0:0:0:
223,313,163732,2,0,L|219:233,1,79.9999999999999,0|8,0:0|0:0,0:0:0:0:
282,170,164399,2,0,P|370:159|447:189,1,160,4|0,0:0|0:0,0:0:0:0:
470,262,165399,1,8,0:0:0:0:
424,336,165732,38,0,B|375:350|375:350|262:339,2,160,4|0|4,0:0|0:0|0:0,0:0:0:0:
470,262,167399,1,8,0:0:0:0:
423,187,167732,2,0,P|424:148|435:99,1,79.9999999999999,0|8,0:0|0:0,0:0:0:0:
359,57,168399,86,0,P|337:137|342:240,1,160,4|0,0:0|0:0,0:0:0:0:
380,290,169399,1,8,0:0:0:0:
305,336,169732,2,0,P|263:335|211:329,1,79.9999999999999,4|8,0:0|0:0,0:0:0:0:
141,302,170399,2,0,P|101:304|61:311,1,79.9999999999999,0|8,0:0|0:0,0:0:0:0:
10,239,171065,6,0,B|2:189|2:189|16:65,1,160,4|0,0:0|0:0,0:0:0:0:
86,29,172065,1,0,0:0:0:0:
171,50,172398,1,0,0:0:0:0:
289,164,173065,2,0,B|332:159|379:145,1,79.9999999999999,8|8,0:0|0:0,0:0:0:0:
411,71,173732,86,0,P|456:139|421:219,1,160,4|0,0:0|0:0,0:0:0:0:
346,223,174732,1,0,0:0:0:0:
324,137,175065,2,0,P|317:87|307:59,1,79.9999999999999
226,95,175732,2,0,P|218:137|216:183,1,79.9999999999999,0|8,0:0|0:0,0:0:0:0:
270,243,176399,38,0,P|278:285|280:331,2,79.9999999999999,0|8|0,0:0|0:0|0:0,0:0:0:0:
184,265,177399,1,8,0:0:0:0:
110,216,177732,2,0,B|97:165|97:165|113:49,1,160
193,26,178732,1,8,0:0:0:0:
274,62,179065,86,0,L|367:56,2,79.9999999999999,4|8|0,0:0|0:0|0:0,0:0:0:0:
199,109,180065,1,8,0:0:0:0:
143,177,180399,2,0,P|147:220|175:271,1,79.9999999999999,0|8,0:0|0:0,0:0:0:0:
248,268,181065,2,0,P|243:224|215:173,1,79.9999999999999,0|8,0:0|0:0,0:0:0:0:
199,109,181732,6,0,B|243:102|243:102|311:112|311:112|376:104,1,160
439,74,182732,1,8,0:0:0:0:
507,128,183065,2,0,L|502:231,1,79.9999999999999,0|8,0:0|0:0,0:0:0:0:
428,255,183732,2,0,L|434:349,1,79.9999999999999,2|10,0:0|0:0,0:0:0:0:
347,354,184399,86,0,L|337:165,1,160,4|0,0:0|0:0,0:0:0:0:
308,111,185399,1,8,0:0:0:0:
359,39,185732,2,0,P|400:28|452:24,2,79.9999999999999,0|8|0,0:0|0:0|0:0,0:0:0:0:
308,111,186732,1,8,0:0:0:0:
237,163,187065,38,0,B|189:177|189:177|68:167,1,160
19,102,188065,1,8,0:0:0:0:
86,44,188399,2,0,P|123:35|182:32,1,79.9999999999999,0|8,0:0|0:0,0:0:0:0:
248,57,189065,2,0,P|287:63|336:61,1,79.9999999999999,0|8,0:0|0:0,0:0:0:0:
362,142,189732,86,0,B|279:166|172:122,1,160,4|0,0:0|0:0,0:0:0:0:
124,97,190732,1,8,0:0:0:0:
39,122,191065,2,0,P|30:162|28:214,1,79.9999999999999,0|8,0:0|0:0,0:0:0:0:
91,261,191732,2,0,P|103:296|108:348,1,79.9999999999999,0|8,0:0|0:0,0:0:0:0:
29,379,192399,37,0,0:0:0:0:
482,255,195065,6,0,B|430:249|430:249|371:258|371:258|291:248,1,160,4|0,0:0|0:0,0:0:0:0:
264,187,196065,1,8,0:0:0:0:
292,103,196399,2,0,P|290:60|282:19,2,79.9999999999999,4|8|0,0:0|0:0|0:0,0:0:0:0:
264,187,197399,1,8,0:0:0:0:
323,252,197732,6,0,B|365:263|365:263|492:252,1,160,4|0,0:0|0:0,0:0:0:0:
502,167,198732,1,8,0:0:0:0:
446,98,199065,2,0,P|446:58|454:15,2,79.9999999999999,4|8|0,0:0|0:0|0:0,0:0:0:0:
502,167,200065,1,8,0:0:0:0:
469,249,200399,6,0,B|389:258|389:258|298:240,1,160,4|0,0:0|0:0,0:0:0:0:
224,225,201399,1,8,0:0:0:0:
165,159,201732,2,0,P|88:148|16:218,1,160,4|0,0:0|0:0,0:0:0:0:
33,283,202732,1,8,0:0:0:0:
113,247,203065,70,0,P|121:289|107:334,2,79.9999999999999,4|8|0,0:0|0:0|0:0,0:0:0:0:
73,167,204065,1,8,0:0:0:0:
121,93,204399,2,0,B|201:85|201:85|278:101|278:101|380:92,1,240,4|0,0:0|0:0,0:0:0:0:
442,119,205732,6,0,P|456:196|443:294,2,160,4|0|0,0:0|0:0|0:0,0:0:0:0:
358,93,207399,1,0,0:0:0:0:
275,63,207732,2,0,P|232:68|185:81,1,79.9999999999999,0|2,0:0|0:0,0:0:0:0:
155,155,208399,6,0,B|109:171|109:171|-21:154,2,160,2|0|0,0:0|0:0|0:0,0:0:0:0:
196,77,210065,1,0,0:0:0:0:
277,42,210399,2,0,P|318:46|366:60,1,79.9999999999999,0|2,0:0|0:0,0:0:0:0:
417,118,211065,6,0,B|423:167|423:167|410:228|410:228|415:287,2,160,2|0|0,0:0|0:0|0:0,0:0:0:0:
334,86,212732,1,0,0:0:0:0:
252,117,213065,2,0,P|234:155|234:212,1,79.9999999999999
316,178,213732,70,0,B|330:266|238:329|139:283|129:207|146:145|146:145|113:161|41:150|20:84|45:14|108:-4|172:18|180:69,1,639.999999999999,2|0,0:0|0:0,0:0:0:0:
