osu file format v14

[General]
AudioFilename: audio.mp3
AudioLeadIn: 0
PreviewTime: 27460
Countdown: 0
SampleSet: Soft
StackLeniency: 0.7
Mode: 3
LetterboxInBreaks: 0
SpecialStyle: 0
WidescreenStoryboard: 1

[Editor]
DistanceSpacing: 0.8
BeatDivisor: 8
GridSize: 32
TimelineZoom: 2

[Metadata]
Title:Kill The Beat
TitleUnicode:Kill The Beat
Artist:lapix
ArtistUnicode:lapix
Creator:Tofu1222
Version:qqq's Ultra Stage
Source:DANCERUSH STARDOM
Tags:BEMANI KONAMI DRS qqqant FAMoss Unpredictable juankristal Video Game Instrumental
BeatmapID:1804330
BeatmapSetID:861400

[Difficulty]
HPDrainRate:9
CircleSize:4
OverallDifficulty:8.5
ApproachRate:5
SliderMultiplier:1.4
SliderTickRate:1

[Events]
//Background and Video events
0,0,"bg.png",0,0
//Break Periods
//Storyboard Layer 0 (Background)
//Storyboard Layer 1 (Fail)
//Storyboard Layer 2 (Pass)
//Storyboard Layer 3 (Foreground)
//Storyboard Sound Samples

[TimingPoints]
2460,500,4,2,1,50,1,0
28460,-100,4,2,1,50,0,1
42460,-100,4,2,1,50,0,0
44460,-100,4,2,1,50,0,1
58460,-100,4,2,1,50,0,0

[HitObjects]
64,192,2460,5,2,0:0:0:0:
320,192,2460,128,0,2710:0:0:0:0:
448,192,2460,1,0,0:0:0:0:
64,192,2710,1,8,0:0:0:0:
192,192,2710,1,0,0:0:0:0:
192,192,2835,1,0,0:0:0:0:
64,192,2960,1,2,0:0:0:0:
320,192,2960,128,0,3210:0:0:0:0:
448,192,2960,1,0,0:0:0:0:
64,192,3210,1,8,0:0:0:0:
192,192,3210,1,0,0:0:0:0:
192,192,3335,1,0,0:0:0:0:
64,192,3460,1,2,0:0:0:0:
320,192,3460,128,0,3710:0:0:0:0:
448,192,3460,1,0,0:0:0:0:
64,192,3710,1,2,0:0:0:0:
192,192,3710,1,0,0:0:0:0:
192,192,3835,1,2,0:0:0:0:
448,192,3835,1,0,0:0:0:0:
64,192,3960,1,8,0:0:0:0:
320,192,3960,1,0,0:0:0:0:
448,192,3960,1,0,0:0:0:0:
64,192,4210,1,8,0:0:0:0:
448,192,4210,1,0,0:0:0:0:
64,192,4460,1,2,0:0:0:0:
192,192,4460,1,0,0:0:0:0:
448,192,4585,1,0,0:0:0:0:
192,192,4710,1,0,0:0:0:0:
448,192,4710,1,0,0:0:0:0:
320,192,4772,1,0,0:0:0:0:
192,192,4835,1,0,0:0:0:0:
448,192,4897,1,0,0:0:0:0:
64,192,4960,1,8,0:0:0:0:
320,192,4960,1,0,0:0:0:0:
64,192,5085,1,0,0:0:0:0:
320,192,5210,1,2,0:0:0:0:
448,192,5210,1,0,0:0:0:0:
192,192,5335,1,0,0:0:0:0:
64,192,5460,1,0,0:0:0:0:
320,192,5460,1,0,0:0:0:0:
320,192,5585,1,0,0:0:0:0:
64,192,5710,1,2,0:0:0:0:
192,192,5710,1,0,0:0:0:0:
320,192,5772,1,0,0:0:0:0:
448,192,5835,1,0,0:0:0:0:
192,192,5897,1,0,0:0:0:0:
64,192,5960,1,8,0:0:0:0:
320,192,5960,1,0,0:0:0:0:
448,192,5960,1,0,0:0:0:0:
64,192,6085,1,0,0:0:0:0:
192,192,6210,1,0,0:0:0:0:
320,192,6210,1,0,0:0:0:0:
320,192,6335,1,0,0:0:0:0:
64,192,6460,1,2,0:0:0:0:
192,192,6460,1,0,0:0:0:0:
448,192,6585,1,0,0:0:0:0:
64,192,6710,1,0,0:0:0:0:
448,192,6710,1,0,0:0:0:0:
192,192,6772,1,0,0:0:0:0:
320,192,6835,1,0,0:0:0:0:
64,192,6897,1,0,0:0:0:0:
192,192,6960,1,8,0:0:0:0:
448,192,6960,1,0,0:0:0:0:
192,192,7085,1,0,0:0:0:0:
320,192,7210,1,2,0:0:0:0:
448,192,7210,1,0,0:0:0:0:
192,192,7272,1,0,0:0:0:0:
64,192,7335,1,0,0:0:0:0:
320,192,7397,1,0,0:0:0:0:
64,192,7460,1,0,0:0:0:0:
448,192,7460,1,0,0:0:0:0:
192,192,7585,1,0,0:0:0:0:
320,192,7710,1,2,0:0:0:0:
448,192,7710,1,0,0:0:0:0:
320,192,7835,1,0,0:0:0:0:
64,192,7960,1,8,0:0:0:0:
192,192,7960,1,0,0:0:0:0:
448,192,7960,1,0,0:0:0:0:
320,192,8022,1,0,0:0:0:0:
192,192,8085,1,0,0:0:0:0:
448,192,8147,1,0,0:0:0:0:
64,192,8210,1,0,0:0:0:0:
320,192,8210,1,0,0:0:0:0:
320,192,8335,1,0,0:0:0:0:
64,192,8460,1,2,0:0:0:0:
192,192,8460,1,0,0:0:0:0:
448,192,8585,1,0,0:0:0:0:
192,192,8710,1,0,0:0:0:0:
448,192,8710,1,0,0:0:0:0:
64,192,8772,1,0,0:0:0:0:
320,192,8835,1,0,0:0:0:0:
192,192,8897,1,0,0:0:0:0:
64,192,8960,1,8,0:0:0:0:
448,192,8960,1,0,0:0:0:0:
320,192,9085,1,0,0:0:0:0:
64,192,9210,1,2,0:0:0:0:
192,192,9210,1,0,0:0:0:0:
192,192,9335,1,0,0:0:0:0:
64,192,9460,1,0,0:0:0:0:
448,192,9460,1,0,0:0:0:0:
320,192,9585,1,0,0:0:0:0:
64,192,9710,1,2,0:0:0:0:
192,192,9710,1,0,0:0:0:0:
448,192,9772,1,0,0:0:0:0:
320,192,9835,1,0,0:0:0:0:
192,192,9897,1,0,0:0:0:0:
64,192,9960,1,8,0:0:0:0:
320,192,9960,1,0,0:0:0:0:
448,192,9960,1,0,0:0:0:0:
64,192,10085,1,0,0:0:0:0:
192,192,10210,1,0,0:0:0:0:
448,192,10210,1,0,0:0:0:0:
448,192,10335,1,0,0:0:0:0:
64,192,10460,1,2,0:0:0:0:
192,192,10460,1,0,0:0:0:0:
448,192,10585,1,0,0:0:0:0:
64,192,10710,1,0,0:0:0:0:
320,192,10710,1,0,0:0:0:0:
448,192,10772,1,0,0:0:0:0:
64,192,10835,1,0,0:0:0:0:
320,192,10897,1,0,0:0:0:0:
192,192,10960,1,8,0:0:0:0:
448,192,10960,1,0,0:0:0:0:
448,192,11085,1,0,0:0:0:0:
64,192,11210,1,2,0:0:0:0:
192,192,11210,1,0,0:0:0:0:
320,192,11272,1,0,0:0:0:0:
448,192,11335,1,0,0:0:0:0:
192,192,11397,1,0,0:0:0:0:
64,192,11460,1,0,0:0:0:0:
320,192,11460,1,0,0:0:0:0:
320,192,11585,1,2,0:0:0:0:
448,192,11585,1,0,0:0:0:0:
192,192,11710,1,0,0:0:0:0:
448,192,11710,1,0,0:0:0:0:
192,192,11835,1,0,0:0:0:0:
64,192,11960,1,8,0:0:0:0:
320,192,11960,1,0,0:0:0:0:
448,192,11960,1,0,0:0:0:0:
64,192,12085,1,2,0:0:0:0:
192,192,12085,1,0,0:0:0:0:
192,192,12210,1,0,0:0:0:0:
448,192,12210,1,0,0:0:0:0:
320,192,12335,1,0,0:0:0:0:
64,192,12460,1,2,0:0:0:0:
192,192,12460,1,0,0:0:0:0:
448,192,12585,1,0,0:0:0:0:
64,192,12710,1,0,0:0:0:0:
320,192,12710,1,0,0:0:0:0:
448,192,12772,1,0,0:0:0:0:
320,192,12835,1,0,0:0:0:0:
192,192,12897,1,0,0:0:0:0:
64,192,12960,1,8,0:0:0:0:
448,192,12960,1,0,0:0:0:0:
320,192,13085,1,0,0:0:0:0:
64,192,13210,1,2,0:0:0:0:
192,192,13210,1,0,0:0:0:0:
192,192,13335,1,0,0:0:0:0:
64,192,13460,1,0,0:0:0:0:
448,192,13460,1,0,0:0:0:0:
320,192,13585,1,0,0:0:0:0:
64,192,13710,1,2,0:0:0:0:
192,192,13710,1,0,0:0:0:0:
320,192,13772,1,0,0:0:0:0:
448,192,13835,1,0,0:0:0:0:
192,192,13897,1,0,0:0:0:0:
64,192,13960,1,8,0:0:0:0:
320,192,13960,1,0,0:0:0:0:
448,192,13960,1,0,0:0:0:0:
320,192,14085,1,0,0:0:0:0:
64,192,14210,1,0,0:0:0:0:
320,192,14210,1,0,0:0:0:0:
320,192,14335,1,0,0:0:0:0:
64,192,14460,1,2,0:0:0:0:
192,192,14460,1,0,0:0:0:0:
320,192,14585,1,0,0:0:0:0:
192,192,14710,1,0,0:0:0:0:
448,192,14710,1,0,0:0:0:0:
64,192,14772,1,0,0:0:0:0:
192,192,14835,1,0,0:0:0:0:
320,192,14897,1,0,0:0:0:0:
64,192,14960,1,8,0:0:0:0:
448,192,14960,1,0,0:0:0:0:
192,192,15085,1,0,0:0:0:0:
320,192,15210,1,2,0:0:0:0:
448,192,15210,1,0,0:0:0:0:
192,192,15272,1,0,0:0:0:0:
64,192,15335,1,0,0:0:0:0:
320,192,15397,1,0,0:0:0:0:
64,192,15460,1,0,0:0:0:0:
448,192,15460,1,0,0:0:0:0:
320,192,15585,1,0,0:0:0:0:
64,192,15710,1,2,0:0:0:0:
192,192,15710,1,0,0:0:0:0:
448,192,15835,1,0,0:0:0:0:
64,192,15960,1,8,0:0:0:0:
192,192,15960,1,0,0:0:0:0:
320,192,15960,1,0,0:0:0:0:
448,192,16022,1,0,0:0:0:0:
192,192,16085,1,0,0:0:0:0:
320,192,16147,1,0,0:0:0:0:
192,192,16210,1,0,0:0:0:0:
448,192,16210,1,0,0:0:0:0:
192,192,16335,1,0,0:0:0:0:
320,192,16460,1,2,0:0:0:0:
448,192,16460,1,0,0:0:0:0:
64,192,16585,1,0,0:0:0:0:
192,192,16710,1,0,0:0:0:0:
448,192,16710,1,0,0:0:0:0:
64,192,16772,1,0,0:0:0:0:
448,192,16835,1,0,0:0:0:0:
192,192,16897,1,0,0:0:0:0:
64,192,16960,1,8,0:0:0:0:
320,192,16960,1,0,0:0:0:0:
64,192,17085,1,0,0:0:0:0:
320,192,17210,1,2,0:0:0:0:
448,192,17210,1,0,0:0:0:0:
64,192,17335,1,0,0:0:0:0:
192,192,17460,1,0,0:0:0:0:
448,192,17460,1,0,0:0:0:0:
192,192,17585,1,0,0:0:0:0:
320,192,17710,1,2,0:0:0:0:
448,192,17710,1,0,0:0:0:0:
192,192,17772,1,0,0:0:0:0:
64,192,17835,1,0,0:0:0:0:
320,192,17897,1,0,0:0:0:0:
64,192,17960,1,8,0:0:0:0:
192,192,17960,1,0,0:0:0:0:
448,192,17960,1,0,0:0:0:0:
320,192,18085,1,0,0:0:0:0:
64,192,18210,1,0,0:0:0:0:
448,192,18210,1,0,0:0:0:0:
64,192,18335,1,0,0:0:0:0:
320,192,18460,1,2,0:0:0:0:
448,192,18460,1,0,0:0:0:0:
320,192,18585,1,0,0:0:0:0:
448,192,18585,1,0,0:0:0:0:
192,192,18710,1,0,0:0:0:0:
64,192,18835,1,0,0:0:0:0:
448,192,18835,1,0,0:0:0:0:
64,192,18960,1,8,0:0:0:0:
448,192,18960,1,0,0:0:0:0:
320,192,19085,1,0,0:0:0:0:
64,192,19210,1,2,0:0:0:0:
192,192,19210,1,0,0:0:0:0:
64,192,19335,1,0,0:0:0:0:
192,192,19335,1,0,0:0:0:0:
448,192,19460,1,0,0:0:0:0:
64,192,19585,1,0,0:0:0:0:
320,192,19585,1,0,0:0:0:0:
64,192,19710,1,2,0:0:0:0:
320,192,19710,1,0,0:0:0:0:
192,192,19835,1,8,0:0:0:0:
320,192,19835,1,0,0:0:0:0:
64,192,19960,1,8,0:0:0:0:
192,192,19960,1,0,0:0:0:0:
448,192,19960,1,0,0:0:0:0:
320,192,20085,1,0,0:0:0:0:
192,192,20210,1,8,0:0:0:0:
448,192,20210,1,0,0:0:0:0:
192,192,20335,1,0,0:0:0:0:
64,192,20460,1,2,0:0:0:0:
320,192,20460,1,0,0:0:0:0:
448,192,20460,1,0,0:0:0:0:
192,192,20585,1,0,0:0:0:0:
320,192,20710,1,0,0:0:0:0:
64,192,20835,1,2,0:0:0:0:
320,192,20835,1,0,0:0:0:0:
320,192,20960,1,0,0:0:0:0:
192,192,21085,1,0,0:0:0:0:
64,192,21210,1,2,0:0:0:0:
320,192,21210,1,0,0:0:0:0:
64,192,21335,1,0,0:0:0:0:
64,192,21460,1,2,0:0:0:0:
320,192,21460,1,0,0:0:0:0:
192,192,21585,1,0,0:0:0:0:
320,192,21710,1,0,0:0:0:0:
64,192,21835,1,2,0:0:0:0:
320,192,21835,1,0,0:0:0:0:
320,192,21960,1,0,0:0:0:0:
192,192,22085,1,0,0:0:0:0:
64,192,22210,1,2,0:0:0:0:
320,192,22210,1,0,0:0:0:0:
64,192,22335,1,0,0:0:0:0:
64,192,22460,1,2,0:0:0:0:
192,192,22460,1,0,0:0:0:0:
448,192,22460,1,0,0:0:0:0:
320,192,22585,1,0,0:0:0:0:
192,192,22710,1,0,0:0:0:0:
448,192,22835,1,0,0:0:0:0:
192,192,22835,1,2,0:0:0:0:
192,192,22960,1,0,0:0:0:0:
320,192,23085,1,0,0:0:0:0:
192,192,23210,1,2,0:0:0:0:
448,192,23210,1,0,0:0:0:0:
448,192,23335,1,0,0:0:0:0:
192,192,23460,1,2,0:0:0:0:
448,192,23460,1,0,0:0:0:0:
320,192,23585,1,0,0:0:0:0:
192,192,23710,1,0,0:0:0:0:
192,192,23835,1,2,0:0:0:0:
448,192,23835,1,0,0:0:0:0:
192,192,23960,1,0,0:0:0:0:
320,192,24085,1,0,0:0:0:0:
192,192,24210,1,2,0:0:0:0:
448,192,24210,1,0,0:0:0:0:
448,192,24335,1,0,0:0:0:0:
64,192,24460,1,2,0:0:0:0:
320,192,24460,1,0,0:0:0:0:
448,192,24460,1,0,0:0:0:0:
192,192,24585,1,2,0:0:0:0:
320,192,24585,1,0,0:0:0:0:
64,192,24710,1,2,0:0:0:0:
192,192,24710,1,0,0:0:0:0:
320,192,24835,1,2,0:0:0:0:
64,192,24960,1,2,0:0:0:0:
448,192,24960,1,0,0:0:0:0:
64,192,25085,1,2,0:0:0:0:
192,192,25210,1,2,0:0:0:0:
320,192,25210,1,0,0:0:0:0:
320,192,25335,1,2,0:0:0:0:
64,192,25460,1,2,0:0:0:0:
192,192,25460,1,0,0:0:0:0:
448,192,25460,1,0,0:0:0:0:
192,192,25585,1,2,0:0:0:0:
320,192,25585,1,0,0:0:0:0:
320,192,25710,1,2,0:0:0:0:
448,192,25710,1,0,0:0:0:0:
192,192,25835,1,2,0:0:0:0:
64,192,25960,1,2,0:0:0:0:
448,192,25960,1,0,0:0:0:0:
448,192,26085,1,2,0:0:0:0:
192,192,26210,1,2,0:0:0:0:
320,192,26210,1,0,0:0:0:0:
192,192,26335,1,2,0:0:0:0:
64,192,26460,1,2,0:0:0:0:
320,192,26460,1,0,0:0:0:0:
448,192,26460,128,0,26585:0:0:0:0:
192,192,26585,1,2,0:0:0:0:
320,192,26647,1,2,0:0:0:0:
64,192,26710,1,2,0:0:0:0:
192,192,26710,1,0,0:0:0:0:
448,192,26772,1,2,0:0:0:0:
320,192,26835,1,2,0:0:0:0:
64,192,26897,1,2,0:0:0:0:
192,192,26960,1,2,0:0:0:0:
448,192,26960,128,0,27085:0:0:0:0:
64,192,27022,1,2,0:0:0:0:
320,192,27085,1,2,0:0:0:0:
192,192,27147,1,2,0:0:0:0:
64,192,27210,1,2,0:0:0:0:
320,192,27210,1,0,0:0:0:0:
448,192,27272,1,2,0:0:0:0:
192,192,27335,1,2,0:0:0:0:
320,192,27397,1,2,0:0:0:0:
64,192,27460,128,0,27710:0:0:0:0:
448,192,27460,128,0,27585:0:0:0:0:
192,192,27585,128,0,27710:0:0:0:0:
320,192,27710,1,0,0:0:0:0:
448,192,27710,1,0,0:0:0:0:
320,192,27835,1,0,0:0:0:0:
448,192,27835,1,0,0:0:0:0:
64,192,27960,128,0,28085:0:0:0:0:
448,192,27960,128,0,28210:0:0:0:0:
192,192,28210,128,0,28460:0:0:0:0:
320,192,28210,128,0,28335:0:0:0:0:
320,192,28460,1,2,0:0:0:0:
448,192,28460,128,0,28710:0:0:0:0:
192,192,28585,1,0,0:0:0:0:
64,192,28710,1,0,0:0:0:0:
320,192,28710,1,0,0:0:0:0:
192,192,28772,1,0,0:0:0:0:
320,192,28835,1,0,0:0:0:0:
64,192,28897,1,0,0:0:0:0:
192,192,28960,1,8,0:0:0:0:
448,192,28960,1,0,0:0:0:0:
192,192,29085,1,0,0:0:0:0:
320,192,29210,1,2,0:0:0:0:
448,192,29210,128,0,29460:0:0:0:0:
192,192,29335,1,0,0:0:0:0:
64,192,29460,1,0,0:0:0:0:
320,192,29460,1,0,0:0:0:0:
320,192,29585,1,0,0:0:0:0:
64,192,29710,1,2,0:0:0:0:
192,192,29710,1,0,0:0:0:0:
448,192,29772,1,0,0:0:0:0:
64,192,29835,1,0,0:0:0:0:
320,192,29897,1,0,0:0:0:0:
192,192,29960,1,8,0:0:0:0:
448,192,29960,128,0,30085:0:0:0:0:
320,192,30085,1,0,0:0:0:0:
192,192,30210,1,0,0:0:0:0:
448,192,30210,128,0,30335:0:0:0:0:
320,192,30335,1,0,0:0:0:0:
320,192,30460,1,2,0:0:0:0:
448,192,30460,128,0,30710:0:0:0:0:
192,192,30585,1,0,0:0:0:0:
64,192,30710,1,0,0:0:0:0:
320,192,30710,1,0,0:0:0:0:
192,192,30772,1,0,0:0:0:0:
320,192,30835,1,0,0:0:0:0:
64,192,30897,1,0,0:0:0:0:
192,192,30960,1,8,0:0:0:0:
448,192,30960,1,0,0:0:0:0:
192,192,31085,1,0,0:0:0:0:
320,192,31210,1,2,0:0:0:0:
448,192,31210,1,0,0:0:0:0:
64,192,31272,1,0,0:0:0:0:
320,192,31335,128,0,31710:0:0:0:0:
192,192,31397,1,0,0:0:0:0:
64,192,31460,1,0,0:0:0:0:
448,192,31460,1,0,0:0:0:0:
448,192,31585,1,0,0:0:0:0:
64,192,31710,1,2,0:0:0:0:
192,192,31710,1,0,0:0:0:0:
64,192,31835,1,0,0:0:0:0:
192,192,31960,1,8,0:0:0:0:
320,192,31960,1,0,0:0:0:0:
448,192,31960,1,0,0:0:0:0:
64,192,32022,1,0,0:0:0:0:
448,192,32085,1,0,0:0:0:0:
320,192,32147,1,0,0:0:0:0:
192,192,32210,1,0,0:0:0:0:
192,192,32335,1,0,0:0:0:0:
320,192,32460,1,2,0:0:0:0:
448,192,32460,128,0,32710:0:0:0:0:
192,192,32585,1,0,0:0:0:0:
64,192,32710,128,0,32835:0:0:0:0:
320,192,32710,1,0,0:0:0:0:
192,192,32772,1,0,0:0:0:0:
320,192,32835,1,0,0:0:0:0:
192,192,32897,1,0,0:0:0:0:
64,192,32960,1,8,0:0:0:0:
448,192,32960,1,0,0:0:0:0:
64,192,33085,1,0,0:0:0:0:
320,192,33210,1,2,0:0:0:0:
448,192,33210,128,0,33460:0:0:0:0:
192,192,33335,1,0,0:0:0:0:
64,192,33460,1,0,0:0:0:0:
320,192,33460,1,0,0:0:0:0:
320,192,33585,1,0,0:0:0:0:
64,192,33710,1,2,0:0:0:0:
192,192,33710,1,0,0:0:0:0:
448,192,33772,1,0,0:0:0:0:
64,192,33835,1,0,0:0:0:0:
320,192,33897,1,0,0:0:0:0:
192,192,33960,1,8,0:0:0:0:
448,192,33960,128,0,34085:0:0:0:0:
320,192,34085,1,0,0:0:0:0:
192,192,34210,1,0,0:0:0:0:
448,192,34210,128,0,34335:0:0:0:0:
320,192,34335,1,0,0:0:0:0:
320,192,34460,1,2,0:0:0:0:
448,192,34460,128,0,34710:0:0:0:0:
192,192,34585,1,0,0:0:0:0:
64,192,34710,1,0,0:0:0:0:
320,192,34710,1,0,0:0:0:0:
192,192,34772,1,0,0:0:0:0:
320,192,34835,1,0,0:0:0:0:
64,192,34897,1,0,0:0:0:0:
192,192,34960,1,8,0:0:0:0:
448,192,34960,1,0,0:0:0:0:
192,192,35085,1,0,0:0:0:0:
320,192,35210,1,2,0:0:0:0:
448,192,35210,1,0,0:0:0:0:
64,192,35272,1,0,0:0:0:0:
320,192,35335,128,0,35710:0:0:0:0:
192,192,35397,1,0,0:0:0:0:
64,192,35460,1,0,0:0:0:0:
448,192,35460,1,0,0:0:0:0:
64,192,35585,1,2,0:0:0:0:
192,192,35585,1,0,0:0:0:0:
64,192,35710,1,2,0:0:0:0:
192,192,35710,1,0,0:0:0:0:
320,192,35835,1,0,0:0:0:0:
64,192,35960,1,8,0:0:0:0:
192,192,35960,1,0,0:0:0:0:
448,192,35960,1,0,0:0:0:0:
320,192,36085,1,2,0:0:0:0:
448,192,36085,1,0,0:0:0:0:
192,192,36210,1,0,0:0:0:0:
64,192,36335,1,8,0:0:0:0:
320,192,36335,1,0,0:0:0:0:
448,192,36335,1,0,0:0:0:0:
320,192,36460,1,2,0:0:0:0:
448,192,36460,128,0,36710:0:0:0:0:
64,192,36585,1,0,0:0:0:0:
192,192,36710,1,0,0:0:0:0:
320,192,36710,1,0,0:0:0:0:
64,192,36772,1,0,0:0:0:0:
192,192,36835,1,0,0:0:0:0:
320,192,36897,1,0,0:0:0:0:
64,192,36960,1,8,0:0:0:0:
448,192,36960,1,0,0:0:0:0:
64,192,37085,1,0,0:0:0:0:
320,192,37210,1,2,0:0:0:0:
448,192,37210,128,0,37460:0:0:0:0:
64,192,37335,1,0,0:0:0:0:
192,192,37460,1,0,0:0:0:0:
320,192,37460,1,0,0:0:0:0:
320,192,37585,1,0,0:0:0:0:
64,192,37710,1,2,0:0:0:0:
192,192,37710,1,0,0:0:0:0:
448,192,37772,1,0,0:0:0:0:
192,192,37835,1,0,0:0:0:0:
320,192,37897,1,0,0:0:0:0:
64,192,37960,1,8,0:0:0:0:
448,192,37960,128,0,38085:0:0:0:0:
320,192,38085,1,0,0:0:0:0:
64,192,38210,1,0,0:0:0:0:
448,192,38210,128,0,38335:0:0:0:0:
320,192,38335,1,0,0:0:0:0:
320,192,38460,1,2,0:0:0:0:
448,192,38460,128,0,38710:0:0:0:0:
64,192,38585,1,0,0:0:0:0:
192,192,38710,1,0,0:0:0:0:
320,192,38710,1,0,0:0:0:0:
64,192,38772,1,0,0:0:0:0:
192,192,38835,1,0,0:0:0:0:
320,192,38897,1,0,0:0:0:0:
64,192,38960,1,8,0:0:0:0:
448,192,38960,1,0,0:0:0:0:
64,192,39085,1,0,0:0:0:0:
320,192,39210,1,2,0:0:0:0:
448,192,39210,1,0,0:0:0:0:
192,192,39272,1,0,0:0:0:0:
320,192,39335,128,0,39710:0:0:0:0:
64,192,39397,1,0,0:0:0:0:
192,192,39460,1,0,0:0:0:0:
448,192,39460,1,0,0:0:0:0:
448,192,39585,1,0,0:0:0:0:
64,192,39710,1,2,0:0:0:0:
192,192,39710,1,0,0:0:0:0:
64,192,39835,1,0,0:0:0:0:
192,192,39960,128,8,40085:0:0:0:0:
320,192,39960,128,0,40085:0:0:0:0:
448,192,39960,1,0,0:0:0:0:
64,192,40210,1,0,0:0:0:0:
448,192,40210,1,0,0:0:0:0:
64,192,40335,1,0,0:0:0:0:
448,192,40335,1,0,0:0:0:0:
320,192,40460,1,2,0:0:0:0:
448,192,40460,128,0,40710:0:0:0:0:
192,192,40585,1,0,0:0:0:0:
64,192,40710,128,0,40835:0:0:0:0:
320,192,40710,1,0,0:0:0:0:
192,192,40772,1,0,0:0:0:0:
320,192,40835,1,0,0:0:0:0:
192,192,40897,1,0,0:0:0:0:
64,192,40960,1,8,0:0:0:0:
448,192,40960,1,0,0:0:0:0:
64,192,41085,1,0,0:0:0:0:
320,192,41210,1,2,0:0:0:0:
448,192,41210,128,0,41460:0:0:0:0:
192,192,41335,1,0,0:0:0:0:
64,192,41460,1,0,0:0:0:0:
320,192,41460,1,0,0:0:0:0:
320,192,41585,1,0,0:0:0:0:
64,192,41710,1,2,0:0:0:0:
192,192,41710,1,0,0:0:0:0:
448,192,41772,1,0,0:0:0:0:
64,192,41835,1,0,0:0:0:0:
320,192,41897,1,0,0:0:0:0:
192,192,41960,1,8,0:0:0:0:
448,192,41960,128,0,42210:0:0:0:0:
192,192,42085,1,0,0:0:0:0:
64,192,42210,1,0,0:0:0:0:
320,192,42210,1,0,0:0:0:0:
448,192,42335,1,0,0:0:0:0:
64,192,42460,1,8,0:0:0:0:
192,192,42460,1,0,0:0:0:0:
64,192,42585,1,8,0:0:0:0:
192,192,42585,1,0,0:0:0:0:
320,192,42710,1,0,0:0:0:0:
192,192,42835,1,8,0:0:0:0:
448,192,42835,1,0,0:0:0:0:
192,192,42960,1,8,0:0:0:0:
448,192,42960,1,0,0:0:0:0:
320,192,43210,1,8,0:0:0:0:
448,192,43210,1,0,0:0:0:0:
320,192,43335,1,8,0:0:0:0:
448,192,43335,1,0,0:0:0:0:
192,192,43460,1,0,0:0:0:0:
64,192,43585,1,8,0:0:0:0:
448,192,43585,1,0,0:0:0:0:
64,192,43710,1,2,0:0:0:0:
448,192,43710,1,0,0:0:0:0:
192,192,43835,1,2,0:0:0:0:
320,192,43835,1,0,0:0:0:0:
64,192,43960,1,8,0:0:0:0:
320,192,43960,1,0,0:0:0:0:
448,192,43960,1,0,0:0:0:0:
192,192,44210,128,0,44335:0:0:0:0:
64,192,44460,128,2,44647:0:0:0:0:
320,192,44460,1,0,0:0:0:0:
448,192,44460,1,0,0:0:0:0:
448,192,44585,1,0,0:0:0:0:
192,192,44710,1,0,0:0:0:0:
320,192,44710,1,0,0:0:0:0:
448,192,44772,1,0,0:0:0:0:
320,192,44835,1,0,0:0:0:0:
192,192,44897,1,0,0:0:0:0:
64,192,44960,1,8,0:0:0:0:
448,192,44960,1,0,0:0:0:0:
448,192,45085,128,0,45147:0:0:0:0:
64,192,45210,1,2,0:0:0:0:
192,192,45210,1,0,0:0:0:0:
64,192,45335,1,0,0:0:0:0:
448,192,45335,128,0,45397:0:0:0:0:
192,192,45460,1,0,0:0:0:0:
320,192,45460,1,0,0:0:0:0:
448,192,45585,128,0,45647:0:0:0:0:
320,192,45710,1,2,0:0:0:0:
448,192,45710,128,0,45772:0:0:0:0:
64,192,45835,1,0,0:0:0:0:
64,192,45960,1,8,0:0:0:0:
192,192,45960,1,0,0:0:0:0:
448,192,45960,1,0,0:0:0:0:
320,192,46085,1,0,0:0:0:0:
192,192,46210,1,0,0:0:0:0:
448,192,46210,1,0,0:0:0:0:
320,192,46335,1,0,0:0:0:0:
320,192,46460,1,2,0:0:0:0:
448,192,46460,128,0,46647:0:0:0:0:
64,192,46585,1,0,0:0:0:0:
192,192,46710,1,0,0:0:0:0:
320,192,46710,1,0,0:0:0:0:
64,192,46772,1,0,0:0:0:0:
192,192,46835,1,0,0:0:0:0:
320,192,46897,1,0,0:0:0:0:
64,192,46960,1,8,0:0:0:0:
448,192,46960,1,0,0:0:0:0:
64,192,47085,128,0,47147:0:0:0:0:
320,192,47210,1,2,0:0:0:0:
448,192,47210,1,0,0:0:0:0:
64,192,47335,128,0,47397:0:0:0:0:
320,192,47335,1,0,0:0:0:0:
192,192,47460,1,0,0:0:0:0:
448,192,47460,1,0,0:0:0:0:
64,192,47585,128,0,47647:0:0:0:0:
64,192,47710,128,2,47772:0:0:0:0:
192,192,47710,1,0,0:0:0:0:
320,192,47835,1,0,0:0:0:0:
64,192,47960,1,2,0:0:0:0:
192,192,47960,1,0,0:0:0:0:
64,192,48085,1,0,0:0:0:0:
448,192,48085,1,0,0:0:0:0:
192,192,48147,1,0,0:0:0:0:
320,192,48210,1,2,0:0:0:0:
448,192,48210,1,0,0:0:0:0:
64,192,48335,1,0,0:0:0:0:
320,192,48335,1,0,0:0:0:0:
64,192,48460,1,2,0:0:0:0:
192,192,48460,128,0,48647:0:0:0:0:
448,192,48585,1,0,0:0:0:0:
64,192,48710,1,0,0:0:0:0:
320,192,48710,1,0,0:0:0:0:
448,192,48772,1,0,0:0:0:0:
320,192,48835,1,0,0:0:0:0:
192,192,48897,1,0,0:0:0:0:
64,192,48960,1,8,0:0:0:0:
448,192,48960,1,0,0:0:0:0:
448,192,49085,128,0,49147:0:0:0:0:
64,192,49210,1,2,0:0:0:0:
192,192,49210,1,0,0:0:0:0:
192,192,49335,1,0,0:0:0:0:
448,192,49335,128,0,49397:0:0:0:0:
64,192,49460,1,0,0:0:0:0:
320,192,49460,1,0,0:0:0:0:
448,192,49585,128,0,49647:0:0:0:0:
320,192,49710,1,2,0:0:0:0:
448,192,49710,128,0,49772:0:0:0:0:
64,192,49835,1,0,0:0:0:0:
64,192,49960,1,8,0:0:0:0:
192,192,49960,1,0,0:0:0:0:
448,192,49960,1,0,0:0:0:0:
320,192,50085,1,0,0:0:0:0:
192,192,50210,1,0,0:0:0:0:
448,192,50210,1,0,0:0:0:0:
320,192,50335,1,0,0:0:0:0:
320,192,50460,128,2,50647:0:0:0:0:
448,192,50460,1,0,0:0:0:0:
64,192,50585,1,0,0:0:0:0:
64,192,50710,1,0,0:0:0:0:
448,192,50710,1,0,0:0:0:0:
192,192,50772,1,0,0:0:0:0:
320,192,50835,1,0,0:0:0:0:
64,192,50897,1,0,0:0:0:0:
320,192,50960,128,2,51147:0:0:0:0:
448,192,50960,1,0,0:0:0:0:
192,192,51085,1,0,0:0:0:0:
192,192,51210,1,0,0:0:0:0:
448,192,51210,1,0,0:0:0:0:
64,192,51272,1,0,0:0:0:0:
320,192,51335,1,0,0:0:0:0:
448,192,51335,1,0,0:0:0:0:
192,192,51397,1,0,0:0:0:0:
64,192,51460,1,8,0:0:0:0:
320,192,51460,1,0,0:0:0:0:
448,192,51460,1,0,0:0:0:0:
192,192,51585,1,0,0:0:0:0:
192,192,51710,1,0,0:0:0:0:
320,192,51710,1,0,0:0:0:0:
64,192,51835,1,0,0:0:0:0:
320,192,51835,1,0,0:0:0:0:
64,192,51960,1,8,0:0:0:0:
192,192,51960,1,0,0:0:0:0:
448,192,51960,1,0,0:0:0:0:
192,192,52085,1,0,0:0:0:0:
320,192,52085,1,0,0:0:0:0:
64,192,52210,1,0,0:0:0:0:
448,192,52210,1,0,0:0:0:0:
64,192,52460,128,2,52647:0:0:0:0:
320,192,52460,1,0,0:0:0:0:
448,192,52460,1,0,0:0:0:0:
448,192,52585,1,0,0:0:0:0:
192,192,52710,1,0,0:0:0:0:
320,192,52710,1,0,0:0:0:0:
448,192,52772,1,0,0:0:0:0:
320,192,52835,1,0,0:0:0:0:
192,192,52897,1,0,0:0:0:0:
64,192,52960,1,8,0:0:0:0:
448,192,52960,1,0,0:0:0:0:
448,192,53085,128,0,53147:0:0:0:0:
64,192,53210,1,2,0:0:0:0:
192,192,53210,1,0,0:0:0:0:
64,192,53335,1,0,0:0:0:0:
448,192,53335,128,0,53397:0:0:0:0:
192,192,53460,1,0,0:0:0:0:
320,192,53460,1,0,0:0:0:0:
448,192,53585,128,0,53647:0:0:0:0:
320,192,53710,1,2,0:0:0:0:
448,192,53710,128,0,53772:0:0:0:0:
64,192,53835,1,0,0:0:0:0:
64,192,53960,1,8,0:0:0:0:
192,192,53960,1,0,0:0:0:0:
448,192,53960,1,0,0:0:0:0:
320,192,54085,1,0,0:0:0:0:
192,192,54210,1,0,0:0:0:0:
448,192,54210,1,0,0:0:0:0:
320,192,54335,1,0,0:0:0:0:
320,192,54460,1,2,0:0:0:0:
448,192,54460,128,0,54647:0:0:0:0:
64,192,54585,1,0,0:0:0:0:
192,192,54710,1,0,0:0:0:0:
320,192,54710,1,0,0:0:0:0:
64,192,54772,1,0,0:0:0:0:
192,192,54835,1,0,0:0:0:0:
320,192,54897,1,0,0:0:0:0:
64,192,54960,1,8,0:0:0:0:
448,192,54960,1,0,0:0:0:0:
64,192,55085,128,0,55147:0:0:0:0:
320,192,55210,1,2,0:0:0:0:
448,192,55210,1,0,0:0:0:0:
64,192,55335,128,0,55397:0:0:0:0:
320,192,55335,1,0,0:0:0:0:
192,192,55460,1,0,0:0:0:0:
448,192,55460,1,0,0:0:0:0:
64,192,55585,128,0,55647:0:0:0:0:
64,192,55710,128,2,55772:0:0:0:0:
192,192,55710,1,0,0:0:0:0:
320,192,55835,1,0,0:0:0:0:
448,192,55835,1,0,0:0:0:0:
64,192,55960,1,8,0:0:0:0:
192,192,55960,1,0,0:0:0:0:
320,192,55960,1,0,0:0:0:0:
192,192,56085,1,0,0:0:0:0:
448,192,56085,1,0,0:0:0:0:
64,192,56147,1,0,0:0:0:0:
320,192,56210,1,0,0:0:0:0:
448,192,56210,1,0,0:0:0:0:
192,192,56272,1,0,0:0:0:0:
64,192,56335,1,0,0:0:0:0:
320,192,56335,1,0,0:0:0:0:
448,192,56397,1,0,0:0:0:0:
64,192,56460,1,2,0:0:0:0:
192,192,56460,128,0,56647:0:0:0:0:
448,192,56585,1,0,0:0:0:0:
64,192,56710,1,0,0:0:0:0:
320,192,56710,1,0,0:0:0:0:
448,192,56772,1,0,0:0:0:0:
320,192,56835,1,0,0:0:0:0:
192,192,56897,1,0,0:0:0:0:
64,192,56960,1,8,0:0:0:0:
448,192,56960,1,0,0:0:0:0:
448,192,57085,128,0,57147:0:0:0:0:
64,192,57210,1,2,0:0:0:0:
192,192,57210,1,0,0:0:0:0:
192,192,57335,1,0,0:0:0:0:
448,192,57335,128,0,57397:0:0:0:0:
64,192,57460,1,0,0:0:0:0:
320,192,57460,1,0,0:0:0:0:
448,192,57585,128,0,57647:0:0:0:0:
320,192,57710,1,2,0:0:0:0:
448,192,57710,128,0,57772:0:0:0:0:
64,192,57835,1,0,0:0:0:0:
192,192,57960,1,0,0:0:0:0:
448,192,58022,1,0,0:0:0:0:
192,192,58085,1,0,0:0:0:0:
320,192,58147,1,0,0:0:0:0:
64,192,58210,1,0,0:0:0:0:
320,192,58272,1,0,0:0:0:0:
192,192,58335,1,0,0:0:0:0:
64,192,58397,1,0,0:0:0:0:
320,192,58460,1,8,0:0:0:0:
448,192,58460,1,0,0:0:0:0:
320,192,58585,1,8,0:0:0:0:
448,192,58585,1,0,0:0:0:0:
192,192,58710,1,0,0:0:0:0:
64,192,58835,1,8,0:0:0:0:
448,192,58835,1,0,0:0:0:0:
64,192,58960,1,8,0:0:0:0:
448,192,58960,1,0,0:0:0:0:
64,192,59210,1,8,0:0:0:0:
192,192,59210,1,0,0:0:0:0:
64,192,59335,1,8,0:0:0:0:
192,192,59335,1,0,0:0:0:0:
448,192,59460,1,0,0:0:0:0:
64,192,59585,1,8,0:0:0:0:
320,192,59585,1,0,0:0:0:0:
64,192,59710,1,2,0:0:0:0:
320,192,59710,1,0,0:0:0:0:
192,192,59835,1,2,0:0:0:0:
448,192,59835,1,0,0:0:0:0:
64,192,59960,1,8,0:0:0:0:
320,192,59960,1,0,0:0:0:0:
448,192,59960,1,0,0:0:0:0:
192,192,60210,1,0,0:0:0:0:
320,192,60210,1,0,0:0:0:0:
192,192,60335,1,0,0:0:0:0:
448,192,60335,1,0,0:0:0:0:
64,192,60460,1,2,0:0:0:0:
320,192,60460,1,0,0:0:0:0:
448,192,60460,1,0,0:0:0:0:
192,192,60585,1,0,0:0:0:0:
64,192,60710,1,0,0:0:0:0:
448,192,60710,1,0,0:0:0:0:
320,192,60772,1,0,0:0:0:0:
192,192,60835,1,0,0:0:0:0:
448,192,60835,1,0,0:0:0:0:
64,192,60897,1,0,0:0:0:0:
320,192,60960,1,8,0:0:0:0:
448,192,60960,1,0,0:0:0:0:
192,192,61085,1,0,0:0:0:0:
64,192,61210,1,0,0:0:0:0:
448,192,61210,1,0,0:0:0:0:
320,192,61335,1,0,0:0:0:0:
64,192,61460,1,2,0:0:0:0:
192,192,61460,1,0,0:0:0:0:
64,192,61585,1,0,0:0:0:0:
448,192,61585,1,0,0:0:0:0:
320,192,61710,1,0,0:0:0:0:
64,192,61772,1,0,0:0:0:0:
192,192,61835,1,0,0:0:0:0:
448,192,61835,1,0,0:0:0:0:
320,192,61897,1,0,0:0:0:0:
64,192,61960,1,8,0:0:0:0:
192,192,61960,1,0,0:0:0:0:
64,192,62085,1,0,0:0:0:0:
448,192,62085,1,0,0:0:0:0:
320,192,62210,1,0,0:0:0:0:
192,192,62335,1,0,0:0:0:0:
448,192,62335,1,0,0:0:0:0:
320,192,62460,1,2,0:0:0:0:
448,192,62460,1,0,0:0:0:0:
192,192,62585,1,0,0:0:0:0:
64,192,62710,1,0,0:0:0:0:
320,192,62710,1,0,0:0:0:0:
192,192,62772,1,0,0:0:0:0:
64,192,62835,1,0,0:0:0:0:
448,192,62835,1,0,0:0:0:0:
320,192,62897,1,0,0:0:0:0:
64,192,62960,1,8,0:0:0:0:
192,192,62960,1,0,0:0:0:0:
192,192,63085,1,0,0:0:0:0:
448,192,63085,1,0,0:0:0:0:
64,192,63210,1,0,0:0:0:0:
320,192,63210,1,0,0:0:0:0:
448,192,63272,1,0,0:0:0:0:
192,192,63335,1,0,0:0:0:0:
64,192,63397,1,0,0:0:0:0:
320,192,63460,1,2,0:0:0:0:
448,192,63460,1,0,0:0:0:0:
192,192,63585,1,0,0:0:0:0:
64,192,63710,1,0,0:0:0:0:
448,192,63710,1,0,0:0:0:0:
192,192,63835,1,0,0:0:0:0:
320,192,63835,1,0,0:0:0:0:
320,192,63960,1,8,0:0:0:0:
448,192,63960,1,0,0:0:0:0:
64,192,64085,1,0,0:0:0:0:
448,192,64085,1,0,0:0:0:0:
64,192,64210,1,0,0:0:0:0:
320,192,64210,1,0,0:0:0:0:
192,192,64335,1,0,0:0:0:0:
448,192,64335,1,0,0:0:0:0:
64,192,64460,1,2,0:0:0:0:
192,192,64460,1,0,0:0:0:0:
320,192,64585,1,0,0:0:0:0:
64,192,64710,1,0,0:0:0:0:
448,192,64710,1,0,0:0:0:0:
320,192,64772,1,0,0:0:0:0:
192,192,64835,1,0,0:0:0:0:
448,192,64897,1,0,0:0:0:0:
64,192,64960,1,8,0:0:0:0:
192,192,64960,1,0,0:0:0:0:
320,192,65085,1,0,0:0:0:0:
64,192,65210,1,0,0:0:0:0:
320,192,65210,1,0,0:0:0:0:
192,192,65335,1,0,0:0:0:0:
448,192,65335,1,0,0:0:0:0:
320,192,65460,1,2,0:0:0:0:
448,192,65460,1,0,0:0:0:0:
64,192,65585,1,0,0:0:0:0:
192,192,65710,1,0,0:0:0:0:
448,192,65710,1,0,0:0:0:0:
64,192,65772,1,0,0:0:0:0:
320,192,65835,1,0,0:0:0:0:
448,192,65897,1,0,0:0:0:0:
64,192,65960,1,8,0:0:0:0:
192,192,65960,1,0,0:0:0:0:
320,192,66085,1,0,0:0:0:0:
64,192,66210,1,0,0:0:0:0:
448,192,66210,1,0,0:0:0:0:
192,192,66335,1,0,0:0:0:0:
320,192,66335,1,0,0:0:0:0:
320,192,66460,1,2,0:0:0:0:
448,192,66460,1,0,0:0:0:0:
64,192,66585,1,0,0:0:0:0:
192,192,66710,1,0,0:0:0:0:
448,192,66710,1,0,0:0:0:0:
320,192,66772,1,0,0:0:0:0:
192,192,66835,1,0,0:0:0:0:
64,192,66897,1,0,0:0:0:0:
320,192,66960,1,8,0:0:0:0:
448,192,66960,1,0,0:0:0:0:
192,192,67085,1,0,0:0:0:0:
64,192,67210,1,0,0:0:0:0:
448,192,67210,1,0,0:0:0:0:
192,192,67272,1,0,0:0:0:0:
64,192,67335,1,0,0:0:0:0:
320,192,67335,1,0,0:0:0:0:
448,192,67397,1,0,0:0:0:0:
64,192,67460,1,2,0:0:0:0:
192,192,67460,1,0,0:0:0:0:
192,192,67585,1,0,0:0:0:0:
448,192,67585,1,0,0:0:0:0:
64,192,67710,1,0,0:0:0:0:
448,192,67710,1,0,0:0:0:0:
192,192,67835,1,0,0:0:0:0:
320,192,67835,1,0,0:0:0:0:
320,192,67960,1,8,0:0:0:0:
448,192,67960,1,0,0:0:0:0:
192,192,68085,1,0,0:0:0:0:
448,192,68085,1,0,0:0:0:0:
192,192,68210,1,0,0:0:0:0:
320,192,68210,1,0,0:0:0:0:
64,192,68335,1,0,0:0:0:0:
320,192,68335,1,0,0:0:0:0:
64,192,68460,1,2,0:0:0:0:
192,192,68460,1,0,0:0:0:0:
448,192,68460,1,0,0:0:0:0:
192,192,68585,1,0,0:0:0:0:
320,192,68585,1,0,0:0:0:0:
64,192,68710,1,0,0:0:0:0:
448,192,68710,1,0,0:0:0:0:
192,192,68772,1,0,0:0:0:0:
64,192,68835,1,0,0:0:0:0:
320,192,68835,1,0,0:0:0:0:
448,192,68897,1,0,0:0:0:0:
64,192,68960,1,8,0:0:0:0:
192,192,68960,1,0,0:0:0:0:
192,192,69085,1,0,0:0:0:0:
320,192,69085,1,0,0:0:0:0:
64,192,69210,1,0,0:0:0:0:
448,192,69210,1,0,0:0:0:0:
192,192,69335,1,0,0:0:0:0:
448,192,69335,1,0,0:0:0:0:
64,192,69460,1,2,0:0:0:0:
192,192,69460,1,0,0:0:0:0:
64,192,69585,1,0,0:0:0:0:
320,192,69585,1,0,0:0:0:0:
192,192,69710,1,0,0:0:0:0:
448,192,69710,1,0,0:0:0:0:
320,192,69772,1,0,0:0:0:0:
64,192,69835,1,0,0:0:0:0:
448,192,69835,1,0,0:0:0:0:
192,192,69897,1,0,0:0:0:0:
320,192,69960,1,8,0:0:0:0:
448,192,69960,1,0,0:0:0:0:
192,192,70085,1,0,0:0:0:0:
320,192,70085,1,0,0:0:0:0:
64,192,70210,1,0,0:0:0:0:
448,192,70210,1,0,0:0:0:0:
192,192,70335,1,0,0:0:0:0:
448,192,70335,1,0,0:0:0:0:
64,192,70460,1,2,0:0:0:0:
192,192,70460,1,0,0:0:0:0:
320,192,70585,1,0,0:0:0:0:
64,192,70710,1,0,0:0:0:0:
448,192,70772,1,0,0:0:0:0:
192,192,70835,1,0,0:0:0:0:
320,192,70835,1,0,0:0:0:0:
64,192,70897,1,0,0:0:0:0:
320,192,70960,1,8,0:0:0:0:
448,192,70960,1,0,0:0:0:0:
192,192,71085,1,0,0:0:0:0:
64,192,71210,1,0,0:0:0:0:
448,192,71210,1,0,0:0:0:0:
320,192,71272,1,0,0:0:0:0:
192,192,71335,1,0,0:0:0:0:
448,192,71335,1,0,0:0:0:0:
64,192,71397,1,0,0:0:0:0:
320,192,71460,1,2,0:0:0:0:
448,192,71460,1,0,0:0:0:0:
192,192,71585,1,0,0:0:0:0:
64,192,71710,1,0,0:0:0:0:
320,192,71710,1,0,0:0:0:0:
192,192,71835,1,0,0:0:0:0:
320,192,71835,1,0,0:0:0:0:
64,192,71960,1,8,0:0:0:0:
192,192,71960,1,0,0:0:0:0:
64,192,72085,1,0,0:0:0:0:
448,192,72085,1,0,0:0:0:0:
192,192,72210,1,0,0:0:0:0:
320,192,72210,1,0,0:0:0:0:
192,192,72335,1,0,0:0:0:0:
448,192,72335,1,0,0:0:0:0:
320,192,72460,1,2,0:0:0:0:
448,192,72460,1,0,0:0:0:0:
64,192,72585,1,0,0:0:0:0:
320,192,72585,1,0,0:0:0:0:
192,192,72710,1,0,0:0:0:0:
448,192,72772,1,0,0:0:0:0:
64,192,72835,1,0,0:0:0:0:
320,192,72835,1,0,0:0:0:0:
192,192,72897,1,0,0:0:0:0:
320,192,72960,1,8,0:0:0:0:
448,192,72960,1,0,0:0:0:0:
64,192,73085,1,0,0:0:0:0:
192,192,73210,1,0,0:0:0:0:
320,192,73210,1,0,0:0:0:0:
192,192,73335,1,0,0:0:0:0:
448,192,73335,1,0,0:0:0:0:
320,192,73460,1,2,0:0:0:0:
448,192,73460,1,0,0:0:0:0:
64,192,73585,1,0,0:0:0:0:
320,192,73585,1,0,0:0:0:0:
192,192,73710,1,0,0:0:0:0:
448,192,73710,1,0,0:0:0:0:
64,192,73772,1,0,0:0:0:0:
320,192,73835,1,0,0:0:0:0:
448,192,73897,1,0,0:0:0:0:
64,192,73960,1,8,0:0:0:0:
192,192,73960,1,0,0:0:0:0:
64,192,74085,1,0,0:0:0:0:
320,192,74085,1,0,0:0:0:0:
448,192,74210,1,0,0:0:0:0:
192,192,74335,1,0,0:0:0:0:
448,192,74335,1,0,0:0:0:0:
64,192,74460,1,2,0:0:0:0:
192,192,74460,1,0,0:0:0:0:
320,192,74585,1,0,0:0:0:0:
64,192,74710,1,0,0:0:0:0:
448,192,74710,1,0,0:0:0:0:
192,192,74772,1,0,0:0:0:0:
320,192,74835,1,0,0:0:0:0:
64,192,74897,1,0,0:0:0:0:
320,192,74960,1,8,0:0:0:0:
448,192,74960,1,0,0:0:0:0:
192,192,75085,1,0,0:0:0:0:
64,192,75210,1,0,0:0:0:0:
320,192,75210,1,0,0:0:0:0:
192,192,75335,1,0,0:0:0:0:
448,192,75335,1,0,0:0:0:0:
64,192,75460,1,2,0:0:0:0:
192,192,75460,1,0,0:0:0:0:
64,192,75585,1,0,0:0:0:0:
320,192,75585,1,0,0:0:0:0:
320,192,75710,1,2,0:0:0:0:
448,192,75710,1,0,0:0:0:0:
64,192,75835,1,2,0:0:0:0:
192,192,75835,1,0,0:0:0:0:
320,192,75960,1,8,0:0:0:0:
448,192,75960,1,0,0:0:0:0:
64,192,76085,1,0,0:0:0:0:
448,192,76085,1,0,0:0:0:0:
192,192,76210,1,0,0:0:0:0:
320,192,76210,1,0,0:0:0:0:
64,192,76335,1,0,0:0:0:0:
320,192,76335,1,0,0:0:0:0:
64,192,76460,1,2,0:0:0:0:
192,192,76460,1,0,0:0:0:0:
448,192,76460,1,0,0:0:0:0:
448,192,76585,1,0,0:0:0:0:
320,192,76710,1,0,0:0:0:0:
192,192,76772,1,0,0:0:0:0:
64,192,76835,1,0,0:0:0:0:
448,192,76835,1,0,0:0:0:0:
320,192,76897,1,0,0:0:0:0:
64,192,76960,1,8,0:0:0:0:
192,192,76960,1,0,0:0:0:0:
448,192,77085,1,0,0:0:0:0:
64,192,77210,1,0,0:0:0:0:
320,192,77210,1,0,0:0:0:0:
192,192,77335,1,0,0:0:0:0:
320,192,77460,1,2,0:0:0:0:
448,192,77460,1,0,0:0:0:0:
64,192,77585,1,0,0:0:0:0:
448,192,77585,1,0,0:0:0:0:
192,192,77710,1,0,0:0:0:0:
448,192,77772,1,0,0:0:0:0:
64,192,77835,1,0,0:0:0:0:
320,192,77835,1,0,0:0:0:0:
192,192,77897,1,0,0:0:0:0:
320,192,77960,1,8,0:0:0:0:
448,192,77960,1,0,0:0:0:0:
64,192,78085,1,0,0:0:0:0:
448,192,78085,1,0,0:0:0:0:
320,192,78210,1,0,0:0:0:0:
192,192,78335,1,0,0:0:0:0:
448,192,78335,1,0,0:0:0:0:
64,192,78460,1,2,0:0:0:0:
192,192,78460,1,0,0:0:0:0:
320,192,78585,1,0,0:0:0:0:
64,192,78710,1,0,0:0:0:0:
448,192,78710,1,0,0:0:0:0:
192,192,78772,1,0,0:0:0:0:
64,192,78835,1,0,0:0:0:0:
320,192,78835,1,0,0:0:0:0:
448,192,78897,1,0,0:0:0:0:
64,192,78960,1,8,0:0:0:0:
192,192,78960,1,0,0:0:0:0:
192,192,79085,1,0,0:0:0:0:
448,192,79085,1,0,0:0:0:0:
64,192,79210,1,0,0:0:0:0:
320,192,79210,1,0,0:0:0:0:
320,192,79335,1,0,0:0:0:0:
64,192,79460,1,2,0:0:0:0:
192,192,79460,1,0,0:0:0:0:
448,192,79585,1,0,0:0:0:0:
64,192,79710,1,0,0:0:0:0:
320,192,79710,1,0,0:0:0:0:
64,192,79835,1,0,0:0:0:0:
448,192,79835,1,0,0:0:0:0:
320,192,79960,1,8,0:0:0:0:
448,192,79960,1,0,0:0:0:0:
64,192,80085,1,0,0:0:0:0:
320,192,80085,1,0,0:0:0:0:
192,192,80210,1,0,0:0:0:0:
448,192,80210,1,0,0:0:0:0:
192,192,80335,1,0,0:0:0:0:
320,192,80335,1,0,0:0:0:0:
320,192,80460,1,2,0:0:0:0:
448,192,80460,1,0,0:0:0:0:
64,192,80585,1,0,0:0:0:0:
192,192,80710,1,0,0:0:0:0:
448,192,80710,1,0,0:0:0:0:
64,192,80772,1,0,0:0:0:0:
320,192,80835,1,0,0:0:0:0:
448,192,80897,1,0,0:0:0:0:
64,192,80960,1,8,0:0:0:0:
192,192,80960,1,0,0:0:0:0:
320,192,81085,1,0,0:0:0:0:
64,192,81210,1,0,0:0:0:0:
448,192,81210,1,0,0:0:0:0:
192,192,81335,1,0,0:0:0:0:
448,192,81335,1,0,0:0:0:0:
64,192,81460,1,2,0:0:0:0:
192,192,81460,1,0,0:0:0:0:
320,192,81585,1,0,0:0:0:0:
64,192,81710,1,0,0:0:0:0:
448,192,81710,1,0,0:0:0:0:
192,192,81772,1,0,0:0:0:0:
320,192,81835,1,0,0:0:0:0:
64,192,81897,1,0,0:0:0:0:
320,192,81960,1,8,0:0:0:0:
448,192,81960,1,0,0:0:0:0:
192,192,82085,1,0,0:0:0:0:
64,192,82210,1,0,0:0:0:0:
448,192,82210,1,0,0:0:0:0:
192,192,82335,1,0,0:0:0:0:
448,192,82335,1,0,0:0:0:0:
64,192,82460,1,2,0:0:0:0:
192,192,82460,1,0,0:0:0:0:
320,192,82585,1,0,0:0:0:0:
64,192,82710,1,0,0:0:0:0:
448,192,82710,1,0,0:0:0:0:
320,192,82772,1,0,0:0:0:0:
192,192,82835,1,0,0:0:0:0:
448,192,82897,1,0,0:0:0:0:
64,192,82960,1,8,0:0:0:0:
192,192,82960,1,0,0:0:0:0:
320,192,83085,1,0,0:0:0:0:
64,192,83210,1,0,0:0:0:0:
448,192,83210,1,0,0:0:0:0:
192,192,83272,1,0,0:0:0:0:
64,192,83335,1,0,0:0:0:0:
320,192,83335,1,0,0:0:0:0:
448,192,83397,1,0,0:0:0:0:
64,192,83460,1,2,0:0:0:0:
192,192,83460,1,0,0:0:0:0:
192,192,83585,1,0,0:0:0:0:
320,192,83585,1,0,0:0:0:0:
64,192,83710,1,0,0:0:0:0:
320,192,83710,1,0,0:0:0:0:
192,192,83835,1,0,0:0:0:0:
448,192,83835,1,0,0:0:0:0:
320,192,83960,1,8,0:0:0:0:
448,192,83960,1,0,0:0:0:0:
192,192,84085,1,0,0:0:0:0:
320,192,84085,1,0,0:0:0:0:
192,192,84210,1,0,0:0:0:0:
448,192,84210,1,0,0:0:0:0:
64,192,84335,1,0,0:0:0:0:
320,192,84335,1,0,0:0:0:0:
64,192,84460,1,2,0:0:0:0:
192,192,84460,1,0,0:0:0:0:
448,192,84460,1,0,0:0:0:0:
448,192,84585,1,0,0:0:0:0:
192,192,84710,1,0,0:0:0:0:
320,192,84772,1,0,0:0:0:0:
192,192,84835,1,8,0:0:0:0:
448,192,84835,1,0,0:0:0:0:
64,192,84897,1,0,0:0:0:0:
320,192,84960,1,8,0:0:0:0:
448,192,84960,1,0,0:0:0:0:
192,192,85085,1,0,0:0:0:0:
64,192,85210,1,2,0:0:0:0:
320,192,85210,1,0,0:0:0:0:
448,192,85335,1,0,0:0:0:0:
192,192,85460,1,8,0:0:0:0:
320,192,85460,1,0,0:0:0:0:
192,192,85585,1,0,0:0:0:0:
64,192,85710,1,2,0:0:0:0:
192,192,85835,1,8,0:0:0:0:
448,192,85835,1,0,0:0:0:0:
320,192,85960,1,2,0:0:0:0:
448,192,85960,1,0,0:0:0:0:
64,192,86085,1,0,0:0:0:0:
192,192,86210,1,8,0:0:0:0:
320,192,86210,1,0,0:0:0:0:
192,192,86335,1,0,0:0:0:0:
64,192,86460,1,2,0:0:0:0:
448,192,86460,1,0,0:0:0:0:
320,192,86585,1,0,0:0:0:0:
192,192,86710,1,0,0:0:0:0:
448,192,86772,1,0,0:0:0:0:
64,192,86835,1,8,0:0:0:0:
320,192,86835,1,0,0:0:0:0:
192,192,86897,1,0,0:0:0:0:
320,192,86960,1,8,0:0:0:0:
448,192,86960,1,0,0:0:0:0:
192,192,87085,1,0,0:0:0:0:
64,192,87210,1,2,0:0:0:0:
448,192,87210,1,0,0:0:0:0:
192,192,87272,1,0,0:0:0:0:
64,192,87335,1,0,0:0:0:0:
320,192,87397,1,0,0:0:0:0:
192,192,87460,1,8,0:0:0:0:
448,192,87460,1,0,0:0:0:0:
64,192,87585,1,0,0:0:0:0:
320,192,87710,1,2,0:0:0:0:
192,192,87835,1,8,0:0:0:0:
448,192,87835,1,0,0:0:0:0:
320,192,87960,1,2,0:0:0:0:
448,192,87960,1,0,0:0:0:0:
64,192,88022,1,0,0:0:0:0:
320,192,88085,1,0,0:0:0:0:
192,192,88147,1,0,0:0:0:0:
64,192,88210,1,8,0:0:0:0:
448,192,88210,1,0,0:0:0:0:
320,192,88335,1,0,0:0:0:0:
64,192,88460,1,2,0:0:0:0:
192,192,88460,1,0,0:0:0:0:
64,192,88585,1,0,0:0:0:0:
320,192,88585,1,0,0:0:0:0:
320,192,88710,1,2,0:0:0:0:
192,192,88772,1,0,0:0:0:0:
64,192,88835,1,0,0:0:0:0:
448,192,88835,1,0,0:0:0:0:
320,192,88897,1,0,0:0:0:0:
64,192,88960,1,8,0:0:0:0:
192,192,88960,1,0,0:0:0:0:
192,192,89085,1,0,0:0:0:0:
64,192,89210,1,0,0:0:0:0:
448,192,89210,1,0,0:0:0:0:
320,192,89272,1,0,0:0:0:0:
192,192,89335,1,0,0:0:0:0:
448,192,89335,1,0,0:0:0:0:
64,192,89397,1,0,0:0:0:0:
320,192,89460,1,8,0:0:0:0:
192,192,89522,1,0,0:0:0:0:
320,192,89585,1,0,0:0:0:0:
448,192,89585,1,0,0:0:0:0:
64,192,89647,1,0,0:0:0:0:
192,192,89710,1,0,0:0:0:0:
448,192,89710,1,0,0:0:0:0:
64,192,89772,1,0,0:0:0:0:
320,192,89835,1,0,0:0:0:0:
192,192,89897,1,0,0:0:0:0:
64,192,89960,1,8,0:0:0:0:
448,192,89960,1,0,0:0:0:0:
320,192,90022,1,0,0:0:0:0:
64,192,90085,1,0,0:0:0:0:
192,192,90085,1,0,0:0:0:0:
448,192,90147,1,0,0:0:0:0:
192,192,90210,1,0,0:0:0:0:
320,192,90272,1,0,0:0:0:0:
64,192,90335,1,0,0:0:0:0:
448,192,90335,1,0,0:0:0:0:
192,192,90397,1,0,0:0:0:0:
320,192,90460,1,2,0:0:0:0:
448,192,90460,1,0,0:0:0:0:
64,192,90585,1,0,0:0:0:0:
192,192,90710,1,8,0:0:0:0:
448,192,90710,1,0,0:0:0:0:
64,192,90835,1,0,0:0:0:0:
64,192,90960,1,2,0:0:0:0:
192,192,90960,1,0,0:0:0:0:
320,192,91085,1,0,0:0:0:0:
64,192,91210,1,8,0:0:0:0:
448,192,91210,1,0,0:0:0:0:
192,192,91335,1,0,0:0:0:0:
448,192,91335,1,0,0:0:0:0:
64,192,91460,1,2,0:0:0:0:
192,192,91460,1,0,0:0:0:0:
64,192,91585,1,0,0:0:0:0:
320,192,91585,1,0,0:0:0:0:
192,192,91710,1,8,0:0:0:0:
448,192,91710,1,0,0:0:0:0:
320,192,91772,1,0,0:0:0:0:
64,192,91835,1,0,0:0:0:0:
448,192,91835,1,0,0:0:0:0:
192,192,91897,1,0,0:0:0:0:
320,192,91960,1,2,0:0:0:0:
448,192,91960,1,0,0:0:0:0:
192,192,92085,1,0,0:0:0:0:
320,192,92085,1,0,0:0:0:0:
64,192,92210,1,8,0:0:0:0:
448,192,92210,1,0,0:0:0:0:
192,192,92335,1,0,0:0:0:0:
320,192,92335,1,0,0:0:0:0:
64,192,92460,128,2,93460:0:0:0:0:
192,192,92460,128,0,92960:0:0:0:0:
448,192,92460,128,0,93460:0:0:0:0:
