osu file format v14

[General]
AudioFilename: audio.mp3
AudioLeadIn: 0
PreviewTime: 27595
Countdown: 0
SampleSet: Soft
StackLeniency: 0.7
Mode: 2
LetterboxInBreaks: 0
WidescreenStoryboard: 1

[Editor]
Bookmarks: 2470,4470,28470,42470,44470,58470,60470,76470,92470,94970
DistanceSpacing: 0.8
BeatDivisor: 8
GridSize: 4
TimelineZoom: 2.200001

[Metadata]
Title:Kill The Beat
TitleUnicode:Kill The Beat
Artist:lapix
ArtistUnicode:lapix
Creator:JBHyperion
Version:Overdose
Source:DANCERUSH STARDOM
Tags:bemani konami drs diving ghost jbh ascendance
BeatmapID:2104634
BeatmapSetID:1005623

[Difficulty]
HPDrainRate:6
CircleSize:4.2
OverallDifficulty:9
ApproachRate:9
SliderMultiplier:2.5
SliderTickRate:2

[Events]
//Background and Video events
0,0,"yea.jpg",0,0
//Break Periods
//Storyboard Layer 0 (Background)
//Storyboard Layer 1 (Fail)
//Storyboard Layer 2 (Pass)
//Storyboard Layer 3 (Foreground)
//Storyboard Layer 4 (Overlay)
//Storyboard Sound Samples

[TimingPoints]
2470,500,4,2,1,35,1,0
2970,-75.187969924812,4,2,1,35,0,0
3470,-60.2409638554217,4,2,1,35,0,0
3720,-100,4,2,1,35,0,0
3970,-100,4,2,1,45,0,0
4470,-83.3333333333333,4,2,22,70,0,0
4595,-83.3333333333333,4,2,2,60,0,0
4720,-100,4,2,2,60,0,0
7970,-66.6666666666667,4,2,2,60,0,0
8220,-100,4,2,2,60,0,0
9970,-100,4,2,22,60,0,0
10095,-100,4,2,2,60,0,0
10970,-100,4,2,22,60,0,0
11095,-100,4,2,2,60,0,0
12470,-100,4,2,22,70,0,0
12595,-100,4,2,2,60,0,0
18470,-100,4,3,1,60,0,0
19845,-100,4,3,0,60,0,0
19970,-100,4,3,1,60,0,0
20220,-100,4,3,0,60,0,0
20470,-100,4,2,3,60,0,0
24470,-100,4,1,1,40,0,0
25470,-100,4,1,1,45,0,0
26470,-100,4,1,1,50,0,0
27470,-66.6666666666667,4,2,22,70,0,0
27657,-100,4,2,3,70,0,0
27970,-100,4,2,1,70,0,0
28220,-80,4,2,3,70,0,0
28345,-100,4,2,3,50,0,0
28470,-83.3333333333333,4,2,1,70,0,1
28595,-83.3333333333333,4,2,2,70,0,1
30720,-83.3333333333333,4,2,0,35,0,1
30970,-83.3333333333333,4,2,2,70,0,1
31220,-62.5,4,2,2,70,0,1
31470,-83.3333333333333,4,2,2,70,0,1
32220,-83.3333333333333,4,3,1,70,0,1
32470,-83.3333333333333,4,2,1,70,0,1
32595,-83.3333333333333,4,2,2,70,0,1
34720,-83.3333333333333,4,2,0,35,0,1
34970,-83.3333333333333,4,2,2,70,0,1
35220,-62.5,4,2,2,70,0,1
35470,-83.3333333333333,4,2,2,70,0,1
35970,-83.3333333333333,4,2,1,70,0,1
36095,-83.3333333333333,4,2,2,70,0,1
36470,-83.3333333333333,4,2,1,70,0,1
36595,-83.3333333333333,4,2,2,70,0,1
38720,-83.3333333333333,4,2,0,35,0,1
38970,-83.3333333333333,4,2,2,70,0,1
39970,-50,4,2,77,70,0,1
40095,-83.3333333333333,4,2,2,70,0,1
40220,-83.3333333333333,4,2,1,60,0,1
40470,-83.3333333333333,4,2,1,70,0,1
40595,-83.3333333333333,4,2,2,70,0,1
42095,-83.3333333333333,4,3,1,60,0,1
42220,-83.3333333333333,4,3,1,40,0,1
42345,-83.3333333333333,4,3,1,60,0,1
42470,-100,4,3,1,60,0,0
44220,-100,4,2,3,90,0,0
44470,-83.3333333333333,4,2,1,70,0,1
44595,-83.3333333333333,4,2,2,70,0,1
45970,-50,4,2,2,70,0,1
46470,-83.3333333333333,4,2,1,70,0,1
46595,-83.3333333333333,4,2,2,70,0,1
47970,-83.3333333333333,4,2,77,70,0,1
48095,-83.3333333333333,4,2,2,70,0,1
48220,-83.3333333333333,4,2,77,70,0,1
48470,-83.3333333333333,4,2,1,70,0,1
48720,-83.3333333333333,4,2,2,70,0,1
49970,-50,4,2,2,70,0,1
50470,-83.3333333333333,4,2,1,70,0,1
50720,-83.3333333333333,4,2,2,70,0,1
51470,-66.6666666666667,4,3,2,70,0,1
51720,-66.6666666666667,4,3,1,70,0,1
52220,-83.3333333333333,4,2,1,70,0,1
52470,-83.3333333333333,4,2,1,70,0,1
52595,-83.3333333333333,4,2,2,70,0,1
53970,-50,4,2,2,70,0,1
54470,-83.3333333333333,4,2,1,70,0,1
54595,-83.3333333333333,4,2,2,70,0,1
55970,-83.3333333333333,4,2,77,70,0,1
56095,-83.3333333333333,4,2,2,70,0,1
56220,-83.3333333333333,4,2,77,70,0,1
56470,-83.3333333333333,4,2,1,70,0,1
56720,-83.3333333333333,4,2,2,70,0,1
57970,-100,4,2,77,100,0,1
58001,-100,4,2,2,55,0,1
58095,-100,4,2,2,50,0,1
58220,-100,4,2,2,45,0,1
58345,-100,4,2,2,40,0,1
58470,-100,4,3,1,60,0,0
58720,-100,4,3,1,30,0,0
58970,-100,4,3,1,60,0,0
59220,-100,4,3,1,30,0,0
59470,-100,4,3,1,60,0,0
59595,-100,4,3,1,35,0,0
59720,-100,4,3,1,70,0,0
59970,-100,4,3,1,45,0,0
60220,-100,4,2,1,60,0,0
60720,-100,4,2,2,60,0,0
61095,-100,4,2,3,60,0,0
61345,-100,4,2,2,60,0,0
61845,-100,4,2,22,60,0,0
61970,-100,4,2,2,60,0,0
62345,-100,4,2,22,60,0,0
62470,-100,4,2,2,60,0,0
62720,-100,4,2,3,80,0,0
62845,-100,4,2,2,60,0,0
63095,-100,4,2,3,60,0,0
63345,-100,4,2,2,60,0,0
64470,-100,4,2,1,60,0,0
64595,-100,4,2,2,60,0,0
65095,-100,4,2,3,60,0,0
65345,-100,4,2,2,60,0,0
66470,-100,4,2,1,60,0,0
66595,-100,4,2,2,60,0,0
67095,-100,4,2,3,60,0,0
67345,-100,4,2,2,60,0,0
68470,-100,4,2,1,70,0,0
68595,-100,4,2,2,70,0,0
70345,-100,4,2,22,70,0,0
70470,-100,4,2,1,80,0,0
70595,-100,4,2,2,75,0,0
71470,-80,4,2,2,75,0,0
71720,-100,4,2,2,75,0,0
71970,-100,4,2,22,80,0,0
72095,-100,4,2,2,80,0,0
72470,-100,4,2,2,85,0,0
73345,-100,4,2,22,75,0,0
73470,-100,4,2,2,75,0,0
73720,-100,4,2,22,75,0,0
73845,-100,4,2,2,75,0,0
74095,-66.6666666666667,4,2,2,70,0,0
74345,-100,4,2,2,70,0,0
74470,-100,4,2,1,70,0,0
74720,-100,4,2,2,70,0,0
75095,-100,4,2,3,60,0,0
75345,-100,4,2,2,60,0,0
76470,-100,4,2,1,70,0,0
76720,-100,4,2,2,60,0,0
77095,-100,4,2,3,60,0,0
77345,-100,4,2,2,60,0,0
77845,-100,4,2,22,60,0,0
77970,-100,4,2,2,60,0,0
78345,-100,4,2,22,60,0,0
78595,-100,4,2,2,60,0,0
79095,-100,4,2,3,60,0,0
79345,-100,4,2,2,60,0,0
80470,-100,4,2,1,60,0,0
80595,-100,4,2,2,60,0,0
81095,-100,4,2,3,60,0,0
81345,-100,4,2,2,60,0,0
82470,-100,4,2,1,60,0,0
82595,-100,4,2,2,60,0,0
83095,-100,4,2,3,60,0,0
83345,-100,4,2,2,60,0,0
84470,-100,4,2,1,70,0,0
84595,-100,4,2,2,70,0,0
86345,-100,4,2,22,70,0,0
86470,-100,4,2,1,80,0,0
86595,-100,4,2,2,75,0,0
87470,-80,4,2,2,75,0,0
87720,-100,4,2,2,75,0,0
87970,-100,4,2,22,80,0,0
88095,-100,4,2,2,80,0,0
88470,-100,4,2,2,85,0,0
89345,-100,4,2,22,75,0,0
89470,-100,4,1,1,25,0,0
89595,-100,4,1,1,28,0,0
89720,-100,4,1,1,31,0,0
89845,-100,4,1,1,34,0,0
89970,-100,4,1,1,37,0,0
90095,-100,4,1,1,40,0,0
90220,-80,4,1,1,43,0,0
90345,-100,4,2,2,60,0,0
90970,-66.6666666666667,4,2,2,60,0,0
91220,-100,4,2,2,60,0,0
91470,-100,4,2,22,60,0,0
91595,-100,4,2,2,60,0,0
92470,-100,4,2,99,70,0,0
92720,-100,4,2,0,35,0,0
92970,-100,4,2,0,29,0,0
93220,-100,4,2,0,23,0,0
93470,-100,4,2,0,17,0,0
93720,-100,4,2,0,15,0,0
93970,-100,4,2,0,13,0,0
94220,-100,4,2,0,11,0,0
94470,-100,4,2,0,9,0,0
94720,-100,4,2,0,7,0,0
94970,-100,4,2,0,5,0,0

[Colours]
Combo1 : 255,140,85
Combo2 : 100,175,200
Combo3 : 255,255,75
Combo4 : 75,255,75
Combo5 : 255,125,255

[HitObjects]
380,192,2470,6,0,L|256:192,1,125,4|0,0:0|0:0,0:0:0:0:
421,192,2970,2,0,L|255:192,1,166.249993150711,4|0,0:0|0:0,0:0:0:0:
462,192,3470,2,0,L|255:192,1,207.500003007889,4|0,0:0|0:0,0:0:0:0:
150,192,3845,1,0,0:0:0:0:
356,192,3970,2,0,L|360:320,1,125,8|2,0:0|0:0,0:0:0:0:
32,316,4470,6,0,L|108:316,1,74.9999977111817,4|0,0:0|0:0,0:0:0:0:
188,316,4720,2,0,L|108:316,1,62.5
312,236,4970,2,0,L|180:236,1,125,8|2,0:0|0:0,0:0:0:0:
112,236,5345,1,0,0:0:0:0:
300,160,5470,2,0,L|428:160,1,125,0|2,0:0|0:0,0:0:0:0:
100,160,5970,1,12,0:0:0:0:
224,160,6220,2,0,L|228:88,1,62.5
32,100,6470,6,0,L|96:100,1,62.5,2|0,0:0|0:0,0:0:0:0:
20,28,6720,2,0,L|88:28,1,62.5
272,28,6970,2,0,L|400:28,1,125,8|2,0:0|0:0,0:0:0:0:
148,28,7470,2,0,L|144:100,1,62.5
244,88,7720,2,0,L|248:160,1,62.5,2|0,0:0|0:0,0:0:0:0:
59,150,7970,2,0,L|251:150,1,187.500007152558,12|0,0:0|0:0,0:0:0:0:
496,148,8470,6,0,L|424:148,1,62.5,2|0,0:0|0:0,0:0:0:0:
352,148,8720,2,0,L|424:148,1,62.5
220,148,8970,1,8,0:0:0:0:
72,148,9220,2,0,L|148:148,1,62.5,2|0,0:0|0:0,0:0:0:0:
220,148,9470,2,0,L|92:148,1,125,0|2,0:0|0:0,0:0:0:0:
444,148,9970,2,0,L|448:216,1,62.5,12|0,0:0|0:0,0:0:0:0:
320,208,10220,2,0,L|256:208,1,62.5,4|0,0:0|0:0,0:0:0:0:
456,208,10470,6,0,L|460:272,1,62.5,6|0,0:0|0:0,0:0:0:0:
372,272,10720,2,0,L|436:272,1,62.5
244,272,10970,2,0,L|180:272,1,62.5,8|0,0:0|0:0,0:0:0:0:
388,348,11220,2,0,L|456:348,2,62.5,6|0|0,0:0|0:0|0:0,0:0:0:0:
260,348,11595,1,2,0:0:0:0:
336,348,11720,1,0,0:0:0:0:
412,348,11845,1,0,0:0:0:0:
204,348,11970,2,0,L|140:348,1,62.5,12|2,0:0|0:0,0:0:0:0:
268,348,12220,2,0,L|272:280,1,62.5
72,284,12470,6,0,P|32:248|72:200,1,125,6|0,0:0|0:0,0:0:0:0:
144,200,12845,1,0,0:0:0:0:
336,200,12970,2,0,L|460:192,1,125,8|2,0:0|0:0,0:0:0:0:
384,196,13345,1,0,0:0:0:0:
308,200,13470,2,0,L|432:192,1,125,0|2,0:0|0:0,0:0:0:0:
84,192,13970,2,0,L|20:192,1,62.5,12|0,0:0|0:0,0:0:0:0:
148,112,14220,2,0,L|212:112,1,62.5
400,112,14470,6,0,L|272:112,1,125,2|0,0:0|0:0,0:0:0:0:
200,112,14845,1,0,0:0:0:0:
388,112,14970,2,0,L|392:236,1,125,8|2,0:0|0:0,0:0:0:0:
316,236,15345,1,0,0:0:0:0:
128,236,15470,2,0,L|124:172,1,62.5
228,176,15720,2,0,L|232:240,1,62.5,2|0,0:0|0:0,0:0:0:0:
44,172,15970,2,0,L|112:172,1,62.5,12|0,0:0|0:0,0:0:0:0:
232,238,16220,2,0,L|308:238,1,62.5
104,236,16470,6,0,L|100:368,1,125,2|0,0:0|0:0,0:0:0:0:
176,364,16845,1,0,0:0:0:0:
364,364,16970,2,0,L|228:364,1,125,8|2,0:0|0:0,0:0:0:0:
312,364,17345,1,0,0:0:0:0:
120,364,17470,1,0,0:0:0:0:
73,324,17595,1,0,0:0:0:0:
73,264,17720,1,2,0:0:0:0:
118,224,17845,1,0,0:0:0:0:
312,224,17970,2,0,L|316:160,1,62.5,12|0,0:0|0:0,0:0:0:0:
188,164,18220,2,0,L|252:164,1,62.5
440,164,18470,5,2,0:0:0:0:
364,164,18595,2,0,L|360:100,1,62.5,2|0,0:0|0:0,0:0:0:0:
436,104,18845,1,2,0:0:0:0:
216,104,18970,2,0,L|280:104,1,62.5,8|0,0:0|0:0,0:0:0:0:
60,104,19220,1,2,0:0:0:0:
136,104,19345,2,0,L|140:40,1,62.5,2|0,0:0|0:0,0:0:0:0:
64,40,19595,1,2,0:0:0:0:
296,220,19720,2,0,L|232:220,1,62.5,8|2,0:0|0:0,0:0:0:0:
468,220,19970,2,0,L|472:96,1,125,4|2,0:0|0:0,0:0:0:0:
400,96,20345,1,0,0:0:0:0:
188,28,20470,6,0,L|120:28,1,62.5,12|0,0:0|0:0,0:0:0:0:
212,28,20720,2,0,L|216:96,1,62.5,2|2,0:0|0:0,0:0:0:0:
90,90,20970,2,0,L|214:90,1,125,8|2,0:0|0:0,0:0:0:0:
288,88,21345,1,0,0:0:0:0:
100,164,21470,2,0,L|36:164,2,62.5,8|0|2,0:0|0:0|0:0,0:0:0:0:
228,164,21845,2,0,L|292:164,2,62.5,8|0|2,0:0|0:0|0:0,0:0:0:0:
353,164,22220,2,0,L|281:164,1,62.5,8|0,0:0|0:0,0:0:0:0:
100,164,22470,6,0,L|164:164,1,62.5,12|0,0:0|0:0,0:0:0:0:
248,164,22720,2,0,L|184:164,1,62.5,2|2,0:0|0:0,0:0:0:0:
60,236,22970,2,0,L|192:236,1,125,8|2,0:0|0:0,0:0:0:0:
112,236,23345,1,0,0:0:0:0:
300,236,23470,1,8,0:0:0:0:
364,236,23595,1,0,0:0:0:0:
428,236,23720,1,2,0:0:0:0:
300,236,23845,1,8,0:0:0:0:
364,236,23970,1,0,0:0:0:0:
428,236,24095,1,2,0:0:0:0:
300,236,24220,2,0,L|236:236,1,62.5,8|0,0:0|0:0,0:0:0:0:
428,236,24470,6,0,L|432:308,1,62.5,12|0,0:0|0:0,0:0:0:0:
240,300,24720,2,0,L|176:300,1,62.5,2|0,0:0|0:0,0:0:0:0:
312,300,24970,2,0,L|316:372,1,62.5,2|0,0:0|0:0,0:0:0:0:
173,362,25220,2,0,L|177:298,1,62.5,2|0,0:0|0:0,0:0:0:0:
365,236,25470,2,0,L|429:236,1,62.5,12|0,0:0|0:0,0:0:0:0:
237,244,25720,2,0,L|232:180,1,62.5,2|0,0:0|0:0,0:0:0:0:
368,152,25970,2,0,L|299:152,1,62.5,2|0,0:0|0:0,0:0:0:0:
169,181,26220,2,0,L|232:181,1,62.5,2|0,0:0|0:0,0:0:0:0:
40,184,26470,5,12,0:0:0:0:
116,184,26595,1,2,0:0:0:0:
28,184,26720,1,2,0:0:0:0:
128,184,26845,1,2,0:0:0:0:
320,184,26970,2,0,L|324:136,1,31.25,8|8,0:0|0:0,0:0:0:0:
260,156,27095,2,0,L|256:108,1,31.25,8|8,0:0|0:0,0:0:0:0:
376,184,27220,2,0,L|380:136,1,31.25,2|2,0:0|0:0,0:0:0:0:
240,156,27345,2,0,L|236:108,1,31.25,2|2,0:0|0:0,0:0:0:0:
378,152,27470,6,0,P|420:104|380:52,1,140.625005364418,4|0,0:0|0:0,0:0:0:0:
332,51,27720,1,2,0:0:0:0:
432,52,27845,1,2,0:0:0:0:
152,52,27970,2,0,L|72:52,1,62.5,4|0,0:0|0:0,0:0:0:0:
390,152,28220,2,0,L|396:236,1,78.125,2|0,0:0|0:0,0:0:0:0:
168,232,28470,6,0,L|320:232,1,149.999995422363,6|0,0:0|0:0,0:0:0:0:
395,229,28845,1,0,0:0:0:0:
168,232,28970,2,0,L|164:312,1,74.9999977111817,8|0,0:0|0:0,0:0:0:0:
391,303,29220,2,0,L|239:303,1,149.999995422363,2|0,0:0|0:0,0:0:0:0:
164,306,29595,1,0,0:0:0:0:
391,303,29720,2,0,L|395:223,1,74.9999977111817,2|0,0:0|0:0,0:0:0:0:
168,192,29970,2,0,L|252:192,1,74.9999977111817,8|0,0:0|0:0,0:0:0:0:
469,228,30220,2,0,L|385:228,1,74.9999977111817,8|0,0:0|0:0,0:0:0:0:
152,192,30470,6,0,P|84:164|60:96,1,149.999995422363,2|2,0:0|0:0,0:0:0:0:
70,46,30782,1,2,0:0:0:0:
104,10,30845,1,2,0:0:0:0:
151,0,30907,1,2,0:0:0:0:
304,0,30970,2,0,L|384:0,1,74.9999977111817,8|0,0:0|0:0,0:0:0:0:
151,0,31220,2,0,P|80:56|148:104,1,200,2|8,0:0|0:0,0:0:0:0:
228,104,31595,1,0,0:0:0:0:
140,104,31720,2,0,L|136:184,1,74.9999977111817,2|0,0:0|0:0,0:0:0:0:
364,180,31970,2,0,L|368:100,1,74.9999977111817,8|0,0:0|0:0,0:0:0:0:
224,180,32220,2,0,L|144:180,1,74.9999977111817,2|2,0:0|0:0,0:0:0:0:
332,104,32470,6,0,B|395:104|395:104|300:104,1,149.999995422363,6|0,0:0|0:0,0:0:0:0:
220,104,32845,1,0,0:0:0:0:
16,104,32970,2,0,L|12:180,1,74.9999977111817,8|0,0:0|0:0,0:0:0:0:
240,180,33220,2,0,L|396:180,1,149.999995422363,2|0,0:0|0:0,0:0:0:0:
308,180,33595,1,0,0:0:0:0:
84,180,33720,2,0,L|80:264,1,74.9999977111817,2|0,0:0|0:0,0:0:0:0:
308,256,33970,2,0,L|216:256,1,74.9999977111817,8|0,0:0|0:0,0:0:0:0:
460,256,34220,2,0,L|368:256,1,74.9999977111817
144,256,34470,6,0,P|172:188|240:164,1,149.999995422363,2|2,0:0|0:0,0:0:0:0:
288,168,34782,1,2,0:0:0:0:
328,204,34845,1,2,0:0:0:0:
336,255,34907,1,2,0:0:0:0:
183,255,34970,2,0,L|103:255,1,74.9999977111817,8|0,0:0|0:0,0:0:0:0:
336,255,35220,2,0,P|407:199|339:151,1,200,2|8,0:0|0:0,0:0:0:0:
259,151,35595,1,2,0:0:0:0:
388,152,35720,2,0,L|322:113,1,74.9999977111817,8|0,0:0|0:0,0:0:0:0:
98,75,35970,2,0,L|173:75,1,74.9999977111817,8|0,0:0|0:0,0:0:0:0:
262,76,36220,2,0,L|258:152,1,74.9999977111817
32,152,36470,6,0,B|32:228|32:228|112:228,1,149.999995422363,6|0,0:0|0:0,0:0:0:0:
24,228,36845,1,0,0:0:0:0:
236,228,36970,2,0,L|316:228,1,74.9999977111817,8|0,0:0|0:0,0:0:0:0:
86,228,37220,2,0,L|236:228,1,149.999995422363,2|0,0:0|0:0,0:0:0:0:
320,228,37595,1,0,0:0:0:0:
96,228,37720,2,0,L|92:320,1,74.9999977111817,2|0,0:0|0:0,0:0:0:0:
320,308,37970,2,0,L|244:308,1,74.9999977111817,8|0,0:0|0:0,0:0:0:0:
18,302,38220,2,0,L|94:302,1,74.9999977111817,8|0,0:0|0:0,0:0:0:0:
316,308,38470,6,0,L|472:308,1,149.999995422363,2|2,0:0|0:0,0:0:0:0:
420,308,38782,1,2,0:0:0:0:
376,308,38845,1,2,0:0:0:0:
332,308,38907,1,2,0:0:0:0:
180,308,38970,2,0,L|88:308,1,74.9999977111817,8|0,0:0|0:0,0:0:0:0:
316,308,39220,2,0,L|320:228,1,74.9999977111817,2|0,0:0|0:0,0:0:0:0:
96,236,39470,2,0,L|172:236,2,74.9999977111817,8|0|2,0:0|0:0|0:0,0:0:0:0:
20,236,39845,1,0,0:0:0:0:
320,148,39970,6,0,L|444:148,1,125,4|0,0:0|0:0,0:0:0:0:
144,148,40220,2,0,L|120:148,1,18.7499994277954,8|0,0:0|0:0,0:0:0:0:
340,52,40345,2,0,L|364:52,1,18.7499994277954,8|0,0:0|0:0,0:0:0:0:
152,56,40470,6,0,B|76:56|76:56|8:88,1,149.999995422363,6|0,0:0|0:0,0:0:0:0:
84,88,40845,1,0,0:0:0:0:
296,92,40970,2,0,L|372:92,1,74.9999977111817,8|0,0:0|0:0,0:0:0:0:
155,143,41220,2,0,L|301:89,1,149.999995422363,2|0,0:0|0:0,0:0:0:0:
372,92,41595,1,0,0:0:0:0:
155,143,41720,2,0,L|151:63,1,74.9999977111817,2|0,0:0|0:0,0:0:0:0:
380,16,41970,2,0,L|456:16,1,74.9999977111817,8|2,0:0|0:0,0:0:0:0:
232,16,42220,2,0,L|228:90,1,74.9999977111817,8|2,0:0|0:0,0:0:0:0:
40,92,42470,6,0,L|36:156,1,62.5,2|2,0:0|0:0,0:0:0:0:
188,152,42845,1,2,0:0:0:0:
69,112,42970,2,0,L|189:152,1,125,8|2,0:0|0:0,0:0:0:0:
264,152,43345,2,0,L|196:152,2,62.5,2|0|2,0:0|0:0|0:0,0:0:0:0:
382,191,43720,2,0,L|318:191,1,62.5,2|2,0:0|0:0,0:0:0:0:
132,192,43970,1,8,0:0:0:0:
456,192,44220,2,0,L|460:268,1,62.5,2|0,0:0|0:0,0:0:0:0:
212,256,44470,6,0,L|56:256,1,149.999995422363,4|0,0:0|0:0,0:0:0:0:
400,256,44970,2,0,L|404:176,1,74.9999977111817,8|0,0:0|0:0,0:0:0:0:
308,184,45220,1,8,0:0:0:0:
496,184,45345,1,2,0:0:0:0:
376,184,45595,1,8,0:0:0:0:
164,184,45720,2,0,L|88:184,1,74.9999977111817,2|0,0:0|0:0,0:0:0:0:
276,104,45970,2,0,L|464:104,1,187.5,8|0,0:0|0:0,0:0:0:0:
401,104,46220,2,0,L|276:104,1,125,8|2,0:0|0:0,0:0:0:0:
96,104,46470,6,0,L|16:104,1,74.9999977111817,4|0,0:0|0:0,0:0:0:0:
152,104,46720,2,0,L|228:104,1,74.9999977111817
40,104,46970,2,0,L|36:184,1,74.9999977111817,8|0,0:0|0:0,0:0:0:0:
132,180,47220,1,8,0:0:0:0:
320,180,47345,1,2,0:0:0:0:
200,180,47595,1,8,0:0:0:0:
332,180,47720,2,0,L|336:276,1,74.9999977111817,2|0,0:0|0:0,0:0:0:0:
124,256,47970,1,4,0:0:0:0:
256,256,48095,1,8,0:0:0:0:
32,256,48220,2,0,L|28:336,1,74.9999977111817,4|0,0:0|0:0,0:0:0:0:
240,332,48470,6,0,L|396:332,1,149.999995422363,4|0,0:0|0:0,0:0:0:0:
60,336,48970,1,8,0:0:0:0:
144,336,49095,1,0,0:0:0:0:
48,336,49220,1,8,0:0:0:0:
260,336,49345,1,2,0:0:0:0:
156,336,49595,1,8,0:0:0:0:
368,336,49720,2,0,L|444:336,1,74.9999977111817,2|0,0:0|0:0,0:0:0:0:
256,256,49970,2,0,L|68:256,1,187.5,8|0,0:0|0:0,0:0:0:0:
131,256,50220,2,0,L|256:256,1,125,8|2,0:0|0:0,0:0:0:0:
32,256,50470,6,0,L|28:104,1,149.999995422363,4|0,0:0|0:0,0:0:0:0:
388,256,50970,2,0,L|388:180,1,74.9999977111817,8|0,0:0|0:0,0:0:0:0:
300,184,51220,2,0,L|220:184,1,74.9999977111817,8|2,0:0|0:0,0:0:0:0:
460,180,51470,2,0,P|444:108|352:48,1,187.500007152558,8|0,0:0|0:0,0:0:0:0:
128,48,51845,1,0,0:0:0:0:
392,48,51970,2,0,L|492:48,2,93.7500035762788,8|2|2,0:0|0:0|0:0,0:0:0:0:
40,48,52470,6,0,P|0:104|40:164,1,149.999995422363,4|0,0:0|0:0,0:0:0:0:
376,168,52970,2,0,L|380:248,1,74.9999977111817,8|0,0:0|0:0,0:0:0:0:
284,244,53220,1,8,0:0:0:0:
472,244,53345,1,2,0:0:0:0:
352,244,53595,1,8,0:0:0:0:
140,244,53720,2,0,L|64:244,1,74.9999977111817,2|0,0:0|0:0,0:0:0:0:
252,320,53970,2,0,P|308:256|252:188,1,187.5,8|0,0:0|0:0,0:0:0:0:
188,188,54220,2,0,L|313:188,1,125,8|2,0:0|0:0,0:0:0:0:
104,188,54470,6,0,L|84:112,1,74.9999977111817,4|0,0:0|0:0,0:0:0:0:
216,188,54720,2,0,L|235:114,1,74.9999977111817
29,188,54970,2,0,L|105:188,1,74.9999977111817,8|0,0:0|0:0,0:0:0:0:
313,188,55220,1,8,0:0:0:0:
119,188,55345,1,2,0:0:0:0:
236,188,55595,1,8,0:0:0:0:
368,188,55720,1,2,0:0:0:0:
164,188,55845,1,8,0:0:0:0:
424,188,55970,2,0,L|428:108,1,74.9999977111817,4|8,0:0|0:0,0:0:0:0:
164,188,56220,2,0,L|88:188,1,74.9999977111817,4|0,0:0|0:0,0:0:0:0:
308,262,56470,6,0,L|388:262,1,74.9999977111817,4|0,0:0|0:0,0:0:0:0:
252,262,56720,2,0,L|176:262,1,74.9999977111817
383,262,56970,2,0,L|387:182,1,74.9999977111817,8|0,0:0|0:0,0:0:0:0:
280,188,57220,1,8,0:0:0:0:
484,188,57345,1,2,0:0:0:0:
364,188,57595,1,8,0:0:0:0:
152,188,57720,2,0,L|76:188,1,74.9999977111817,2|0,0:0|0:0,0:0:0:0:
280,272,57970,5,0,0:0:0:0:
304,280,58001,1,0,0:0:0:0:
323,298,58032,1,0,0:0:0:0:
331,323,58063,1,0,0:0:0:0:
327,349,58095,1,0,0:0:0:0:
312,370,58126,1,0,0:0:0:0:
289,382,58157,1,0,0:0:0:0:
263,382,58188,1,0,0:0:0:0:
239,370,58220,1,0,0:0:0:0:
224,349,58251,1,0,0:0:0:0:
220,323,58282,1,0,0:0:0:0:
228,298,58313,1,0,0:0:0:0:
246,280,58345,1,0,0:0:0:0:
271,272,58376,1,0,0:0:0:0:
300,272,58407,1,0,0:0:0:0:
432,272,58470,6,0,L|436:200,1,62.5,2|2,0:0|0:0,0:0:0:0:
348,192,58720,2,0,L|416:192,2,62.5,8|8|2,0:0|0:0|0:0,0:0:0:0:
200,192,59220,2,0,L|268:192,1,62.5,8|8,0:0|0:0,0:0:0:0:
176,192,59470,2,0,L|172:128,1,62.5,2|8,0:0|0:0,0:0:0:0:
312,128,59720,1,2,0:0:0:0:
224,128,59845,1,2,0:0:0:0:
412,128,59970,2,0,L|416:64,1,62.5,8|0,0:0|0:0,0:0:0:0:
228,68,60220,1,2,0:0:0:0:
40,68,60345,1,2,0:0:0:0:
260,68,60470,6,0,L|388:68,1,125,4|0,0:0|0:0,0:0:0:0:
176,68,60845,1,0,0:0:0:0:
104,116,60970,1,8,0:0:0:0:
176,164,61095,1,2,0:0:0:0:
312,164,61220,2,0,L|316:228,1,62.5,2|0,0:0|0:0,0:0:0:0:
116,224,61470,1,2,0:0:0:0:
40,224,61595,2,0,L|36:292,1,62.5,8|0,0:0|0:0,0:0:0:0:
252,288,61845,2,0,L|316:288,1,62.5,8|8,0:0|0:0,0:0:0:0:
80,288,62095,2,0,L|84:220,1,62.5,4|0,0:0|0:0,0:0:0:0:
352,224,62345,2,0,L|420:224,1,62.5,8|2,0:0|0:0,0:0:0:0:
264,224,62720,6,0,L|256:156,1,62.5,2|0,0:0|0:0,0:0:0:0:
460,152,62970,1,8,0:0:0:0:
476,80,63095,1,2,0:0:0:0:
400,80,63220,1,2,0:0:0:0:
216,80,63345,1,0,0:0:0:0:
172,140,63470,1,2,0:0:0:0:
228,192,63595,1,0,0:0:0:0:
364,192,63720,2,0,L|296:192,1,62.5
96,192,63970,2,0,L|32:192,1,62.5,12|8,0:0|0:0,0:0:0:0:
32,268,64220,2,0,L|96:268,1,62.5,2|0,0:0|0:0,0:0:0:0:
300,268,64470,6,0,L|428:268,1,125,4|0,0:0|0:0,0:0:0:0:
200,268,64970,2,0,L|196:200,1,62.5,8|2,0:0|0:0,0:0:0:0:
332,192,65220,2,0,L|388:160,1,62.5,2|0,0:0|0:0,0:0:0:0:
168,120,65470,1,2,0:0:0:0:
100,120,65595,1,0,0:0:0:0:
168,120,65720,1,2,0:0:0:0:
396,120,65970,2,0,L|328:120,1,62.5,8|2,0:0|0:0,0:0:0:0:
196,120,66220,2,0,L|192:56,1,62.5,2|0,0:0|0:0,0:0:0:0:
384,56,66470,6,0,L|508:56,1,125,4|0,0:0|0:0,0:0:0:0:
284,56,66970,2,0,L|280:128,1,62.5,8|2,0:0|0:0,0:0:0:0:
420,120,67220,2,0,L|352:120,1,62.5,2|0,0:0|0:0,0:0:0:0:
156,120,67470,2,0,L|148:192,1,62.5,2|0,0:0|0:0,0:0:0:0:
275,180,67720,2,0,L|268:117,1,62.5,2|2,0:0|0:0,0:0:0:0:
48,120,67970,1,12,0:0:0:0:
48,188,68095,1,0,0:0:0:0:
116,188,68220,1,2,0:0:0:0:
336,180,68345,2,0,L|340:248,1,62.5,2|4,0:0|0:0,0:0:0:0:
120,244,68595,5,8,0:0:0:0:
340,180,68720,2,0,L|404:180,1,62.5,2|0,0:0|0:0,0:0:0:0:
208,180,68970,1,4,0:0:0:0:
296,180,69095,1,2,0:0:0:0:
384,180,69220,1,2,0:0:0:0:
196,252,69345,1,4,0:0:0:0:
284,252,69470,1,2,0:0:0:0:
372,252,69595,1,2,0:0:0:0:
258,252,69720,2,0,L|190:252,1,62.5,2|0,0:0|0:0,0:0:0:0:
396,252,69970,2,0,L|400:324,1,62.5,8|0,0:0|0:0,0:0:0:0:
196,316,70220,1,2,0:0:0:0:
320,316,70345,1,8,0:0:0:0:
116,316,70470,6,0,B|52:316|52:316|120:316,1,125,4|8,0:0|0:0,0:0:0:0:
332,232,70845,2,0,L|264:232,2,62.5,4|0|0,0:0|0:0|0:0,0:0:0:0:
112,232,71220,2,0,L|180:232,1,62.5,2|2,0:0|0:0,0:0:0:0:
408,232,71470,2,0,P|460:188|408:140,1,156.25,4|2,0:0|0:0,0:0:0:0:
332,140,71845,1,0,0:0:0:0:
128,140,71970,2,0,L|60:140,1,62.5,8|2,0:0|0:0,0:0:0:0:
332,56,72220,2,0,L|400:56,1,62.5,4|0,0:0|0:0,0:0:0:0:
192,56,72470,5,4,0:0:0:0:
412,56,72595,2,0,L|416:136,1,62.5,8|0,0:0|0:0,0:0:0:0:
228,120,72845,1,2,0:0:0:0:
40,120,72970,2,0,L|36:200,1,62.5,4|0,0:0|0:0,0:0:0:0:
220,120,73220,1,8,0:0:0:0:
36,182,73345,2,0,L|99:182,1,62.5,8|8,0:0|0:0,0:0:0:0:
288,120,73595,1,2,0:0:0:0:
476,120,73720,2,0,L|480:184,1,62.5,8|0,0:0|0:0,0:0:0:0:
288,120,73970,1,4,0:0:0:0:
100,120,74095,2,0,B|100:24|100:24|192:24,1,187.500007152558,8|0,0:0|0:0,0:0:0:0:
392,24,74470,6,0,L|396:152,1,125,4|0,0:0|0:0,0:0:0:0:
244,148,74970,2,0,L|240:220,1,62.5,8|2,0:0|0:0,0:0:0:0:
372,212,75220,2,0,L|376:288,1,62.5,2|0,0:0|0:0,0:0:0:0:
172,276,75470,2,0,L|108:276,1,62.5,2|0,0:0|0:0,0:0:0:0:
108,348,75720,2,0,L|172:348,1,62.5,2|2,0:0|0:0,0:0:0:0:
380,348,75970,1,4,0:0:0:0:
360,248,76095,1,0,0:0:0:0:
272,184,76220,1,2,0:0:0:0:
160,184,76345,1,2,0:0:0:0:
400,184,76470,6,0,L|404:48,1,125,4|0,0:0|0:0,0:0:0:0:
324,60,76845,1,0,0:0:0:0:
124,60,76970,2,0,L|120:124,1,62.5,8|2,0:0|0:0,0:0:0:0:
192,164,77220,2,0,L|268:164,1,62.5,2|0,0:0|0:0,0:0:0:0:
52,124,77470,2,0,L|48:192,1,62.5,2|8,0:0|0:0,0:0:0:0:
128,184,77720,1,0,0:0:0:0:
344,168,77845,2,0,L|348:244,1,62.5,8|2,0:0|0:0,0:0:0:0:
112,184,78095,2,0,L|108:248,1,62.5,4|0,0:0|0:0,0:0:0:0:
344,168,78345,6,0,P|372:216|344:276,1,125,8|0,0:0|0:0,0:0:0:0:
272,276,78720,1,0,0:0:0:0:
72,272,78845,1,0,0:0:0:0:
8,272,78970,1,8,0:0:0:0:
84,272,79095,1,2,0:0:0:0:
160,272,79220,1,2,0:0:0:0:
310,272,79470,2,0,L|246:272,1,62.5,2|0,0:0|0:0,0:0:0:0:
386,212,79720,2,0,L|390:148,1,62.5
188,152,79970,1,12,0:0:0:0:
112,152,80095,1,8,0:0:0:0:
56,100,80220,1,2,0:0:0:0:
56,24,80345,1,0,0:0:0:0:
276,20,80470,6,0,L|404:20,1,125,4|0,0:0|0:0,0:0:0:0:
328,20,80845,1,0,0:0:0:0:
188,20,80970,2,0,L|184:84,1,62.5,8|2,0:0|0:0,0:0:0:0:
278,84,81220,2,0,L|210:84,1,62.5,2|0,0:0|0:0,0:0:0:0:
16,84,81470,2,0,L|140:84,1,125,2|2,0:0|0:0,0:0:0:0:
372,84,81970,2,0,L|376:164,1,62.5,8|2,0:0|0:0,0:0:0:0:
288,148,82220,1,2,0:0:0:0:
428,148,82345,1,0,0:0:0:0:
176,148,82470,6,0,L|52:148,1,125,4|0,0:0|0:0,0:0:0:0:
124,148,82845,1,0,0:0:0:0:
200,148,82970,2,0,L|204:212,1,62.5,8|2,0:0|0:0,0:0:0:0:
64,208,83220,2,0,L|132:208,1,62.5,2|0,0:0|0:0,0:0:0:0:
328,208,83470,2,0,L|332:280,1,62.5,2|0,0:0|0:0,0:0:0:0:
140,272,83720,1,2,0:0:0:0:
252,272,83845,1,2,0:0:0:0:
52,272,83970,1,8,0:0:0:0:
16,204,84095,1,2,0:0:0:0:
56,140,84220,1,2,0:0:0:0:
132,140,84345,1,8,0:0:0:0:
352,140,84470,5,4,0:0:0:0:
164,64,84595,2,0,L|96:64,2,62.5,8|2|0,0:0|0:0|0:0,0:0:0:0:
348,64,84970,1,4,0:0:0:0:
272,64,85095,1,2,0:0:0:0:
196,64,85220,1,2,0:0:0:0:
384,140,85345,2,0,L|316:140,2,62.5,4|2|2,0:0|0:0|0:0,0:0:0:0:
256,140,85720,2,0,L|252:208,1,62.5,2|0,0:0|0:0,0:0:0:0:
440,200,85970,1,8,0:0:0:0:
288,200,86220,2,0,L|352:200,1,62.5,0|8,0:0|0:0,0:0:0:0:
132,200,86470,6,0,P|96:240|128:296,1,125,4|8,0:0|0:0,0:0:0:0:
348,296,86845,1,4,0:0:0:0:
351,233,86970,1,0,0:0:0:0:
355,171,87095,1,0,0:0:0:0:
156,172,87220,1,2,0:0:0:0:
284,172,87345,1,2,0:0:0:0:
84,172,87470,1,4,0:0:0:0:
236,76,87720,1,2,0:0:0:0:
100,76,87845,1,2,0:0:0:0:
320,76,87970,2,0,L|396:76,1,62.5,8|0,0:0|0:0,0:0:0:0:
148,8,88220,2,0,L|80:8,1,62.5,4|0,0:0|0:0,0:0:0:0:
288,8,88470,5,4,0:0:0:0:
100,8,88595,2,0,L|96:72,1,62.5,8|0,0:0|0:0,0:0:0:0:
284,68,88845,1,2,0:0:0:0:
96,70,88970,2,0,L|160:70,1,62.5,4|0,0:0|0:0,0:0:0:0:
348,68,89220,1,8,0:0:0:0:
158,70,89345,1,8,0:0:0:0:
392,68,89470,5,2,0:0:0:0:
418,91,89532,1,0,0:0:0:0:
437,121,89595,1,0,0:0:0:0:
446,156,89657,1,0,0:0:0:0:
445,191,89720,1,2,0:0:0:0:
433,225,89782,1,0,0:0:0:0:
412,254,89845,1,0,0:0:0:0:
384,275,89907,1,0,0:0:0:0:
212,276,89970,1,8,0:0:0:0:
212,229,90032,1,0,0:0:0:0:
233,188,90095,1,2,0:0:0:0:
270,160,90157,1,0,0:0:0:0:
315,151,90220,2,0,L|226:151,1,78.125,0|2,0:0|0:0,0:0:0:0:
36,152,90470,6,0,L|32:16,1,125,8|2,0:0|0:0,0:0:0:0:
360,28,90970,2,0,L|172:28,1,187.500007152558,8|2,0:0|0:0,0:0:0:0:
260,28,91345,1,2,0:0:0:0:
48,28,91470,2,0,L|44:100,1,62.5,8|2,0:0|0:0,0:0:0:0:
260,128,91720,2,0,L|332:128,1,62.5,2|2,0:0|0:0,0:0:0:0:
116,128,91970,1,12,0:0:0:0:
322,128,92095,1,2,0:0:0:0:
96,128,92220,2,0,L|32:128,1,62.5
408,284,92470,5,4,0:0:0:0:
256,192,92720,12,0,94970,0:0:0:0:
