osu file format v14

[General]
AudioFilename: audio.ogg
AudioLeadIn: 0
PreviewTime: 92606
Countdown: 0
SampleSet: Soft
StackLeniency: 0.7
Mode: 3
LetterboxInBreaks: 0
SpecialStyle: 0
WidescreenStoryboard: 0

[Editor]
Bookmarks: 41647,42058,48634,55209,58497,61373,68360,81510,113565,117880,212606,219182,229867,230688,243017,244250,252058,265209,281236
DistanceSpacing: 2
BeatDivisor: 4
GridSize: 8
TimelineZoom: 2.1

[Metadata]
Title:Inner Spirit (Extended)
TitleUnicode:Inner Spirit (Extended)
Artist:lapix
ArtistUnicode:lapix
Creator:elexire
Version:Dive
Source:beatmania IIDX 23 copula
Tags:chordjack electronic instrumental video game hitech fullon complextro drumstep dubstep bemani bm2dx konami original soundtrack ost
BeatmapID:3555448
BeatmapSetID:1739590

[Difficulty]
HPDrainRate:8
CircleSize:4
OverallDifficulty:8
ApproachRate:5
SliderMultiplier:1.4
SliderTickRate:1

[Events]
//Background and Video events
0,0,"alena-aenami-lost-1k.png",0,0
//Break Periods
2,133902,139078
//Storyboard Layer 0 (Background)
//Storyboard Layer 1 (Fail)
//Storyboard Layer 2 (Pass)
//Storyboard Layer 3 (Foreground)
//Storyboard Layer 4 (Overlay)
//Storyboard Sound Samples

[TimingPoints]
552,410.958904109589,4,2,1,100,1,0
94250,-100,4,2,1,100,0,1
105346,-100,4,2,1,100,0,0
107401,-100,4,2,1,100,0,1
118908,-100,4,2,1,100,0,0
120551,-100,4,2,1,100,0,1
132058,-100,4,2,1,100,0,0
225757,-100,4,2,1,100,0,1
237264,-100,4,2,1,100,0,0
238908,-100,4,2,1,100,0,1
252058,-100,4,2,1,100,0,0

[HitObjects]
448,192,1373,5,0,0:0:0:0:
64,192,1373,1,0,0:0:0:0:
192,192,1373,1,0,0:0:0:0:
320,192,1425,1,0,0:0:0:0:
192,192,1476,1,0,0:0:0:0:
64,192,1528,1,0,0:0:0:0:
448,192,1579,1,0,0:0:0:0:
320,192,1647,1,0,0:0:0:0:
64,192,1716,1,0,0:0:0:0:
448,192,1784,1,0,0:0:0:0:
192,192,1853,1,0,0:0:0:0:
320,192,1938,1,0,0:0:0:0:
448,192,1990,128,0,2195:0:0:0:0:
320,192,2195,1,0,0:0:0:0:
192,192,2195,1,0,0:0:0:0:
64,192,2195,1,0,0:0:0:0:
448,192,2401,1,0,0:0:0:0:
448,192,2504,1,0,0:0:0:0:
320,192,2606,1,0,0:0:0:0:
192,192,2606,1,0,0:0:0:0:
64,192,2709,1,0,0:0:0:0:
192,192,2812,1,0,0:0:0:0:
192,192,2915,1,0,0:0:0:0:
320,192,2915,1,0,0:0:0:0:
448,192,3017,1,0,0:0:0:0:
64,192,3120,1,0,0:0:0:0:
192,192,3120,1,0,0:0:0:0:
320,192,3223,1,0,0:0:0:0:
320,192,3325,1,0,0:0:0:0:
64,192,3428,1,0,0:0:0:0:
192,192,3428,1,0,0:0:0:0:
320,192,3634,1,0,0:0:0:0:
192,192,3736,1,0,0:0:0:0:
320,192,3839,1,0,0:0:0:0:
448,192,3839,1,0,0:0:0:0:
192,192,4045,1,0,0:0:0:0:
192,192,4147,1,0,0:0:0:0:
320,192,4250,1,0,0:0:0:0:
64,192,4250,1,0,0:0:0:0:
448,192,4353,1,0,0:0:0:0:
192,192,4456,1,0,0:0:0:0:
192,192,4558,1,0,0:0:0:0:
64,192,4558,1,0,0:0:0:0:
320,192,4661,1,0,0:0:0:0:
448,192,4764,1,0,0:0:0:0:
320,192,4764,1,0,0:0:0:0:
192,192,4867,1,0,0:0:0:0:
448,192,4969,1,0,0:0:0:0:
64,192,5072,1,0,0:0:0:0:
320,192,5072,128,0,5483:0:0:0:0:
192,192,5175,1,0,0:0:0:0:
448,192,5278,1,0,0:0:0:0:
192,192,5380,1,0,0:0:0:0:
448,192,5483,1,0,0:0:0:0:
192,192,5483,1,0,0:0:0:0:
64,192,5483,1,0,0:0:0:0:
320,192,5688,1,0,0:0:0:0:
320,192,5791,1,0,0:0:0:0:
192,192,5894,1,0,0:0:0:0:
64,192,5894,1,0,0:0:0:0:
448,192,5997,1,0,0:0:0:0:
64,192,6099,1,0,0:0:0:0:
64,192,6202,1,0,0:0:0:0:
192,192,6202,1,0,0:0:0:0:
448,192,6305,1,0,0:0:0:0:
320,192,6408,1,0,0:0:0:0:
448,192,6408,1,0,0:0:0:0:
64,192,6510,1,0,0:0:0:0:
320,192,6613,1,0,0:0:0:0:
448,192,6716,1,0,0:0:0:0:
192,192,6716,1,0,0:0:0:0:
320,192,6921,1,0,0:0:0:0:
448,192,7024,1,0,0:0:0:0:
192,192,7127,1,0,0:0:0:0:
64,192,7127,1,0,0:0:0:0:
320,192,7332,1,0,0:0:0:0:
320,192,7435,1,0,0:0:0:0:
192,192,7538,1,0,0:0:0:0:
448,192,7538,1,0,0:0:0:0:
64,192,7641,1,0,0:0:0:0:
320,192,7743,1,0,0:0:0:0:
448,192,7743,1,0,0:0:0:0:
192,192,7743,1,0,0:0:0:0:
448,192,7846,1,0,0:0:0:0:
64,192,7949,1,0,0:0:0:0:
320,192,8051,1,0,0:0:0:0:
192,192,8051,1,0,0:0:0:0:
64,192,8154,1,0,0:0:0:0:
448,192,8257,1,0,0:0:0:0:
192,192,8257,1,0,0:0:0:0:
320,192,8360,1,0,0:0:0:0:
64,192,8462,1,0,0:0:0:0:
192,192,8462,1,0,0:0:0:0:
192,192,8565,1,0,0:0:0:0:
320,192,8565,1,0,0:0:0:0:
448,192,8565,128,0,8771:0:0:0:0:
320,192,8771,1,0,0:0:0:0:
192,192,8771,1,0,0:0:0:0:
64,192,8771,1,0,0:0:0:0:
192,192,8976,1,0,0:0:0:0:
192,192,9079,1,0,0:0:0:0:
448,192,9182,1,0,0:0:0:0:
320,192,9182,1,0,0:0:0:0:
448,192,9284,1,0,0:0:0:0:
64,192,9387,1,0,0:0:0:0:
192,192,9490,1,0,0:0:0:0:
64,192,9490,1,0,0:0:0:0:
448,192,9593,1,0,0:0:0:0:
320,192,9695,1,0,0:0:0:0:
192,192,9695,1,0,0:0:0:0:
320,192,9798,1,0,0:0:0:0:
64,192,9901,1,0,0:0:0:0:
192,192,10004,1,0,0:0:0:0:
448,192,10004,1,0,0:0:0:0:
320,192,10209,1,0,0:0:0:0:
64,192,10312,1,0,0:0:0:0:
320,192,10415,1,0,0:0:0:0:
448,192,10415,1,0,0:0:0:0:
192,192,10620,1,0,0:0:0:0:
448,192,10723,1,0,0:0:0:0:
320,192,10825,1,0,0:0:0:0:
64,192,10825,1,0,0:0:0:0:
320,192,10928,1,0,0:0:0:0:
192,192,11031,1,0,0:0:0:0:
64,192,11134,1,0,0:0:0:0:
192,192,11134,1,0,0:0:0:0:
320,192,11236,1,0,0:0:0:0:
320,192,11339,1,0,0:0:0:0:
448,192,11339,1,0,0:0:0:0:
192,192,11442,1,0,0:0:0:0:
448,192,11545,1,0,0:0:0:0:
64,192,11647,1,0,0:0:0:0:
192,192,11647,128,0,12058:0:0:0:0:
320,192,11750,1,0,0:0:0:0:
64,192,11853,1,0,0:0:0:0:
320,192,11956,1,0,0:0:0:0:
64,192,12058,1,0,0:0:0:0:
320,192,12058,1,0,0:0:0:0:
448,192,12058,1,0,0:0:0:0:
448,192,12264,1,0,0:0:0:0:
192,192,12367,1,0,0:0:0:0:
64,192,12469,1,0,0:0:0:0:
448,192,12469,1,0,0:0:0:0:
64,192,12572,1,0,0:0:0:0:
320,192,12675,1,0,0:0:0:0:
192,192,12778,1,0,0:0:0:0:
192,192,12880,1,0,0:0:0:0:
448,192,12983,1,0,0:0:0:0:
320,192,13086,1,0,0:0:0:0:
320,192,13188,1,0,0:0:0:0:
64,192,13291,1,0,0:0:0:0:
448,192,13394,1,0,0:0:0:0:
448,192,13497,1,0,0:0:0:0:
192,192,13599,1,0,0:0:0:0:
448,192,13702,1,0,0:0:0:0:
64,192,13702,1,0,0:0:0:0:
320,192,13754,1,0,0:0:0:0:
192,192,13908,1,0,0:0:0:0:
448,192,14010,1,0,0:0:0:0:
320,192,14113,1,0,0:0:0:0:
64,192,14113,1,0,0:0:0:0:
192,192,14216,1,0,0:0:0:0:
448,192,14319,1,0,0:0:0:0:
320,192,14319,1,0,0:0:0:0:
64,192,14319,1,0,0:0:0:0:
448,192,14421,1,0,0:0:0:0:
320,192,14627,1,0,0:0:0:0:
192,192,14730,1,0,0:0:0:0:
320,192,14832,1,0,0:0:0:0:
64,192,14935,1,0,0:0:0:0:
320,192,15038,1,0,0:0:0:0:
192,192,15141,1,0,0:0:0:0:
64,192,15141,1,0,0:0:0:0:
448,192,15141,128,0,15346:0:0:0:0:
192,192,15346,1,0,0:0:0:0:
64,192,15346,1,0,0:0:0:0:
320,192,15346,1,0,0:0:0:0:
320,192,15552,1,0,0:0:0:0:
192,192,15654,1,0,0:0:0:0:
448,192,15757,1,0,0:0:0:0:
192,192,15757,1,0,0:0:0:0:
320,192,15860,1,0,0:0:0:0:
64,192,15962,1,0,0:0:0:0:
192,192,16065,1,0,0:0:0:0:
448,192,16168,1,0,0:0:0:0:
64,192,16271,1,0,0:0:0:0:
448,192,16373,1,0,0:0:0:0:
320,192,16373,1,0,0:0:0:0:
64,192,16476,1,0,0:0:0:0:
192,192,16528,1,0,0:0:0:0:
320,192,16579,1,0,0:0:0:0:
192,192,16630,1,0,0:0:0:0:
320,192,16682,1,0,0:0:0:0:
64,192,16784,1,0,0:0:0:0:
192,192,16887,1,0,0:0:0:0:
448,192,16990,1,0,0:0:0:0:
64,192,17195,1,0,0:0:0:0:
320,192,17298,1,0,0:0:0:0:
320,192,17401,1,0,0:0:0:0:
192,192,17401,1,0,0:0:0:0:
448,192,17504,1,0,0:0:0:0:
64,192,17606,1,0,0:0:0:0:
320,192,17709,1,0,0:0:0:0:
192,192,17812,1,0,0:0:0:0:
448,192,17915,1,0,0:0:0:0:
192,192,18017,1,0,0:0:0:0:
64,192,18017,1,0,0:0:0:0:
448,192,18120,1,0,0:0:0:0:
192,192,18223,128,0,18634:0:0:0:0:
320,192,18325,1,0,0:0:0:0:
64,192,18428,1,0,0:0:0:0:
320,192,18531,1,0,0:0:0:0:
64,192,18634,1,0,0:0:0:0:
320,192,18634,1,0,0:0:0:0:
448,192,18634,1,0,0:0:0:0:
192,192,18839,1,0,0:0:0:0:
448,192,18942,1,0,0:0:0:0:
448,192,19045,1,0,0:0:0:0:
320,192,19045,1,0,0:0:0:0:
64,192,19147,1,0,0:0:0:0:
448,192,19250,1,0,0:0:0:0:
192,192,19353,1,0,0:0:0:0:
320,192,19456,1,0,0:0:0:0:
64,192,19558,1,0,0:0:0:0:
320,192,19661,1,0,0:0:0:0:
192,192,19661,1,0,0:0:0:0:
64,192,19764,1,0,0:0:0:0:
320,192,19867,1,0,0:0:0:0:
320,192,19969,1,0,0:0:0:0:
192,192,20072,1,0,0:0:0:0:
448,192,20175,1,0,0:0:0:0:
192,192,20278,1,0,0:0:0:0:
64,192,20278,1,0,0:0:0:0:
320,192,20483,1,0,0:0:0:0:
64,192,20586,1,0,0:0:0:0:
192,192,20688,1,0,0:0:0:0:
64,192,20688,1,0,0:0:0:0:
448,192,20791,1,0,0:0:0:0:
320,192,20894,1,0,0:0:0:0:
192,192,20894,1,0,0:0:0:0:
64,192,20894,1,0,0:0:0:0:
448,192,21099,128,0,21202:0:0:0:0:
320,192,21202,128,0,21305:0:0:0:0:
64,192,21305,128,0,21408:0:0:0:0:
192,192,21408,128,0,21716:0:0:0:0:
448,192,21510,1,0,0:0:0:0:
320,192,21613,1,0,0:0:0:0:
320,192,21716,1,0,0:0:0:0:
64,192,21716,1,0,0:0:0:0:
448,192,21716,128,0,21921:0:0:0:0:
320,192,21921,1,0,0:0:0:0:
192,192,21921,1,0,0:0:0:0:
64,192,21921,1,0,0:0:0:0:
192,192,22127,1,0,0:0:0:0:
448,192,22230,1,0,0:0:0:0:
192,192,22332,1,0,0:0:0:0:
64,192,22332,1,0,0:0:0:0:
320,192,22332,1,0,0:0:0:0:
192,192,22435,1,0,0:0:0:0:
64,192,22435,1,0,0:0:0:0:
320,192,22538,1,0,0:0:0:0:
448,192,22538,1,0,0:0:0:0:
192,192,22641,1,0,0:0:0:0:
64,192,22641,1,0,0:0:0:0:
448,192,22743,1,0,0:0:0:0:
320,192,22743,1,0,0:0:0:0:
192,192,22743,1,0,0:0:0:0:
64,192,22949,1,0,0:0:0:0:
192,192,22949,1,0,0:0:0:0:
320,192,22949,1,0,0:0:0:0:
448,192,23154,1,0,0:0:0:0:
320,192,23154,1,0,0:0:0:0:
192,192,23154,1,0,0:0:0:0:
320,192,23257,1,0,0:0:0:0:
448,192,23257,1,0,0:0:0:0:
192,192,23360,1,0,0:0:0:0:
64,192,23360,1,0,0:0:0:0:
320,192,23462,1,0,0:0:0:0:
448,192,23462,1,0,0:0:0:0:
64,192,23565,1,0,0:0:0:0:
192,192,23565,1,0,0:0:0:0:
320,192,23565,1,0,0:0:0:0:
320,192,23771,1,0,0:0:0:0:
448,192,23771,1,0,0:0:0:0:
64,192,23873,1,0,0:0:0:0:
320,192,23976,1,0,0:0:0:0:
192,192,23976,1,0,0:0:0:0:
64,192,23976,1,0,0:0:0:0:
448,192,23976,1,0,0:0:0:0:
448,192,24079,1,0,0:0:0:0:
64,192,24182,1,0,0:0:0:0:
448,192,24284,1,0,0:0:0:0:
320,192,24284,1,0,0:0:0:0:
192,192,24387,1,0,0:0:0:0:
64,192,24387,1,0,0:0:0:0:
320,192,24387,1,0,0:0:0:0:
192,192,24490,1,0,0:0:0:0:
64,192,24490,1,0,0:0:0:0:
320,192,24593,1,0,0:0:0:0:
448,192,24593,1,0,0:0:0:0:
192,192,24593,1,0,0:0:0:0:
320,192,24695,1,0,0:0:0:0:
448,192,24695,1,0,0:0:0:0:
192,192,24798,1,0,0:0:0:0:
64,192,24798,1,0,0:0:0:0:
448,192,24849,1,0,0:0:0:0:
320,192,24901,1,0,0:0:0:0:
64,192,24952,1,0,0:0:0:0:
192,192,25004,1,0,0:0:0:0:
448,192,25055,1,0,0:0:0:0:
320,192,25106,1,0,0:0:0:0:
192,192,25158,1,0,0:0:0:0:
64,192,25209,128,0,25415:0:0:0:0:
320,192,25415,1,0,0:0:0:0:
64,192,25517,128,0,25723:0:0:0:0:
320,192,25723,1,0,0:0:0:0:
64,192,25825,128,0,26031:0:0:0:0:
448,192,26031,1,0,0:0:0:0:
320,192,26031,1,0,0:0:0:0:
192,192,26134,1,0,0:0:0:0:
64,192,26134,1,0,0:0:0:0:
320,192,26236,128,0,26545:0:0:0:0:
448,192,26236,128,0,26339:0:0:0:0:
192,192,26545,128,0,26853:0:0:0:0:
448,192,26545,128,0,26647:0:0:0:0:
448,192,26853,128,0,26956:0:0:0:0:
64,192,26853,128,0,27161:0:0:0:0:
448,192,27161,128,0,27264:0:0:0:0:
192,192,27161,128,0,28497:0:0:0:0:
448,192,28497,5,0,0:0:0:0:
320,192,28497,1,0,0:0:0:0:
192,192,28599,1,0,0:0:0:0:
64,192,28702,1,0,0:0:0:0:
448,192,28805,1,0,0:0:0:0:
320,192,28908,1,0,0:0:0:0:
64,192,29010,1,0,0:0:0:0:
192,192,29113,1,0,0:0:0:0:
448,192,29216,1,0,0:0:0:0:
64,192,29319,1,0,0:0:0:0:
448,192,29421,1,0,0:0:0:0:
192,192,29524,1,0,0:0:0:0:
64,192,29627,1,0,0:0:0:0:
320,192,29730,1,0,0:0:0:0:
448,192,29832,1,0,0:0:0:0:
192,192,29935,1,0,0:0:0:0:
64,192,30038,1,0,0:0:0:0:
448,192,30141,1,0,0:0:0:0:
192,192,30243,1,0,0:0:0:0:
64,192,30346,1,0,0:0:0:0:
448,192,30449,1,0,0:0:0:0:
320,192,30551,1,0,0:0:0:0:
64,192,30654,1,0,0:0:0:0:
192,192,30757,1,0,0:0:0:0:
448,192,30860,1,0,0:0:0:0:
64,192,30962,1,0,0:0:0:0:
448,192,31065,1,0,0:0:0:0:
64,192,31168,1,0,0:0:0:0:
192,192,31271,1,0,0:0:0:0:
320,192,31373,1,0,0:0:0:0:
64,192,31476,1,0,0:0:0:0:
192,192,31579,1,0,0:0:0:0:
448,192,31682,1,0,0:0:0:0:
192,192,31784,1,0,0:0:0:0:
448,192,31887,1,0,0:0:0:0:
64,192,31990,1,0,0:0:0:0:
192,192,32093,1,0,0:0:0:0:
320,192,32195,1,0,0:0:0:0:
64,192,32298,1,0,0:0:0:0:
448,192,32401,1,0,0:0:0:0:
192,192,32504,1,0,0:0:0:0:
448,192,32606,1,0,0:0:0:0:
192,192,32709,1,0,0:0:0:0:
320,192,32812,1,0,0:0:0:0:
64,192,32915,1,0,0:0:0:0:
320,192,33017,1,0,0:0:0:0:
448,192,33120,1,0,0:0:0:0:
192,192,33223,1,0,0:0:0:0:
64,192,33325,1,0,0:0:0:0:
192,192,33428,1,0,0:0:0:0:
448,192,33531,1,0,0:0:0:0:
64,192,33634,1,0,0:0:0:0:
448,192,33736,1,0,0:0:0:0:
192,192,33839,1,0,0:0:0:0:
320,192,33942,1,0,0:0:0:0:
192,192,34045,1,0,0:0:0:0:
448,192,34147,1,0,0:0:0:0:
64,192,34250,1,0,0:0:0:0:
448,192,34353,1,0,0:0:0:0:
320,192,34456,1,0,0:0:0:0:
64,192,34558,1,0,0:0:0:0:
320,192,34661,1,0,0:0:0:0:
448,192,34764,1,0,0:0:0:0:
64,192,34867,1,0,0:0:0:0:
192,192,34969,1,0,0:0:0:0:
448,192,35072,1,0,0:0:0:0:
320,192,35072,1,0,0:0:0:0:
64,192,35072,1,0,0:0:0:0:
448,192,35175,1,0,0:0:0:0:
64,192,35278,1,0,0:0:0:0:
64,192,35380,1,0,0:0:0:0:
320,192,35483,1,0,0:0:0:0:
320,192,35586,1,0,0:0:0:0:
192,192,35688,1,0,0:0:0:0:
192,192,35791,1,0,0:0:0:0:
448,192,35894,1,0,0:0:0:0:
448,192,35997,1,0,0:0:0:0:
64,192,36099,1,0,0:0:0:0:
64,192,36202,1,0,0:0:0:0:
320,192,36305,1,0,0:0:0:0:
320,192,36408,1,0,0:0:0:0:
192,192,36510,1,0,0:0:0:0:
192,192,36613,1,0,0:0:0:0:
448,192,36716,1,0,0:0:0:0:
448,192,36819,1,0,0:0:0:0:
64,192,36921,1,0,0:0:0:0:
64,192,37024,1,0,0:0:0:0:
320,192,37127,1,0,0:0:0:0:
320,192,37230,1,0,0:0:0:0:
192,192,37332,1,0,0:0:0:0:
192,192,37435,1,0,0:0:0:0:
448,192,37538,1,0,0:0:0:0:
448,192,37641,1,0,0:0:0:0:
64,192,37743,1,0,0:0:0:0:
64,192,37846,1,0,0:0:0:0:
320,192,37949,1,0,0:0:0:0:
320,192,38051,1,0,0:0:0:0:
192,192,38154,1,0,0:0:0:0:
192,192,38257,1,0,0:0:0:0:
448,192,38360,1,0,0:0:0:0:
320,192,38411,1,0,0:0:0:0:
64,192,38462,1,0,0:0:0:0:
448,192,38514,1,0,0:0:0:0:
192,192,38565,1,0,0:0:0:0:
320,192,38617,1,0,0:0:0:0:
64,192,38668,1,0,0:0:0:0:
448,192,38719,1,0,0:0:0:0:
192,192,38771,1,0,0:0:0:0:
320,192,38822,1,0,0:0:0:0:
64,192,38873,1,0,0:0:0:0:
448,192,38925,1,0,0:0:0:0:
320,192,38976,1,0,0:0:0:0:
192,192,39028,1,0,0:0:0:0:
64,192,39079,1,0,0:0:0:0:
448,192,39130,1,0,0:0:0:0:
320,192,39182,1,0,0:0:0:0:
192,192,39233,1,0,0:0:0:0:
448,192,39284,1,0,0:0:0:0:
64,192,39336,1,0,0:0:0:0:
320,192,39387,1,0,0:0:0:0:
192,192,39438,1,0,0:0:0:0:
448,192,39490,1,0,0:0:0:0:
64,192,39541,1,0,0:0:0:0:
192,192,39593,1,0,0:0:0:0:
320,192,39644,1,0,0:0:0:0:
448,192,39695,1,0,0:0:0:0:
64,192,39747,1,0,0:0:0:0:
320,192,39798,1,0,0:0:0:0:
192,192,39849,1,0,0:0:0:0:
448,192,39901,1,0,0:0:0:0:
64,192,39952,1,0,0:0:0:0:
320,192,40004,1,0,0:0:0:0:
192,192,40004,1,0,0:0:0:0:
64,192,40209,128,0,40415:0:0:0:0:
448,192,40415,128,0,40620:0:0:0:0:
320,192,40620,1,0,0:0:0:0:
192,192,40671,1,0,0:0:0:0:
448,192,40723,1,0,0:0:0:0:
192,192,40774,1,0,0:0:0:0:
64,192,40825,1,0,0:0:0:0:
320,192,40825,128,0,41031:0:0:0:0:
192,192,41031,128,0,41134:0:0:0:0:
448,192,41134,128,0,41236:0:0:0:0:
64,192,41236,1,0,0:0:0:0:
192,192,41236,1,0,0:0:0:0:
64,192,41442,1,0,0:0:0:0:
448,192,41442,1,0,0:0:0:0:
320,192,41442,1,0,0:0:0:0:
320,192,41647,1,0,0:0:0:0:
64,192,41647,1,0,0:0:0:0:
192,192,41647,1,0,0:0:0:0:
448,192,41647,128,0,41853:0:0:0:0:
64,192,41853,128,0,42058:0:0:0:0:
192,192,42058,1,0,0:0:0:0:
320,192,42058,1,0,0:0:0:0:
448,192,42058,1,0,0:0:0:0:
64,192,42161,1,0,0:0:0:0:
448,192,42161,1,0,0:0:0:0:
192,192,42264,1,0,0:0:0:0:
320,192,42264,1,0,0:0:0:0:
64,192,42367,1,0,0:0:0:0:
320,192,42367,1,0,0:0:0:0:
192,192,42469,1,0,0:0:0:0:
64,192,42469,1,0,0:0:0:0:
448,192,42469,1,0,0:0:0:0:
448,192,42572,1,0,0:0:0:0:
320,192,42572,1,0,0:0:0:0:
64,192,42675,1,0,0:0:0:0:
320,192,42675,1,0,0:0:0:0:
192,192,42778,1,0,0:0:0:0:
448,192,42778,1,0,0:0:0:0:
192,192,42880,1,0,0:0:0:0:
64,192,42880,128,0,43086:0:0:0:0:
320,192,42880,1,0,0:0:0:0:
320,192,43086,128,0,43188:0:0:0:0:
192,192,43188,128,0,43291:0:0:0:0:
448,192,43291,1,0,0:0:0:0:
320,192,43291,128,0,43497:0:0:0:0:
64,192,43291,1,0,0:0:0:0:
192,192,43497,128,0,43702:0:0:0:0:
448,192,43702,1,0,0:0:0:0:
320,192,43702,1,0,0:0:0:0:
64,192,43702,1,0,0:0:0:0:
192,192,43805,1,0,0:0:0:0:
448,192,43805,1,0,0:0:0:0:
320,192,43908,1,0,0:0:0:0:
64,192,43908,1,0,0:0:0:0:
320,192,44010,1,0,0:0:0:0:
192,192,44010,1,0,0:0:0:0:
192,192,44113,1,0,0:0:0:0:
64,192,44113,1,0,0:0:0:0:
448,192,44113,1,0,0:0:0:0:
320,192,44216,1,0,0:0:0:0:
448,192,44216,1,0,0:0:0:0:
320,192,44319,1,0,0:0:0:0:
64,192,44319,1,0,0:0:0:0:
192,192,44421,1,0,0:0:0:0:
448,192,44421,1,0,0:0:0:0:
64,192,44524,1,0,0:0:0:0:
320,192,44524,128,0,44730:0:0:0:0:
448,192,44524,1,0,0:0:0:0:
192,192,44730,128,0,44832:0:0:0:0:
64,192,44832,128,0,44935:0:0:0:0:
320,192,44935,1,0,0:0:0:0:
448,192,44935,128,0,45141:0:0:0:0:
192,192,44935,1,0,0:0:0:0:
320,192,45141,128,0,45346:0:0:0:0:
192,192,45346,1,0,0:0:0:0:
64,192,45346,1,0,0:0:0:0:
448,192,45346,1,0,0:0:0:0:
64,192,45449,1,0,0:0:0:0:
320,192,45449,1,0,0:0:0:0:
192,192,45551,1,0,0:0:0:0:
448,192,45551,1,0,0:0:0:0:
192,192,45654,1,0,0:0:0:0:
320,192,45654,1,0,0:0:0:0:
448,192,45757,1,0,0:0:0:0:
320,192,45757,1,0,0:0:0:0:
64,192,45757,1,0,0:0:0:0:
192,192,45860,1,0,0:0:0:0:
64,192,45860,1,0,0:0:0:0:
448,192,45962,1,0,0:0:0:0:
320,192,45962,1,0,0:0:0:0:
64,192,46065,1,0,0:0:0:0:
192,192,46065,1,0,0:0:0:0:
64,192,46168,1,0,0:0:0:0:
448,192,46168,1,0,0:0:0:0:
320,192,46168,1,0,0:0:0:0:
192,192,46271,1,0,0:0:0:0:
448,192,46271,1,0,0:0:0:0:
192,192,46373,1,0,0:0:0:0:
64,192,46373,1,0,0:0:0:0:
64,192,46476,1,0,0:0:0:0:
320,192,46476,1,0,0:0:0:0:
192,192,46579,1,0,0:0:0:0:
320,192,46579,1,0,0:0:0:0:
448,192,46579,128,0,46682:0:0:0:0:
64,192,46682,128,0,46784:0:0:0:0:
448,192,46784,128,0,46990:0:0:0:0:
320,192,46990,1,0,0:0:0:0:
192,192,46990,1,0,0:0:0:0:
64,192,46990,1,0,0:0:0:0:
64,192,47093,1,0,0:0:0:0:
448,192,47093,1,0,0:0:0:0:
448,192,47195,1,0,0:0:0:0:
320,192,47195,1,0,0:0:0:0:
192,192,47298,1,0,0:0:0:0:
64,192,47298,1,0,0:0:0:0:
192,192,47401,1,0,0:0:0:0:
448,192,47401,1,0,0:0:0:0:
64,192,47401,1,0,0:0:0:0:
320,192,47504,1,0,0:0:0:0:
448,192,47504,1,0,0:0:0:0:
192,192,47606,1,0,0:0:0:0:
320,192,47606,1,0,0:0:0:0:
192,192,47709,1,0,0:0:0:0:
448,192,47709,1,0,0:0:0:0:
64,192,47812,128,0,48017:0:0:0:0:
320,192,47812,1,0,0:0:0:0:
448,192,47812,1,0,0:0:0:0:
320,192,48017,128,0,48223:0:0:0:0:
448,192,48017,1,0,0:0:0:0:
192,192,48223,1,0,0:0:0:0:
448,192,48223,1,0,0:0:0:0:
64,192,48223,128,0,48428:0:0:0:0:
192,192,48428,128,0,48634:0:0:0:0:
64,192,48634,1,0,0:0:0:0:
448,192,48634,1,0,0:0:0:0:
320,192,48634,1,0,0:0:0:0:
192,192,48736,1,0,0:0:0:0:
448,192,48736,1,0,0:0:0:0:
64,192,48839,1,0,0:0:0:0:
320,192,48839,1,0,0:0:0:0:
320,192,48942,1,0,0:0:0:0:
192,192,48942,1,0,0:0:0:0:
192,192,49045,1,0,0:0:0:0:
448,192,49045,1,0,0:0:0:0:
64,192,49045,1,0,0:0:0:0:
320,192,49147,1,0,0:0:0:0:
448,192,49147,1,0,0:0:0:0:
64,192,49250,1,0,0:0:0:0:
192,192,49250,1,0,0:0:0:0:
448,192,49353,1,0,0:0:0:0:
320,192,49353,1,0,0:0:0:0:
320,192,49456,1,0,0:0:0:0:
64,192,49456,1,0,0:0:0:0:
448,192,49456,1,0,0:0:0:0:
64,192,49558,1,0,0:0:0:0:
192,192,49558,1,0,0:0:0:0:
448,192,49661,1,0,0:0:0:0:
320,192,49661,1,0,0:0:0:0:
192,192,49764,1,0,0:0:0:0:
64,192,49764,1,0,0:0:0:0:
320,192,49867,1,0,0:0:0:0:
64,192,49867,1,0,0:0:0:0:
448,192,49867,128,0,50072:0:0:0:0:
192,192,50072,128,0,50278:0:0:0:0:
320,192,50278,1,0,0:0:0:0:
448,192,50278,1,0,0:0:0:0:
64,192,50278,1,0,0:0:0:0:
192,192,50380,1,0,0:0:0:0:
448,192,50380,1,0,0:0:0:0:
192,192,50483,1,0,0:0:0:0:
64,192,50483,1,0,0:0:0:0:
320,192,50586,1,0,0:0:0:0:
448,192,50586,1,0,0:0:0:0:
320,192,50688,1,0,0:0:0:0:
448,192,50688,1,0,0:0:0:0:
64,192,50688,1,0,0:0:0:0:
64,192,50791,1,0,0:0:0:0:
192,192,50791,1,0,0:0:0:0:
448,192,50894,1,0,0:0:0:0:
192,192,50894,1,0,0:0:0:0:
448,192,50997,1,0,0:0:0:0:
64,192,50997,1,0,0:0:0:0:
192,192,51099,1,0,0:0:0:0:
64,192,51099,1,0,0:0:0:0:
320,192,51099,128,0,51305:0:0:0:0:
448,192,51305,128,0,51408:0:0:0:0:
64,192,51408,1,0,0:0:0:0:
192,192,51510,1,0,0:0:0:0:
448,192,51510,128,0,51716:0:0:0:0:
64,192,51510,1,0,0:0:0:0:
320,192,51510,1,0,0:0:0:0:
320,192,51716,128,0,51921:0:0:0:0:
448,192,51921,1,0,0:0:0:0:
192,192,51921,1,0,0:0:0:0:
64,192,51921,1,0,0:0:0:0:
320,192,52024,1,0,0:0:0:0:
64,192,52024,1,0,0:0:0:0:
320,192,52127,1,0,0:0:0:0:
448,192,52127,1,0,0:0:0:0:
64,192,52230,1,0,0:0:0:0:
448,192,52230,1,0,0:0:0:0:
192,192,52230,1,0,0:0:0:0:
192,192,52332,1,0,0:0:0:0:
64,192,52332,1,0,0:0:0:0:
320,192,52435,1,0,0:0:0:0:
448,192,52435,1,0,0:0:0:0:
448,192,52538,1,0,0:0:0:0:
320,192,52538,1,0,0:0:0:0:
64,192,52538,128,0,52641:0:0:0:0:
192,192,52743,1,0,0:0:0:0:
448,192,52743,1,0,0:0:0:0:
64,192,52846,128,0,53154:0:0:0:0:
320,192,52949,1,0,0:0:0:0:
448,192,52949,1,0,0:0:0:0:
192,192,53154,1,0,0:0:0:0:
320,192,53154,1,0,0:0:0:0:
448,192,53154,1,0,0:0:0:0:
192,192,53257,1,0,0:0:0:0:
320,192,53360,1,0,0:0:0:0:
64,192,53360,1,0,0:0:0:0:
320,192,53462,1,0,0:0:0:0:
448,192,53565,1,0,0:0:0:0:
192,192,53565,1,0,0:0:0:0:
320,192,53668,1,0,0:0:0:0:
64,192,53771,1,0,0:0:0:0:
448,192,53771,1,0,0:0:0:0:
192,192,53873,1,0,0:0:0:0:
320,192,53976,1,0,0:0:0:0:
448,192,54079,1,0,0:0:0:0:
64,192,54079,1,0,0:0:0:0:
192,192,54079,1,0,0:0:0:0:
64,192,54182,1,0,0:0:0:0:
448,192,54284,1,0,0:0:0:0:
448,192,54387,1,0,0:0:0:0:
320,192,54387,1,0,0:0:0:0:
64,192,54387,1,0,0:0:0:0:
192,192,54593,128,0,54798:0:0:0:0:
448,192,54798,1,0,0:0:0:0:
64,192,54798,1,0,0:0:0:0:
320,192,54798,128,0,55209:0:0:0:0:
192,192,55004,1,0,0:0:0:0:
192,192,55209,1,0,0:0:0:0:
64,192,55209,1,0,0:0:0:0:
448,192,55209,1,0,0:0:0:0:
64,192,55312,1,0,0:0:0:0:
320,192,55312,1,0,0:0:0:0:
192,192,55415,1,0,0:0:0:0:
320,192,55415,1,0,0:0:0:0:
448,192,55517,1,0,0:0:0:0:
64,192,55517,1,0,0:0:0:0:
320,192,55620,1,0,0:0:0:0:
64,192,55620,1,0,0:0:0:0:
192,192,55620,1,0,0:0:0:0:
448,192,55723,1,0,0:0:0:0:
192,192,55723,1,0,0:0:0:0:
320,192,55825,1,0,0:0:0:0:
64,192,55825,1,0,0:0:0:0:
64,192,55928,1,0,0:0:0:0:
448,192,55928,1,0,0:0:0:0:
192,192,56031,1,0,0:0:0:0:
448,192,56031,1,0,0:0:0:0:
320,192,56031,128,0,56236:0:0:0:0:
192,192,56236,128,0,56339:0:0:0:0:
320,192,56339,128,0,56442:0:0:0:0:
192,192,56442,1,0,0:0:0:0:
64,192,56442,1,0,0:0:0:0:
448,192,56442,128,0,56647:0:0:0:0:
64,192,56647,128,0,56853:0:0:0:0:
192,192,56853,1,0,0:0:0:0:
448,192,56853,1,0,0:0:0:0:
320,192,56853,1,0,0:0:0:0:
64,192,56956,1,0,0:0:0:0:
320,192,56956,1,0,0:0:0:0:
192,192,57058,1,0,0:0:0:0:
64,192,57058,1,0,0:0:0:0:
320,192,57161,1,0,0:0:0:0:
448,192,57161,1,0,0:0:0:0:
192,192,57264,1,0,0:0:0:0:
64,192,57264,1,0,0:0:0:0:
448,192,57264,1,0,0:0:0:0:
64,192,57367,1,0,0:0:0:0:
320,192,57367,1,0,0:0:0:0:
320,192,57469,1,0,0:0:0:0:
448,192,57469,1,0,0:0:0:0:
448,192,57572,1,0,0:0:0:0:
192,192,57572,1,0,0:0:0:0:
320,192,57675,1,0,0:0:0:0:
192,192,57675,1,0,0:0:0:0:
64,192,57675,1,0,0:0:0:0:
448,192,57778,128,0,57880:0:0:0:0:
64,192,57880,1,0,0:0:0:0:
448,192,57983,128,0,58188:0:0:0:0:
192,192,58086,1,0,0:0:0:0:
64,192,58086,1,0,0:0:0:0:
320,192,58086,1,0,0:0:0:0:
448,192,58291,128,0,58394:0:0:0:0:
448,192,58497,1,0,0:0:0:0:
320,192,58497,1,0,0:0:0:0:
64,192,58497,1,0,0:0:0:0:
192,192,58599,1,0,0:0:0:0:
320,192,58599,1,0,0:0:0:0:
64,192,58702,1,0,0:0:0:0:
192,192,58702,1,0,0:0:0:0:
320,192,58805,1,0,0:0:0:0:
448,192,58805,1,0,0:0:0:0:
448,192,58908,1,0,0:0:0:0:
64,192,58908,1,0,0:0:0:0:
192,192,58908,1,0,0:0:0:0:
320,192,59010,1,0,0:0:0:0:
64,192,59010,1,0,0:0:0:0:
320,192,59113,1,0,0:0:0:0:
192,192,59113,1,0,0:0:0:0:
448,192,59216,1,0,0:0:0:0:
64,192,59216,1,0,0:0:0:0:
192,192,59319,1,0,0:0:0:0:
320,192,59319,128,0,59421:0:0:0:0:
64,192,59319,1,0,0:0:0:0:
192,192,59524,1,0,0:0:0:0:
64,192,59524,1,0,0:0:0:0:
320,192,59524,128,0,59627:0:0:0:0:
320,192,59730,1,0,0:0:0:0:
448,192,59730,1,0,0:0:0:0:
64,192,59730,1,0,0:0:0:0:
192,192,59832,1,0,0:0:0:0:
320,192,59935,1,0,0:0:0:0:
64,192,60038,1,0,0:0:0:0:
192,192,60141,1,0,0:0:0:0:
448,192,60141,1,0,0:0:0:0:
320,192,60141,1,0,0:0:0:0:
64,192,60243,1,0,0:0:0:0:
192,192,60346,1,0,0:0:0:0:
448,192,60346,1,0,0:0:0:0:
320,192,60346,1,0,0:0:0:0:
64,192,60449,1,0,0:0:0:0:
320,192,60551,1,0,0:0:0:0:
448,192,60551,1,0,0:0:0:0:
192,192,60654,1,0,0:0:0:0:
448,192,60757,1,0,0:0:0:0:
448,192,60860,1,0,0:0:0:0:
64,192,60962,1,0,0:0:0:0:
320,192,60962,128,0,61168:0:0:0:0:
192,192,60962,128,0,61065:0:0:0:0:
64,192,61168,128,0,61271:0:0:0:0:
448,192,61373,1,0,0:0:0:0:
320,192,61399,1,0,0:0:0:0:
192,192,61419,1,0,0:0:0:0:
64,192,61432,1,0,0:0:0:0:
320,192,61784,1,0,0:0:0:0:
192,192,61784,1,0,0:0:0:0:
64,192,61784,1,0,0:0:0:0:
448,192,61887,1,0,0:0:0:0:
192,192,61887,1,0,0:0:0:0:
64,192,61990,1,0,0:0:0:0:
448,192,61990,1,0,0:0:0:0:
320,192,62093,1,0,0:0:0:0:
64,192,62093,1,0,0:0:0:0:
320,192,62195,1,0,0:0:0:0:
192,192,62195,1,0,0:0:0:0:
448,192,62195,1,0,0:0:0:0:
64,192,62298,1,0,0:0:0:0:
448,192,62298,1,0,0:0:0:0:
192,192,62401,1,0,0:0:0:0:
64,192,62452,1,0,0:0:0:0:
448,192,62504,1,0,0:0:0:0:
320,192,62555,1,0,0:0:0:0:
64,192,62606,1,0,0:0:0:0:
448,192,62606,1,0,0:0:0:0:
192,192,62606,128,0,62812:0:0:0:0:
64,192,62812,128,0,62915:0:0:0:0:
448,192,62915,128,0,63017:0:0:0:0:
320,192,63017,1,0,0:0:0:0:
64,192,63017,1,0,0:0:0:0:
192,192,63017,128,0,63223:0:0:0:0:
320,192,63223,1,0,0:0:0:0:
320,192,63325,1,0,0:0:0:0:
192,192,63428,1,0,0:0:0:0:
64,192,63428,1,0,0:0:0:0:
448,192,63428,1,0,0:0:0:0:
64,192,63531,1,0,0:0:0:0:
320,192,63634,1,0,0:0:0:0:
448,192,63634,1,0,0:0:0:0:
192,192,63634,1,0,0:0:0:0:
448,192,63736,1,0,0:0:0:0:
320,192,63839,128,0,63942:0:0:0:0:
192,192,63839,1,0,0:0:0:0:
64,192,63839,128,0,64045:0:0:0:0:
320,192,64045,128,0,64250:0:0:0:0:
64,192,64147,128,0,64250:0:0:0:0:
192,192,64250,1,0,0:0:0:0:
448,192,64353,1,0,0:0:0:0:
320,192,64353,1,0,0:0:0:0:
64,192,64456,1,0,0:0:0:0:
320,192,64558,1,0,0:0:0:0:
448,192,64558,1,0,0:0:0:0:
64,192,64661,128,0,64764:0:0:0:0:
320,192,64867,128,0,64969:0:0:0:0:
448,192,65072,1,0,0:0:0:0:
64,192,65072,1,0,0:0:0:0:
320,192,65175,1,0,0:0:0:0:
192,192,65175,1,0,0:0:0:0:
320,192,65278,1,0,0:0:0:0:
448,192,65278,1,0,0:0:0:0:
192,192,65380,1,0,0:0:0:0:
64,192,65380,1,0,0:0:0:0:
64,192,65483,1,0,0:0:0:0:
448,192,65483,1,0,0:0:0:0:
192,192,65483,1,0,0:0:0:0:
320,192,65483,1,0,0:0:0:0:
320,192,65586,1,0,0:0:0:0:
320,192,65688,1,0,0:0:0:0:
448,192,65791,1,0,0:0:0:0:
192,192,65791,1,0,0:0:0:0:
64,192,65791,1,0,0:0:0:0:
192,192,65894,1,0,0:0:0:0:
192,192,65997,1,0,0:0:0:0:
64,192,66099,1,0,0:0:0:0:
320,192,66099,1,0,0:0:0:0:
448,192,66099,1,0,0:0:0:0:
192,192,66202,1,0,0:0:0:0:
448,192,66305,1,0,0:0:0:0:
320,192,66305,128,0,66510:0:0:0:0:
192,192,66510,128,0,66716:0:0:0:0:
64,192,66716,1,0,0:0:0:0:
448,192,66819,1,0,0:0:0:0:
192,192,66921,1,0,0:0:0:0:
64,192,66921,1,0,0:0:0:0:
320,192,67024,1,0,0:0:0:0:
448,192,67024,1,0,0:0:0:0:
192,192,67127,1,0,0:0:0:0:
320,192,67178,1,0,0:0:0:0:
64,192,67230,1,0,0:0:0:0:
448,192,67281,1,0,0:0:0:0:
192,192,67332,1,0,0:0:0:0:
320,192,67367,1,0,0:0:0:0:
64,192,67401,1,0,0:0:0:0:
448,192,67435,1,0,0:0:0:0:
192,192,67486,1,0,0:0:0:0:
64,192,67538,1,0,0:0:0:0:
320,192,67538,1,0,0:0:0:0:
320,192,67743,1,0,0:0:0:0:
192,192,67743,1,0,0:0:0:0:
448,192,67743,1,0,0:0:0:0:
320,192,67949,1,0,0:0:0:0:
64,192,67949,128,0,68154:0:0:0:0:
448,192,67949,1,0,0:0:0:0:
192,192,67949,1,0,0:0:0:0:
448,192,68154,128,0,68360:0:0:0:0:
320,192,68360,1,0,0:0:0:0:
192,192,68360,1,0,0:0:0:0:
64,192,68360,1,0,0:0:0:0:
320,192,68462,1,0,0:0:0:0:
448,192,68462,1,0,0:0:0:0:
64,192,68565,1,0,0:0:0:0:
448,192,68565,1,0,0:0:0:0:
192,192,68668,1,0,0:0:0:0:
64,192,68668,1,0,0:0:0:0:
192,192,68771,1,0,0:0:0:0:
320,192,68771,1,0,0:0:0:0:
448,192,68771,1,0,0:0:0:0:
64,192,68873,1,0,0:0:0:0:
320,192,68873,1,0,0:0:0:0:
64,192,68976,1,0,0:0:0:0:
448,192,68976,1,0,0:0:0:0:
192,192,69079,1,0,0:0:0:0:
448,192,69079,1,0,0:0:0:0:
64,192,69182,1,0,0:0:0:0:
192,192,69182,1,0,0:0:0:0:
320,192,69182,128,0,69387:0:0:0:0:
448,192,69387,128,0,69490:0:0:0:0:
64,192,69490,128,0,69593:0:0:0:0:
320,192,69593,1,0,0:0:0:0:
192,192,69593,1,0,0:0:0:0:
448,192,69593,128,0,69798:0:0:0:0:
192,192,69798,128,0,70004:0:0:0:0:
64,192,69798,1,0,0:0:0:0:
320,192,70004,1,0,0:0:0:0:
448,192,70004,1,0,0:0:0:0:
64,192,70004,1,0,0:0:0:0:
192,192,70106,1,0,0:0:0:0:
64,192,70106,1,0,0:0:0:0:
320,192,70209,1,0,0:0:0:0:
192,192,70209,1,0,0:0:0:0:
64,192,70312,1,0,0:0:0:0:
448,192,70312,1,0,0:0:0:0:
448,192,70415,1,0,0:0:0:0:
320,192,70415,1,0,0:0:0:0:
192,192,70415,1,0,0:0:0:0:
64,192,70517,1,0,0:0:0:0:
192,192,70517,1,0,0:0:0:0:
320,192,70620,1,0,0:0:0:0:
448,192,70620,1,0,0:0:0:0:
192,192,70723,1,0,0:0:0:0:
448,192,70723,1,0,0:0:0:0:
192,192,70825,1,0,0:0:0:0:
64,192,70825,1,0,0:0:0:0:
320,192,70825,128,0,71031:0:0:0:0:
192,192,71031,128,0,71134:0:0:0:0:
64,192,71134,128,0,71236:0:0:0:0:
448,192,71236,1,0,0:0:0:0:
192,192,71236,1,0,0:0:0:0:
320,192,71236,128,0,71442:0:0:0:0:
448,192,71442,128,0,71647:0:0:0:0:
192,192,71647,1,0,0:0:0:0:
64,192,71647,1,0,0:0:0:0:
320,192,71647,1,0,0:0:0:0:
448,192,71750,1,0,0:0:0:0:
192,192,71750,1,0,0:0:0:0:
320,192,71853,1,0,0:0:0:0:
448,192,71853,1,0,0:0:0:0:
192,192,71956,1,0,0:0:0:0:
64,192,71956,1,0,0:0:0:0:
320,192,72058,1,0,0:0:0:0:
448,192,72058,1,0,0:0:0:0:
64,192,72058,1,0,0:0:0:0:
192,192,72161,1,0,0:0:0:0:
448,192,72161,1,0,0:0:0:0:
64,192,72264,1,0,0:0:0:0:
192,192,72264,1,0,0:0:0:0:
64,192,72367,1,0,0:0:0:0:
448,192,72367,1,0,0:0:0:0:
448,192,72469,1,0,0:0:0:0:
320,192,72469,1,0,0:0:0:0:
192,192,72469,128,0,72675:0:0:0:0:
320,192,72675,128,0,72778:0:0:0:0:
64,192,72778,128,0,72880:0:0:0:0:
320,192,72880,1,0,0:0:0:0:
192,192,72880,1,0,0:0:0:0:
448,192,72880,128,0,73086:0:0:0:0:
320,192,73086,128,0,73291:0:0:0:0:
64,192,73086,1,0,0:0:0:0:
64,192,73291,1,0,0:0:0:0:
192,192,73291,1,0,0:0:0:0:
448,192,73291,1,0,0:0:0:0:
320,192,73394,1,0,0:0:0:0:
64,192,73394,1,0,0:0:0:0:
320,192,73497,1,0,0:0:0:0:
448,192,73497,1,0,0:0:0:0:
192,192,73599,1,0,0:0:0:0:
448,192,73599,1,0,0:0:0:0:
320,192,73702,1,0,0:0:0:0:
192,192,73702,1,0,0:0:0:0:
64,192,73702,1,0,0:0:0:0:
64,192,73805,1,0,0:0:0:0:
448,192,73805,1,0,0:0:0:0:
448,192,73908,1,0,0:0:0:0:
320,192,73908,1,0,0:0:0:0:
64,192,74010,1,0,0:0:0:0:
192,192,74010,1,0,0:0:0:0:
64,192,74113,1,0,0:0:0:0:
448,192,74113,1,0,0:0:0:0:
320,192,74113,128,0,74524:0:0:0:0:
192,192,74319,1,0,0:0:0:0:
192,192,74524,1,0,0:0:0:0:
64,192,74524,1,0,0:0:0:0:
448,192,74524,128,0,74730:0:0:0:0:
192,192,74730,128,0,74935:0:0:0:0:
64,192,74935,1,0,0:0:0:0:
448,192,74935,1,0,0:0:0:0:
320,192,74935,1,0,0:0:0:0:
192,192,75038,1,0,0:0:0:0:
448,192,75038,1,0,0:0:0:0:
320,192,75141,1,0,0:0:0:0:
192,192,75141,1,0,0:0:0:0:
64,192,75243,1,0,0:0:0:0:
448,192,75243,1,0,0:0:0:0:
320,192,75346,1,0,0:0:0:0:
448,192,75346,1,0,0:0:0:0:
64,192,75346,1,0,0:0:0:0:
192,192,75449,1,0,0:0:0:0:
320,192,75449,1,0,0:0:0:0:
448,192,75552,1,0,0:0:0:0:
64,192,75552,1,0,0:0:0:0:
448,192,75654,1,0,0:0:0:0:
192,192,75654,1,0,0:0:0:0:
64,192,75757,1,0,0:0:0:0:
192,192,75757,1,0,0:0:0:0:
320,192,75757,128,0,75962:0:0:0:0:
448,192,75962,128,0,76065:0:0:0:0:
64,192,76065,128,0,76168:0:0:0:0:
192,192,76168,1,0,0:0:0:0:
320,192,76168,1,0,0:0:0:0:
448,192,76168,128,0,76373:0:0:0:0:
192,192,76373,128,0,76579:0:0:0:0:
64,192,76373,1,0,0:0:0:0:
320,192,76579,1,0,0:0:0:0:
448,192,76579,1,0,0:0:0:0:
64,192,76579,1,0,0:0:0:0:
192,192,76682,1,0,0:0:0:0:
448,192,76682,1,0,0:0:0:0:
320,192,76784,1,0,0:0:0:0:
192,192,76784,1,0,0:0:0:0:
64,192,76887,1,0,0:0:0:0:
320,192,76887,1,0,0:0:0:0:
64,192,76990,1,0,0:0:0:0:
448,192,76990,1,0,0:0:0:0:
192,192,76990,1,0,0:0:0:0:
448,192,77093,1,0,0:0:0:0:
320,192,77093,1,0,0:0:0:0:
64,192,77195,1,0,0:0:0:0:
320,192,77195,1,0,0:0:0:0:
192,192,77298,1,0,0:0:0:0:
64,192,77298,1,0,0:0:0:0:
320,192,77401,1,0,0:0:0:0:
192,192,77401,1,0,0:0:0:0:
448,192,77401,128,0,77606:0:0:0:0:
64,192,77606,1,0,0:0:0:0:
192,192,77606,1,0,0:0:0:0:
448,192,77709,1,0,0:0:0:0:
320,192,77709,1,0,0:0:0:0:
192,192,77812,1,0,0:0:0:0:
448,192,77812,1,0,0:0:0:0:
64,192,77812,128,0,78017:0:0:0:0:
320,192,78017,128,0,78223:0:0:0:0:
192,192,78223,1,0,0:0:0:0:
64,192,78223,1,0,0:0:0:0:
448,192,78223,1,0,0:0:0:0:
192,192,78325,1,0,0:0:0:0:
320,192,78325,1,0,0:0:0:0:
64,192,78428,1,0,0:0:0:0:
320,192,78428,1,0,0:0:0:0:
192,192,78531,1,0,0:0:0:0:
448,192,78531,1,0,0:0:0:0:
320,192,78634,1,0,0:0:0:0:
64,192,78634,1,0,0:0:0:0:
448,192,78634,1,0,0:0:0:0:
192,192,78736,1,0,0:0:0:0:
448,192,78839,1,0,0:0:0:0:
192,192,78839,1,0,0:0:0:0:
64,192,78839,1,0,0:0:0:0:
320,192,78942,1,0,0:0:0:0:
64,192,79045,1,0,0:0:0:0:
320,192,79045,1,0,0:0:0:0:
192,192,79045,128,0,79250:0:0:0:0:
448,192,79250,1,0,0:0:0:0:
320,192,79250,1,0,0:0:0:0:
64,192,79353,1,0,0:0:0:0:
192,192,79404,1,0,0:0:0:0:
320,192,79456,1,0,0:0:0:0:
448,192,79456,1,0,0:0:0:0:
64,192,79558,1,0,0:0:0:0:
320,192,79661,1,0,0:0:0:0:
448,192,79764,1,0,0:0:0:0:
64,192,79867,1,0,0:0:0:0:
320,192,79867,1,0,0:0:0:0:
192,192,79969,1,0,0:0:0:0:
320,192,80072,1,0,0:0:0:0:
448,192,80072,1,0,0:0:0:0:
64,192,80072,1,0,0:0:0:0:
448,192,80175,1,0,0:0:0:0:
192,192,80278,1,0,0:0:0:0:
64,192,80380,1,0,0:0:0:0:
192,192,80380,1,0,0:0:0:0:
448,192,80380,1,0,0:0:0:0:
320,192,80483,1,0,0:0:0:0:
448,192,80586,1,0,0:0:0:0:
64,192,80688,1,0,0:0:0:0:
192,192,80688,128,0,80894:0:0:0:0:
320,192,80688,1,0,0:0:0:0:
320,192,80894,128,0,80997:0:0:0:0:
192,192,81099,128,0,81510:0:0:0:0:
448,192,81099,1,0,0:0:0:0:
320,192,81305,1,0,0:0:0:0:
320,192,81510,1,0,0:0:0:0:
448,192,81510,1,0,0:0:0:0:
64,192,81510,1,0,0:0:0:0:
448,192,81613,1,0,0:0:0:0:
192,192,81613,1,0,0:0:0:0:
192,192,81716,1,0,0:0:0:0:
320,192,81716,1,0,0:0:0:0:
64,192,81819,1,0,0:0:0:0:
448,192,81819,1,0,0:0:0:0:
192,192,81921,1,0,0:0:0:0:
64,192,81921,1,0,0:0:0:0:
320,192,81921,1,0,0:0:0:0:
448,192,82024,1,0,0:0:0:0:
320,192,82024,1,0,0:0:0:0:
448,192,82127,1,0,0:0:0:0:
64,192,82127,1,0,0:0:0:0:
320,192,82230,1,0,0:0:0:0:
192,192,82230,1,0,0:0:0:0:
64,192,82332,1,0,0:0:0:0:
320,192,82332,1,0,0:0:0:0:
448,192,82332,128,0,82538:0:0:0:0:
192,192,82538,128,0,82641:0:0:0:0:
320,192,82641,128,0,82743:0:0:0:0:
192,192,82743,1,0,0:0:0:0:
64,192,82743,1,0,0:0:0:0:
448,192,82743,128,0,82949:0:0:0:0:
320,192,82949,1,0,0:0:0:0:
64,192,82949,128,0,83154:0:0:0:0:
192,192,83154,1,0,0:0:0:0:
448,192,83154,1,0,0:0:0:0:
320,192,83154,1,0,0:0:0:0:
64,192,83257,1,0,0:0:0:0:
192,192,83257,1,0,0:0:0:0:
64,192,83360,1,0,0:0:0:0:
448,192,83360,1,0,0:0:0:0:
192,192,83462,1,0,0:0:0:0:
448,192,83462,1,0,0:0:0:0:
64,192,83565,1,0,0:0:0:0:
192,192,83565,1,0,0:0:0:0:
320,192,83565,1,0,0:0:0:0:
448,192,83668,1,0,0:0:0:0:
64,192,83668,1,0,0:0:0:0:
448,192,83771,1,0,0:0:0:0:
192,192,83771,1,0,0:0:0:0:
320,192,83873,1,0,0:0:0:0:
64,192,83873,1,0,0:0:0:0:
64,192,83976,1,0,0:0:0:0:
448,192,83976,1,0,0:0:0:0:
192,192,83976,1,0,0:0:0:0:
320,192,84079,128,0,84182:0:0:0:0:
448,192,84182,1,0,0:0:0:0:
192,192,84284,128,0,84387:0:0:0:0:
448,192,84387,1,0,0:0:0:0:
64,192,84387,1,0,0:0:0:0:
320,192,84387,128,0,84593:0:0:0:0:
192,192,84593,128,0,84695:0:0:0:0:
448,192,84593,128,0,84798:0:0:0:0:
320,192,84798,1,0,0:0:0:0:
192,192,84798,1,0,0:0:0:0:
64,192,84798,1,0,0:0:0:0:
64,192,84901,1,0,0:0:0:0:
448,192,84901,1,0,0:0:0:0:
448,192,85004,1,0,0:0:0:0:
192,192,85004,1,0,0:0:0:0:
64,192,85106,1,0,0:0:0:0:
320,192,85106,1,0,0:0:0:0:
192,192,85209,1,0,0:0:0:0:
320,192,85209,1,0,0:0:0:0:
448,192,85209,1,0,0:0:0:0:
64,192,85312,1,0,0:0:0:0:
192,192,85312,1,0,0:0:0:0:
64,192,85415,1,0,0:0:0:0:
320,192,85415,1,0,0:0:0:0:
448,192,85517,1,0,0:0:0:0:
320,192,85517,1,0,0:0:0:0:
448,192,85620,1,0,0:0:0:0:
192,192,85620,1,0,0:0:0:0:
64,192,85620,128,0,85825:0:0:0:0:
320,192,85825,128,0,85928:0:0:0:0:
448,192,85928,128,0,86031:0:0:0:0:
192,192,86031,1,0,0:0:0:0:
64,192,86031,1,0,0:0:0:0:
320,192,86031,1,0,0:0:0:0:
192,192,86134,1,0,0:0:0:0:
192,192,86236,1,0,0:0:0:0:
448,192,86442,1,0,0:0:0:0:
64,192,86442,1,0,0:0:0:0:
192,192,86442,1,0,0:0:0:0:
320,192,86545,1,0,0:0:0:0:
192,192,86545,1,0,0:0:0:0:
64,192,86647,1,0,0:0:0:0:
320,192,86647,1,0,0:0:0:0:
192,192,86750,1,0,0:0:0:0:
448,192,86750,1,0,0:0:0:0:
320,192,86853,1,0,0:0:0:0:
64,192,86853,1,0,0:0:0:0:
448,192,86853,1,0,0:0:0:0:
192,192,86956,1,0,0:0:0:0:
64,192,86956,1,0,0:0:0:0:
448,192,87058,1,0,0:0:0:0:
192,192,87058,1,0,0:0:0:0:
448,192,87161,1,0,0:0:0:0:
320,192,87161,1,0,0:0:0:0:
192,192,87264,1,0,0:0:0:0:
320,192,87264,1,0,0:0:0:0:
64,192,87264,128,0,87675:0:0:0:0:
320,192,87469,128,0,87572:0:0:0:0:
320,192,87675,1,0,0:0:0:0:
192,192,87675,1,0,0:0:0:0:
448,192,87675,128,0,88086:0:0:0:0:
192,192,87880,128,0,87983:0:0:0:0:
320,192,88086,1,0,0:0:0:0:
192,192,88086,1,0,0:0:0:0:
64,192,88086,1,0,0:0:0:0:
448,192,88188,1,0,0:0:0:0:
320,192,88188,1,0,0:0:0:0:
64,192,88291,1,0,0:0:0:0:
192,192,88291,1,0,0:0:0:0:
192,192,88394,1,0,0:0:0:0:
448,192,88394,1,0,0:0:0:0:
320,192,88497,1,0,0:0:0:0:
448,192,88497,1,0,0:0:0:0:
64,192,88497,1,0,0:0:0:0:
64,192,88599,1,0,0:0:0:0:
192,192,88599,1,0,0:0:0:0:
320,192,88702,1,0,0:0:0:0:
448,192,88702,1,0,0:0:0:0:
320,192,88805,1,0,0:0:0:0:
64,192,88805,1,0,0:0:0:0:
64,192,88908,1,0,0:0:0:0:
192,192,88908,1,0,0:0:0:0:
448,192,88908,128,0,89113:0:0:0:0:
320,192,89113,128,0,89216:0:0:0:0:
64,192,89216,128,0,89319:0:0:0:0:
448,192,89319,1,0,0:0:0:0:
192,192,89319,1,0,0:0:0:0:
320,192,89319,1,0,0:0:0:0:
192,192,89524,1,0,0:0:0:0:
448,192,89575,1,0,0:0:0:0:
320,192,89627,1,0,0:0:0:0:
192,192,89678,1,0,0:0:0:0:
64,192,89730,1,0,0:0:0:0:
448,192,89730,1,0,0:0:0:0:
320,192,89730,1,0,0:0:0:0:
320,192,89935,1,0,0:0:0:0:
64,192,89986,1,0,0:0:0:0:
192,192,90038,1,0,0:0:0:0:
320,192,90089,1,0,0:0:0:0:
448,192,90141,1,0,0:0:0:0:
192,192,90141,1,0,0:0:0:0:
64,192,90141,128,0,90552:0:0:0:0:
320,192,90346,1,0,0:0:0:0:
192,192,90552,1,0,0:0:0:0:
448,192,90552,1,0,0:0:0:0:
320,192,90552,1,0,0:0:0:0:
64,192,90654,1,0,0:0:0:0:
192,192,90654,1,0,0:0:0:0:
448,192,90757,1,0,0:0:0:0:
320,192,90757,1,0,0:0:0:0:
64,192,90860,1,0,0:0:0:0:
192,192,90860,1,0,0:0:0:0:
192,192,90962,1,0,0:0:0:0:
448,192,90962,1,0,0:0:0:0:
320,192,90962,128,0,91373:0:0:0:0:
320,192,91476,1,0,0:0:0:0:
320,192,91682,1,0,0:0:0:0:
320,192,91784,1,0,0:0:0:0:
64,192,91784,128,0,91887:0:0:0:0:
192,192,91784,1,0,0:0:0:0:
320,192,91990,1,0,0:0:0:0:
320,192,92093,1,0,0:0:0:0:
64,192,92093,1,0,0:0:0:0:
192,192,92093,128,0,92195:0:0:0:0:
320,192,92298,1,0,0:0:0:0:
320,192,92401,1,0,0:0:0:0:
64,192,92401,1,0,0:0:0:0:
448,192,92401,128,0,92504:0:0:0:0:
320,192,92606,1,0,0:0:0:0:
64,192,92606,1,0,0:0:0:0:
192,192,92606,1,0,0:0:0:0:
320,192,93428,1,0,0:0:0:0:
320,192,93531,1,0,0:0:0:0:
192,192,93634,1,0,0:0:0:0:
192,192,93736,1,0,0:0:0:0:
320,192,93839,1,0,0:0:0:0:
448,192,93839,1,0,0:0:0:0:
448,192,93942,1,0,0:0:0:0:
320,192,93942,1,0,0:0:0:0:
192,192,94045,1,0,0:0:0:0:
64,192,94045,1,0,0:0:0:0:
64,192,94147,1,0,0:0:0:0:
192,192,94147,1,0,0:0:0:0:
64,192,94250,1,0,0:0:0:0:
320,192,94250,1,0,0:0:0:0:
448,192,94250,1,0,0:0:0:0:
192,192,94250,1,0,0:0:0:0:
448,192,94353,1,0,0:0:0:0:
64,192,94456,1,0,0:0:0:0:
320,192,94456,1,0,0:0:0:0:
192,192,94558,1,0,0:0:0:0:
448,192,94558,1,0,0:0:0:0:
320,192,94661,1,0,0:0:0:0:
192,192,94661,1,0,0:0:0:0:
64,192,94661,1,0,0:0:0:0:
448,192,94764,1,0,0:0:0:0:
64,192,94764,1,0,0:0:0:0:
320,192,94867,1,0,0:0:0:0:
192,192,94867,1,0,0:0:0:0:
320,192,95072,1,0,0:0:0:0:
448,192,95072,1,0,0:0:0:0:
64,192,95072,1,0,0:0:0:0:
192,192,95175,1,0,0:0:0:0:
448,192,95175,1,0,0:0:0:0:
320,192,95278,1,0,0:0:0:0:
64,192,95278,1,0,0:0:0:0:
192,192,95380,1,0,0:0:0:0:
64,192,95380,1,0,0:0:0:0:
448,192,95483,1,0,0:0:0:0:
320,192,95483,1,0,0:0:0:0:
192,192,95483,1,0,0:0:0:0:
64,192,95586,1,0,0:0:0:0:
320,192,95586,1,0,0:0:0:0:
192,192,95688,1,0,0:0:0:0:
448,192,95688,1,0,0:0:0:0:
448,192,95791,1,0,0:0:0:0:
320,192,95791,1,0,0:0:0:0:
192,192,95894,1,0,0:0:0:0:
64,192,95894,1,0,0:0:0:0:
320,192,95894,1,0,0:0:0:0:
64,192,95997,1,0,0:0:0:0:
320,192,96099,1,0,0:0:0:0:
448,192,96099,1,0,0:0:0:0:
64,192,96202,1,0,0:0:0:0:
192,192,96202,1,0,0:0:0:0:
448,192,96305,1,0,0:0:0:0:
64,192,96305,1,0,0:0:0:0:
320,192,96305,1,0,0:0:0:0:
320,192,96408,1,0,0:0:0:0:
448,192,96408,1,0,0:0:0:0:
64,192,96510,1,0,0:0:0:0:
192,192,96510,1,0,0:0:0:0:
448,192,96716,1,0,0:0:0:0:
64,192,96716,1,0,0:0:0:0:
192,192,96716,1,0,0:0:0:0:
64,192,96819,1,0,0:0:0:0:
320,192,96819,1,0,0:0:0:0:
448,192,96921,1,0,0:0:0:0:
192,192,96921,1,0,0:0:0:0:
64,192,97024,1,0,0:0:0:0:
448,192,97024,1,0,0:0:0:0:
192,192,97127,1,0,0:0:0:0:
320,192,97127,1,0,0:0:0:0:
64,192,97127,1,0,0:0:0:0:
192,192,97230,1,0,0:0:0:0:
448,192,97230,1,0,0:0:0:0:
320,192,97332,1,0,0:0:0:0:
64,192,97332,1,0,0:0:0:0:
448,192,97538,1,0,0:0:0:0:
320,192,97538,1,0,0:0:0:0:
64,192,97538,1,0,0:0:0:0:
64,192,97641,1,0,0:0:0:0:
320,192,97743,1,0,0:0:0:0:
448,192,97743,1,0,0:0:0:0:
64,192,97846,1,0,0:0:0:0:
192,192,97846,1,0,0:0:0:0:
320,192,97949,1,0,0:0:0:0:
64,192,97949,1,0,0:0:0:0:
448,192,97949,1,0,0:0:0:0:
192,192,98051,1,0,0:0:0:0:
320,192,98051,1,0,0:0:0:0:
64,192,98154,1,0,0:0:0:0:
448,192,98154,1,0,0:0:0:0:
64,192,98360,1,0,0:0:0:0:
448,192,98360,1,0,0:0:0:0:
320,192,98360,1,0,0:0:0:0:
192,192,98462,1,0,0:0:0:0:
64,192,98462,1,0,0:0:0:0:
320,192,98565,1,0,0:0:0:0:
448,192,98565,1,0,0:0:0:0:
64,192,98668,1,0,0:0:0:0:
320,192,98668,1,0,0:0:0:0:
64,192,98771,1,0,0:0:0:0:
448,192,98771,1,0,0:0:0:0:
192,192,98771,1,0,0:0:0:0:
192,192,98873,1,0,0:0:0:0:
320,192,98873,1,0,0:0:0:0:
64,192,98976,1,0,0:0:0:0:
448,192,98976,1,0,0:0:0:0:
192,192,99079,1,0,0:0:0:0:
448,192,99079,1,0,0:0:0:0:
320,192,99182,1,0,0:0:0:0:
64,192,99182,1,0,0:0:0:0:
192,192,99182,1,0,0:0:0:0:
320,192,99284,1,0,0:0:0:0:
192,192,99387,1,0,0:0:0:0:
64,192,99387,1,0,0:0:0:0:
448,192,99490,1,0,0:0:0:0:
320,192,99490,1,0,0:0:0:0:
448,192,99593,1,0,0:0:0:0:
320,192,99593,1,0,0:0:0:0:
192,192,99593,1,0,0:0:0:0:
64,192,99695,1,0,0:0:0:0:
192,192,99695,1,0,0:0:0:0:
320,192,99695,1,0,0:0:0:0:
448,192,99798,1,0,0:0:0:0:
64,192,99798,1,0,0:0:0:0:
64,192,100004,1,0,0:0:0:0:
192,192,100004,1,0,0:0:0:0:
448,192,100004,1,0,0:0:0:0:
192,192,100106,1,0,0:0:0:0:
448,192,100209,1,0,0:0:0:0:
64,192,100209,1,0,0:0:0:0:
320,192,100209,1,0,0:0:0:0:
320,192,100312,1,0,0:0:0:0:
192,192,100415,1,0,0:0:0:0:
64,192,100415,1,0,0:0:0:0:
448,192,100415,1,0,0:0:0:0:
320,192,100620,1,0,0:0:0:0:
192,192,100825,1,0,0:0:0:0:
64,192,100825,1,0,0:0:0:0:
320,192,100825,1,0,0:0:0:0:
448,192,100825,1,0,0:0:0:0:
64,192,100928,1,0,0:0:0:0:
448,192,101031,1,0,0:0:0:0:
192,192,101031,1,0,0:0:0:0:
64,192,101134,1,0,0:0:0:0:
320,192,101134,1,0,0:0:0:0:
320,192,101236,1,0,0:0:0:0:
448,192,101236,1,0,0:0:0:0:
192,192,101236,1,0,0:0:0:0:
192,192,101339,1,0,0:0:0:0:
64,192,101339,1,0,0:0:0:0:
448,192,101442,1,0,0:0:0:0:
320,192,101442,1,0,0:0:0:0:
320,192,101647,1,0,0:0:0:0:
448,192,101647,1,0,0:0:0:0:
64,192,101647,1,0,0:0:0:0:
320,192,101750,1,0,0:0:0:0:
192,192,101750,1,0,0:0:0:0:
64,192,101853,1,0,0:0:0:0:
448,192,101853,1,0,0:0:0:0:
320,192,101956,1,0,0:0:0:0:
448,192,101956,1,0,0:0:0:0:
320,192,102058,1,0,0:0:0:0:
64,192,102058,1,0,0:0:0:0:
192,192,102058,1,0,0:0:0:0:
64,192,102161,1,0,0:0:0:0:
448,192,102161,1,0,0:0:0:0:
320,192,102264,1,0,0:0:0:0:
192,192,102264,1,0,0:0:0:0:
64,192,102367,1,0,0:0:0:0:
320,192,102367,1,0,0:0:0:0:
192,192,102469,1,0,0:0:0:0:
448,192,102469,1,0,0:0:0:0:
64,192,102469,1,0,0:0:0:0:
448,192,102572,1,0,0:0:0:0:
192,192,102675,1,0,0:0:0:0:
64,192,102675,1,0,0:0:0:0:
448,192,102778,1,0,0:0:0:0:
320,192,102778,1,0,0:0:0:0:
64,192,102880,1,0,0:0:0:0:
448,192,102880,1,0,0:0:0:0:
192,192,102880,1,0,0:0:0:0:
64,192,102983,1,0,0:0:0:0:
320,192,102983,1,0,0:0:0:0:
448,192,103086,1,0,0:0:0:0:
192,192,103086,1,0,0:0:0:0:
448,192,103291,1,0,0:0:0:0:
192,192,103291,1,0,0:0:0:0:
320,192,103291,1,0,0:0:0:0:
448,192,103394,1,0,0:0:0:0:
64,192,103394,1,0,0:0:0:0:
320,192,103497,1,0,0:0:0:0:
64,192,103497,1,0,0:0:0:0:
192,192,103599,1,0,0:0:0:0:
320,192,103599,1,0,0:0:0:0:
64,192,103702,1,0,0:0:0:0:
448,192,103702,1,0,0:0:0:0:
192,192,103702,1,0,0:0:0:0:
320,192,103805,1,0,0:0:0:0:
448,192,103805,1,0,0:0:0:0:
192,192,103908,1,0,0:0:0:0:
64,192,103908,1,0,0:0:0:0:
448,192,104113,1,0,0:0:0:0:
64,192,104113,1,0,0:0:0:0:
320,192,104113,1,0,0:0:0:0:
320,192,104216,1,0,0:0:0:0:
64,192,104319,1,0,0:0:0:0:
448,192,104319,1,0,0:0:0:0:
192,192,104421,1,0,0:0:0:0:
320,192,104421,1,0,0:0:0:0:
192,192,104524,1,0,0:0:0:0:
64,192,104524,1,0,0:0:0:0:
448,192,104524,1,0,0:0:0:0:
64,192,104627,1,0,0:0:0:0:
320,192,104627,1,0,0:0:0:0:
192,192,104730,1,0,0:0:0:0:
448,192,104730,1,0,0:0:0:0:
192,192,104935,1,0,0:0:0:0:
448,192,104935,1,0,0:0:0:0:
64,192,104935,1,0,0:0:0:0:
320,192,105038,1,0,0:0:0:0:
448,192,105038,1,0,0:0:0:0:
64,192,105141,1,0,0:0:0:0:
192,192,105141,128,0,105243:0:0:0:0:
320,192,105243,128,0,105346:0:0:0:0:
448,192,105346,1,0,0:0:0:0:
64,192,105346,1,0,0:0:0:0:
192,192,105346,1,0,0:0:0:0:
448,192,105449,1,0,0:0:0:0:
192,192,105551,1,0,0:0:0:0:
64,192,105551,1,0,0:0:0:0:
320,192,105551,1,0,0:0:0:0:
64,192,105654,1,0,0:0:0:0:
192,192,105757,1,0,0:0:0:0:
320,192,105757,1,0,0:0:0:0:
448,192,105757,1,0,0:0:0:0:
64,192,105860,1,0,0:0:0:0:
320,192,105962,1,0,0:0:0:0:
192,192,106065,1,0,0:0:0:0:
448,192,106168,1,0,0:0:0:0:
192,192,106271,1,0,0:0:0:0:
64,192,106271,1,0,0:0:0:0:
320,192,106373,1,0,0:0:0:0:
448,192,106373,1,0,0:0:0:0:
448,192,106476,1,0,0:0:0:0:
320,192,106476,1,0,0:0:0:0:
192,192,106579,1,0,0:0:0:0:
64,192,106579,1,0,0:0:0:0:
448,192,106579,1,0,0:0:0:0:
320,192,106682,1,0,0:0:0:0:
448,192,106784,1,0,0:0:0:0:
192,192,106784,1,0,0:0:0:0:
64,192,106887,1,0,0:0:0:0:
320,192,106887,1,0,0:0:0:0:
448,192,106990,1,0,0:0:0:0:
320,192,106990,1,0,0:0:0:0:
192,192,106990,1,0,0:0:0:0:
64,192,107093,1,0,0:0:0:0:
192,192,107195,1,0,0:0:0:0:
320,192,107298,1,0,0:0:0:0:
448,192,107298,1,0,0:0:0:0:
448,192,107401,1,0,0:0:0:0:
320,192,107401,1,0,0:0:0:0:
192,192,107401,1,0,0:0:0:0:
64,192,107401,1,0,0:0:0:0:
192,192,107504,1,0,0:0:0:0:
320,192,107606,1,0,0:0:0:0:
448,192,107606,1,0,0:0:0:0:
64,192,107709,1,0,0:0:0:0:
192,192,107709,1,0,0:0:0:0:
64,192,107812,1,0,0:0:0:0:
448,192,107812,1,0,0:0:0:0:
320,192,107812,1,0,0:0:0:0:
192,192,107915,1,0,0:0:0:0:
320,192,107915,1,0,0:0:0:0:
64,192,108017,1,0,0:0:0:0:
448,192,108017,1,0,0:0:0:0:
448,192,108223,1,0,0:0:0:0:
320,192,108223,1,0,0:0:0:0:
64,192,108223,1,0,0:0:0:0:
192,192,108325,1,0,0:0:0:0:
448,192,108325,1,0,0:0:0:0:
320,192,108428,1,0,0:0:0:0:
64,192,108428,1,0,0:0:0:0:
64,192,108531,1,0,0:0:0:0:
448,192,108531,1,0,0:0:0:0:
448,192,108634,1,0,0:0:0:0:
320,192,108634,1,0,0:0:0:0:
192,192,108634,1,0,0:0:0:0:
64,192,108736,1,0,0:0:0:0:
320,192,108736,1,0,0:0:0:0:
448,192,108839,1,0,0:0:0:0:
64,192,108839,1,0,0:0:0:0:
320,192,108942,1,0,0:0:0:0:
192,192,108942,1,0,0:0:0:0:
192,192,109045,1,0,0:0:0:0:
448,192,109045,1,0,0:0:0:0:
64,192,109045,1,0,0:0:0:0:
64,192,109147,1,0,0:0:0:0:
448,192,109250,1,0,0:0:0:0:
192,192,109250,1,0,0:0:0:0:
320,192,109353,1,0,0:0:0:0:
64,192,109353,1,0,0:0:0:0:
320,192,109456,1,0,0:0:0:0:
448,192,109456,1,0,0:0:0:0:
192,192,109456,1,0,0:0:0:0:
192,192,109558,1,0,0:0:0:0:
64,192,109558,1,0,0:0:0:0:
320,192,109661,1,0,0:0:0:0:
448,192,109661,1,0,0:0:0:0:
320,192,109867,1,0,0:0:0:0:
448,192,109867,1,0,0:0:0:0:
64,192,109867,1,0,0:0:0:0:
192,192,109969,1,0,0:0:0:0:
320,192,109969,1,0,0:0:0:0:
64,192,110072,1,0,0:0:0:0:
448,192,110072,1,0,0:0:0:0:
448,192,110175,1,0,0:0:0:0:
320,192,110175,1,0,0:0:0:0:
320,192,110278,1,0,0:0:0:0:
64,192,110278,1,0,0:0:0:0:
192,192,110278,1,0,0:0:0:0:
64,192,110380,1,0,0:0:0:0:
448,192,110380,1,0,0:0:0:0:
192,192,110483,1,0,0:0:0:0:
320,192,110483,1,0,0:0:0:0:
192,192,110688,1,0,0:0:0:0:
64,192,110688,1,0,0:0:0:0:
448,192,110688,1,0,0:0:0:0:
448,192,110791,1,0,0:0:0:0:
192,192,110894,1,0,0:0:0:0:
64,192,110894,1,0,0:0:0:0:
448,192,110997,1,0,0:0:0:0:
320,192,110997,1,0,0:0:0:0:
448,192,111099,1,0,0:0:0:0:
64,192,111099,1,0,0:0:0:0:
192,192,111099,1,0,0:0:0:0:
192,192,111202,1,0,0:0:0:0:
320,192,111202,1,0,0:0:0:0:
64,192,111305,1,0,0:0:0:0:
448,192,111305,1,0,0:0:0:0:
64,192,111510,1,0,0:0:0:0:
448,192,111510,1,0,0:0:0:0:
320,192,111510,1,0,0:0:0:0:
64,192,111613,1,0,0:0:0:0:
192,192,111613,1,0,0:0:0:0:
320,192,111716,1,0,0:0:0:0:
448,192,111716,1,0,0:0:0:0:
64,192,111819,1,0,0:0:0:0:
320,192,111819,1,0,0:0:0:0:
192,192,111921,1,0,0:0:0:0:
448,192,111921,1,0,0:0:0:0:
64,192,111921,1,0,0:0:0:0:
320,192,112024,1,0,0:0:0:0:
448,192,112024,1,0,0:0:0:0:
192,192,112127,1,0,0:0:0:0:
64,192,112127,1,0,0:0:0:0:
192,192,112230,1,0,0:0:0:0:
448,192,112230,1,0,0:0:0:0:
320,192,112332,1,0,0:0:0:0:
64,192,112332,1,0,0:0:0:0:
448,192,112332,1,0,0:0:0:0:
320,192,112435,1,0,0:0:0:0:
64,192,112538,1,0,0:0:0:0:
448,192,112538,1,0,0:0:0:0:
320,192,112641,1,0,0:0:0:0:
192,192,112641,1,0,0:0:0:0:
64,192,112743,1,0,0:0:0:0:
448,192,112743,1,0,0:0:0:0:
192,192,112743,1,0,0:0:0:0:
320,192,112846,1,0,0:0:0:0:
64,192,112846,1,0,0:0:0:0:
192,192,112949,1,0,0:0:0:0:
448,192,112949,1,0,0:0:0:0:
64,192,113154,1,0,0:0:0:0:
320,192,113154,1,0,0:0:0:0:
448,192,113154,1,0,0:0:0:0:
192,192,113257,1,0,0:0:0:0:
448,192,113257,1,0,0:0:0:0:
320,192,113360,1,0,0:0:0:0:
64,192,113360,1,0,0:0:0:0:
192,192,113462,1,0,0:0:0:0:
320,192,113462,1,0,0:0:0:0:
192,192,113565,1,0,0:0:0:0:
64,192,113565,1,0,0:0:0:0:
448,192,113565,1,0,0:0:0:0:
448,192,113976,1,0,0:0:0:0:
192,192,113976,1,0,0:0:0:0:
64,192,113976,1,0,0:0:0:0:
320,192,113976,1,0,0:0:0:0:
320,192,114079,1,0,0:0:0:0:
64,192,114182,1,0,0:0:0:0:
448,192,114182,1,0,0:0:0:0:
320,192,114284,1,0,0:0:0:0:
192,192,114284,1,0,0:0:0:0:
64,192,114387,1,0,0:0:0:0:
448,192,114387,1,0,0:0:0:0:
320,192,114387,1,0,0:0:0:0:
192,192,114490,1,0,0:0:0:0:
64,192,114490,1,0,0:0:0:0:
320,192,114593,1,0,0:0:0:0:
448,192,114593,1,0,0:0:0:0:
448,192,114798,1,0,0:0:0:0:
192,192,114798,1,0,0:0:0:0:
320,192,114798,1,0,0:0:0:0:
320,192,114901,1,0,0:0:0:0:
64,192,114901,1,0,0:0:0:0:
448,192,115004,1,0,0:0:0:0:
192,192,115004,1,0,0:0:0:0:
448,192,115106,1,0,0:0:0:0:
320,192,115106,1,0,0:0:0:0:
320,192,115209,1,0,0:0:0:0:
192,192,115209,1,0,0:0:0:0:
64,192,115209,1,0,0:0:0:0:
64,192,115312,1,0,0:0:0:0:
448,192,115312,1,0,0:0:0:0:
320,192,115415,1,0,0:0:0:0:
192,192,115415,1,0,0:0:0:0:
192,192,115517,1,0,0:0:0:0:
64,192,115517,1,0,0:0:0:0:
448,192,115620,1,0,0:0:0:0:
320,192,115620,1,0,0:0:0:0:
64,192,115620,1,0,0:0:0:0:
448,192,115723,1,0,0:0:0:0:
64,192,115825,1,0,0:0:0:0:
320,192,115825,1,0,0:0:0:0:
448,192,115928,1,0,0:0:0:0:
192,192,115928,1,0,0:0:0:0:
320,192,116031,1,0,0:0:0:0:
448,192,116031,1,0,0:0:0:0:
64,192,116031,1,0,0:0:0:0:
64,192,116134,1,0,0:0:0:0:
192,192,116134,1,0,0:0:0:0:
320,192,116236,1,0,0:0:0:0:
448,192,116236,1,0,0:0:0:0:
64,192,116442,1,0,0:0:0:0:
192,192,116442,1,0,0:0:0:0:
320,192,116442,1,0,0:0:0:0:
192,192,116545,1,0,0:0:0:0:
448,192,116545,1,0,0:0:0:0:
320,192,116647,1,0,0:0:0:0:
64,192,116647,1,0,0:0:0:0:
192,192,116750,1,0,0:0:0:0:
64,192,116750,1,0,0:0:0:0:
320,192,116853,1,0,0:0:0:0:
448,192,116853,1,0,0:0:0:0:
192,192,116853,1,0,0:0:0:0:
64,192,116956,1,0,0:0:0:0:
448,192,116956,1,0,0:0:0:0:
320,192,117058,1,0,0:0:0:0:
192,192,117058,1,0,0:0:0:0:
192,192,117264,1,0,0:0:0:0:
64,192,117264,1,0,0:0:0:0:
448,192,117264,1,0,0:0:0:0:
448,192,117367,1,0,0:0:0:0:
192,192,117469,1,0,0:0:0:0:
64,192,117469,1,0,0:0:0:0:
448,192,117572,1,0,0:0:0:0:
320,192,117572,1,0,0:0:0:0:
448,192,117675,1,0,0:0:0:0:
192,192,117675,1,0,0:0:0:0:
64,192,117675,1,0,0:0:0:0:
320,192,117778,1,0,0:0:0:0:
64,192,117778,1,0,0:0:0:0:
192,192,117880,1,0,0:0:0:0:
448,192,117880,1,0,0:0:0:0:
448,192,118086,1,0,0:0:0:0:
192,192,118086,1,0,0:0:0:0:
64,192,118086,1,0,0:0:0:0:
320,192,118086,1,0,0:0:0:0:
192,192,118291,1,0,0:0:0:0:
320,192,118394,1,0,0:0:0:0:
192,192,118394,1,0,0:0:0:0:
64,192,118394,1,0,0:0:0:0:
448,192,118394,1,0,0:0:0:0:
320,192,118599,1,0,0:0:0:0:
64,192,118702,1,0,0:0:0:0:
320,192,118702,1,0,0:0:0:0:
192,192,118702,1,0,0:0:0:0:
448,192,118702,1,0,0:0:0:0:
192,192,118908,1,0,0:0:0:0:
64,192,118908,1,0,0:0:0:0:
448,192,118959,1,0,0:0:0:0:
320,192,119010,1,0,0:0:0:0:
192,192,119062,1,0,0:0:0:0:
64,192,119113,1,0,0:0:0:0:
448,192,119165,1,0,0:0:0:0:
192,192,119216,1,0,0:0:0:0:
320,192,119267,1,0,0:0:0:0:
64,192,119319,1,0,0:0:0:0:
448,192,119319,1,0,0:0:0:0:
192,192,119387,1,0,0:0:0:0:
320,192,119456,1,0,0:0:0:0:
192,192,119524,1,0,0:0:0:0:
64,192,119593,1,0,0:0:0:0:
448,192,119661,1,0,0:0:0:0:
320,192,119730,1,0,0:0:0:0:
192,192,119730,1,0,0:0:0:0:
192,192,119935,1,0,0:0:0:0:
320,192,120141,1,0,0:0:0:0:
448,192,120141,1,0,0:0:0:0:
64,192,120141,1,0,0:0:0:0:
192,192,120243,1,0,0:0:0:0:
320,192,120346,1,0,0:0:0:0:
448,192,120346,1,0,0:0:0:0:
64,192,120346,1,0,0:0:0:0:
192,192,120449,1,0,0:0:0:0:
448,192,120551,5,0,0:0:0:0:
192,192,120551,1,0,0:0:0:0:
64,192,120551,1,0,0:0:0:0:
320,192,120552,1,0,0:0:0:0:
320,192,120688,1,0,0:0:0:0:
64,192,120688,1,0,0:0:0:0:
448,192,120825,1,0,0:0:0:0:
64,192,120825,1,0,0:0:0:0:
192,192,120962,1,0,0:0:0:0:
64,192,120962,1,0,0:0:0:0:
320,192,120962,1,0,0:0:0:0:
448,192,121099,1,0,0:0:0:0:
320,192,121099,1,0,0:0:0:0:
192,192,121236,1,0,0:0:0:0:
448,192,121236,1,0,0:0:0:0:
64,192,121373,1,0,0:0:0:0:
192,192,121373,1,0,0:0:0:0:
320,192,121373,1,0,0:0:0:0:
448,192,121510,1,0,0:0:0:0:
64,192,121510,1,0,0:0:0:0:
192,192,121647,1,0,0:0:0:0:
448,192,121647,1,0,0:0:0:0:
320,192,121784,1,0,0:0:0:0:
64,192,121784,1,0,0:0:0:0:
192,192,121784,1,0,0:0:0:0:
448,192,121784,1,0,0:0:0:0:
320,192,121921,1,0,0:0:0:0:
64,192,121921,1,0,0:0:0:0:
320,192,122058,1,0,0:0:0:0:
192,192,122058,1,0,0:0:0:0:
448,192,122195,1,0,0:0:0:0:
320,192,122195,1,0,0:0:0:0:
192,192,122195,1,0,0:0:0:0:
64,192,122195,1,0,0:0:0:0:
448,192,122332,1,0,0:0:0:0:
64,192,122332,1,0,0:0:0:0:
448,192,122469,1,0,0:0:0:0:
320,192,122469,1,0,0:0:0:0:
64,192,122606,1,0,0:0:0:0:
320,192,122606,1,0,0:0:0:0:
192,192,122606,1,0,0:0:0:0:
448,192,122606,1,0,0:0:0:0:
192,192,122743,1,0,0:0:0:0:
320,192,122743,1,0,0:0:0:0:
192,192,122880,1,0,0:0:0:0:
448,192,122880,1,0,0:0:0:0:
192,192,123017,1,0,0:0:0:0:
448,192,123017,1,0,0:0:0:0:
320,192,123017,1,0,0:0:0:0:
64,192,123017,1,0,0:0:0:0:
64,192,123154,1,0,0:0:0:0:
448,192,123154,1,0,0:0:0:0:
64,192,123291,1,0,0:0:0:0:
320,192,123291,1,0,0:0:0:0:
192,192,123428,1,0,0:0:0:0:
320,192,123428,1,0,0:0:0:0:
448,192,123428,1,0,0:0:0:0:
64,192,123428,1,0,0:0:0:0:
192,192,123565,1,0,0:0:0:0:
448,192,123565,1,0,0:0:0:0:
448,192,123702,1,0,0:0:0:0:
320,192,123702,1,0,0:0:0:0:
64,192,123839,1,0,0:0:0:0:
192,192,123839,1,0,0:0:0:0:
320,192,123839,1,0,0:0:0:0:
448,192,123839,1,0,0:0:0:0:
64,192,123976,1,0,0:0:0:0:
192,192,123976,1,0,0:0:0:0:
64,192,124113,1,0,0:0:0:0:
448,192,124113,1,0,0:0:0:0:
64,192,124250,1,0,0:0:0:0:
192,192,124250,1,0,0:0:0:0:
320,192,124250,1,0,0:0:0:0:
448,192,124387,1,0,0:0:0:0:
192,192,124387,1,0,0:0:0:0:
64,192,124524,1,0,0:0:0:0:
448,192,124524,1,0,0:0:0:0:
64,192,124661,1,0,0:0:0:0:
448,192,124661,1,0,0:0:0:0:
192,192,124661,1,0,0:0:0:0:
192,192,124798,1,0,0:0:0:0:
320,192,124798,1,0,0:0:0:0:
64,192,124935,1,0,0:0:0:0:
320,192,124935,1,0,0:0:0:0:
448,192,125072,1,0,0:0:0:0:
320,192,125072,1,0,0:0:0:0:
192,192,125072,1,0,0:0:0:0:
64,192,125209,1,0,0:0:0:0:
448,192,125209,1,0,0:0:0:0:
64,192,125346,1,0,0:0:0:0:
320,192,125346,1,0,0:0:0:0:
64,192,125483,1,0,0:0:0:0:
448,192,125483,1,0,0:0:0:0:
320,192,125483,1,0,0:0:0:0:
192,192,125620,1,0,0:0:0:0:
448,192,125620,1,0,0:0:0:0:
64,192,125757,1,0,0:0:0:0:
192,192,125757,1,0,0:0:0:0:
320,192,125894,1,0,0:0:0:0:
192,192,125894,1,0,0:0:0:0:
64,192,125894,1,0,0:0:0:0:
320,192,126031,1,0,0:0:0:0:
448,192,126031,1,0,0:0:0:0:
192,192,126168,1,0,0:0:0:0:
448,192,126168,1,0,0:0:0:0:
64,192,126305,1,0,0:0:0:0:
448,192,126305,1,0,0:0:0:0:
192,192,126305,1,0,0:0:0:0:
64,192,126442,1,0,0:0:0:0:
320,192,126442,1,0,0:0:0:0:
320,192,126579,1,0,0:0:0:0:
192,192,126579,1,0,0:0:0:0:
192,192,126716,1,0,0:0:0:0:
320,192,126716,1,0,0:0:0:0:
448,192,126716,1,0,0:0:0:0:
64,192,126853,1,0,0:0:0:0:
448,192,126853,1,0,0:0:0:0:
64,192,126990,1,0,0:0:0:0:
192,192,126990,1,0,0:0:0:0:
192,192,127127,1,0,0:0:0:0:
448,192,127127,1,0,0:0:0:0:
320,192,127127,1,0,0:0:0:0:
64,192,127127,1,0,0:0:0:0:
448,192,127264,1,0,0:0:0:0:
192,192,127332,1,0,0:0:0:0:
64,192,127401,1,0,0:0:0:0:
320,192,127435,1,0,0:0:0:0:
64,192,127538,1,0,0:0:0:0:
192,192,127538,1,0,0:0:0:0:
448,192,127538,1,0,0:0:0:0:
320,192,127675,1,0,0:0:0:0:
448,192,127675,1,0,0:0:0:0:
64,192,127812,1,0,0:0:0:0:
320,192,127812,1,0,0:0:0:0:
192,192,127949,1,0,0:0:0:0:
448,192,127949,1,0,0:0:0:0:
64,192,127949,1,0,0:0:0:0:
320,192,128086,1,0,0:0:0:0:
64,192,128154,1,0,0:0:0:0:
448,192,128223,1,0,0:0:0:0:
192,192,128257,1,0,0:0:0:0:
192,192,128360,1,0,0:0:0:0:
448,192,128360,1,0,0:0:0:0:
64,192,128360,1,0,0:0:0:0:
320,192,128360,1,0,0:0:0:0:
64,192,128497,1,0,0:0:0:0:
192,192,128497,1,0,0:0:0:0:
192,192,128634,1,0,0:0:0:0:
320,192,128634,1,0,0:0:0:0:
448,192,128771,1,0,0:0:0:0:
320,192,128771,1,0,0:0:0:0:
192,192,128771,1,0,0:0:0:0:
64,192,128771,1,0,0:0:0:0:
448,192,128908,1,0,0:0:0:0:
64,192,128976,1,0,0:0:0:0:
320,192,129045,1,0,0:0:0:0:
192,192,129079,1,0,0:0:0:0:
448,192,129182,1,0,0:0:0:0:
320,192,129182,1,0,0:0:0:0:
64,192,129182,1,0,0:0:0:0:
192,192,129182,1,0,0:0:0:0:
64,192,129319,1,0,0:0:0:0:
192,192,129319,1,0,0:0:0:0:
64,192,129456,1,0,0:0:0:0:
448,192,129456,1,0,0:0:0:0:
320,192,129593,1,0,0:0:0:0:
192,192,129593,1,0,0:0:0:0:
448,192,129593,1,0,0:0:0:0:
64,192,129593,1,0,0:0:0:0:
192,192,129730,1,0,0:0:0:0:
448,192,129798,1,0,0:0:0:0:
64,192,129867,1,0,0:0:0:0:
320,192,129901,1,0,0:0:0:0:
192,192,130004,1,0,0:0:0:0:
320,192,130004,1,0,0:0:0:0:
448,192,130004,1,0,0:0:0:0:
64,192,130004,1,0,0:0:0:0:
192,192,130141,1,0,0:0:0:0:
448,192,130141,1,0,0:0:0:0:
448,192,130278,1,0,0:0:0:0:
320,192,130278,1,0,0:0:0:0:
192,192,130415,1,0,0:0:0:0:
64,192,130415,1,0,0:0:0:0:
320,192,130466,1,0,0:0:0:0:
448,192,130517,1,0,0:0:0:0:
64,192,130569,1,0,0:0:0:0:
192,192,130620,1,0,0:0:0:0:
320,192,130671,1,0,0:0:0:0:
448,192,130723,1,0,0:0:0:0:
64,192,130774,1,0,0:0:0:0:
192,192,130825,1,0,0:0:0:0:
320,192,130825,1,0,0:0:0:0:
448,192,130877,1,0,0:0:0:0:
64,192,130928,1,0,0:0:0:0:
192,192,130980,1,0,0:0:0:0:
448,192,131031,1,0,0:0:0:0:
320,192,131082,1,0,0:0:0:0:
192,192,131134,1,0,0:0:0:0:
64,192,131185,1,0,0:0:0:0:
320,192,131236,1,0,0:0:0:0:
448,192,131236,1,0,0:0:0:0:
192,192,131288,1,0,0:0:0:0:
64,192,131339,1,0,0:0:0:0:
320,192,131391,1,0,0:0:0:0:
448,192,131442,1,0,0:0:0:0:
64,192,131493,1,0,0:0:0:0:
192,192,131545,1,0,0:0:0:0:
320,192,131596,1,0,0:0:0:0:
448,192,131647,1,0,0:0:0:0:
64,192,131647,1,0,0:0:0:0:
192,192,131699,1,0,0:0:0:0:
320,192,131750,1,0,0:0:0:0:
448,192,131802,1,0,0:0:0:0:
64,192,131853,1,0,0:0:0:0:
192,192,131904,1,0,0:0:0:0:
448,192,131956,1,0,0:0:0:0:
192,192,132058,1,0,0:0:0:0:
64,192,132058,1,0,0:0:0:0:
320,192,132058,1,0,0:0:0:0:
64,192,132195,1,0,0:0:0:0:
192,192,132195,1,0,0:0:0:0:
320,192,132195,1,0,0:0:0:0:
192,192,132332,1,0,0:0:0:0:
64,192,132332,1,0,0:0:0:0:
320,192,132332,1,0,0:0:0:0:
320,192,132469,1,0,0:0:0:0:
192,192,132469,1,0,0:0:0:0:
448,192,132880,1,0,0:0:0:0:
320,192,132880,1,0,0:0:0:0:
192,192,132880,1,0,0:0:0:0:
192,192,133017,1,0,0:0:0:0:
448,192,133017,1,0,0:0:0:0:
320,192,133017,1,0,0:0:0:0:
448,192,133154,1,0,0:0:0:0:
320,192,133154,1,0,0:0:0:0:
192,192,133154,1,0,0:0:0:0:
320,192,133291,1,0,0:0:0:0:
192,192,133291,1,0,0:0:0:0:
64,192,133291,1,0,0:0:0:0:
64,192,133428,1,0,0:0:0:0:
192,192,133428,1,0,0:0:0:0:
320,192,133428,1,0,0:0:0:0:
320,192,133565,1,0,0:0:0:0:
192,192,133565,1,0,0:0:0:0:
64,192,133565,1,0,0:0:0:0:
64,192,133702,1,0,0:0:0:0:
192,192,133702,1,0,0:0:0:0:
320,192,133702,1,0,0:0:0:0:
448,192,133702,1,0,0:0:0:0:
448,192,140278,5,0,0:0:0:0:
320,192,140278,1,0,0:0:0:0:
64,192,140415,1,0,0:0:0:0:
320,192,140552,1,0,0:0:0:0:
192,192,140688,1,0,0:0:0:0:
192,192,140825,1,0,0:0:0:0:
64,192,140825,1,0,0:0:0:0:
320,192,140962,1,0,0:0:0:0:
448,192,141099,1,0,0:0:0:0:
64,192,141099,1,0,0:0:0:0:
192,192,141236,1,0,0:0:0:0:
64,192,141373,1,0,0:0:0:0:
320,192,141510,1,0,0:0:0:0:
448,192,141647,1,0,0:0:0:0:
192,192,141647,1,0,0:0:0:0:
64,192,141784,1,0,0:0:0:0:
448,192,141921,1,0,0:0:0:0:
192,192,142058,1,0,0:0:0:0:
192,192,142195,1,0,0:0:0:0:
320,192,142332,1,0,0:0:0:0:
64,192,142469,1,0,0:0:0:0:
448,192,142606,1,0,0:0:0:0:
192,192,142743,1,0,0:0:0:0:
448,192,142880,1,0,0:0:0:0:
192,192,143017,1,0,0:0:0:0:
320,192,143154,1,0,0:0:0:0:
64,192,143291,128,0,143565:0:0:0:0:
320,192,143565,1,0,0:0:0:0:
448,192,143565,1,0,0:0:0:0:
192,192,143702,1,0,0:0:0:0:
448,192,143839,1,0,0:0:0:0:
64,192,143976,1,0,0:0:0:0:
320,192,144113,1,0,0:0:0:0:
64,192,144113,1,0,0:0:0:0:
192,192,144250,1,0,0:0:0:0:
448,192,144387,1,0,0:0:0:0:
320,192,144387,1,0,0:0:0:0:
192,192,144524,1,0,0:0:0:0:
64,192,144661,1,0,0:0:0:0:
320,192,144798,1,0,0:0:0:0:
448,192,144935,1,0,0:0:0:0:
64,192,144935,1,0,0:0:0:0:
192,192,145072,1,0,0:0:0:0:
64,192,145209,1,0,0:0:0:0:
320,192,145346,1,0,0:0:0:0:
320,192,145483,1,0,0:0:0:0:
448,192,145620,1,0,0:0:0:0:
192,192,145757,1,0,0:0:0:0:
448,192,145894,1,0,0:0:0:0:
64,192,146031,1,0,0:0:0:0:
320,192,146168,1,0,0:0:0:0:
64,192,146305,1,0,0:0:0:0:
448,192,146442,1,0,0:0:0:0:
320,192,146579,128,0,146853:0:0:0:0:
64,192,146853,1,0,0:0:0:0:
448,192,146853,1,0,0:0:0:0:
192,192,146853,1,0,0:0:0:0:
192,192,147161,1,0,0:0:0:0:
320,192,147469,1,0,0:0:0:0:
448,192,147778,1,0,0:0:0:0:
64,192,148086,1,0,0:0:0:0:
64,192,150141,1,0,0:0:0:0:
192,192,150449,1,0,0:0:0:0:
320,192,150757,1,0,0:0:0:0:
448,192,151065,1,0,0:0:0:0:
64,192,151373,1,0,0:0:0:0:
448,192,151682,1,0,0:0:0:0:
64,192,153428,1,0,0:0:0:0:
192,192,153736,1,0,0:0:0:0:
320,192,154045,1,0,0:0:0:0:
448,192,154353,1,0,0:0:0:0:
64,192,154661,1,0,0:0:0:0:
448,192,154969,1,0,0:0:0:0:
192,192,155278,1,0,0:0:0:0:
64,192,156716,1,0,0:0:0:0:
192,192,157024,1,0,0:0:0:0:
320,192,157332,1,0,0:0:0:0:
448,192,157641,1,0,0:0:0:0:
64,192,157949,1,0,0:0:0:0:
448,192,158257,1,0,0:0:0:0:
192,192,158565,1,0,0:0:0:0:
448,192,158873,1,0,0:0:0:0:
64,192,160004,1,0,0:0:0:0:
320,192,160004,1,0,0:0:0:0:
448,192,160004,1,0,0:0:0:0:
192,192,160312,1,0,0:0:0:0:
320,192,160620,1,0,0:0:0:0:
448,192,160928,1,0,0:0:0:0:
64,192,161236,1,0,0:0:0:0:
64,192,163291,1,0,0:0:0:0:
192,192,163599,1,0,0:0:0:0:
320,192,163908,1,0,0:0:0:0:
448,192,164216,1,0,0:0:0:0:
64,192,164524,1,0,0:0:0:0:
448,192,164832,1,0,0:0:0:0:
64,192,166579,1,0,0:0:0:0:
448,192,166682,1,0,0:0:0:0:
320,192,166784,1,0,0:0:0:0:
192,192,166887,1,0,0:0:0:0:
448,192,166990,1,0,0:0:0:0:
64,192,167093,1,0,0:0:0:0:
320,192,167195,1,0,0:0:0:0:
192,192,167298,1,0,0:0:0:0:
448,192,167401,1,0,0:0:0:0:
64,192,167504,1,0,0:0:0:0:
320,192,167606,1,0,0:0:0:0:
192,192,167709,1,0,0:0:0:0:
448,192,167812,1,0,0:0:0:0:
320,192,167915,1,0,0:0:0:0:
192,192,168017,1,0,0:0:0:0:
64,192,168120,1,0,0:0:0:0:
448,192,168223,1,0,0:0:0:0:
64,192,168325,1,0,0:0:0:0:
192,192,168428,1,0,0:0:0:0:
448,192,168531,1,0,0:0:0:0:
64,192,168634,1,0,0:0:0:0:
448,192,168736,1,0,0:0:0:0:
320,192,168839,1,0,0:0:0:0:
192,192,168942,1,0,0:0:0:0:
448,192,169045,1,0,0:0:0:0:
320,192,169147,1,0,0:0:0:0:
64,192,169250,1,0,0:0:0:0:
192,192,169353,1,0,0:0:0:0:
320,192,169456,1,0,0:0:0:0:
192,192,169558,1,0,0:0:0:0:
448,192,169661,1,0,0:0:0:0:
64,192,169764,1,0,0:0:0:0:
448,192,169867,1,0,0:0:0:0:
192,192,169969,1,0,0:0:0:0:
320,192,170072,1,0,0:0:0:0:
64,192,170175,1,0,0:0:0:0:
448,192,170278,1,0,0:0:0:0:
192,192,170380,1,0,0:0:0:0:
320,192,170483,1,0,0:0:0:0:
64,192,170586,1,0,0:0:0:0:
448,192,170688,1,0,0:0:0:0:
192,192,170791,1,0,0:0:0:0:
320,192,170894,1,0,0:0:0:0:
64,192,170997,1,0,0:0:0:0:
448,192,171099,1,0,0:0:0:0:
192,192,171202,1,0,0:0:0:0:
320,192,171305,1,0,0:0:0:0:
64,192,171408,1,0,0:0:0:0:
448,192,171510,128,0,171819:0:0:0:0:
192,192,171613,128,0,171921:0:0:0:0:
320,192,171716,128,0,171819:0:0:0:0:
64,192,171819,128,0,171921:0:0:0:0:
448,192,171921,128,0,172230:0:0:0:0:
192,192,172024,128,0,172332:0:0:0:0:
320,192,172127,128,0,172230:0:0:0:0:
64,192,172230,128,0,172332:0:0:0:0:
448,192,172332,128,0,173052:0:0:0:0:
192,192,172435,128,0,173052:0:0:0:0:
320,192,172538,128,0,173052:0:0:0:0:
64,192,172641,128,0,173052:0:0:0:0:
448,192,173154,1,0,0:0:0:0:
192,192,173154,1,0,0:0:0:0:
320,192,173154,1,0,0:0:0:0:
64,192,173154,1,0,0:0:0:0:
192,192,173257,1,0,0:0:0:0:
64,192,173360,1,0,0:0:0:0:
64,192,173462,1,0,0:0:0:0:
320,192,173565,1,0,0:0:0:0:
192,192,173668,1,0,0:0:0:0:
192,192,173771,1,0,0:0:0:0:
448,192,173873,1,0,0:0:0:0:
64,192,173976,1,0,0:0:0:0:
320,192,174079,1,0,0:0:0:0:
192,192,174182,1,0,0:0:0:0:
448,192,174284,1,0,0:0:0:0:
192,192,174387,1,0,0:0:0:0:
64,192,174387,1,0,0:0:0:0:
320,192,174387,1,0,0:0:0:0:
448,192,174387,1,0,0:0:0:0:
64,192,174490,1,0,0:0:0:0:
192,192,174593,1,0,0:0:0:0:
320,192,174695,1,0,0:0:0:0:
320,192,174798,1,0,0:0:0:0:
448,192,174798,1,0,0:0:0:0:
64,192,174798,1,0,0:0:0:0:
192,192,174798,1,0,0:0:0:0:
448,192,174901,1,0,0:0:0:0:
192,192,175004,1,0,0:0:0:0:
192,192,175106,1,0,0:0:0:0:
448,192,175209,1,0,0:0:0:0:
64,192,175312,1,0,0:0:0:0:
320,192,175415,1,0,0:0:0:0:
320,192,175517,1,0,0:0:0:0:
192,192,175620,1,0,0:0:0:0:
448,192,175723,1,0,0:0:0:0:
64,192,175825,1,0,0:0:0:0:
320,192,175928,1,0,0:0:0:0:
448,192,176031,1,0,0:0:0:0:
320,192,176031,1,0,0:0:0:0:
192,192,176031,1,0,0:0:0:0:
64,192,176031,1,0,0:0:0:0:
192,192,176134,1,0,0:0:0:0:
320,192,176236,1,0,0:0:0:0:
64,192,176339,1,0,0:0:0:0:
320,192,176442,1,0,0:0:0:0:
64,192,176442,1,0,0:0:0:0:
192,192,176442,1,0,0:0:0:0:
448,192,176442,1,0,0:0:0:0:
320,192,176545,1,0,0:0:0:0:
192,192,176647,1,0,0:0:0:0:
192,192,176750,1,0,0:0:0:0:
448,192,176853,1,0,0:0:0:0:
320,192,176956,1,0,0:0:0:0:
320,192,177058,1,0,0:0:0:0:
192,192,177161,1,0,0:0:0:0:
448,192,177264,1,0,0:0:0:0:
448,192,177367,1,0,0:0:0:0:
64,192,177469,1,0,0:0:0:0:
320,192,177572,1,0,0:0:0:0:
64,192,177778,1,0,0:0:0:0:
192,192,177880,1,0,0:0:0:0:
320,192,177983,1,0,0:0:0:0:
448,192,178086,1,0,0:0:0:0:
320,192,178086,1,0,0:0:0:0:
192,192,178086,1,0,0:0:0:0:
64,192,178086,1,0,0:0:0:0:
320,192,178291,1,0,0:0:0:0:
192,192,178497,1,0,0:0:0:0:
192,192,178599,1,0,0:0:0:0:
320,192,178702,1,0,0:0:0:0:
64,192,178805,1,0,0:0:0:0:
192,192,178805,1,0,0:0:0:0:
320,192,178805,1,0,0:0:0:0:
448,192,178805,1,0,0:0:0:0:
64,192,178908,1,0,0:0:0:0:
448,192,179010,1,0,0:0:0:0:
192,192,179113,1,0,0:0:0:0:
320,192,179216,1,0,0:0:0:0:
448,192,179319,1,0,0:0:0:0:
448,192,179421,1,0,0:0:0:0:
64,192,179524,1,0,0:0:0:0:
448,192,179730,1,0,0:0:0:0:
320,192,179730,1,0,0:0:0:0:
192,192,179730,1,0,0:0:0:0:
64,192,179730,1,0,0:0:0:0:
192,192,179832,1,0,0:0:0:0:
64,192,179935,1,0,0:0:0:0:
64,192,180038,1,0,0:0:0:0:
320,192,180141,1,0,0:0:0:0:
192,192,180243,1,0,0:0:0:0:
192,192,180346,1,0,0:0:0:0:
448,192,180449,1,0,0:0:0:0:
64,192,180552,1,0,0:0:0:0:
320,192,180654,1,0,0:0:0:0:
192,192,180757,1,0,0:0:0:0:
448,192,180860,1,0,0:0:0:0:
64,192,180962,1,0,0:0:0:0:
320,192,180962,1,0,0:0:0:0:
192,192,180962,1,0,0:0:0:0:
448,192,180962,1,0,0:0:0:0:
64,192,181065,1,0,0:0:0:0:
448,192,181168,1,0,0:0:0:0:
320,192,181271,1,0,0:0:0:0:
320,192,181373,1,0,0:0:0:0:
192,192,181373,1,0,0:0:0:0:
448,192,181373,1,0,0:0:0:0:
64,192,181373,1,0,0:0:0:0:
64,192,181476,1,0,0:0:0:0:
192,192,181579,1,0,0:0:0:0:
192,192,181682,1,0,0:0:0:0:
320,192,181784,1,0,0:0:0:0:
64,192,181887,1,0,0:0:0:0:
448,192,181990,1,0,0:0:0:0:
448,192,182093,1,0,0:0:0:0:
192,192,182195,1,0,0:0:0:0:
448,192,182298,1,0,0:0:0:0:
64,192,182401,1,0,0:0:0:0:
320,192,182504,1,0,0:0:0:0:
192,192,182606,1,0,0:0:0:0:
64,192,182606,1,0,0:0:0:0:
448,192,182606,1,0,0:0:0:0:
320,192,182606,1,0,0:0:0:0:
192,192,182709,1,0,0:0:0:0:
64,192,182812,1,0,0:0:0:0:
448,192,182915,1,0,0:0:0:0:
320,192,183017,1,0,0:0:0:0:
192,192,183017,1,0,0:0:0:0:
64,192,183017,1,0,0:0:0:0:
448,192,183017,1,0,0:0:0:0:
64,192,183120,1,0,0:0:0:0:
192,192,183223,1,0,0:0:0:0:
320,192,183325,1,0,0:0:0:0:
448,192,183428,1,0,0:0:0:0:
448,192,183531,1,0,0:0:0:0:
64,192,183634,1,0,0:0:0:0:
64,192,183736,1,0,0:0:0:0:
320,192,183839,1,0,0:0:0:0:
192,192,183942,1,0,0:0:0:0:
448,192,184045,1,0,0:0:0:0:
64,192,184147,1,0,0:0:0:0:
64,192,184250,1,0,0:0:0:0:
448,192,184353,1,0,0:0:0:0:
448,192,184456,1,0,0:0:0:0:
192,192,184558,1,0,0:0:0:0:
320,192,184661,1,0,0:0:0:0:
448,192,184661,1,0,0:0:0:0:
192,192,184661,1,0,0:0:0:0:
64,192,184661,1,0,0:0:0:0:
320,192,184867,1,0,0:0:0:0:
192,192,185072,1,0,0:0:0:0:
64,192,185072,1,0,0:0:0:0:
448,192,185072,1,0,0:0:0:0:
320,192,185072,1,0,0:0:0:0:
64,192,185175,1,0,0:0:0:0:
192,192,185175,1,0,0:0:0:0:
448,192,185278,1,0,0:0:0:0:
320,192,185278,1,0,0:0:0:0:
64,192,185380,1,0,0:0:0:0:
192,192,185380,1,0,0:0:0:0:
448,192,185380,1,0,0:0:0:0:
320,192,185380,1,0,0:0:0:0:
192,192,185483,1,0,0:0:0:0:
320,192,185586,1,0,0:0:0:0:
448,192,185688,1,0,0:0:0:0:
320,192,185688,1,0,0:0:0:0:
64,192,185688,1,0,0:0:0:0:
192,192,185688,1,0,0:0:0:0:
64,192,185791,1,0,0:0:0:0:
448,192,185894,1,0,0:0:0:0:
320,192,185894,128,0,186099:0:0:0:0:
192,192,185997,128,0,186202:0:0:0:0:
448,192,186099,1,0,0:0:0:0:
64,192,186202,1,0,0:0:0:0:
192,192,186305,1,0,0:0:0:0:
448,192,186305,1,0,0:0:0:0:
64,192,186305,1,0,0:0:0:0:
320,192,186305,1,0,0:0:0:0:
320,192,186408,1,0,0:0:0:0:
192,192,186510,1,0,0:0:0:0:
448,192,186613,1,0,0:0:0:0:
192,192,186716,1,0,0:0:0:0:
64,192,186716,1,0,0:0:0:0:
192,192,186819,1,0,0:0:0:0:
448,192,186921,1,0,0:0:0:0:
64,192,187024,1,0,0:0:0:0:
448,192,187024,1,0,0:0:0:0:
320,192,187127,1,0,0:0:0:0:
192,192,187230,1,0,0:0:0:0:
64,192,187332,1,0,0:0:0:0:
320,192,187332,1,0,0:0:0:0:
448,192,187435,1,0,0:0:0:0:
448,192,187538,1,0,0:0:0:0:
320,192,187538,1,0,0:0:0:0:
64,192,187538,1,0,0:0:0:0:
192,192,187538,1,0,0:0:0:0:
192,192,187641,1,0,0:0:0:0:
320,192,187743,1,0,0:0:0:0:
64,192,187846,1,0,0:0:0:0:
64,192,187949,1,0,0:0:0:0:
192,192,187949,1,0,0:0:0:0:
320,192,187949,1,0,0:0:0:0:
448,192,187949,1,0,0:0:0:0:
320,192,188052,1,0,0:0:0:0:
192,192,188154,1,0,0:0:0:0:
448,192,188257,1,0,0:0:0:0:
192,192,188360,1,0,0:0:0:0:
64,192,188360,1,0,0:0:0:0:
192,192,188462,1,0,0:0:0:0:
448,192,188565,1,0,0:0:0:0:
448,192,188668,1,0,0:0:0:0:
320,192,188668,1,0,0:0:0:0:
64,192,188771,1,0,0:0:0:0:
320,192,188873,1,0,0:0:0:0:
192,192,188976,1,0,0:0:0:0:
64,192,188976,1,0,0:0:0:0:
448,192,189079,1,0,0:0:0:0:
320,192,189182,1,0,0:0:0:0:
192,192,189182,1,0,0:0:0:0:
448,192,189182,1,0,0:0:0:0:
64,192,189182,1,0,0:0:0:0:
192,192,189284,1,0,0:0:0:0:
320,192,189387,1,0,0:0:0:0:
64,192,189490,1,0,0:0:0:0:
192,192,189593,1,0,0:0:0:0:
320,192,189593,1,0,0:0:0:0:
64,192,189593,1,0,0:0:0:0:
448,192,189593,1,0,0:0:0:0:
448,192,189695,1,0,0:0:0:0:
320,192,189798,1,0,0:0:0:0:
320,192,189901,1,0,0:0:0:0:
448,192,190004,1,0,0:0:0:0:
64,192,190004,1,0,0:0:0:0:
192,192,190106,1,0,0:0:0:0:
192,192,190209,1,0,0:0:0:0:
320,192,190312,1,0,0:0:0:0:
448,192,190312,1,0,0:0:0:0:
448,192,190415,1,0,0:0:0:0:
64,192,190517,1,0,0:0:0:0:
64,192,190620,1,0,0:0:0:0:
320,192,190620,1,0,0:0:0:0:
192,192,190723,1,0,0:0:0:0:
448,192,190825,1,0,0:0:0:0:
320,192,190825,1,0,0:0:0:0:
192,192,190928,1,0,0:0:0:0:
64,192,191031,1,0,0:0:0:0:
320,192,191134,1,0,0:0:0:0:
320,192,191236,1,0,0:0:0:0:
192,192,191236,1,0,0:0:0:0:
64,192,191236,1,0,0:0:0:0:
448,192,191236,1,0,0:0:0:0:
320,192,191442,1,0,0:0:0:0:
64,192,191647,1,0,0:0:0:0:
192,192,191647,1,0,0:0:0:0:
320,192,191750,1,0,0:0:0:0:
448,192,191853,1,0,0:0:0:0:
448,192,191956,1,0,0:0:0:0:
320,192,191956,1,0,0:0:0:0:
192,192,191956,1,0,0:0:0:0:
64,192,191956,1,0,0:0:0:0:
192,192,192058,1,0,0:0:0:0:
320,192,192161,1,0,0:0:0:0:
448,192,192264,1,0,0:0:0:0:
64,192,192367,1,0,0:0:0:0:
320,192,192469,1,0,0:0:0:0:
192,192,192469,1,0,0:0:0:0:
448,192,192572,1,0,0:0:0:0:
64,192,192675,1,0,0:0:0:0:
192,192,192880,1,0,0:0:0:0:
64,192,192880,1,0,0:0:0:0:
320,192,192880,1,0,0:0:0:0:
448,192,192880,1,0,0:0:0:0:
448,192,192983,1,0,0:0:0:0:
192,192,193086,1,0,0:0:0:0:
448,192,193188,1,0,0:0:0:0:
320,192,193291,1,0,0:0:0:0:
64,192,193291,1,0,0:0:0:0:
64,192,193394,1,0,0:0:0:0:
448,192,193497,1,0,0:0:0:0:
448,192,193599,1,0,0:0:0:0:
320,192,193599,1,0,0:0:0:0:
64,192,193702,1,0,0:0:0:0:
320,192,193805,1,0,0:0:0:0:
192,192,193908,1,0,0:0:0:0:
448,192,193908,1,0,0:0:0:0:
64,192,194010,1,0,0:0:0:0:
448,192,194113,1,0,0:0:0:0:
320,192,194113,1,0,0:0:0:0:
192,192,194113,1,0,0:0:0:0:
64,192,194113,1,0,0:0:0:0:
320,192,194216,1,0,0:0:0:0:
448,192,194319,1,0,0:0:0:0:
64,192,194421,1,0,0:0:0:0:
320,192,194524,1,0,0:0:0:0:
192,192,194524,1,0,0:0:0:0:
64,192,194524,1,0,0:0:0:0:
448,192,194524,1,0,0:0:0:0:
192,192,194627,1,0,0:0:0:0:
320,192,194730,1,0,0:0:0:0:
448,192,194832,1,0,0:0:0:0:
64,192,194935,1,0,0:0:0:0:
320,192,194935,1,0,0:0:0:0:
64,192,195038,1,0,0:0:0:0:
448,192,195141,1,0,0:0:0:0:
192,192,195243,1,0,0:0:0:0:
448,192,195243,1,0,0:0:0:0:
64,192,195346,1,0,0:0:0:0:
448,192,195449,1,0,0:0:0:0:
192,192,195552,1,0,0:0:0:0:
320,192,195552,1,0,0:0:0:0:
64,192,195654,1,0,0:0:0:0:
320,192,195757,1,0,0:0:0:0:
448,192,195757,1,0,0:0:0:0:
192,192,195757,1,0,0:0:0:0:
64,192,195757,1,0,0:0:0:0:
320,192,195860,1,0,0:0:0:0:
192,192,195962,1,0,0:0:0:0:
448,192,196065,1,0,0:0:0:0:
320,192,196168,1,0,0:0:0:0:
64,192,196168,1,0,0:0:0:0:
192,192,196168,1,0,0:0:0:0:
448,192,196168,1,0,0:0:0:0:
64,192,196271,1,0,0:0:0:0:
320,192,196373,1,0,0:0:0:0:
320,192,196476,1,0,0:0:0:0:
192,192,196579,1,0,0:0:0:0:
64,192,196579,1,0,0:0:0:0:
192,192,196682,1,0,0:0:0:0:
448,192,196784,1,0,0:0:0:0:
448,192,196887,1,0,0:0:0:0:
320,192,196887,1,0,0:0:0:0:
64,192,196990,1,0,0:0:0:0:
64,192,197093,1,0,0:0:0:0:
448,192,197195,1,0,0:0:0:0:
192,192,197195,1,0,0:0:0:0:
320,192,197298,1,0,0:0:0:0:
64,192,197401,1,0,0:0:0:0:
320,192,197401,1,0,0:0:0:0:
64,192,197504,1,0,0:0:0:0:
192,192,197606,1,0,0:0:0:0:
320,192,197709,1,0,0:0:0:0:
192,192,197812,1,0,0:0:0:0:
320,192,197812,1,0,0:0:0:0:
64,192,197812,1,0,0:0:0:0:
64,192,197915,1,0,0:0:0:0:
320,192,198017,1,0,0:0:0:0:
192,192,198120,1,0,0:0:0:0:
448,192,198223,1,0,0:0:0:0:
192,192,198223,1,0,0:0:0:0:
320,192,198223,1,0,0:0:0:0:
448,192,198325,1,0,0:0:0:0:
64,192,198428,1,0,0:0:0:0:
448,192,198531,1,0,0:0:0:0:
64,192,198531,1,0,0:0:0:0:
320,192,198634,1,0,0:0:0:0:
320,192,198736,1,0,0:0:0:0:
192,192,198839,1,0,0:0:0:0:
64,192,198839,1,0,0:0:0:0:
192,192,198942,1,0,0:0:0:0:
320,192,199045,1,0,0:0:0:0:
448,192,199045,1,0,0:0:0:0:
64,192,199147,1,0,0:0:0:0:
448,192,199250,1,0,0:0:0:0:
192,192,199353,1,0,0:0:0:0:
320,192,199456,1,0,0:0:0:0:
448,192,199456,1,0,0:0:0:0:
192,192,199456,1,0,0:0:0:0:
64,192,199456,1,0,0:0:0:0:
320,192,199661,1,0,0:0:0:0:
320,192,199764,1,0,0:0:0:0:
192,192,199867,1,0,0:0:0:0:
448,192,199969,1,0,0:0:0:0:
64,192,200072,1,0,0:0:0:0:
64,192,200175,1,0,0:0:0:0:
192,192,200380,128,0,200688:0:0:0:0:
64,192,200688,1,0,0:0:0:0:
192,192,200894,1,0,0:0:0:0:
448,192,200997,1,0,0:0:0:0:
320,192,201099,1,0,0:0:0:0:
192,192,201305,1,0,0:0:0:0:
192,192,201408,1,0,0:0:0:0:
448,192,201510,1,0,0:0:0:0:
64,192,201613,1,0,0:0:0:0:
320,192,201716,1,0,0:0:0:0:
320,192,201819,1,0,0:0:0:0:
64,192,202024,1,0,0:0:0:0:
192,192,202230,1,0,0:0:0:0:
448,192,202332,128,0,202743:0:0:0:0:
192,192,202743,1,0,0:0:0:0:
64,192,202949,1,0,0:0:0:0:
64,192,203051,1,0,0:0:0:0:
320,192,203154,1,0,0:0:0:0:
192,192,203257,1,0,0:0:0:0:
448,192,203360,1,0,0:0:0:0:
448,192,203462,1,0,0:0:0:0:
320,192,203668,128,0,203976:0:0:0:0:
448,192,203976,1,0,0:0:0:0:
64,192,204182,1,0,0:0:0:0:
192,192,204284,1,0,0:0:0:0:
64,192,204387,1,0,0:0:0:0:
320,192,204593,1,0,0:0:0:0:
320,192,204695,1,0,0:0:0:0:
448,192,204798,1,0,0:0:0:0:
64,192,204901,1,0,0:0:0:0:
192,192,205004,1,0,0:0:0:0:
192,192,205106,1,0,0:0:0:0:
320,192,205312,1,0,0:0:0:0:
192,192,205517,1,0,0:0:0:0:
448,192,205620,1,0,0:0:0:0:
320,192,205723,1,0,0:0:0:0:
448,192,205825,1,0,0:0:0:0:
64,192,205928,1,0,0:0:0:0:
64,192,206031,1,0,0:0:0:0:
320,192,206236,1,0,0:0:0:0:
192,192,206339,1,0,0:0:0:0:
448,192,206442,1,0,0:0:0:0:
448,192,206545,1,0,0:0:0:0:
320,192,206647,1,0,0:0:0:0:
192,192,206750,1,0,0:0:0:0:
192,192,206956,128,0,207264:0:0:0:0:
320,192,207264,1,0,0:0:0:0:
448,192,207469,1,0,0:0:0:0:
64,192,207572,1,0,0:0:0:0:
320,192,207675,1,0,0:0:0:0:
448,192,207880,1,0,0:0:0:0:
448,192,207983,1,0,0:0:0:0:
192,192,208086,1,0,0:0:0:0:
320,192,208188,1,0,0:0:0:0:
64,192,208291,1,0,0:0:0:0:
64,192,208394,1,0,0:0:0:0:
192,192,208599,1,0,0:0:0:0:
448,192,208805,1,0,0:0:0:0:
64,192,208908,128,0,209319:0:0:0:0:
320,192,209319,1,0,0:0:0:0:
192,192,209421,1,0,0:0:0:0:
448,192,209524,1,0,0:0:0:0:
64,192,209627,1,0,0:0:0:0:
64,192,209730,1,0,0:0:0:0:
320,192,209832,1,0,0:0:0:0:
192,192,209935,1,0,0:0:0:0:
448,192,210038,1,0,0:0:0:0:
64,192,210141,1,0,0:0:0:0:
320,192,210243,1,0,0:0:0:0:
192,192,210346,1,0,0:0:0:0:
448,192,210449,1,0,0:0:0:0:
64,192,210551,1,0,0:0:0:0:
320,192,210654,1,0,0:0:0:0:
192,192,210757,1,0,0:0:0:0:
448,192,210860,1,0,0:0:0:0:
64,192,210962,1,0,0:0:0:0:
320,192,211065,1,0,0:0:0:0:
192,192,211168,1,0,0:0:0:0:
448,192,211271,1,0,0:0:0:0:
448,192,211373,1,0,0:0:0:0:
64,192,211476,1,0,0:0:0:0:
320,192,211579,1,0,0:0:0:0:
192,192,211682,1,0,0:0:0:0:
448,192,211784,1,0,0:0:0:0:
64,192,211887,1,0,0:0:0:0:
320,192,211990,1,0,0:0:0:0:
192,192,212093,1,0,0:0:0:0:
320,192,212195,1,0,0:0:0:0:
448,192,212298,1,0,0:0:0:0:
320,192,212401,1,0,0:0:0:0:
64,192,212504,1,0,0:0:0:0:
320,192,212606,1,0,0:0:0:0:
448,192,212606,1,0,0:0:0:0:
64,192,212606,1,0,0:0:0:0:
192,192,212658,1,0,0:0:0:0:
320,192,212709,1,0,0:0:0:0:
448,192,212812,1,0,0:0:0:0:
448,192,212915,1,0,0:0:0:0:
64,192,213017,1,0,0:0:0:0:
64,192,213120,1,0,0:0:0:0:
448,192,213223,1,0,0:0:0:0:
448,192,213325,1,0,0:0:0:0:
192,192,213428,1,0,0:0:0:0:
64,192,213428,1,0,0:0:0:0:
320,192,213480,1,0,0:0:0:0:
192,192,213531,1,0,0:0:0:0:
64,192,213634,1,0,0:0:0:0:
64,192,213736,1,0,0:0:0:0:
448,192,213839,1,0,0:0:0:0:
448,192,213942,1,0,0:0:0:0:
64,192,214045,1,0,0:0:0:0:
64,192,214147,1,0,0:0:0:0:
448,192,214250,1,0,0:0:0:0:
192,192,214250,1,0,0:0:0:0:
320,192,214301,1,0,0:0:0:0:
192,192,214353,1,0,0:0:0:0:
448,192,214456,1,0,0:0:0:0:
448,192,214558,1,0,0:0:0:0:
64,192,214661,1,0,0:0:0:0:
64,192,214764,1,0,0:0:0:0:
448,192,214867,1,0,0:0:0:0:
448,192,214969,1,0,0:0:0:0:
320,192,215072,1,0,0:0:0:0:
64,192,215072,1,0,0:0:0:0:
192,192,215123,1,0,0:0:0:0:
320,192,215175,1,0,0:0:0:0:
64,192,215278,1,0,0:0:0:0:
64,192,215380,1,0,0:0:0:0:
448,192,215483,1,0,0:0:0:0:
448,192,215586,1,0,0:0:0:0:
64,192,215688,1,0,0:0:0:0:
64,192,215791,1,0,0:0:0:0:
320,192,215894,1,0,0:0:0:0:
448,192,215894,128,0,215997:0:0:0:0:
192,192,215997,128,0,216099:0:0:0:0:
320,192,216099,128,0,216202:0:0:0:0:
64,192,216202,128,0,216305:0:0:0:0:
192,192,216305,128,0,216408:0:0:0:0:
448,192,216305,1,0,0:0:0:0:
320,192,216408,128,0,216510:0:0:0:0:
64,192,216510,128,0,216613:0:0:0:0:
192,192,216613,128,0,216716:0:0:0:0:
448,192,216716,128,0,216819:0:0:0:0:
320,192,216716,1,0,0:0:0:0:
64,192,216819,128,0,216921:0:0:0:0:
320,192,216921,128,0,217024:0:0:0:0:
192,192,217024,128,0,217127:0:0:0:0:
448,192,217127,128,0,217230:0:0:0:0:
64,192,217127,1,0,0:0:0:0:
320,192,217230,128,0,217332:0:0:0:0:
192,192,217332,128,0,217435:0:0:0:0:
448,192,217435,128,0,217538:0:0:0:0:
320,192,217538,1,0,0:0:0:0:
64,192,217538,128,0,217641:0:0:0:0:
192,192,217641,128,0,217743:0:0:0:0:
320,192,217743,128,0,217846:0:0:0:0:
448,192,217846,128,0,217949:0:0:0:0:
64,192,217846,1,0,0:0:0:0:
192,192,217949,128,0,218051:0:0:0:0:
320,192,218051,128,0,218154:0:0:0:0:
64,192,218051,1,0,0:0:0:0:
192,192,218154,128,0,218257:0:0:0:0:
448,192,218257,128,0,218360:0:0:0:0:
64,192,218360,1,0,0:0:0:0:
320,192,218360,128,0,218462:0:0:0:0:
192,192,218462,1,0,0:0:0:0:
448,192,218565,1,0,0:0:0:0:
64,192,218668,1,0,0:0:0:0:
192,192,218668,1,0,0:0:0:0:
320,192,218771,1,0,0:0:0:0:
448,192,218771,1,0,0:0:0:0:
192,192,218873,1,0,0:0:0:0:
320,192,218976,1,0,0:0:0:0:
448,192,218976,1,0,0:0:0:0:
192,192,219079,1,0,0:0:0:0:
64,192,219079,1,0,0:0:0:0:
448,192,219182,1,0,0:0:0:0:
64,192,219182,1,0,0:0:0:0:
320,192,219182,1,0,0:0:0:0:
192,192,219284,1,0,0:0:0:0:
320,192,219284,1,0,0:0:0:0:
64,192,219387,1,0,0:0:0:0:
320,192,219490,1,0,0:0:0:0:
448,192,219490,1,0,0:0:0:0:
192,192,219593,1,0,0:0:0:0:
64,192,219593,1,0,0:0:0:0:
448,192,219593,1,0,0:0:0:0:
320,192,219695,1,0,0:0:0:0:
192,192,219695,1,0,0:0:0:0:
64,192,219798,1,0,0:0:0:0:
448,192,219901,1,0,0:0:0:0:
192,192,219901,1,0,0:0:0:0:
320,192,220004,1,0,0:0:0:0:
64,192,220004,1,0,0:0:0:0:
192,192,220106,1,0,0:0:0:0:
448,192,220106,1,0,0:0:0:0:
64,192,220209,1,0,0:0:0:0:
320,192,220209,1,0,0:0:0:0:
320,192,220312,1,0,0:0:0:0:
448,192,220312,1,0,0:0:0:0:
192,192,220415,1,0,0:0:0:0:
64,192,220415,1,0,0:0:0:0:
448,192,220517,1,0,0:0:0:0:
64,192,220620,1,0,0:0:0:0:
320,192,220620,1,0,0:0:0:0:
192,192,220723,1,0,0:0:0:0:
448,192,220723,1,0,0:0:0:0:
320,192,220825,1,0,0:0:0:0:
64,192,220825,1,0,0:0:0:0:
192,192,220928,1,0,0:0:0:0:
448,192,220928,1,0,0:0:0:0:
320,192,221031,1,0,0:0:0:0:
64,192,221134,1,0,0:0:0:0:
448,192,221134,1,0,0:0:0:0:
192,192,221236,1,0,0:0:0:0:
320,192,221236,1,0,0:0:0:0:
64,192,221339,1,0,0:0:0:0:
192,192,221442,1,0,0:0:0:0:
448,192,221442,1,0,0:0:0:0:
320,192,221545,1,0,0:0:0:0:
64,192,221545,1,0,0:0:0:0:
448,192,221647,1,0,0:0:0:0:
192,192,221699,1,0,0:0:0:0:
64,192,221750,1,0,0:0:0:0:
448,192,221801,1,0,0:0:0:0:
192,192,221853,1,0,0:0:0:0:
320,192,221904,1,0,0:0:0:0:
64,192,221956,1,0,0:0:0:0:
192,192,222007,1,0,0:0:0:0:
320,192,222058,1,0,0:0:0:0:
448,192,222058,1,0,0:0:0:0:
64,192,222161,1,0,0:0:0:0:
192,192,222161,1,0,0:0:0:0:
320,192,222264,1,0,0:0:0:0:
192,192,222264,1,0,0:0:0:0:
64,192,222367,1,0,0:0:0:0:
448,192,222367,1,0,0:0:0:0:
64,192,222469,1,0,0:0:0:0:
320,192,222469,1,0,0:0:0:0:
448,192,222521,1,0,0:0:0:0:
192,192,222572,1,0,0:0:0:0:
320,192,222623,1,0,0:0:0:0:
448,192,222675,1,0,0:0:0:0:
64,192,222726,1,0,0:0:0:0:
192,192,222778,1,0,0:0:0:0:
320,192,222829,1,0,0:0:0:0:
64,192,222880,1,0,0:0:0:0:
448,192,222932,1,0,0:0:0:0:
192,192,222983,1,0,0:0:0:0:
320,192,223034,1,0,0:0:0:0:
448,192,223086,1,0,0:0:0:0:
64,192,223137,1,0,0:0:0:0:
192,192,223188,1,0,0:0:0:0:
320,192,223240,1,0,0:0:0:0:
64,192,223291,1,0,0:0:0:0:
448,192,223343,1,0,0:0:0:0:
192,192,223394,1,0,0:0:0:0:
320,192,223445,1,0,0:0:0:0:
448,192,223497,1,0,0:0:0:0:
64,192,223548,1,0,0:0:0:0:
192,192,223599,1,0,0:0:0:0:
320,192,223651,1,0,0:0:0:0:
64,192,223702,1,0,0:0:0:0:
448,192,223754,1,0,0:0:0:0:
192,192,223805,1,0,0:0:0:0:
320,192,223856,1,0,0:0:0:0:
448,192,223908,1,0,0:0:0:0:
64,192,223959,1,0,0:0:0:0:
192,192,224010,1,0,0:0:0:0:
320,192,224062,1,0,0:0:0:0:
64,192,224113,1,0,0:0:0:0:
448,192,224113,128,0,224319:0:0:0:0:
192,192,224319,128,0,224421:0:0:0:0:
64,192,224421,1,0,0:0:0:0:
448,192,224421,128,0,224627:0:0:0:0:
192,192,224627,128,0,224730:0:0:0:0:
64,192,224730,1,0,0:0:0:0:
448,192,224730,128,0,224935:0:0:0:0:
320,192,224935,128,0,225346:0:0:0:0:
448,192,225141,1,0,0:0:0:0:
192,192,225346,1,0,0:0:0:0:
448,192,225346,1,0,0:0:0:0:
320,192,225449,128,0,225551:0:0:0:0:
192,192,225551,1,0,0:0:0:0:
64,192,225551,1,0,0:0:0:0:
448,192,225757,1,0,0:0:0:0:
320,192,225757,1,0,0:0:0:0:
192,192,225757,1,0,0:0:0:0:
64,192,225757,1,0,0:0:0:0:
64,192,225860,1,0,0:0:0:0:
192,192,225860,1,0,0:0:0:0:
320,192,225962,1,0,0:0:0:0:
448,192,225962,1,0,0:0:0:0:
192,192,226065,1,0,0:0:0:0:
448,192,226065,1,0,0:0:0:0:
320,192,226168,1,0,0:0:0:0:
64,192,226168,1,0,0:0:0:0:
192,192,226168,1,0,0:0:0:0:
64,192,226271,1,0,0:0:0:0:
448,192,226271,1,0,0:0:0:0:
448,192,226373,1,0,0:0:0:0:
320,192,226373,1,0,0:0:0:0:
64,192,226476,1,0,0:0:0:0:
320,192,226476,1,0,0:0:0:0:
192,192,226579,1,0,0:0:0:0:
64,192,226579,1,0,0:0:0:0:
448,192,226579,1,0,0:0:0:0:
320,192,226682,1,0,0:0:0:0:
192,192,226682,1,0,0:0:0:0:
64,192,226784,1,0,0:0:0:0:
320,192,226784,1,0,0:0:0:0:
448,192,226887,1,0,0:0:0:0:
192,192,226887,1,0,0:0:0:0:
448,192,226990,1,0,0:0:0:0:
320,192,226990,1,0,0:0:0:0:
192,192,226990,1,0,0:0:0:0:
64,192,226990,1,0,0:0:0:0:
64,192,227093,1,0,0:0:0:0:
320,192,227195,1,0,0:0:0:0:
192,192,227195,1,0,0:0:0:0:
448,192,227298,1,0,0:0:0:0:
320,192,227401,1,0,0:0:0:0:
64,192,227401,1,0,0:0:0:0:
192,192,227401,1,0,0:0:0:0:
448,192,227401,1,0,0:0:0:0:
192,192,227504,1,0,0:0:0:0:
320,192,227606,1,0,0:0:0:0:
448,192,227606,1,0,0:0:0:0:
64,192,227709,1,0,0:0:0:0:
192,192,227812,1,0,0:0:0:0:
64,192,227812,1,0,0:0:0:0:
448,192,227812,1,0,0:0:0:0:
320,192,227915,1,0,0:0:0:0:
192,192,227915,1,0,0:0:0:0:
320,192,228017,1,0,0:0:0:0:
448,192,228017,1,0,0:0:0:0:
64,192,228120,1,0,0:0:0:0:
448,192,228120,1,0,0:0:0:0:
192,192,228223,1,0,0:0:0:0:
64,192,228223,1,0,0:0:0:0:
320,192,228223,1,0,0:0:0:0:
448,192,228325,1,0,0:0:0:0:
192,192,228325,1,0,0:0:0:0:
64,192,228428,1,0,0:0:0:0:
448,192,228428,1,0,0:0:0:0:
320,192,228531,1,0,0:0:0:0:
192,192,228531,1,0,0:0:0:0:
192,192,228634,1,0,0:0:0:0:
448,192,228634,1,0,0:0:0:0:
320,192,228634,1,0,0:0:0:0:
64,192,228634,1,0,0:0:0:0:
448,192,228736,1,0,0:0:0:0:
320,192,228839,1,0,0:0:0:0:
64,192,228839,1,0,0:0:0:0:
192,192,228942,1,0,0:0:0:0:
192,192,229045,1,0,0:0:0:0:
320,192,229045,1,0,0:0:0:0:
448,192,229045,1,0,0:0:0:0:
64,192,229147,1,0,0:0:0:0:
320,192,229147,1,0,0:0:0:0:
192,192,229250,1,0,0:0:0:0:
448,192,229250,1,0,0:0:0:0:
448,192,229353,1,0,0:0:0:0:
320,192,229353,1,0,0:0:0:0:
192,192,229456,1,0,0:0:0:0:
64,192,229456,1,0,0:0:0:0:
320,192,229456,1,0,0:0:0:0:
448,192,229558,1,0,0:0:0:0:
192,192,229558,1,0,0:0:0:0:
320,192,229661,1,0,0:0:0:0:
64,192,229661,1,0,0:0:0:0:
192,192,229764,1,0,0:0:0:0:
64,192,229764,1,0,0:0:0:0:
320,192,229867,1,0,0:0:0:0:
448,192,229867,1,0,0:0:0:0:
192,192,229867,1,0,0:0:0:0:
64,192,229969,1,0,0:0:0:0:
448,192,229969,1,0,0:0:0:0:
320,192,230072,1,0,0:0:0:0:
192,192,230072,1,0,0:0:0:0:
64,192,230175,1,0,0:0:0:0:
448,192,230175,1,0,0:0:0:0:
192,192,230278,1,0,0:0:0:0:
64,192,230278,1,0,0:0:0:0:
448,192,230278,1,0,0:0:0:0:
192,192,230380,1,0,0:0:0:0:
320,192,230380,1,0,0:0:0:0:
448,192,230483,1,0,0:0:0:0:
320,192,230483,1,0,0:0:0:0:
64,192,230586,1,0,0:0:0:0:
192,192,230586,1,0,0:0:0:0:
448,192,230688,1,0,0:0:0:0:
192,192,230688,1,0,0:0:0:0:
320,192,230688,1,0,0:0:0:0:
64,192,230688,1,0,0:0:0:0:
64,192,230894,1,0,0:0:0:0:
320,192,230894,1,0,0:0:0:0:
320,192,231099,1,0,0:0:0:0:
448,192,231099,1,0,0:0:0:0:
64,192,231099,1,0,0:0:0:0:
192,192,231202,1,0,0:0:0:0:
64,192,231202,1,0,0:0:0:0:
320,192,231305,1,0,0:0:0:0:
192,192,231408,1,0,0:0:0:0:
64,192,231408,1,0,0:0:0:0:
448,192,231510,1,0,0:0:0:0:
192,192,231510,1,0,0:0:0:0:
64,192,231510,1,0,0:0:0:0:
320,192,231510,1,0,0:0:0:0:
320,192,231613,1,0,0:0:0:0:
448,192,231716,1,0,0:0:0:0:
448,192,231819,1,0,0:0:0:0:
64,192,231921,1,0,0:0:0:0:
192,192,231921,1,0,0:0:0:0:
320,192,231921,1,0,0:0:0:0:
64,192,232024,1,0,0:0:0:0:
320,192,232127,1,0,0:0:0:0:
192,192,232230,1,0,0:0:0:0:
320,192,232332,1,0,0:0:0:0:
448,192,232332,1,0,0:0:0:0:
192,192,232332,1,0,0:0:0:0:
64,192,232332,1,0,0:0:0:0:
448,192,232435,1,0,0:0:0:0:
64,192,232435,1,0,0:0:0:0:
320,192,232538,1,0,0:0:0:0:
192,192,232538,1,0,0:0:0:0:
64,192,232641,1,0,0:0:0:0:
320,192,232641,1,0,0:0:0:0:
192,192,232743,1,0,0:0:0:0:
448,192,232743,1,0,0:0:0:0:
64,192,232743,1,0,0:0:0:0:
320,192,232846,1,0,0:0:0:0:
192,192,232846,1,0,0:0:0:0:
64,192,232949,1,0,0:0:0:0:
320,192,232949,1,0,0:0:0:0:
64,192,233051,1,0,0:0:0:0:
448,192,233051,1,0,0:0:0:0:
448,192,233154,1,0,0:0:0:0:
192,192,233154,1,0,0:0:0:0:
320,192,233154,1,0,0:0:0:0:
64,192,233257,1,0,0:0:0:0:
192,192,233257,1,0,0:0:0:0:
64,192,233360,1,0,0:0:0:0:
320,192,233360,1,0,0:0:0:0:
192,192,233462,1,0,0:0:0:0:
448,192,233462,1,0,0:0:0:0:
320,192,233565,1,0,0:0:0:0:
192,192,233565,1,0,0:0:0:0:
64,192,233565,1,0,0:0:0:0:
448,192,233565,1,0,0:0:0:0:
64,192,233668,1,0,0:0:0:0:
320,192,233771,1,0,0:0:0:0:
448,192,233771,1,0,0:0:0:0:
192,192,233873,1,0,0:0:0:0:
192,192,233976,1,0,0:0:0:0:
64,192,233976,1,0,0:0:0:0:
320,192,233976,1,0,0:0:0:0:
448,192,233976,1,0,0:0:0:0:
448,192,234079,1,0,0:0:0:0:
64,192,234182,1,0,0:0:0:0:
320,192,234182,1,0,0:0:0:0:
192,192,234284,1,0,0:0:0:0:
320,192,234387,1,0,0:0:0:0:
448,192,234387,1,0,0:0:0:0:
192,192,234387,1,0,0:0:0:0:
64,192,234490,1,0,0:0:0:0:
320,192,234490,1,0,0:0:0:0:
64,192,234593,1,0,0:0:0:0:
192,192,234593,1,0,0:0:0:0:
192,192,234695,1,0,0:0:0:0:
448,192,234695,1,0,0:0:0:0:
448,192,234798,1,0,0:0:0:0:
320,192,234798,1,0,0:0:0:0:
64,192,234798,1,0,0:0:0:0:
192,192,234901,1,0,0:0:0:0:
320,192,234901,1,0,0:0:0:0:
64,192,235004,1,0,0:0:0:0:
192,192,235004,1,0,0:0:0:0:
448,192,235106,1,0,0:0:0:0:
320,192,235106,1,0,0:0:0:0:
320,192,235209,1,0,0:0:0:0:
448,192,235209,1,0,0:0:0:0:
192,192,235209,1,0,0:0:0:0:
64,192,235209,1,0,0:0:0:0:
192,192,235312,1,0,0:0:0:0:
448,192,235415,1,0,0:0:0:0:
64,192,235415,1,0,0:0:0:0:
320,192,235517,1,0,0:0:0:0:
448,192,235517,1,0,0:0:0:0:
64,192,235620,1,0,0:0:0:0:
192,192,235620,1,0,0:0:0:0:
320,192,235620,1,0,0:0:0:0:
320,192,235825,1,0,0:0:0:0:
192,192,235928,1,0,0:0:0:0:
320,192,236031,1,0,0:0:0:0:
64,192,236031,1,0,0:0:0:0:
448,192,236031,1,0,0:0:0:0:
448,192,236134,1,0,0:0:0:0:
192,192,236236,1,0,0:0:0:0:
320,192,236339,1,0,0:0:0:0:
64,192,236442,1,0,0:0:0:0:
192,192,236442,1,0,0:0:0:0:
448,192,236442,1,0,0:0:0:0:
320,192,236545,128,0,236750:0:0:0:0:
192,192,236750,1,0,0:0:0:0:
320,192,236853,1,0,0:0:0:0:
448,192,236853,1,0,0:0:0:0:
64,192,236853,1,0,0:0:0:0:
448,192,236956,1,0,0:0:0:0:
192,192,237058,1,0,0:0:0:0:
320,192,237161,1,0,0:0:0:0:
192,192,237264,1,0,0:0:0:0:
64,192,237264,1,0,0:0:0:0:
448,192,237264,1,0,0:0:0:0:
320,192,237264,1,0,0:0:0:0:
192,192,237469,1,0,0:0:0:0:
64,192,237469,1,0,0:0:0:0:
448,192,237675,1,0,0:0:0:0:
320,192,237675,1,0,0:0:0:0:
64,192,237675,1,0,0:0:0:0:
192,192,237675,1,0,0:0:0:0:
320,192,237880,1,0,0:0:0:0:
448,192,237880,1,0,0:0:0:0:
448,192,238086,1,0,0:0:0:0:
192,192,238086,1,0,0:0:0:0:
64,192,238086,1,0,0:0:0:0:
320,192,238086,1,0,0:0:0:0:
192,192,238291,1,0,0:0:0:0:
64,192,238291,1,0,0:0:0:0:
320,192,238291,1,0,0:0:0:0:
320,192,238394,1,0,0:0:0:0:
192,192,238394,1,0,0:0:0:0:
448,192,238394,1,0,0:0:0:0:
64,192,238599,1,0,0:0:0:0:
192,192,238599,1,0,0:0:0:0:
320,192,238599,1,0,0:0:0:0:
448,192,238599,1,0,0:0:0:0:
64,192,238908,1,0,0:0:0:0:
192,192,238908,1,0,0:0:0:0:
320,192,238908,1,0,0:0:0:0:
448,192,238908,1,0,0:0:0:0:
448,192,239010,1,0,0:0:0:0:
320,192,239010,1,0,0:0:0:0:
192,192,239113,1,0,0:0:0:0:
64,192,239113,1,0,0:0:0:0:
320,192,239216,1,0,0:0:0:0:
64,192,239216,1,0,0:0:0:0:
192,192,239319,1,0,0:0:0:0:
448,192,239319,1,0,0:0:0:0:
320,192,239319,1,0,0:0:0:0:
448,192,239421,1,0,0:0:0:0:
64,192,239421,1,0,0:0:0:0:
64,192,239524,1,0,0:0:0:0:
192,192,239524,1,0,0:0:0:0:
448,192,239627,1,0,0:0:0:0:
192,192,239627,1,0,0:0:0:0:
320,192,239730,1,0,0:0:0:0:
448,192,239730,1,0,0:0:0:0:
64,192,239730,1,0,0:0:0:0:
192,192,239832,1,0,0:0:0:0:
320,192,239832,1,0,0:0:0:0:
448,192,239935,1,0,0:0:0:0:
192,192,239935,1,0,0:0:0:0:
64,192,240038,1,0,0:0:0:0:
320,192,240038,1,0,0:0:0:0:
64,192,240141,1,0,0:0:0:0:
192,192,240141,1,0,0:0:0:0:
320,192,240141,1,0,0:0:0:0:
448,192,240141,1,0,0:0:0:0:
448,192,240243,1,0,0:0:0:0:
192,192,240346,1,0,0:0:0:0:
320,192,240346,1,0,0:0:0:0:
64,192,240449,1,0,0:0:0:0:
192,192,240552,1,0,0:0:0:0:
448,192,240552,1,0,0:0:0:0:
320,192,240552,1,0,0:0:0:0:
64,192,240552,1,0,0:0:0:0:
320,192,240654,1,0,0:0:0:0:
192,192,240757,1,0,0:0:0:0:
64,192,240757,1,0,0:0:0:0:
448,192,240860,1,0,0:0:0:0:
320,192,240962,1,0,0:0:0:0:
448,192,240962,1,0,0:0:0:0:
64,192,240962,1,0,0:0:0:0:
192,192,241065,1,0,0:0:0:0:
320,192,241065,1,0,0:0:0:0:
192,192,241168,1,0,0:0:0:0:
64,192,241168,1,0,0:0:0:0:
448,192,241271,1,0,0:0:0:0:
64,192,241271,1,0,0:0:0:0:
320,192,241373,1,0,0:0:0:0:
448,192,241373,1,0,0:0:0:0:
192,192,241373,1,0,0:0:0:0:
64,192,241476,1,0,0:0:0:0:
320,192,241476,1,0,0:0:0:0:
448,192,241579,1,0,0:0:0:0:
64,192,241579,1,0,0:0:0:0:
192,192,241682,1,0,0:0:0:0:
320,192,241682,1,0,0:0:0:0:
320,192,241784,1,0,0:0:0:0:
64,192,241784,1,0,0:0:0:0:
192,192,241784,1,0,0:0:0:0:
448,192,241784,1,0,0:0:0:0:
64,192,241887,1,0,0:0:0:0:
192,192,241990,1,0,0:0:0:0:
448,192,241990,1,0,0:0:0:0:
320,192,242093,1,0,0:0:0:0:
320,192,242195,1,0,0:0:0:0:
192,192,242195,1,0,0:0:0:0:
64,192,242195,1,0,0:0:0:0:
448,192,242298,1,0,0:0:0:0:
192,192,242298,1,0,0:0:0:0:
320,192,242401,1,0,0:0:0:0:
64,192,242401,1,0,0:0:0:0:
64,192,242504,1,0,0:0:0:0:
192,192,242504,1,0,0:0:0:0:
320,192,242606,1,0,0:0:0:0:
448,192,242606,1,0,0:0:0:0:
192,192,242606,1,0,0:0:0:0:
64,192,242709,1,0,0:0:0:0:
320,192,242709,1,0,0:0:0:0:
192,192,242812,1,0,0:0:0:0:
448,192,242812,1,0,0:0:0:0:
320,192,242915,1,0,0:0:0:0:
448,192,242915,1,0,0:0:0:0:
192,192,243017,1,0,0:0:0:0:
64,192,243017,1,0,0:0:0:0:
320,192,243017,1,0,0:0:0:0:
448,192,243120,1,0,0:0:0:0:
64,192,243120,1,0,0:0:0:0:
192,192,243223,1,0,0:0:0:0:
320,192,243223,1,0,0:0:0:0:
448,192,243325,1,0,0:0:0:0:
64,192,243325,1,0,0:0:0:0:
320,192,243428,1,0,0:0:0:0:
64,192,243428,1,0,0:0:0:0:
448,192,243428,1,0,0:0:0:0:
192,192,243531,1,0,0:0:0:0:
320,192,243531,1,0,0:0:0:0:
64,192,243634,1,0,0:0:0:0:
192,192,243634,1,0,0:0:0:0:
448,192,243736,1,0,0:0:0:0:
320,192,243736,1,0,0:0:0:0:
64,192,243839,1,0,0:0:0:0:
320,192,243839,1,0,0:0:0:0:
192,192,243839,1,0,0:0:0:0:
448,192,243839,1,0,0:0:0:0:
448,192,244045,1,0,0:0:0:0:
192,192,244045,1,0,0:0:0:0:
192,192,244250,1,0,0:0:0:0:
64,192,244250,1,0,0:0:0:0:
448,192,244250,1,0,0:0:0:0:
320,192,244353,1,0,0:0:0:0:
448,192,244353,1,0,0:0:0:0:
192,192,244456,1,0,0:0:0:0:
320,192,244558,1,0,0:0:0:0:
448,192,244558,1,0,0:0:0:0:
64,192,244661,1,0,0:0:0:0:
320,192,244661,1,0,0:0:0:0:
448,192,244661,1,0,0:0:0:0:
192,192,244661,1,0,0:0:0:0:
192,192,244764,1,0,0:0:0:0:
64,192,244867,1,0,0:0:0:0:
64,192,244969,1,0,0:0:0:0:
448,192,245072,1,0,0:0:0:0:
320,192,245072,1,0,0:0:0:0:
192,192,245072,1,0,0:0:0:0:
448,192,245175,1,0,0:0:0:0:
192,192,245278,1,0,0:0:0:0:
320,192,245380,1,0,0:0:0:0:
192,192,245483,1,0,0:0:0:0:
64,192,245483,1,0,0:0:0:0:
320,192,245483,1,0,0:0:0:0:
448,192,245483,1,0,0:0:0:0:
64,192,245586,1,0,0:0:0:0:
448,192,245586,1,0,0:0:0:0:
192,192,245688,1,0,0:0:0:0:
320,192,245688,1,0,0:0:0:0:
448,192,245791,1,0,0:0:0:0:
192,192,245791,1,0,0:0:0:0:
320,192,245894,1,0,0:0:0:0:
64,192,245894,1,0,0:0:0:0:
448,192,245894,1,0,0:0:0:0:
192,192,245997,1,0,0:0:0:0:
320,192,245997,1,0,0:0:0:0:
448,192,246099,1,0,0:0:0:0:
192,192,246099,1,0,0:0:0:0:
448,192,246202,1,0,0:0:0:0:
64,192,246202,1,0,0:0:0:0:
64,192,246305,1,0,0:0:0:0:
320,192,246305,1,0,0:0:0:0:
192,192,246305,1,0,0:0:0:0:
448,192,246408,1,0,0:0:0:0:
320,192,246408,1,0,0:0:0:0:
448,192,246510,1,0,0:0:0:0:
192,192,246510,1,0,0:0:0:0:
320,192,246613,1,0,0:0:0:0:
64,192,246613,1,0,0:0:0:0:
192,192,246716,1,0,0:0:0:0:
320,192,246716,1,0,0:0:0:0:
448,192,246716,1,0,0:0:0:0:
64,192,246716,1,0,0:0:0:0:
448,192,246819,1,0,0:0:0:0:
192,192,246921,1,0,0:0:0:0:
64,192,246921,1,0,0:0:0:0:
320,192,247024,1,0,0:0:0:0:
320,192,247127,1,0,0:0:0:0:
448,192,247127,1,0,0:0:0:0:
192,192,247127,1,0,0:0:0:0:
64,192,247127,1,0,0:0:0:0:
64,192,247230,1,0,0:0:0:0:
448,192,247332,1,0,0:0:0:0:
192,192,247332,1,0,0:0:0:0:
320,192,247435,1,0,0:0:0:0:
192,192,247538,1,0,0:0:0:0:
64,192,247538,1,0,0:0:0:0:
320,192,247538,1,0,0:0:0:0:
448,192,247641,1,0,0:0:0:0:
192,192,247641,1,0,0:0:0:0:
448,192,247743,1,0,0:0:0:0:
320,192,247743,1,0,0:0:0:0:
320,192,247846,1,0,0:0:0:0:
64,192,247846,1,0,0:0:0:0:
64,192,247949,1,0,0:0:0:0:
192,192,247949,1,0,0:0:0:0:
448,192,247949,1,0,0:0:0:0:
320,192,248052,1,0,0:0:0:0:
192,192,248052,1,0,0:0:0:0:
448,192,248154,1,0,0:0:0:0:
320,192,248154,1,0,0:0:0:0:
64,192,248257,1,0,0:0:0:0:
192,192,248257,1,0,0:0:0:0:
448,192,248360,1,0,0:0:0:0:
320,192,248360,1,0,0:0:0:0:
192,192,248360,1,0,0:0:0:0:
64,192,248360,1,0,0:0:0:0:
320,192,248462,1,0,0:0:0:0:
448,192,248462,1,0,0:0:0:0:
192,192,248565,1,0,0:0:0:0:
64,192,248565,1,0,0:0:0:0:
320,192,248668,1,0,0:0:0:0:
448,192,248668,1,0,0:0:0:0:
448,192,248771,1,0,0:0:0:0:
320,192,248771,1,0,0:0:0:0:
64,192,248771,1,0,0:0:0:0:
192,192,248771,1,0,0:0:0:0:
192,192,248873,1,0,0:0:0:0:
64,192,248873,1,0,0:0:0:0:
448,192,248976,1,0,0:0:0:0:
320,192,249079,1,0,0:0:0:0:
448,192,249079,1,0,0:0:0:0:
192,192,249182,1,0,0:0:0:0:
64,192,249182,1,0,0:0:0:0:
320,192,249182,1,0,0:0:0:0:
64,192,249284,1,0,0:0:0:0:
448,192,249284,1,0,0:0:0:0:
320,192,249387,1,0,0:0:0:0:
192,192,249490,1,0,0:0:0:0:
448,192,249490,1,0,0:0:0:0:
448,192,249593,1,0,0:0:0:0:
320,192,249593,1,0,0:0:0:0:
64,192,249593,1,0,0:0:0:0:
192,192,249695,1,0,0:0:0:0:
64,192,249695,1,0,0:0:0:0:
320,192,249798,1,0,0:0:0:0:
448,192,249901,1,0,0:0:0:0:
192,192,249901,1,0,0:0:0:0:
320,192,250004,1,0,0:0:0:0:
192,192,250004,1,0,0:0:0:0:
64,192,250004,1,0,0:0:0:0:
448,192,250106,1,0,0:0:0:0:
64,192,250106,1,0,0:0:0:0:
320,192,250209,1,0,0:0:0:0:
192,192,250312,1,0,0:0:0:0:
64,192,250312,1,0,0:0:0:0:
64,192,250415,1,0,0:0:0:0:
448,192,250415,1,0,0:0:0:0:
320,192,250415,1,0,0:0:0:0:
192,192,250517,1,0,0:0:0:0:
448,192,250517,1,0,0:0:0:0:
320,192,250620,1,0,0:0:0:0:
192,192,250620,1,0,0:0:0:0:
64,192,250723,1,0,0:0:0:0:
320,192,250723,1,0,0:0:0:0:
448,192,250825,1,0,0:0:0:0:
192,192,250825,1,0,0:0:0:0:
320,192,250928,1,0,0:0:0:0:
448,192,250928,1,0,0:0:0:0:
64,192,251031,1,0,0:0:0:0:
192,192,251031,1,0,0:0:0:0:
64,192,251134,1,0,0:0:0:0:
448,192,251134,1,0,0:0:0:0:
320,192,251236,1,0,0:0:0:0:
192,192,251236,1,0,0:0:0:0:
64,192,251339,1,0,0:0:0:0:
320,192,251339,1,0,0:0:0:0:
192,192,251442,1,0,0:0:0:0:
64,192,251442,1,0,0:0:0:0:
448,192,251545,1,0,0:0:0:0:
320,192,251545,1,0,0:0:0:0:
448,192,251647,1,0,0:0:0:0:
64,192,251647,1,0,0:0:0:0:
320,192,251750,1,0,0:0:0:0:
192,192,251853,1,0,0:0:0:0:
64,192,251956,1,0,0:0:0:0:
448,192,252058,1,0,0:0:0:0:
192,192,252058,1,0,0:0:0:0:
64,192,252058,1,0,0:0:0:0:
320,192,252058,128,0,252264:0:0:0:0:
64,192,252264,128,0,252469:0:0:0:0:
448,192,252469,1,0,0:0:0:0:
320,192,252469,1,0,0:0:0:0:
192,192,252469,1,0,0:0:0:0:
64,192,252572,1,0,0:0:0:0:
320,192,252675,1,0,0:0:0:0:
192,192,252675,1,0,0:0:0:0:
192,192,252778,1,0,0:0:0:0:
448,192,252778,1,0,0:0:0:0:
448,192,252880,1,0,0:0:0:0:
320,192,252880,1,0,0:0:0:0:
64,192,252880,1,0,0:0:0:0:
192,192,252983,1,0,0:0:0:0:
448,192,253086,1,0,0:0:0:0:
320,192,253086,1,0,0:0:0:0:
192,192,253188,1,0,0:0:0:0:
64,192,253188,1,0,0:0:0:0:
448,192,253291,1,0,0:0:0:0:
320,192,253291,1,0,0:0:0:0:
192,192,253291,1,0,0:0:0:0:
64,192,253291,1,0,0:0:0:0:
320,192,253394,1,0,0:0:0:0:
192,192,253497,1,0,0:0:0:0:
64,192,253497,1,0,0:0:0:0:
448,192,253599,1,0,0:0:0:0:
64,192,253702,1,0,0:0:0:0:
192,192,253702,1,0,0:0:0:0:
448,192,253702,1,0,0:0:0:0:
320,192,253702,128,0,253908:0:0:0:0:
192,192,253908,128,0,254113:0:0:0:0:
320,192,254113,1,0,0:0:0:0:
448,192,254113,1,0,0:0:0:0:
64,192,254113,1,0,0:0:0:0:
192,192,254216,1,0,0:0:0:0:
448,192,254319,1,0,0:0:0:0:
64,192,254319,1,0,0:0:0:0:
64,192,254421,1,0,0:0:0:0:
320,192,254421,1,0,0:0:0:0:
192,192,254524,1,0,0:0:0:0:
320,192,254524,1,0,0:0:0:0:
448,192,254524,1,0,0:0:0:0:
64,192,254627,1,0,0:0:0:0:
192,192,254627,1,0,0:0:0:0:
320,192,254730,1,0,0:0:0:0:
64,192,254832,1,0,0:0:0:0:
448,192,254935,1,0,0:0:0:0:
192,192,254935,1,0,0:0:0:0:
64,192,254935,1,0,0:0:0:0:
320,192,254935,128,0,255141:0:0:0:0:
192,192,255141,128,0,255243:0:0:0:0:
448,192,255243,128,0,255346:0:0:0:0:
192,192,255346,1,0,0:0:0:0:
320,192,255346,1,0,0:0:0:0:
64,192,255346,128,0,255551:0:0:0:0:
320,192,255551,128,0,255757:0:0:0:0:
64,192,255757,1,0,0:0:0:0:
448,192,255757,1,0,0:0:0:0:
192,192,255757,1,0,0:0:0:0:
320,192,255860,1,0,0:0:0:0:
64,192,255962,1,0,0:0:0:0:
448,192,255962,1,0,0:0:0:0:
64,192,256065,1,0,0:0:0:0:
192,192,256065,1,0,0:0:0:0:
448,192,256168,1,0,0:0:0:0:
192,192,256168,1,0,0:0:0:0:
320,192,256168,1,0,0:0:0:0:
448,192,256271,1,0,0:0:0:0:
64,192,256271,128,0,256476:0:0:0:0:
320,192,256476,128,0,256579:0:0:0:0:
192,192,256579,1,0,0:0:0:0:
64,192,256579,1,0,0:0:0:0:
448,192,256579,1,0,0:0:0:0:
320,192,256682,1,0,0:0:0:0:
64,192,256784,1,0,0:0:0:0:
448,192,256784,1,0,0:0:0:0:
192,192,256887,1,0,0:0:0:0:
192,192,256990,1,0,0:0:0:0:
64,192,256990,1,0,0:0:0:0:
320,192,256990,1,0,0:0:0:0:
448,192,256990,128,0,257195:0:0:0:0:
64,192,257195,128,0,257401:0:0:0:0:
448,192,257401,1,0,0:0:0:0:
192,192,257401,1,0,0:0:0:0:
320,192,257401,128,0,257606:0:0:0:0:
192,192,257606,1,0,0:0:0:0:
64,192,257606,1,0,0:0:0:0:
320,192,257709,1,0,0:0:0:0:
192,192,257812,1,0,0:0:0:0:
64,192,257812,128,0,258017:0:0:0:0:
448,192,257812,1,0,0:0:0:0:
448,192,258017,128,0,258120:0:0:0:0:
192,192,258120,128,0,258223:0:0:0:0:
448,192,258223,1,0,0:0:0:0:
64,192,258223,1,0,0:0:0:0:
320,192,258223,128,0,258428:0:0:0:0:
64,192,258428,1,0,0:0:0:0:
448,192,258531,1,0,0:0:0:0:
64,192,258634,1,0,0:0:0:0:
192,192,258634,1,0,0:0:0:0:
320,192,258634,128,0,258839:0:0:0:0:
448,192,258634,1,0,0:0:0:0:
448,192,258839,128,0,259045:0:0:0:0:
192,192,259045,1,0,0:0:0:0:
64,192,259045,1,0,0:0:0:0:
320,192,259045,1,0,0:0:0:0:
448,192,259147,1,0,0:0:0:0:
320,192,259250,1,0,0:0:0:0:
192,192,259250,1,0,0:0:0:0:
64,192,259353,1,0,0:0:0:0:
448,192,259353,1,0,0:0:0:0:
64,192,259456,1,0,0:0:0:0:
448,192,259456,1,0,0:0:0:0:
320,192,259456,1,0,0:0:0:0:
192,192,259558,1,0,0:0:0:0:
192,192,259661,1,0,0:0:0:0:
64,192,259661,1,0,0:0:0:0:
448,192,259764,1,0,0:0:0:0:
320,192,259764,1,0,0:0:0:0:
192,192,259867,1,0,0:0:0:0:
320,192,259867,1,0,0:0:0:0:
64,192,259867,1,0,0:0:0:0:
448,192,259867,1,0,0:0:0:0:
192,192,259969,1,0,0:0:0:0:
320,192,260072,1,0,0:0:0:0:
448,192,260072,1,0,0:0:0:0:
64,192,260175,1,0,0:0:0:0:
192,192,260278,1,0,0:0:0:0:
448,192,260278,1,0,0:0:0:0:
64,192,260278,1,0,0:0:0:0:
320,192,260278,128,0,260483:0:0:0:0:
192,192,260483,128,0,260688:0:0:0:0:
64,192,260688,1,0,0:0:0:0:
448,192,260688,1,0,0:0:0:0:
320,192,260688,1,0,0:0:0:0:
192,192,260791,1,0,0:0:0:0:
64,192,260894,1,0,0:0:0:0:
448,192,260894,1,0,0:0:0:0:
320,192,260997,1,0,0:0:0:0:
192,192,260997,1,0,0:0:0:0:
64,192,261099,1,0,0:0:0:0:
448,192,261099,1,0,0:0:0:0:
192,192,261099,1,0,0:0:0:0:
320,192,261202,1,0,0:0:0:0:
448,192,261202,1,0,0:0:0:0:
192,192,261305,1,0,0:0:0:0:
64,192,261408,1,0,0:0:0:0:
192,192,261510,1,0,0:0:0:0:
320,192,261510,1,0,0:0:0:0:
448,192,261510,128,0,261716:0:0:0:0:
64,192,261510,1,0,0:0:0:0:
64,192,261716,1,0,0:0:0:0:
320,192,261819,1,0,0:0:0:0:
320,192,261921,1,0,0:0:0:0:
448,192,261921,1,0,0:0:0:0:
64,192,261921,1,0,0:0:0:0:
192,192,261921,1,0,0:0:0:0:
192,192,262024,1,0,0:0:0:0:
448,192,262127,1,0,0:0:0:0:
320,192,262230,1,0,0:0:0:0:
192,192,262332,1,0,0:0:0:0:
64,192,262332,1,0,0:0:0:0:
448,192,262332,1,0,0:0:0:0:
320,192,262435,1,0,0:0:0:0:
192,192,262538,1,0,0:0:0:0:
448,192,262641,1,0,0:0:0:0:
320,192,262743,1,0,0:0:0:0:
192,192,262743,1,0,0:0:0:0:
64,192,262743,1,0,0:0:0:0:
448,192,262846,1,0,0:0:0:0:
64,192,262846,1,0,0:0:0:0:
320,192,262949,1,0,0:0:0:0:
192,192,263052,1,0,0:0:0:0:
448,192,263154,1,0,0:0:0:0:
64,192,263154,1,0,0:0:0:0:
320,192,263154,1,0,0:0:0:0:
192,192,263257,1,0,0:0:0:0:
448,192,263360,1,0,0:0:0:0:
64,192,263360,1,0,0:0:0:0:
320,192,263462,1,0,0:0:0:0:
320,192,263565,1,0,0:0:0:0:
64,192,263565,1,0,0:0:0:0:
448,192,263565,1,0,0:0:0:0:
192,192,263565,1,0,0:0:0:0:
64,192,263771,1,0,0:0:0:0:
64,192,263873,1,0,0:0:0:0:
192,192,263976,1,0,0:0:0:0:
448,192,263976,1,0,0:0:0:0:
320,192,263976,1,0,0:0:0:0:
64,192,264079,1,0,0:0:0:0:
448,192,264182,1,0,0:0:0:0:
320,192,264182,1,0,0:0:0:0:
192,192,264284,1,0,0:0:0:0:
64,192,264284,1,0,0:0:0:0:
192,192,264387,1,0,0:0:0:0:
448,192,264387,1,0,0:0:0:0:
320,192,264387,128,0,264490:0:0:0:0:
64,192,264490,128,0,264593:0:0:0:0:
192,192,264593,128,0,264695:0:0:0:0:
320,192,264695,128,0,264798:0:0:0:0:
448,192,264798,128,0,265004:0:0:0:0:
192,192,265004,128,0,265106:0:0:0:0:
320,192,265106,128,0,265209:0:0:0:0:
192,192,265209,1,0,0:0:0:0:
448,192,265209,1,0,0:0:0:0:
64,192,265209,128,0,265620:0:0:0:0:
192,192,265620,1,0,0:0:0:0:
320,192,265620,1,0,0:0:0:0:
448,192,265620,1,0,0:0:0:0:
64,192,265723,1,0,0:0:0:0:
320,192,265825,1,0,0:0:0:0:
192,192,265825,1,0,0:0:0:0:
64,192,265928,1,0,0:0:0:0:
448,192,265928,1,0,0:0:0:0:
448,192,266031,1,0,0:0:0:0:
320,192,266031,1,0,0:0:0:0:
192,192,266031,1,0,0:0:0:0:
64,192,266134,1,0,0:0:0:0:
320,192,266236,1,0,0:0:0:0:
448,192,266339,1,0,0:0:0:0:
64,192,266442,1,0,0:0:0:0:
192,192,266442,1,0,0:0:0:0:
320,192,266442,1,0,0:0:0:0:
448,192,266545,1,0,0:0:0:0:
64,192,266647,1,0,0:0:0:0:
192,192,266647,1,0,0:0:0:0:
320,192,266750,1,0,0:0:0:0:
192,192,266853,1,0,0:0:0:0:
448,192,266853,1,0,0:0:0:0:
64,192,266853,128,0,267058:0:0:0:0:
320,192,267058,1,0,0:0:0:0:
448,192,267058,128,0,267264:0:0:0:0:
192,192,267264,1,0,0:0:0:0:
64,192,267264,1,0,0:0:0:0:
320,192,267264,1,0,0:0:0:0:
448,192,267367,1,0,0:0:0:0:
320,192,267469,1,0,0:0:0:0:
192,192,267469,1,0,0:0:0:0:
448,192,267572,1,0,0:0:0:0:
64,192,267572,1,0,0:0:0:0:
320,192,267675,1,0,0:0:0:0:
192,192,267675,1,0,0:0:0:0:
448,192,267675,1,0,0:0:0:0:
64,192,267778,1,0,0:0:0:0:
320,192,267880,1,0,0:0:0:0:
192,192,267983,1,0,0:0:0:0:
320,192,268086,1,0,0:0:0:0:
64,192,268086,1,0,0:0:0:0:
448,192,268086,128,0,268291:0:0:0:0:
320,192,268291,128,0,268497:0:0:0:0:
448,192,268497,1,0,0:0:0:0:
64,192,268497,1,0,0:0:0:0:
192,192,268497,128,0,268908:0:0:0:0:
320,192,268908,1,0,0:0:0:0:
448,192,268908,1,0,0:0:0:0:
64,192,268908,1,0,0:0:0:0:
192,192,269010,1,0,0:0:0:0:
320,192,269113,1,0,0:0:0:0:
448,192,269113,1,0,0:0:0:0:
64,192,269216,1,0,0:0:0:0:
192,192,269216,1,0,0:0:0:0:
192,192,269319,1,0,0:0:0:0:
448,192,269319,1,0,0:0:0:0:
320,192,269319,1,0,0:0:0:0:
448,192,269421,1,0,0:0:0:0:
64,192,269421,1,0,0:0:0:0:
192,192,269524,1,0,0:0:0:0:
64,192,269627,1,0,0:0:0:0:
320,192,269627,1,0,0:0:0:0:
192,192,269730,1,0,0:0:0:0:
320,192,269730,1,0,0:0:0:0:
448,192,269730,128,0,270141:0:0:0:0:
320,192,269935,1,0,0:0:0:0:
64,192,270038,1,0,0:0:0:0:
64,192,270141,1,0,0:0:0:0:
192,192,270141,1,0,0:0:0:0:
320,192,270141,128,0,270346:0:0:0:0:
192,192,270346,128,0,270552:0:0:0:0:
320,192,270552,1,0,0:0:0:0:
448,192,270552,1,0,0:0:0:0:
64,192,270552,1,0,0:0:0:0:
192,192,270654,1,0,0:0:0:0:
448,192,270757,1,0,0:0:0:0:
64,192,270757,1,0,0:0:0:0:
320,192,270860,1,0,0:0:0:0:
192,192,270860,1,0,0:0:0:0:
64,192,270962,1,0,0:0:0:0:
192,192,270962,1,0,0:0:0:0:
448,192,270962,1,0,0:0:0:0:
320,192,271065,1,0,0:0:0:0:
64,192,271168,1,0,0:0:0:0:
192,192,271168,1,0,0:0:0:0:
448,192,271271,1,0,0:0:0:0:
320,192,271271,1,0,0:0:0:0:
192,192,271373,1,0,0:0:0:0:
64,192,271373,1,0,0:0:0:0:
448,192,271373,128,0,271784:0:0:0:0:
320,192,271579,1,0,0:0:0:0:
64,192,271784,1,0,0:0:0:0:
320,192,271784,128,0,272195:0:0:0:0:
192,192,271784,1,0,0:0:0:0:
192,192,272195,1,0,0:0:0:0:
64,192,272195,1,0,0:0:0:0:
448,192,272195,1,0,0:0:0:0:
320,192,272298,1,0,0:0:0:0:
192,192,272401,1,0,0:0:0:0:
64,192,272401,1,0,0:0:0:0:
320,192,272504,1,0,0:0:0:0:
448,192,272504,1,0,0:0:0:0:
448,192,272606,1,0,0:0:0:0:
64,192,272606,1,0,0:0:0:0:
192,192,272606,1,0,0:0:0:0:
64,192,272709,1,0,0:0:0:0:
320,192,272709,1,0,0:0:0:0:
192,192,272812,1,0,0:0:0:0:
448,192,272915,1,0,0:0:0:0:
320,192,272915,1,0,0:0:0:0:
192,192,273017,1,0,0:0:0:0:
448,192,273017,1,0,0:0:0:0:
64,192,273017,128,0,273223:0:0:0:0:
320,192,273120,1,0,0:0:0:0:
192,192,273223,128,0,273325:0:0:0:0:
448,192,273325,128,0,273428:0:0:0:0:
192,192,273428,1,0,0:0:0:0:
320,192,273428,1,0,0:0:0:0:
64,192,273428,128,0,273634:0:0:0:0:
448,192,273634,1,0,0:0:0:0:
320,192,273634,128,0,273839:0:0:0:0:
64,192,273839,1,0,0:0:0:0:
192,192,273839,1,0,0:0:0:0:
448,192,273839,1,0,0:0:0:0:
320,192,273942,1,0,0:0:0:0:
64,192,274045,1,0,0:0:0:0:
192,192,274045,1,0,0:0:0:0:
320,192,274147,1,0,0:0:0:0:
448,192,274147,1,0,0:0:0:0:
320,192,274250,1,0,0:0:0:0:
64,192,274250,1,0,0:0:0:0:
192,192,274250,1,0,0:0:0:0:
448,192,274353,1,0,0:0:0:0:
192,192,274456,1,0,0:0:0:0:
64,192,274456,1,0,0:0:0:0:
448,192,274558,1,0,0:0:0:0:
192,192,274661,1,0,0:0:0:0:
64,192,274661,1,0,0:0:0:0:
320,192,274661,128,0,274867:0:0:0:0:
192,192,274867,128,0,274969:0:0:0:0:
448,192,274969,128,0,275072:0:0:0:0:
192,192,275072,1,0,0:0:0:0:
320,192,275072,1,0,0:0:0:0:
64,192,275072,128,0,275278:0:0:0:0:
192,192,275278,128,0,275483:0:0:0:0:
448,192,275483,1,0,0:0:0:0:
320,192,275586,1,0,0:0:0:0:
320,192,275688,1,0,0:0:0:0:
64,192,275791,1,0,0:0:0:0:
448,192,275894,1,0,0:0:0:0:
320,192,275894,1,0,0:0:0:0:
192,192,275894,1,0,0:0:0:0:
448,192,275997,1,0,0:0:0:0:
64,192,276099,1,0,0:0:0:0:
320,192,276202,1,0,0:0:0:0:
448,192,276202,1,0,0:0:0:0:
192,192,276202,1,0,0:0:0:0:
320,192,276305,1,0,0:0:0:0:
64,192,276408,1,0,0:0:0:0:
192,192,276510,1,0,0:0:0:0:
320,192,276510,1,0,0:0:0:0:
448,192,276510,1,0,0:0:0:0:
192,192,276613,1,0,0:0:0:0:
320,192,276716,1,0,0:0:0:0:
448,192,276716,1,0,0:0:0:0:
64,192,276819,1,0,0:0:0:0:
320,192,276921,1,0,0:0:0:0:
448,192,277024,1,0,0:0:0:0:
64,192,277127,1,0,0:0:0:0:
64,192,277230,1,0,0:0:0:0:
448,192,277332,1,0,0:0:0:0:
448,192,277435,1,0,0:0:0:0:
192,192,277538,1,0,0:0:0:0:
64,192,277538,1,0,0:0:0:0:
192,192,277641,1,0,0:0:0:0:
320,192,277743,1,0,0:0:0:0:
448,192,277743,1,0,0:0:0:0:
320,192,277846,1,0,0:0:0:0:
64,192,277949,128,0,278257:0:0:0:0:
192,192,278052,128,0,278257:0:0:0:0:
320,192,278154,128,0,278257:0:0:0:0:
192,192,278360,1,0,0:0:0:0:
64,192,278360,1,0,0:0:0:0:
448,192,278360,128,0,278771:0:0:0:0:
320,192,278771,1,0,0:0:0:0:
192,192,278771,1,0,0:0:0:0:
64,192,278771,1,0,0:0:0:0:
448,192,278873,1,0,0:0:0:0:
192,192,278976,1,0,0:0:0:0:
64,192,278976,1,0,0:0:0:0:
192,192,279079,1,0,0:0:0:0:
448,192,279079,1,0,0:0:0:0:
320,192,279182,1,0,0:0:0:0:
64,192,279182,1,0,0:0:0:0:
448,192,279182,1,0,0:0:0:0:
192,192,279284,1,0,0:0:0:0:
448,192,279387,1,0,0:0:0:0:
64,192,279387,1,0,0:0:0:0:
320,192,279490,1,0,0:0:0:0:
192,192,279490,1,0,0:0:0:0:
192,192,279593,1,0,0:0:0:0:
448,192,279593,1,0,0:0:0:0:
64,192,279593,128,0,279798:0:0:0:0:
320,192,279798,128,0,279901:0:0:0:0:
192,192,279901,128,0,280004:0:0:0:0:
64,192,280004,1,0,0:0:0:0:
448,192,280004,128,0,280209:0:0:0:0:
320,192,280004,1,0,0:0:0:0:
320,192,280209,128,0,280415:0:0:0:0:
192,192,280209,1,0,0:0:0:0:
192,192,280415,1,0,0:0:0:0:
64,192,280415,1,0,0:0:0:0:
448,192,280415,1,0,0:0:0:0:
320,192,280517,1,0,0:0:0:0:
64,192,280620,1,0,0:0:0:0:
448,192,280620,1,0,0:0:0:0:
192,192,280723,1,0,0:0:0:0:
64,192,280723,1,0,0:0:0:0:
320,192,280825,1,0,0:0:0:0:
448,192,280825,1,0,0:0:0:0:
192,192,280825,1,0,0:0:0:0:
64,192,280928,1,0,0:0:0:0:
320,192,280928,1,0,0:0:0:0:
448,192,281031,1,0,0:0:0:0:
64,192,281134,1,0,0:0:0:0:
192,192,281236,1,0,0:0:0:0:
448,192,281236,1,0,0:0:0:0:
320,192,281236,128,0,281442:0:0:0:0:
64,192,281442,128,0,281647:0:0:0:0:
448,192,281647,1,0,0:0:0:0:
192,192,281647,1,0,0:0:0:0:
320,192,281647,128,0,282058:0:0:0:0:
192,192,282058,1,0,0:0:0:0:
64,192,282058,1,0,0:0:0:0:
448,192,282058,1,0,0:0:0:0:
320,192,282161,1,0,0:0:0:0:
192,192,282264,1,0,0:0:0:0:
64,192,282264,1,0,0:0:0:0:
192,192,282367,1,0,0:0:0:0:
448,192,282367,1,0,0:0:0:0:
320,192,282469,1,0,0:0:0:0:
448,192,282469,1,0,0:0:0:0:
64,192,282469,1,0,0:0:0:0:
192,192,282572,1,0,0:0:0:0:
64,192,282572,1,0,0:0:0:0:
448,192,282675,1,0,0:0:0:0:
320,192,282675,1,0,0:0:0:0:
64,192,282778,1,0,0:0:0:0:
448,192,282880,1,0,0:0:0:0:
320,192,282880,1,0,0:0:0:0:
192,192,282880,128,0,283086:0:0:0:0:
64,192,283086,128,0,283188:0:0:0:0:
448,192,283188,128,0,283291:0:0:0:0:
192,192,283291,1,0,0:0:0:0:
64,192,283291,1,0,0:0:0:0:
320,192,283291,128,0,283497:0:0:0:0:
64,192,283497,128,0,283702:0:0:0:0:
448,192,283702,1,0,0:0:0:0:
192,192,283702,1,0,0:0:0:0:
320,192,283702,1,0,0:0:0:0:
64,192,283805,1,0,0:0:0:0:
192,192,283908,1,0,0:0:0:0:
320,192,283908,1,0,0:0:0:0:
448,192,284010,1,0,0:0:0:0:
192,192,284010,1,0,0:0:0:0:
64,192,284113,1,0,0:0:0:0:
320,192,284113,1,0,0:0:0:0:
448,192,284113,1,0,0:0:0:0:
192,192,284216,1,0,0:0:0:0:
320,192,284216,1,0,0:0:0:0:
448,192,284319,1,0,0:0:0:0:
64,192,284319,1,0,0:0:0:0:
192,192,284421,1,0,0:0:0:0:
320,192,284524,1,0,0:0:0:0:
448,192,284524,1,0,0:0:0:0:
64,192,284524,128,0,284935:0:0:0:0:
320,192,284935,128,0,285346:0:0:0:0:
192,192,284935,1,0,0:0:0:0:
448,192,284935,1,0,0:0:0:0:
192,192,285346,1,0,0:0:0:0:
64,192,285346,1,0,0:0:0:0:
448,192,285346,1,0,0:0:0:0:
320,192,285449,1,0,0:0:0:0:
192,192,285552,1,0,0:0:0:0:
448,192,285552,1,0,0:0:0:0:
64,192,285654,1,0,0:0:0:0:
192,192,285654,1,0,0:0:0:0:
320,192,285757,1,0,0:0:0:0:
448,192,285757,1,0,0:0:0:0:
64,192,285757,1,0,0:0:0:0:
192,192,285860,1,0,0:0:0:0:
448,192,285962,1,0,0:0:0:0:
320,192,285962,1,0,0:0:0:0:
64,192,286065,1,0,0:0:0:0:
192,192,286065,1,0,0:0:0:0:
192,192,286168,1,0,0:0:0:0:
320,192,286168,1,0,0:0:0:0:
448,192,286168,1,0,0:0:0:0:
64,192,286271,1,0,0:0:0:0:
192,192,286373,1,0,0:0:0:0:
448,192,286373,1,0,0:0:0:0:
448,192,286476,1,0,0:0:0:0:
320,192,286476,1,0,0:0:0:0:
192,192,286579,1,0,0:0:0:0:
320,192,286579,1,0,0:0:0:0:
64,192,286682,1,0,0:0:0:0:
320,192,286784,1,0,0:0:0:0:
448,192,286784,1,0,0:0:0:0:
192,192,286887,1,0,0:0:0:0:
320,192,286990,1,0,0:0:0:0:
64,192,286990,1,0,0:0:0:0:
448,192,287093,1,0,0:0:0:0:
320,192,287195,1,0,0:0:0:0:
192,192,287195,1,0,0:0:0:0:
64,192,287298,1,0,0:0:0:0:
192,192,287401,1,0,0:0:0:0:
448,192,287401,1,0,0:0:0:0:
448,192,287504,1,0,0:0:0:0:
320,192,287504,1,0,0:0:0:0:
64,192,287606,1,0,0:0:0:0:
192,192,287606,1,0,0:0:0:0:
320,192,287709,1,0,0:0:0:0:
64,192,287709,1,0,0:0:0:0:
192,192,287812,1,0,0:0:0:0:
448,192,287812,1,0,0:0:0:0:
320,192,287915,1,0,0:0:0:0:
448,192,287915,1,0,0:0:0:0:
64,192,288017,1,0,0:0:0:0:
192,192,288017,1,0,0:0:0:0:
448,192,288120,1,0,0:0:0:0:
320,192,288120,1,0,0:0:0:0:
64,192,288223,1,0,0:0:0:0:
320,192,288223,128,0,288428:0:0:0:0:
192,192,288223,1,0,0:0:0:0:
448,192,288325,1,0,0:0:0:0:
192,192,288428,128,0,288531:0:0:0:0:
448,192,288531,128,0,288634:0:0:0:0:
64,192,288634,1,0,0:0:0:0:
320,192,288736,128,0,288839:0:0:0:0:
192,192,288839,128,0,289045:0:0:0:0:
448,192,288942,1,0,0:0:0:0:
64,192,289045,1,0,0:0:0:0:
320,192,289147,128,0,289250:0:0:0:0:
448,192,289250,128,0,289353:0:0:0:0:
192,192,289353,128,0,289456:0:0:0:0:
320,192,289456,1,0,0:0:0:0:
64,192,289558,128,0,289661:0:0:0:0:
448,192,289661,128,0,289867:0:0:0:0:
320,192,289764,1,0,0:0:0:0:
64,192,289867,128,0,290072:0:0:0:0:
192,192,289969,1,0,0:0:0:0:
320,192,290072,128,0,290175:0:0:0:0:
64,192,290175,128,0,290278:0:0:0:0:
448,192,290278,1,0,0:0:0:0:
320,192,290380,128,0,290483:0:0:0:0:
192,192,290483,128,0,290688:0:0:0:0:
64,192,290586,1,0,0:0:0:0:
448,192,290688,1,0,0:0:0:0:
64,192,290791,128,0,290894:0:0:0:0:
320,192,290894,128,0,290997:0:0:0:0:
192,192,290997,128,0,291099:0:0:0:0:
448,192,291099,128,0,291510:0:0:0:0:
