osu file format v14

[General]
AudioFilename: audio.mp3
AudioLeadIn: 0
PreviewTime: 91053
Countdown: 0
SampleSet: None
StackLeniency: 0.2
Mode: 1
LetterboxInBreaks: 0
WidescreenStoryboard: 1

[Editor]
Bookmarks: 15346,28497,41647,54798,67949,81099,94250,107401,120552,133690,146853,173154,199456,225757,252059,265209,278462,291099
DistanceSpacing: 0.4
BeatDivisor: 4
GridSize: 16
TimelineZoom: 1.699999

[Metadata]
Title:Inner Spirit (Extended)
TitleUnicode:Inner Spirit (Extended)
Artist:lapix
ArtistUnicode:lapix
Creator:Akali
Version:banana
Source:BEATMANIA IIDX 23 Copula
Tags:sexxxtra hitech bananannian
BeatmapID:1072182
BeatmapSetID:502420

[Difficulty]
HPDrainRate:5
CircleSize:2
OverallDifficulty:6
ApproachRate:0
SliderMultiplier:1.6
SliderTickRate:1

[Events]
//Background and Video events
0,0,"art wallpapers girl gun monsters picture.jpg",0,60
//Break Periods
//Storyboard Layer 0 (Background)
//Storyboard Layer 1 (Fail)
//Storyboard Layer 2 (Pass)
//Storyboard Layer 3 (Foreground)
//Storyboard Sound Samples

[TimingPoints]
543,410.958904109589,4,1,0,85,1,0
1364,-25,4,1,0,85,0,0
1981,-100,4,1,0,85,0,0
15337,-90.9090909090909,4,1,0,85,0,0
26227,-83.3333333333333,4,1,0,85,0,1
26536,-71.4285714285714,4,1,0,85,0,1
26844,-62.5,4,1,0,85,0,1
27152,-55.5555555555556,4,1,0,85,0,1
28488,-55.5555555555556,4,1,0,85,0,0
28693,-100,4,1,0,85,0,0
35063,-83.3333333333333,4,1,0,85,0,0
40611,-90.9090909090909,4,1,0,85,0,0
41638,-83.3333333333333,4,1,0,85,0,0
93933,-81.3008130081301,4,1,0,85,0,0
94036,-79.3650793650794,4,1,0,85,0,0
94138,-77.5193798449612,4,1,0,85,0,0
94241,-75.7575757575758,4,1,0,85,0,1
94447,-83.3333333333333,4,1,0,85,0,1
120542,-81.9672131147541,4,1,0,85,0,0
132871,-80,4,1,0,85,0,0
133008,-76.9230769230769,4,1,0,85,0,0
133145,-74.0740740740741,4,1,0,85,0,0
133282,-71.4285714285714,4,1,0,85,0,0
133419,-68.4931506849315,4,1,0,85,0,0
133556,-65.7894736842105,4,1,0,85,0,0
133693,-62.8930817610063,4,1,0,85,0,0
136981,-100,4,1,0,85,0,0
171501,-100,4,1,0,85,0,1
173145,-83.3333333333333,4,1,0,85,0,0
199858,-100,4,1,0,85,0,0
212597,-90.9090909090909,4,1,0,85,0,0
219173,-83.3333333333333,4,1,0,85,0,0
222460,-76.9230769230769,4,1,0,85,0,0
224412,-83.3333333333333,4,1,0,85,0,0
224721,-90.9090909090909,4,1,0,85,0,0
225748,-76.9230769230769,4,1,0,85,0,1
252358,-90.9090909090909,4,1,0,85,0,0
265611,-83.3333333333333,4,1,0,85,0,0

[HitObjects]
256,192,1364,12,0,1878,0:0:0:0:
256,192,1981,5,12,0:0:0:0:
256,192,2186,1,4,0:0:0:0:
256,192,2392,1,0,0:0:0:0:
256,192,2495,1,0,0:0:0:0:
256,192,2597,1,8,0:0:0:0:
256,192,2700,1,0,0:0:0:0:
256,192,2906,1,0,0:0:0:0:
256,192,3111,1,8,0:0:0:0:
256,192,3214,1,0,0:0:0:0:
256,192,3419,1,8,0:0:0:0:
256,192,3522,1,0,0:0:0:0:
256,192,3625,1,8,0:0:0:0:
256,192,3727,1,8,0:0:0:0:
256,192,3830,1,0,0:0:0:0:
256,192,3933,1,0,0:0:0:0:
256,192,4138,1,0,0:0:0:0:
256,192,4241,1,8,0:0:0:0:
256,192,4344,1,0,0:0:0:0:
256,192,4549,1,8,0:0:0:0:
256,192,4755,1,8,0:0:0:0:
256,192,4858,1,0,0:0:0:0:
256,192,4960,1,0,0:0:0:0:
256,192,5063,1,8,0:0:0:0:
256,192,5474,1,4,0:0:0:0:
256,192,5679,1,0,0:0:0:0:
256,192,5782,1,0,0:0:0:0:
256,192,5885,1,8,0:0:0:0:
256,192,5988,1,0,0:0:0:0:
256,192,6193,1,0,0:0:0:0:
256,192,6399,1,8,0:0:0:0:
256,192,6501,1,0,0:0:0:0:
256,192,6707,1,8,0:0:0:0:
256,192,6810,1,0,0:0:0:0:
256,192,6912,1,8,0:0:0:0:
256,192,7015,1,8,0:0:0:0:
256,192,7118,1,0,0:0:0:0:
256,192,7323,1,0,0:0:0:0:
256,192,7529,1,8,0:0:0:0:
256,192,7632,1,8,0:0:0:0:
256,192,7734,1,4,0:0:0:0:
256,192,8042,1,8,0:0:0:0:
256,192,8145,1,0,0:0:0:0:
256,192,8248,1,8,0:0:0:0:
256,192,8351,1,0,0:0:0:0:
256,192,8556,1,12,0:0:0:0:
256,192,8762,1,4,0:0:0:0:
256,192,8967,1,0,0:0:0:0:
256,192,9070,1,0,0:0:0:0:
256,192,9173,1,8,0:0:0:0:
256,192,9275,1,0,0:0:0:0:
256,192,9481,1,8,0:0:0:0:
256,192,9584,1,0,0:0:0:0:
256,192,9686,1,8,0:0:0:0:
256,192,9789,1,0,0:0:0:0:
256,192,9995,1,8,0:0:0:0:
256,192,10097,1,0,0:0:0:0:
256,192,10200,1,8,0:0:0:0:
256,192,10303,1,8,0:0:0:0:
256,192,10406,1,0,0:0:0:0:
256,192,10714,1,0,0:0:0:0:
256,192,10816,1,8,0:0:0:0:
256,192,10919,1,0,0:0:0:0:
256,192,11125,1,8,0:0:0:0:
256,192,11227,1,0,0:0:0:0:
256,192,11330,1,8,0:0:0:0:
256,192,11536,1,0,0:0:0:0:
256,192,11638,1,8,0:0:0:0:
256,192,12049,1,4,0:0:0:0:
256,192,12255,1,0,0:0:0:0:
256,192,12358,1,0,0:0:0:0:
256,192,12460,1,8,0:0:0:0:
256,192,12563,1,8,0:0:0:0:
256,192,12666,1,0,0:0:0:0:
256,192,12769,1,8,0:0:0:0:
256,192,12871,1,0,0:0:0:0:
256,192,12974,1,8,0:0:0:0:
256,192,13077,1,8,0:0:0:0:
256,192,13179,1,0,0:0:0:0:
256,192,13282,1,8,0:0:0:0:
256,192,13385,1,0,0:0:0:0:
256,192,13488,1,8,0:0:0:0:
256,192,13590,1,8,0:0:0:0:
256,192,13693,1,0,0:0:0:0:
256,192,13899,1,0,0:0:0:0:
256,192,14001,1,8,0:0:0:0:
256,192,14104,1,0,0:0:0:0:
256,192,14207,1,8,0:0:0:0:
256,192,14310,1,4,0:0:0:0:
256,192,14515,1,8,0:0:0:0:
256,192,14566,1,8,0:0:0:0:
256,192,14721,1,0,0:0:0:0:
256,192,14772,1,0,0:0:0:0:
256,192,14926,1,0,0:0:0:0:
256,192,14977,1,0,0:0:0:0:
256,192,15132,1,12,0:0:0:0:
256,192,15337,1,4,0:0:0:0:
256,192,15543,1,8,0:0:0:0:
256,192,15645,1,0,0:0:0:0:
256,192,15748,1,8,0:0:0:0:
256,192,15953,1,8,0:0:0:0:
256,192,16159,1,0,0:0:0:0:
256,192,16262,1,8,0:0:0:0:
256,192,16467,1,8,0:0:0:0:
256,192,16570,1,0,0:0:0:0:
256,192,16638,1,0,0:0:0:0:
256,192,16707,1,0,0:0:0:0:
256,192,16775,1,8,0:0:0:0:
256,192,16878,1,8,0:0:0:0:
256,192,16981,1,0,0:0:0:0:
256,192,17392,1,8,0:0:0:0:
256,192,17495,1,0,0:0:0:0:
256,192,17597,1,8,0:0:0:0:
256,192,17700,1,0,0:0:0:0:
256,192,17803,1,0,0:0:0:0:
256,192,17906,1,8,0:0:0:0:
256,192,18008,1,0,0:0:0:0:
256,192,18111,1,8,0:0:0:0:
256,192,18214,1,8,0:0:0:0:
256,192,18625,1,4,0:0:0:0:
256,192,18830,1,8,0:0:0:0:
256,192,18933,1,0,0:0:0:0:
256,192,19036,1,8,0:0:0:0:
256,192,19104,1,0,0:0:0:0:
256,192,19173,1,0,0:0:0:0:
256,192,19241,1,8,0:0:0:0:
256,192,19344,1,0,0:0:0:0:
256,192,19549,1,8,0:0:0:0:
256,192,19652,1,0,0:0:0:0:
256,192,19755,1,8,0:0:0:0:
256,192,19858,1,0,0:0:0:0:
256,192,19960,1,0,0:0:0:0:
256,192,20063,1,8,0:0:0:0:
256,192,20166,1,8,0:0:0:0:
256,192,20269,1,0,0:0:0:0:
256,192,20474,1,0,0:0:0:0:
256,192,20679,1,12,0:0:0:0:
256,192,20885,1,4,0:0:0:0:
256,192,21090,1,8,0:0:0:0:
256,192,21193,1,0,0:0:0:0:
256,192,21296,1,0,0:0:0:0:
256,192,21399,1,0,0:0:0:0:
256,192,21707,1,12,0:0:0:0:
256,192,21912,1,4,0:0:0:0:
256,192,22118,1,8,0:0:0:0:
256,192,22323,1,8,0:0:0:0:
256,192,22426,1,0,0:0:0:0:
256,192,22529,1,8,0:0:0:0:
256,192,22632,1,8,0:0:0:0:
256,192,22734,1,4,0:0:0:0:
256,192,22940,1,4,0:0:0:0:
256,192,23145,1,8,0:0:0:0:
256,192,23248,1,8,0:0:0:0:
256,192,23351,1,8,0:0:0:0:
256,192,23453,1,8,0:0:0:0:
256,192,23556,1,4,0:0:0:0:
256,192,23762,1,8,0:0:0:0:
256,192,23864,1,0,0:0:0:0:
256,192,23967,1,12,0:0:0:0:
256,192,24173,1,0,0:0:0:0:
256,192,24275,1,8,0:0:0:0:
256,192,24378,1,4,0:0:0:0:
256,192,24584,1,0,0:0:0:0:
256,192,24686,1,8,0:0:0:0:
256,192,24789,1,0,0:0:0:0:
256,192,24858,1,0,0:0:0:0:
256,192,24926,1,0,0:0:0:0:
256,192,24995,1,8,0:0:0:0:
256,192,25063,1,8,0:0:0:0:
256,192,25132,1,8,0:0:0:0:
256,192,25200,1,0,0:0:0:0:
256,192,25406,1,0,0:0:0:0:
256,192,25508,1,0,0:0:0:0:
256,192,25714,1,0,0:0:0:0:
256,192,25816,1,0,0:0:0:0:
256,192,26022,1,0,0:0:0:0:
256,192,26125,1,8,0:0:0:0:
256,192,26227,1,4,0:0:0:0:
256,192,26536,1,4,0:0:0:0:
256,192,26844,1,4,0:0:0:0:
256,192,27152,1,4,0:0:0:0:
256,192,27255,2,4,L|256:80,10,71.9999978027344
256,192,28488,1,4,0:0:0:0:
256,192,28693,1,0,0:0:0:0:
256,192,28796,1,0,0:0:0:0:
256,192,28899,1,0,0:0:0:0:
256,192,29001,1,0,0:0:0:0:
256,192,29104,1,0,0:0:0:0:
256,192,29207,1,0,0:0:0:0:
256,192,29310,1,0,0:0:0:0:
256,192,29412,1,0,0:0:0:0:
256,192,29515,1,0,0:0:0:0:
256,192,29618,1,0,0:0:0:0:
256,192,29721,1,0,0:0:0:0:
256,192,29823,1,0,0:0:0:0:
256,192,29926,1,0,0:0:0:0:
256,192,30029,1,0,0:0:0:0:
256,192,30132,1,0,0:0:0:0:
256,192,30337,1,0,0:0:0:0:
256,192,30440,1,0,0:0:0:0:
256,192,30542,1,0,0:0:0:0:
256,192,30645,1,0,0:0:0:0:
256,192,30748,1,0,0:0:0:0:
256,192,30851,1,0,0:0:0:0:
256,192,30953,1,0,0:0:0:0:
256,192,31056,1,0,0:0:0:0:
256,192,31159,1,0,0:0:0:0:
256,192,31262,1,0,0:0:0:0:
256,192,31364,1,0,0:0:0:0:
256,192,31467,1,0,0:0:0:0:
256,192,31570,1,0,0:0:0:0:
256,192,31775,1,0,0:0:0:0:
256,192,31878,1,0,0:0:0:0:
256,192,31981,1,0,0:0:0:0:
256,192,32084,1,0,0:0:0:0:
256,192,32186,1,0,0:0:0:0:
256,192,32392,1,0,0:0:0:0:
256,192,32495,1,0,0:0:0:0:
256,192,32597,1,0,0:0:0:0:
256,192,32700,1,0,0:0:0:0:
256,192,32803,1,0,0:0:0:0:
256,192,32906,1,0,0:0:0:0:
256,192,33008,1,0,0:0:0:0:
256,192,33214,1,0,0:0:0:0:
256,192,33316,1,0,0:0:0:0:
256,192,33419,1,0,0:0:0:0:
256,192,33522,1,0,0:0:0:0:
256,192,33625,1,0,0:0:0:0:
256,192,33727,1,0,0:0:0:0:
256,192,33830,1,0,0:0:0:0:
256,192,33933,1,0,0:0:0:0:
256,192,34036,1,0,0:0:0:0:
256,192,34138,1,0,0:0:0:0:
256,192,34241,1,0,0:0:0:0:
256,192,34344,1,0,0:0:0:0:
256,192,34447,1,8,0:0:0:0:
256,192,34549,1,0,0:0:0:0:
256,192,34652,1,8,0:0:0:0:
256,192,34755,1,8,0:0:0:0:
256,192,34858,1,0,0:0:0:0:
256,192,34960,1,8,0:0:0:0:
256,192,35063,1,4,0:0:0:0:
256,192,35268,1,0,0:0:0:0:
256,192,35371,1,0,0:0:0:0:
256,192,35474,1,8,0:0:0:0:
256,192,35576,1,8,0:0:0:0:
256,192,35679,1,0,0:0:0:0:
256,192,35782,1,0,0:0:0:0:
256,192,35885,1,8,0:0:0:0:
256,192,35987,1,8,0:0:0:0:
256,192,36090,1,0,0:0:0:0:
256,192,36193,1,8,0:0:0:0:
256,192,36296,1,8,0:0:0:0:
256,192,36398,1,0,0:0:0:0:
256,192,36501,1,8,0:0:0:0:
256,192,36604,1,8,0:0:0:0:
256,192,36707,1,8,0:0:0:0:
256,192,36810,1,0,0:0:0:0:
256,192,36912,1,8,0:0:0:0:
256,192,37015,1,0,0:0:0:0:
256,192,37118,1,8,0:0:0:0:
256,192,37220,1,0,0:0:0:0:
256,192,37323,1,8,0:0:0:0:
256,192,37426,1,8,0:0:0:0:
256,192,37529,1,0,0:0:0:0:
256,192,37631,1,8,0:0:0:0:
256,192,37734,1,0,0:0:0:0:
256,192,37837,1,8,0:0:0:0:
256,192,37940,1,8,0:0:0:0:
256,192,38042,1,0,0:0:0:0:
256,192,38145,1,8,0:0:0:0:
256,192,38248,1,8,0:0:0:0:
256,192,38351,1,0,0:0:0:0:
256,192,38419,1,0,0:0:0:0:
256,192,38488,1,0,0:0:0:0:
256,192,38556,1,8,0:0:0:0:
256,192,38625,1,8,0:0:0:0:
256,192,38693,1,8,0:0:0:0:
256,192,38762,1,0,0:0:0:0:
256,192,38830,1,0,0:0:0:0:
256,192,38899,1,0,0:0:0:0:
256,192,38967,1,8,0:0:0:0:
256,192,39036,1,8,0:0:0:0:
256,192,39104,1,8,0:0:0:0:
256,192,39173,1,0,0:0:0:0:
256,192,39241,1,0,0:0:0:0:
256,192,39310,1,0,0:0:0:0:
256,192,39378,1,8,0:0:0:0:
256,192,39447,1,0,0:0:0:0:
256,192,39515,1,0,0:0:0:0:
256,192,39584,1,8,0:0:0:0:
256,192,39652,1,0,0:0:0:0:
256,192,39721,1,0,0:0:0:0:
256,192,39789,1,8,0:0:0:0:
256,192,39858,1,8,0:0:0:0:
256,192,39926,1,8,0:0:0:0:
256,192,39995,1,0,0:0:0:0:
256,192,40611,1,8,0:0:0:0:
256,192,40662,1,8,0:0:0:0:
256,192,40714,1,8,0:0:0:0:
256,192,40765,1,8,0:0:0:0:
256,192,40816,1,0,0:0:0:0:
256,192,41022,1,8,0:0:0:0:
256,192,41073,1,8,0:0:0:0:
256,192,41227,1,0,0:0:0:0:
256,192,41433,1,12,0:0:0:0:
256,192,41638,1,4,0:0:0:0:
256,192,41844,1,0,0:0:0:0:
256,192,41947,1,8,0:0:0:0:
256,192,42049,1,0,0:0:0:0:
256,192,42152,1,0,0:0:0:0:
256,192,42255,1,8,0:0:0:0:
256,192,42358,1,8,0:0:0:0:
256,192,42563,1,0,0:0:0:0:
256,192,42666,1,8,0:0:0:0:
256,192,42769,1,8,0:0:0:0:
256,192,42871,1,0,0:0:0:0:
256,192,42940,1,0,0:0:0:0:
256,192,43008,1,0,0:0:0:0:
256,192,43077,1,8,0:0:0:0:
256,192,43179,1,0,0:0:0:0:
256,192,43282,1,0,0:0:0:0:
256,192,43488,1,8,0:0:0:0:
256,192,43556,1,0,0:0:0:0:
256,192,43625,1,0,0:0:0:0:
256,192,43693,1,0,0:0:0:0:
256,192,43796,1,8,0:0:0:0:
256,192,43899,1,8,0:0:0:0:
256,192,44001,1,0,0:0:0:0:
256,192,44207,1,8,0:0:0:0:
256,192,44310,1,8,0:0:0:0:
256,192,44412,1,0,0:0:0:0:
256,192,44515,1,8,0:0:0:0:
256,192,44584,1,8,0:0:0:0:
256,192,44652,1,0,0:0:0:0:
256,192,44721,1,0,0:0:0:0:
256,192,44926,1,0,0:0:0:0:
256,192,44995,1,0,0:0:0:0:
256,192,45063,1,0,0:0:0:0:
256,192,45132,1,8,0:0:0:0:
256,192,45234,1,8,0:0:0:0:
256,192,45337,1,0,0:0:0:0:
256,192,45440,1,0,0:0:0:0:
256,192,45542,1,8,0:0:0:0:
256,192,45645,1,8,0:0:0:0:
256,192,45851,1,0,0:0:0:0:
256,192,45953,1,8,0:0:0:0:
256,192,46022,1,0,0:0:0:0:
256,192,46090,1,0,0:0:0:0:
256,192,46159,1,0,0:0:0:0:
256,192,46262,1,8,0:0:0:0:
256,192,46364,1,8,0:0:0:0:
256,192,46467,1,0,0:0:0:0:
256,192,46570,1,0,0:0:0:0:
256,192,46775,1,8,0:0:0:0:
256,192,46844,1,0,0:0:0:0:
256,192,46912,1,0,0:0:0:0:
256,192,46981,1,0,0:0:0:0:
256,192,47084,1,8,0:0:0:0:
256,192,47186,1,8,0:0:0:0:
256,192,47289,1,0,0:0:0:0:
256,192,47495,1,0,0:0:0:0:
256,192,47597,1,8,0:0:0:0:
256,192,47700,1,0,0:0:0:0:
256,192,47803,1,8,0:0:0:0:
256,192,48008,1,8,0:0:0:0:
256,192,48060,1,8,0:0:0:0:
256,192,48214,1,4,0:0:0:0:
256,192,48625,1,4,0:0:0:0:
256,192,48830,1,8,0:0:0:0:
256,192,48933,1,8,0:0:0:0:
256,192,49036,1,0,0:0:0:0:
256,192,49138,1,0,0:0:0:0:
256,192,49241,1,8,0:0:0:0:
256,192,49344,1,0,0:0:0:0:
256,192,49447,1,8,0:0:0:0:
256,192,49549,1,0,0:0:0:0:
256,192,49652,1,0,0:0:0:0:
256,192,49858,1,8,0:0:0:0:
256,192,49926,1,0,0:0:0:0:
256,192,49995,1,0,0:0:0:0:
256,192,50063,1,0,0:0:0:0:
256,192,50166,1,8,0:0:0:0:
256,192,50269,1,0,0:0:0:0:
256,192,50371,1,8,0:0:0:0:
256,192,50474,1,8,0:0:0:0:
256,192,50577,1,0,0:0:0:0:
256,192,50782,1,8,0:0:0:0:
256,192,50885,1,8,0:0:0:0:
256,192,50988,1,0,0:0:0:0:
256,192,51090,1,8,0:0:0:0:
256,192,51159,1,8,0:0:0:0:
256,192,51227,1,0,0:0:0:0:
256,192,51296,1,0,0:0:0:0:
256,192,51501,1,4,0:0:0:0:
256,192,51707,1,8,0:0:0:0:
256,192,51775,1,8,0:0:0:0:
256,192,51844,1,8,0:0:0:0:
256,192,51912,1,0,0:0:0:0:
256,192,52015,1,8,0:0:0:0:
256,192,52118,1,8,0:0:0:0:
256,192,52221,1,4,0:0:0:0:
256,192,52529,1,12,0:0:0:0:
256,192,52734,1,8,0:0:0:0:
256,192,52940,1,0,0:0:0:0:
256,192,53145,1,8,0:0:0:0:
256,192,53197,1,8,0:0:0:0:
256,192,53248,1,8,0:0:0:0:
256,192,53299,1,8,0:0:0:0:
256,192,53351,1,0,0:0:0:0:
256,192,53419,1,0,0:0:0:0:
256,192,53488,1,0,0:0:0:0:
256,192,53556,1,8,0:0:0:0:
256,192,53659,1,0,0:0:0:0:
256,192,53762,1,0,0:0:0:0:
256,192,53864,1,8,0:0:0:0:
256,192,54070,1,12,0:0:0:0:
256,192,54275,1,0,0:0:0:0:
256,192,54378,1,12,0:0:0:0:
256,192,54584,1,0,0:0:0:0:
256,192,54652,1,0,0:0:0:0:
256,192,54721,1,0,0:0:0:0:
256,192,54789,1,8,0:0:0:0:
256,192,55200,1,4,0:0:0:0:
256,192,55406,1,8,0:0:0:0:
256,192,55474,1,8,0:0:0:0:
256,192,55543,1,8,0:0:0:0:
256,192,55611,1,0,0:0:0:0:
256,192,55816,1,8,0:0:0:0:
256,192,55884,1,8,0:0:0:0:
256,192,55953,1,8,0:0:0:0:
256,192,56021,1,0,0:0:0:0:
256,192,56227,1,0,0:0:0:0:
256,192,56330,1,8,0:0:0:0:
256,192,56433,1,0,0:0:0:0:
256,192,56536,1,8,0:0:0:0:
256,192,56638,1,8,0:0:0:0:
256,192,56741,1,0,0:0:0:0:
256,192,56844,1,8,0:0:0:0:
256,192,57049,1,0,0:0:0:0:
256,192,57152,1,8,0:0:0:0:
256,192,57358,1,0,0:0:0:0:
256,192,57460,1,8,0:0:0:0:
256,192,57666,1,0,0:0:0:0:
256,192,57769,1,8,0:0:0:0:
256,192,57837,1,0,0:0:0:0:
256,192,57906,1,0,0:0:0:0:
256,192,57974,1,8,0:0:0:0:
256,192,58077,1,0,0:0:0:0:
256,192,58282,1,8,0:0:0:0:
256,192,58351,1,0,0:0:0:0:
256,192,58419,1,0,0:0:0:0:
256,192,58488,1,0,0:0:0:0:
256,192,58693,1,8,0:0:0:0:
256,192,58762,1,8,0:0:0:0:
256,192,58830,1,8,0:0:0:0:
256,192,58899,1,0,0:0:0:0:
256,192,59104,1,8,0:0:0:0:
256,192,59173,1,8,0:0:0:0:
256,192,59241,1,8,0:0:0:0:
256,192,59310,1,0,0:0:0:0:
256,192,59412,1,8,0:0:0:0:
256,192,59515,1,0,0:0:0:0:
256,192,59618,1,0,0:0:0:0:
256,192,59721,1,8,0:0:0:0:
256,192,59789,1,0,0:0:0:0:
256,192,59858,1,0,0:0:0:0:
256,192,59926,1,8,0:0:0:0:
256,192,60029,1,8,0:0:0:0:
256,192,60132,1,0,0:0:0:0:
256,192,60234,1,8,0:0:0:0:
256,192,60337,1,0,0:0:0:0:
256,192,60406,1,0,0:0:0:0:
256,192,60474,1,0,0:0:0:0:
256,192,60542,1,8,0:0:0:0:
256,192,60645,1,8,0:0:0:0:
256,192,60953,1,4,0:0:0:0:
256,192,61159,1,8,0:0:0:0:
256,192,61227,1,8,0:0:0:0:
256,192,61296,1,0,0:0:0:0:
256,192,61364,1,0,0:0:0:0:
256,192,61775,1,4,0:0:0:0:
256,192,61981,1,8,0:0:0:0:
256,192,62049,1,8,0:0:0:0:
256,192,62118,1,8,0:0:0:0:
256,192,62186,1,0,0:0:0:0:
256,192,62392,1,8,0:0:0:0:
256,192,62443,1,8,0:0:0:0:
256,192,62495,1,8,0:0:0:0:
256,192,62546,1,8,0:0:0:0:
256,192,62597,1,0,0:0:0:0:
256,192,62700,1,0,0:0:0:0:
256,192,62906,1,8,0:0:0:0:
256,192,63008,1,0,0:0:0:0:
256,192,63214,1,8,0:0:0:0:
256,192,63316,1,8,0:0:0:0:
256,192,63419,1,0,0:0:0:0:
256,192,63522,1,8,0:0:0:0:
256,192,63625,1,0,0:0:0:0:
256,192,63727,1,8,0:0:0:0:
256,192,63830,1,0,0:0:0:0:
256,192,63899,1,8,0:0:0:0:
256,192,63967,1,8,0:0:0:0:
256,192,64036,1,8,0:0:0:0:
256,192,64104,1,8,0:0:0:0:
256,192,64173,1,8,0:0:0:0:
256,192,64241,1,0,0:0:0:0:
256,192,64344,1,0,0:0:0:0:
256,192,64549,1,0,0:0:0:0:
256,192,64652,1,8,0:0:0:0:
256,192,64721,1,0,0:0:0:0:
256,192,64789,1,0,0:0:0:0:
256,192,64858,1,8,0:0:0:0:
256,192,65063,1,0,0:0:0:0:
256,192,65166,1,0,0:0:0:0:
256,192,65269,1,8,0:0:0:0:
256,192,65371,1,8,0:0:0:0:
256,192,65474,1,4,0:0:0:0:
256,192,65679,1,8,0:0:0:0:
256,192,65782,1,4,0:0:0:0:
256,192,66090,1,4,0:0:0:0:
256,192,66296,1,0,0:0:0:0:
256,192,66364,1,0,0:0:0:0:
256,192,66433,1,0,0:0:0:0:
256,192,66501,1,8,0:0:0:0:
256,192,66912,1,8,0:0:0:0:
256,192,67015,1,0,0:0:0:0:
256,192,67323,1,8,0:0:0:0:
256,192,67375,1,0,0:0:0:0:
256,192,67426,1,0,0:0:0:0:
256,192,67477,1,0,0:0:0:0:
256,192,67529,1,0,0:0:0:0:
256,192,67734,1,12,0:0:0:0:
256,192,67940,1,4,0:0:0:0:
256,192,68248,1,8,0:0:0:0:
256,192,68351,1,0,0:0:0:0:
256,192,68556,1,8,0:0:0:0:
256,192,68659,1,8,0:0:0:0:
256,192,68762,1,0,0:0:0:0:
256,192,68864,1,8,0:0:0:0:
256,192,69070,1,8,0:0:0:0:
256,192,69173,1,0,0:0:0:0:
256,192,69241,1,0,0:0:0:0:
256,192,69310,1,0,0:0:0:0:
256,192,69378,1,8,0:0:0:0:
256,192,69584,1,0,0:0:0:0:
256,192,69686,1,0,0:0:0:0:
256,192,69789,1,8,0:0:0:0:
256,192,69995,1,0,0:0:0:0:
256,192,70097,1,8,0:0:0:0:
256,192,70200,1,8,0:0:0:0:
256,192,70303,1,0,0:0:0:0:
256,192,70406,1,8,0:0:0:0:
256,192,70508,1,0,0:0:0:0:
256,192,70611,1,0,0:0:0:0:
256,192,70714,1,0,0:0:0:0:
256,192,70816,1,8,0:0:0:0:
256,192,70885,1,8,0:0:0:0:
256,192,70953,1,0,0:0:0:0:
256,192,71022,1,0,0:0:0:0:
256,192,71125,1,8,0:0:0:0:
256,192,71227,1,0,0:0:0:0:
256,192,71433,1,8,0:0:0:0:
256,192,71501,1,0,0:0:0:0:
256,192,71570,1,0,0:0:0:0:
256,192,71638,1,0,0:0:0:0:
256,192,71844,1,8,0:0:0:0:
256,192,71947,1,0,0:0:0:0:
256,192,72049,1,8,0:0:0:0:
256,192,72152,1,0,0:0:0:0:
256,192,72358,1,8,0:0:0:0:
256,192,72460,1,0,0:0:0:0:
256,192,72529,1,0,0:0:0:0:
256,192,72597,1,0,0:0:0:0:
256,192,72666,1,8,0:0:0:0:
256,192,72769,1,0,0:0:0:0:
256,192,72871,1,0,0:0:0:0:
256,192,72940,1,8,0:0:0:0:
256,192,73008,1,8,0:0:0:0:
256,192,73077,1,0,0:0:0:0:
256,192,73179,1,8,0:0:0:0:
256,192,73282,1,0,0:0:0:0:
256,192,73488,1,8,0:0:0:0:
256,192,73590,1,8,0:0:0:0:
256,192,73693,1,0,0:0:0:0:
256,192,73745,1,0,0:0:0:0:
256,192,73796,1,0,0:0:0:0:
256,192,73899,1,8,0:0:0:0:
256,192,74001,1,0,0:0:0:0:
256,192,74104,1,12,0:0:0:0:
256,192,74515,1,4,0:0:0:0:
256,192,74721,1,8,0:0:0:0:
256,192,74926,1,0,0:0:0:0:
256,192,75029,1,0,0:0:0:0:
256,192,75132,1,8,0:0:0:0:
256,192,75234,1,8,0:0:0:0:
256,192,75337,1,0,0:0:0:0:
256,192,75440,1,8,0:0:0:0:
256,192,75645,1,8,0:0:0:0:
256,192,75748,1,0,0:0:0:0:
256,192,75816,1,0,0:0:0:0:
256,192,75885,1,0,0:0:0:0:
256,192,75953,1,8,0:0:0:0:
256,192,76159,1,0,0:0:0:0:
256,192,76364,1,8,0:0:0:0:
256,192,76433,1,0,0:0:0:0:
256,192,76501,1,0,0:0:0:0:
256,192,76570,1,0,0:0:0:0:
256,192,76673,1,8,0:0:0:0:
256,192,76775,1,8,0:0:0:0:
256,192,76878,1,0,0:0:0:0:
256,192,76981,1,8,0:0:0:0:
256,192,77186,1,0,0:0:0:0:
256,192,77289,1,0,0:0:0:0:
256,192,77392,1,8,0:0:0:0:
256,192,77460,1,8,0:0:0:0:
256,192,77529,1,0,0:0:0:0:
256,192,77597,1,0,0:0:0:0:
256,192,77700,1,8,0:0:0:0:
256,192,77803,1,0,0:0:0:0:
256,192,77871,1,0,0:0:0:0:
256,192,77940,1,0,0:0:0:0:
256,192,78008,1,8,0:0:0:0:
256,192,78111,1,8,0:0:0:0:
256,192,78214,1,0,0:0:0:0:
256,192,78316,1,8,0:0:0:0:
256,192,78419,1,8,0:0:0:0:
256,192,78522,1,0,0:0:0:0:
256,192,78625,1,8,0:0:0:0:
256,192,78830,1,4,0:0:0:0:
256,192,79036,1,12,0:0:0:0:
256,192,79241,1,0,0:0:0:0:
256,192,79447,1,8,0:0:0:0:
256,192,79549,1,0,0:0:0:0:
256,192,79652,1,8,0:0:0:0:
256,192,79755,1,8,0:0:0:0:
256,192,79858,1,0,0:0:0:0:
256,192,79960,1,0,0:0:0:0:
256,192,80063,1,8,0:0:0:0:
256,192,80166,1,8,0:0:0:0:
256,192,80371,1,4,0:0:0:0:
256,192,80577,1,8,0:0:0:0:
256,192,80679,1,4,0:0:0:0:
256,192,80885,1,8,0:0:0:0:
256,192,80953,1,0,0:0:0:0:
256,192,81022,1,0,0:0:0:0:
256,192,81090,1,8,0:0:0:0:
256,192,81501,1,4,0:0:0:0:
256,192,81707,1,8,0:0:0:0:
256,192,81810,1,0,0:0:0:0:
256,192,81912,1,0,0:0:0:0:
256,192,82015,1,8,0:0:0:0:
256,192,82221,1,8,0:0:0:0:
256,192,82323,1,4,0:0:0:0:
256,192,82529,1,8,0:0:0:0:
256,192,82734,1,0,0:0:0:0:
256,192,82803,1,0,0:0:0:0:
256,192,82871,1,0,0:0:0:0:
256,192,82940,1,8,0:0:0:0:
256,192,83145,1,0,0:0:0:0:
256,192,83351,1,0,0:0:0:0:
256,192,83453,1,8,0:0:0:0:
256,192,83556,1,0,0:0:0:0:
256,192,83659,1,8,0:0:0:0:
256,192,83864,1,8,0:0:0:0:
256,192,83967,1,0,0:0:0:0:
256,192,84070,1,8,0:0:0:0:
256,192,84138,1,0,0:0:0:0:
256,192,84207,1,0,0:0:0:0:
256,192,84275,1,8,0:0:0:0:
256,192,84378,1,0,0:0:0:0:
256,192,84584,1,8,0:0:0:0:
256,192,84652,1,0,0:0:0:0:
256,192,84721,1,0,0:0:0:0:
256,192,84789,1,0,0:0:0:0:
256,192,84995,1,8,0:0:0:0:
256,192,85200,1,0,0:0:0:0:
256,192,85303,1,8,0:0:0:0:
256,192,85508,1,8,0:0:0:0:
256,192,85611,1,4,0:0:0:0:
256,192,85816,1,8,0:0:0:0:
256,192,86022,1,0,0:0:0:0:
256,192,86125,1,0,0:0:0:0:
256,192,86227,1,8,0:0:0:0:
256,192,86433,1,0,0:0:0:0:
256,192,86536,1,0,0:0:0:0:
256,192,86638,1,8,0:0:0:0:
256,192,86690,1,0,0:0:0:0:
256,192,86741,1,8,0:0:0:0:
256,192,86844,1,0,0:0:0:0:
256,192,86947,1,8,0:0:0:0:
256,192,87049,1,8,0:0:0:0:
256,192,87152,1,0,0:0:0:0:
256,192,87255,1,12,0:0:0:0:
256,192,87460,1,8,0:0:0:0:
256,192,87563,1,8,0:0:0:0:
256,192,87666,1,4,0:0:0:0:
256,192,87871,1,8,0:0:0:0:
256,192,87940,1,8,0:0:0:0:
256,192,88008,1,8,0:0:0:0:
256,192,88077,1,0,0:0:0:0:
256,192,88179,1,0,0:0:0:0:
256,192,88282,1,8,0:0:0:0:
256,192,88385,1,8,0:0:0:0:
256,192,88488,1,0,0:0:0:0:
256,192,88590,1,0,0:0:0:0:
256,192,88796,1,8,0:0:0:0:
256,192,88899,1,4,0:0:0:0:
256,192,89104,1,8,0:0:0:0:
256,192,89207,1,0,0:0:0:0:
256,192,89310,1,0,0:0:0:0:
256,192,89515,1,8,0:0:0:0:
256,192,89566,1,8,0:0:0:0:
256,192,89618,1,8,0:0:0:0:
256,192,89669,1,8,0:0:0:0:
256,192,89721,1,0,0:0:0:0:
256,192,89926,1,8,0:0:0:0:
256,192,89995,1,8,0:0:0:0:
256,192,90063,1,8,0:0:0:0:
256,192,90132,1,4,0:0:0:0:
256,192,90543,1,0,0:0:0:0:
256,192,90645,1,8,0:0:0:0:
256,192,90748,1,0,0:0:0:0:
256,192,90851,1,8,0:0:0:0:
256,192,90953,1,0,0:0:0:0:
256,192,91159,1,8,0:0:0:0:
256,192,91364,1,0,0:0:0:0:
256,192,91467,1,0,0:0:0:0:
256,192,91673,1,0,0:0:0:0:
256,192,91775,1,12,0:0:0:0:
256,192,92084,1,12,0:0:0:0:
256,192,92392,1,12,0:0:0:0:
256,192,92803,1,0,0:0:0:0:
256,192,92906,1,0,0:0:0:0:
256,192,93008,1,8,0:0:0:0:
256,192,93111,1,8,0:0:0:0:
256,192,93214,1,0,0:0:0:0:
256,192,93316,1,0,0:0:0:0:
256,192,93419,1,8,0:0:0:0:
256,192,93488,1,0,0:0:0:0:
256,192,93556,1,0,0:0:0:0:
256,192,93625,1,8,0:0:0:0:
256,192,93693,1,0,0:0:0:0:
256,192,93762,1,0,0:0:0:0:
256,192,93830,1,8,0:0:0:0:
256,192,93933,1,8,0:0:0:0:
256,192,94036,1,8,0:0:0:0:
256,192,94138,1,8,0:0:0:0:
256,192,94241,1,4,0:0:0:0:
256,192,94447,1,8,0:0:0:0:
256,192,94549,1,0,0:0:0:0:
256,192,94755,1,8,0:0:0:0:
256,192,94858,1,0,0:0:0:0:
256,192,95063,1,8,0:0:0:0:
256,192,95166,1,0,0:0:0:0:
256,192,95269,1,8,0:0:0:0:
256,192,95371,1,8,0:0:0:0:
256,192,95577,1,8,0:0:0:0:
256,192,95679,1,0,0:0:0:0:
256,192,95782,1,8,0:0:0:0:
256,192,95885,1,8,0:0:0:0:
256,192,96090,1,8,0:0:0:0:
256,192,96193,1,0,0:0:0:0:
256,192,96399,1,8,0:0:0:0:
256,192,96501,1,0,0:0:0:0:
256,192,96707,1,8,0:0:0:0:
256,192,96810,1,0,0:0:0:0:
256,192,96912,1,8,0:0:0:0:
256,192,97015,1,8,0:0:0:0:
256,192,97221,1,8,0:0:0:0:
256,192,97323,1,0,0:0:0:0:
256,192,97529,1,8,0:0:0:0:
256,192,97735,1,0,0:0:0:0:
256,192,97837,1,8,0:0:0:0:
256,192,98042,1,0,0:0:0:0:
256,192,98146,1,8,0:0:0:0:
256,192,98248,1,0,0:0:0:0:
256,192,98453,1,8,0:0:0:0:
256,192,98557,1,0,0:0:0:0:
256,192,98659,1,8,0:0:0:0:
256,192,98865,1,0,0:0:0:0:
256,192,98967,1,8,0:0:0:0:
256,192,99070,1,8,0:0:0:0:
256,192,99173,1,0,0:0:0:0:
256,192,99378,1,8,0:0:0:0:
256,192,99481,1,8,0:0:0:0:
256,192,99584,1,0,0:0:0:0:
256,192,99686,1,0,0:0:0:0:
256,192,99789,1,8,0:0:0:0:
256,192,99858,1,8,0:0:0:0:
256,192,99926,1,8,0:0:0:0:
256,192,99995,1,0,0:0:0:0:
256,192,100097,1,8,0:0:0:0:
256,192,100200,1,0,0:0:0:0:
256,192,100303,1,8,0:0:0:0:
256,192,100406,1,4,0:0:0:0:
256,192,100611,1,0,0:0:0:0:
256,192,100816,1,4,0:0:0:0:
256,192,101022,1,8,0:0:0:0:
256,192,101124,1,0,0:0:0:0:
256,192,101330,1,0,0:0:0:0:
256,192,101433,1,8,0:0:0:0:
256,192,101638,1,0,0:0:0:0:
256,192,101741,1,0,0:0:0:0:
256,192,101844,1,8,0:0:0:0:
256,192,101946,1,0,0:0:0:0:
256,192,102152,1,0,0:0:0:0:
256,192,102254,1,8,0:0:0:0:
256,192,102357,1,8,0:0:0:0:
256,192,102460,1,0,0:0:0:0:
256,192,102665,1,8,0:0:0:0:
256,192,102768,1,0,0:0:0:0:
256,192,102974,1,8,0:0:0:0:
256,192,103077,1,8,0:0:0:0:
256,192,103179,1,0,0:0:0:0:
256,192,103282,1,8,0:0:0:0:
256,192,103385,1,0,0:0:0:0:
256,192,103488,1,0,0:0:0:0:
256,192,103590,1,8,0:0:0:0:
256,192,103796,1,0,0:0:0:0:
256,192,103898,1,8,0:0:0:0:
256,192,104001,1,0,0:0:0:0:
256,192,104104,1,8,0:0:0:0:
256,192,104310,1,0,0:0:0:0:
256,192,104412,1,8,0:0:0:0:
256,192,104617,1,0,0:0:0:0:
256,192,104721,1,8,0:0:0:0:
256,192,104823,1,0,0:0:0:0:
256,192,104926,1,8,0:0:0:0:
256,192,105029,1,8,0:0:0:0:
256,192,105132,1,0,0:0:0:0:
256,192,105234,1,8,0:0:0:0:
256,192,105337,1,4,0:0:0:0:
256,192,105542,1,4,0:0:0:0:
256,192,105748,1,0,0:0:0:0:
256,192,105851,1,0,0:0:0:0:
256,192,105953,1,12,0:0:0:0:
256,192,106262,1,0,0:0:0:0:
256,192,106364,1,0,0:0:0:0:
256,192,106467,1,0,0:0:0:0:
256,192,106570,1,8,0:0:0:0:
256,192,106673,1,0,0:0:0:0:
256,192,106775,1,8,0:0:0:0:
256,192,106878,1,8,0:0:0:0:
256,192,106981,1,4,0:0:0:0:
256,192,107186,1,8,0:0:0:0:
256,192,107255,1,8,0:0:0:0:
256,192,107323,1,8,0:0:0:0:
256,192,107392,1,4,0:0:0:0:
256,192,107597,1,8,0:0:0:0:
256,192,107700,1,8,0:0:0:0:
256,192,107803,1,0,0:0:0:0:
256,192,107905,1,8,0:0:0:0:
256,192,108008,1,8,0:0:0:0:
256,192,108214,1,0,0:0:0:0:
256,192,108282,1,0,0:0:0:0:
256,192,108351,1,0,0:0:0:0:
256,192,108419,1,8,0:0:0:0:
256,192,108522,1,8,0:0:0:0:
256,192,108625,1,0,0:0:0:0:
256,192,108727,1,8,0:0:0:0:
256,192,108779,1,0,0:0:0:0:
256,192,108830,1,8,0:0:0:0:
256,192,108933,1,8,0:0:0:0:
256,192,109036,1,0,0:0:0:0:
256,192,109241,1,8,0:0:0:0:
256,192,109344,1,8,0:0:0:0:
256,192,109447,1,0,0:0:0:0:
256,192,109549,1,8,0:0:0:0:
256,192,109652,1,8,0:0:0:0:
256,192,109721,1,0,0:0:0:0:
256,192,109789,1,0,0:0:0:0:
256,192,109858,1,8,0:0:0:0:
256,192,110063,1,0,0:0:0:0:
256,192,110166,1,8,0:0:0:0:
256,192,110269,1,0,0:0:0:0:
256,192,110371,1,0,0:0:0:0:
256,192,110474,1,8,0:0:0:0:
256,192,110543,1,8,0:0:0:0:
256,192,110611,1,0,0:0:0:0:
256,192,110679,1,0,0:0:0:0:
256,192,110885,1,8,0:0:0:0:
256,192,110988,1,0,0:0:0:0:
256,192,111090,1,0,0:0:0:0:
256,192,111193,1,8,0:0:0:0:
256,192,111296,1,8,0:0:0:0:
256,192,111501,1,8,0:0:0:0:
256,192,111570,1,0,0:0:0:0:
256,192,111638,1,0,0:0:0:0:
256,192,111707,1,8,0:0:0:0:
256,192,111810,1,8,0:0:0:0:
256,192,111912,1,0,0:0:0:0:
256,192,112015,1,8,0:0:0:0:
256,192,112066,1,0,0:0:0:0:
256,192,112118,1,8,0:0:0:0:
256,192,112221,1,8,0:0:0:0:
256,192,112426,1,0,0:0:0:0:
256,192,112529,1,8,0:0:0:0:
256,192,112632,1,8,0:0:0:0:
256,192,112734,1,0,0:0:0:0:
256,192,112837,1,8,0:0:0:0:
256,192,112940,1,8,0:0:0:0:
256,192,113008,1,0,0:0:0:0:
256,192,113077,1,0,0:0:0:0:
256,192,113145,1,0,0:0:0:0:
256,192,113248,1,8,0:0:0:0:
256,192,113299,1,0,0:0:0:0:
256,192,113351,1,8,0:0:0:0:
256,192,113453,1,8,0:0:0:0:
256,192,113556,1,4,0:0:0:0:
256,192,113967,1,4,0:0:0:0:
256,192,114173,1,8,0:0:0:0:
256,192,114275,1,8,0:0:0:0:
256,192,114378,1,0,0:0:0:0:
256,192,114481,1,8,0:0:0:0:
256,192,114532,1,0,0:0:0:0:
256,192,114584,1,8,0:0:0:0:
256,192,114789,1,0,0:0:0:0:
256,192,114858,1,0,0:0:0:0:
256,192,114926,1,0,0:0:0:0:
256,192,114995,1,8,0:0:0:0:
256,192,115097,1,8,0:0:0:0:
256,192,115200,1,0,0:0:0:0:
256,192,115303,1,8,0:0:0:0:
256,192,115406,1,0,0:0:0:0:
256,192,115508,1,8,0:0:0:0:
256,192,115611,1,0,0:0:0:0:
256,192,115679,1,0,0:0:0:0:
256,192,115748,1,0,0:0:0:0:
256,192,115816,1,8,0:0:0:0:
256,192,115919,1,8,0:0:0:0:
256,192,116125,1,0,0:0:0:0:
256,192,116227,1,8,0:0:0:0:
256,192,116382,1,8,0:0:0:0:
256,192,116433,1,0,0:0:0:0:
256,192,116536,1,0,0:0:0:0:
256,192,116638,1,8,0:0:0:0:
256,192,116741,1,0,0:0:0:0:
256,192,116844,1,8,0:0:0:0:
256,192,117049,1,8,0:0:0:0:
256,192,117118,1,0,0:0:0:0:
256,192,117186,1,0,0:0:0:0:
256,192,117255,1,0,0:0:0:0:
256,192,117460,1,8,0:0:0:0:
256,192,117666,1,0,0:0:0:0:
256,192,117871,1,8,0:0:0:0:
256,192,118077,1,4,0:0:0:0:
256,192,118282,1,8,0:0:0:0:
256,192,118385,1,4,0:0:0:0:
256,192,118590,1,8,0:0:0:0:
256,192,118693,1,4,0:0:0:0:
256,192,118899,1,12,0:0:0:0:
256,192,119104,1,8,0:0:0:0:
256,192,119310,1,4,0:0:0:0:
256,192,119515,1,0,0:0:0:0:
256,192,119584,1,0,0:0:0:0:
256,192,119652,1,0,0:0:0:0:
256,192,119721,1,8,0:0:0:0:
256,192,120132,1,8,0:0:0:0:
256,192,120183,1,8,0:0:0:0:
256,192,120337,1,8,0:0:0:0:
256,192,120388,1,8,0:0:0:0:
256,192,120543,1,4,0:0:0:0:
256,192,120679,1,8,0:0:0:0:
256,192,120816,1,8,0:0:0:0:
256,192,120953,1,0,0:0:0:0:
256,192,121090,1,8,0:0:0:0:
256,192,121227,1,8,0:0:0:0:
256,192,121364,1,0,0:0:0:0:
256,192,121501,1,0,0:0:0:0:
256,192,121570,1,0,0:0:0:0:
256,192,121638,1,8,0:0:0:0:
256,192,121775,1,8,0:0:0:0:
256,192,121912,1,0,0:0:0:0:
256,192,122049,1,8,0:0:0:0:
256,192,122186,1,8,0:0:0:0:
256,192,122323,1,8,0:0:0:0:
256,192,122392,1,0,0:0:0:0:
256,192,122460,1,0,0:0:0:0:
256,192,122597,1,8,0:0:0:0:
256,192,122734,1,0,0:0:0:0:
256,192,122803,1,0,0:0:0:0:
256,192,122871,1,8,0:0:0:0:
256,192,123008,1,8,0:0:0:0:
256,192,123145,1,0,0:0:0:0:
256,192,123214,1,0,0:0:0:0:
256,192,123282,1,8,0:0:0:0:
256,192,123419,1,8,0:0:0:0:
256,192,123556,1,0,0:0:0:0:
256,192,123625,1,0,0:0:0:0:
256,192,123693,1,0,0:0:0:0:
256,192,123830,1,8,0:0:0:0:
256,192,123967,1,0,0:0:0:0:
256,192,124104,1,8,0:0:0:0:
256,192,124241,1,0,0:0:0:0:
256,192,124378,1,0,0:0:0:0:
256,192,124515,1,0,0:0:0:0:
256,192,124584,1,0,0:0:0:0:
256,192,124652,1,8,0:0:0:0:
256,192,124789,1,0,0:0:0:0:
256,192,124926,1,8,0:0:0:0:
256,192,125063,1,0,0:0:0:0:
256,192,125200,1,0,0:0:0:0:
256,192,125337,1,8,0:0:0:0:
256,192,125406,1,0,0:0:0:0:
256,192,125474,1,8,0:0:0:0:
256,192,125611,1,0,0:0:0:0:
256,192,125748,1,0,0:0:0:0:
256,192,125816,1,0,0:0:0:0:
256,192,125885,1,0,0:0:0:0:
256,192,126022,1,0,0:0:0:0:
256,192,126159,1,8,0:0:0:0:
256,192,126227,1,8,0:0:0:0:
256,192,126296,1,0,0:0:0:0:
256,192,126433,1,0,0:0:0:0:
256,192,126501,1,0,0:0:0:0:
256,192,126570,1,8,0:0:0:0:
256,192,126707,1,8,0:0:0:0:
256,192,126844,1,0,0:0:0:0:
256,192,126912,1,0,0:0:0:0:
256,192,126981,1,8,0:0:0:0:
256,192,127118,1,4,0:0:0:0:
256,192,127255,1,0,0:0:0:0:
256,192,127392,1,8,0:0:0:0:
256,192,127529,1,0,0:0:0:0:
256,192,127666,1,8,0:0:0:0:
256,192,127803,1,8,0:0:0:0:
256,192,127940,1,0,0:0:0:0:
256,192,128077,1,8,0:0:0:0:
256,192,128214,1,8,0:0:0:0:
256,192,128282,1,0,0:0:0:0:
256,192,128351,1,8,0:0:0:0:
256,192,128488,1,0,0:0:0:0:
256,192,128625,1,0,0:0:0:0:
256,192,128762,1,8,0:0:0:0:
256,192,128899,1,0,0:0:0:0:
256,192,128967,1,0,0:0:0:0:
256,192,129036,1,0,0:0:0:0:
256,192,129173,1,8,0:0:0:0:
256,192,129310,1,0,0:0:0:0:
256,192,129378,1,0,0:0:0:0:
256,192,129447,1,8,0:0:0:0:
256,192,129584,1,8,0:0:0:0:
256,192,129721,1,0,0:0:0:0:
256,192,129789,1,0,0:0:0:0:
256,192,129858,1,0,0:0:0:0:
256,192,129926,1,0,0:0:0:0:
256,192,129995,1,8,0:0:0:0:
256,192,130132,1,0,0:0:0:0:
256,192,130200,1,0,0:0:0:0:
256,192,130269,1,8,0:0:0:0:
256,192,130337,1,0,0:0:0:0:
256,192,130406,1,8,0:0:0:0:
256,192,130543,1,0,0:0:0:0:
256,192,130611,1,0,0:0:0:0:
256,192,130680,1,8,0:0:0:0:
256,192,130748,1,0,0:0:0:0:
256,192,130817,1,8,0:0:0:0:
256,192,130885,1,8,0:0:0:0:
256,192,130954,1,0,0:0:0:0:
256,192,131022,1,0,0:0:0:0:
256,192,131091,1,8,0:0:0:0:
256,192,131159,1,0,0:0:0:0:
256,192,131228,1,8,0:0:0:0:
256,192,131296,1,8,0:0:0:0:
256,192,131365,1,0,0:0:0:0:
256,192,131433,1,0,0:0:0:0:
256,192,131502,1,8,0:0:0:0:
256,192,131570,1,0,0:0:0:0:
256,192,131639,1,8,0:0:0:0:
256,192,131707,1,8,0:0:0:0:
256,192,131776,1,0,0:0:0:0:
256,192,131844,1,0,0:0:0:0:
256,192,131913,1,8,0:0:0:0:
256,192,132050,1,4,0:0:0:0:
256,192,132186,1,4,0:0:0:0:
256,192,132323,1,4,0:0:0:0:
256,192,132460,1,4,0:0:0:0:
256,192,132871,1,4,0:0:0:0:
256,192,133008,1,4,0:0:0:0:
256,192,133145,1,4,0:0:0:0:
256,192,133282,1,4,0:0:0:0:
256,192,133419,1,4,0:0:0:0:
256,192,133556,1,4,0:0:0:0:
256,192,133693,1,4,0:0:0:0:
256,192,136981,1,0,0:0:0:0:
256,192,138077,1,0,0:0:0:0:
256,192,138351,1,8,0:0:0:0:
256,192,138625,1,12,0:0:0:0:
256,192,140269,1,0,0:0:0:0:
256,192,140679,1,8,0:0:0:0:
256,192,140816,1,0,0:0:0:0:
256,192,141090,1,0,0:0:0:0:
256,192,141638,1,0,0:0:0:0:
256,192,143145,1,8,0:0:0:0:
256,192,143214,1,8,0:0:0:0:
256,192,143282,1,8,0:0:0:0:
256,192,143351,1,0,0:0:0:0:
256,192,143419,1,0,0:0:0:0:
256,192,143488,1,0,0:0:0:0:
256,192,143556,1,0,0:0:0:0:
256,192,143967,1,8,0:0:0:0:
256,192,144104,1,0,0:0:0:0:
256,192,144926,1,0,0:0:0:0:
256,192,145200,12,0,146638,0:0:0:0:
256,192,146844,5,4,0:0:0:0:
256,192,147152,1,0,0:0:0:0:
256,192,147460,1,8,0:0:0:0:
256,192,147769,1,8,0:0:0:0:
256,192,148077,1,8,0:0:0:0:
256,192,150132,1,0,0:0:0:0:
256,192,150440,1,0,0:0:0:0:
256,192,150748,1,8,0:0:0:0:
256,192,151057,1,8,0:0:0:0:
256,192,151365,1,0,0:0:0:0:
256,192,151673,1,8,0:0:0:0:
256,192,153419,1,0,0:0:0:0:
256,192,153727,1,0,0:0:0:0:
256,192,154035,1,8,0:0:0:0:
256,192,154344,1,8,0:0:0:0:
256,192,154652,1,0,0:0:0:0:
256,192,154960,1,8,0:0:0:0:
256,192,155269,1,8,0:0:0:0:
256,192,156707,1,0,0:0:0:0:
256,192,157015,1,0,0:0:0:0:
256,192,157323,1,8,0:0:0:0:
256,192,157632,1,8,0:0:0:0:
256,192,157940,1,0,0:0:0:0:
256,192,158248,1,8,0:0:0:0:
256,192,158556,1,0,0:0:0:0:
256,192,158864,1,8,0:0:0:0:
256,192,159995,1,4,0:0:0:0:
256,192,160303,1,8,0:0:0:0:
256,192,160611,1,8,0:0:0:0:
256,192,160714,1,0,0:0:0:0:
256,192,160920,1,8,0:0:0:0:
256,192,161125,1,0,0:0:0:0:
256,192,161227,1,8,0:0:0:0:
256,192,161330,1,0,0:0:0:0:
256,192,161638,1,8,0:0:0:0:
256,192,161844,1,0,0:0:0:0:
256,192,161947,1,8,0:0:0:0:
256,192,162152,1,8,0:0:0:0:
256,192,162255,1,0,0:0:0:0:
256,192,162460,1,8,0:0:0:0:
256,192,162666,1,8,0:0:0:0:
256,192,162769,1,8,0:0:0:0:
256,192,162974,1,8,0:0:0:0:
256,192,163077,1,0,0:0:0:0:
256,192,163179,1,8,0:0:0:0:
256,192,163283,1,0,0:0:0:0:
256,192,163488,1,0,0:0:0:0:
256,192,163591,1,8,0:0:0:0:
256,192,163796,1,0,0:0:0:0:
256,192,163899,1,8,0:0:0:0:
256,192,164001,1,0,0:0:0:0:
256,192,164208,1,8,0:0:0:0:
256,192,164310,1,0,0:0:0:0:
256,192,164516,1,0,0:0:0:0:
256,192,164618,1,8,0:0:0:0:
256,192,164824,1,8,0:0:0:0:
256,192,164926,1,8,0:0:0:0:
256,192,165132,1,8,0:0:0:0:
256,192,165337,1,0,0:0:0:0:
256,192,165440,1,8,0:0:0:0:
256,192,165645,1,8,0:0:0:0:
256,192,165851,1,0,0:0:0:0:
256,192,165953,1,8,0:0:0:0:
256,192,166262,1,8,0:0:0:0:
256,192,166364,1,0,0:0:0:0:
256,192,166570,1,8,0:0:0:0:
256,192,166775,1,8,0:0:0:0:
256,192,166878,1,0,0:0:0:0:
256,192,167084,1,8,0:0:0:0:
256,192,167186,1,0,0:0:0:0:
256,192,167289,1,8,0:0:0:0:
256,192,167392,1,8,0:0:0:0:
256,192,167597,1,8,0:0:0:0:
256,192,167700,1,8,0:0:0:0:
256,192,167803,1,0,0:0:0:0:
256,192,167906,1,8,0:0:0:0:
256,192,168008,1,0,0:0:0:0:
256,192,168111,1,0,0:0:0:0:
256,192,168214,1,8,0:0:0:0:
256,192,168316,1,8,0:0:0:0:
256,192,168419,1,0,0:0:0:0:
256,192,168522,1,8,0:0:0:0:
256,192,168727,1,8,0:0:0:0:
256,192,168830,1,0,0:0:0:0:
256,192,168933,1,0,0:0:0:0:
256,192,169036,1,8,0:0:0:0:
256,192,169138,1,0,0:0:0:0:
256,192,169241,1,8,0:0:0:0:
256,192,169344,1,8,0:0:0:0:
256,192,169549,1,0,0:0:0:0:
256,192,169652,1,8,0:0:0:0:
256,192,169755,1,8,0:0:0:0:
256,192,169858,1,0,0:0:0:0:
256,192,169960,1,0,0:0:0:0:
256,192,170063,1,8,0:0:0:0:
256,192,170166,1,8,0:0:0:0:
256,192,170269,1,0,0:0:0:0:
256,192,170371,1,0,0:0:0:0:
256,192,170474,1,8,0:0:0:0:
256,192,170577,1,8,0:0:0:0:
256,192,170679,1,0,0:0:0:0:
256,192,170782,1,0,0:0:0:0:
256,192,170885,1,8,0:0:0:0:
256,192,170988,1,8,0:0:0:0:
256,192,171090,1,0,0:0:0:0:
256,192,171193,1,0,0:0:0:0:
256,192,171296,1,8,0:0:0:0:
256,192,171399,1,8,0:0:0:0:
256,192,173145,1,4,0:0:0:0:
256,192,173351,1,8,0:0:0:0:
256,192,173453,1,0,0:0:0:0:
256,192,173556,1,8,0:0:0:0:
256,192,173659,1,8,0:0:0:0:
256,192,173762,1,0,0:0:0:0:
256,192,173864,1,8,0:0:0:0:
256,192,173967,1,8,0:0:0:0:
256,192,174070,1,0,0:0:0:0:
256,192,174173,1,8,0:0:0:0:
256,192,174275,1,8,0:0:0:0:
256,192,174378,1,4,0:0:0:0:
256,192,174584,1,8,0:0:0:0:
256,192,174686,1,8,0:0:0:0:
256,192,174789,1,4,0:0:0:0:
256,192,174995,1,0,0:0:0:0:
256,192,175097,1,8,0:0:0:0:
256,192,175200,1,0,0:0:0:0:
256,192,175303,1,8,0:0:0:0:
256,192,175406,1,0,0:0:0:0:
256,192,175508,1,0,0:0:0:0:
256,192,175611,1,8,0:0:0:0:
256,192,175714,1,0,0:0:0:0:
256,192,175816,1,8,0:0:0:0:
256,192,175919,1,8,0:0:0:0:
256,192,176022,1,4,0:0:0:0:
256,192,176227,1,0,0:0:0:0:
256,192,176330,1,8,0:0:0:0:
256,192,176433,1,4,0:0:0:0:
256,192,176638,1,0,0:0:0:0:
256,192,176741,1,0,0:0:0:0:
256,192,176844,1,8,0:0:0:0:
256,192,176947,1,8,0:0:0:0:
256,192,177049,1,0,0:0:0:0:
256,192,177255,1,8,0:0:0:0:
256,192,177358,1,8,0:0:0:0:
256,192,177460,1,0,0:0:0:0:
256,192,177563,1,8,0:0:0:0:
256,192,177769,1,0,0:0:0:0:
256,192,177871,1,8,0:0:0:0:
256,192,177974,1,8,0:0:0:0:
256,192,178077,1,4,0:0:0:0:
256,192,178282,1,8,0:0:0:0:
256,192,178488,1,0,0:0:0:0:
256,192,178590,1,8,0:0:0:0:
256,192,178796,1,4,0:0:0:0:
256,192,179001,1,8,0:0:0:0:
256,192,179104,1,8,0:0:0:0:
256,192,179207,1,0,0:0:0:0:
256,192,179310,1,8,0:0:0:0:
256,192,179412,1,8,0:0:0:0:
256,192,179515,1,0,0:0:0:0:
256,192,179721,1,4,0:0:0:0:
256,192,179927,1,8,0:0:0:0:
256,192,180029,1,0,0:0:0:0:
256,192,180132,1,8,0:0:0:0:
256,192,180235,1,8,0:0:0:0:
256,192,180338,1,0,0:0:0:0:
256,192,180440,1,8,0:0:0:0:
256,192,180543,1,8,0:0:0:0:
256,192,180646,1,0,0:0:0:0:
256,192,180749,1,8,0:0:0:0:
256,192,180851,1,8,0:0:0:0:
256,192,180954,1,4,0:0:0:0:
256,192,181160,1,8,0:0:0:0:
256,192,181262,1,8,0:0:0:0:
256,192,181364,1,4,0:0:0:0:
256,192,181571,1,0,0:0:0:0:
256,192,181673,1,8,0:0:0:0:
256,192,181776,1,0,0:0:0:0:
256,192,181879,1,8,0:0:0:0:
256,192,181982,1,0,0:0:0:0:
256,192,182084,1,0,0:0:0:0:
256,192,182187,1,8,0:0:0:0:
256,192,182290,1,0,0:0:0:0:
256,192,182392,1,8,0:0:0:0:
256,192,182495,1,8,0:0:0:0:
256,192,182597,1,4,0:0:0:0:
256,192,182803,1,8,0:0:0:0:
256,192,182906,1,0,0:0:0:0:
256,192,183008,1,12,0:0:0:0:
256,192,183214,1,0,0:0:0:0:
256,192,183316,1,0,0:0:0:0:
256,192,183419,1,8,0:0:0:0:
256,192,183522,1,8,0:0:0:0:
256,192,183625,1,8,0:0:0:0:
256,192,183830,1,0,0:0:0:0:
256,192,183933,1,8,0:0:0:0:
256,192,184138,1,8,0:0:0:0:
256,192,184241,1,0,0:0:0:0:
256,192,184344,1,8,0:0:0:0:
256,192,184447,1,8,0:0:0:0:
256,192,184652,1,4,0:0:0:0:
256,192,185063,1,4,0:0:0:0:
256,192,185269,1,8,0:0:0:0:
256,192,185371,1,4,0:0:0:0:
256,192,185577,1,8,0:0:0:0:
256,192,185679,1,4,0:0:0:0:
256,192,185885,1,8,0:0:0:0:
256,192,185953,1,8,0:0:0:0:
256,192,186022,1,8,0:0:0:0:
256,192,186090,1,0,0:0:0:0:
256,192,186193,1,8,0:0:0:0:
256,192,186296,1,4,0:0:0:0:
256,192,186501,1,8,0:0:0:0:
256,192,186604,1,0,0:0:0:0:
256,192,186707,1,8,0:0:0:0:
256,192,186912,1,8,0:0:0:0:
256,192,187015,1,0,0:0:0:0:
256,192,187221,1,8,0:0:0:0:
256,192,187323,1,0,0:0:0:0:
256,192,187426,1,0,0:0:0:0:
256,192,187529,1,12,0:0:0:0:
256,192,187734,1,8,0:0:0:0:
256,192,187837,1,8,0:0:0:0:
256,192,187940,1,4,0:0:0:0:
256,192,188145,1,0,0:0:0:0:
256,192,188248,1,0,0:0:0:0:
256,192,188351,1,8,0:0:0:0:
256,192,188556,1,0,0:0:0:0:
256,192,188659,1,0,0:0:0:0:
256,192,188864,1,0,0:0:0:0:
256,192,188967,1,0,0:0:0:0:
256,192,189173,1,12,0:0:0:0:
256,192,189378,1,0,0:0:0:0:
256,192,189481,1,8,0:0:0:0:
256,192,189584,1,4,0:0:0:0:
256,192,189789,1,0,0:0:0:0:
256,192,189858,1,0,0:0:0:0:
256,192,189926,1,0,0:0:0:0:
256,192,189995,1,8,0:0:0:0:
256,192,190200,1,0,0:0:0:0:
256,192,190303,1,8,0:0:0:0:
256,192,190508,1,8,0:0:0:0:
256,192,190611,1,0,0:0:0:0:
256,192,190714,1,0,0:0:0:0:
256,192,190816,1,8,0:0:0:0:
256,192,190885,1,0,0:0:0:0:
256,192,190953,1,0,0:0:0:0:
256,192,191022,1,8,0:0:0:0:
256,192,191125,1,8,0:0:0:0:
256,192,191227,1,4,0:0:0:0:
256,192,191433,1,0,0:0:0:0:
256,192,191638,1,8,0:0:0:0:
256,192,191741,1,0,0:0:0:0:
256,192,191947,1,4,0:0:0:0:
256,192,192152,1,8,0:0:0:0:
256,192,192255,1,0,0:0:0:0:
256,192,192460,1,8,0:0:0:0:
256,192,192563,1,8,0:0:0:0:
256,192,192666,1,0,0:0:0:0:
256,192,192871,1,4,0:0:0:0:
256,192,193077,1,8,0:0:0:0:
256,192,193179,1,0,0:0:0:0:
256,192,193282,1,8,0:0:0:0:
256,192,193385,1,8,0:0:0:0:
256,192,193488,1,0,0:0:0:0:
256,192,193590,1,8,0:0:0:0:
256,192,193796,1,8,0:0:0:0:
256,192,193898,1,0,0:0:0:0:
256,192,194001,1,0,0:0:0:0:
256,192,194104,1,12,0:0:0:0:
256,192,194310,1,8,0:0:0:0:
256,192,194412,1,8,0:0:0:0:
256,192,194515,1,4,0:0:0:0:
256,192,194721,1,0,0:0:0:0:
256,192,194823,1,8,0:0:0:0:
256,192,194926,1,0,0:0:0:0:
256,192,195029,1,8,0:0:0:0:
256,192,195132,1,8,0:0:0:0:
256,192,195234,1,0,0:0:0:0:
256,192,195440,1,0,0:0:0:0:
256,192,195543,1,8,0:0:0:0:
256,192,195645,1,0,0:0:0:0:
256,192,195748,1,12,0:0:0:0:
256,192,195953,1,8,0:0:0:0:
256,192,196056,1,8,0:0:0:0:
256,192,196159,1,4,0:0:0:0:
256,192,196364,1,8,0:0:0:0:
256,192,196467,1,8,0:0:0:0:
256,192,196570,1,0,0:0:0:0:
256,192,196673,1,0,0:0:0:0:
256,192,196775,1,8,0:0:0:0:
256,192,196878,1,0,0:0:0:0:
256,192,196981,1,8,0:0:0:0:
256,192,197084,1,8,0:0:0:0:
256,192,197186,1,0,0:0:0:0:
256,192,197289,1,8,0:0:0:0:
256,192,197391,1,0,0:0:0:0:
256,192,197495,1,0,0:0:0:0:
256,192,197597,1,8,0:0:0:0:
256,192,197700,1,8,0:0:0:0:
256,192,197802,1,4,0:0:0:0:
256,192,198008,1,0,0:0:0:0:
256,192,198111,1,8,0:0:0:0:
256,192,198213,1,4,0:0:0:0:
256,192,198419,1,8,0:0:0:0:
256,192,198522,1,4,0:0:0:0:
256,192,198727,1,8,0:0:0:0:
256,192,198830,1,8,0:0:0:0:
256,192,198933,1,0,0:0:0:0:
256,192,199035,1,12,0:0:0:0:
256,192,199241,1,0,0:0:0:0:
256,192,199344,1,8,0:0:0:0:
256,192,199447,1,4,0:0:0:0:
256,192,199858,1,8,0:0:0:0:
256,192,200166,1,8,0:0:0:0:
256,192,200371,1,0,0:0:0:0:
256,192,200679,1,8,0:0:0:0:
256,192,200885,1,8,0:0:0:0:
256,192,201090,1,0,0:0:0:0:
256,192,201501,1,8,0:0:0:0:
256,192,201810,1,8,0:0:0:0:
256,192,202015,1,0,0:0:0:0:
256,192,202221,1,0,0:0:0:0:
256,192,202323,1,8,0:0:0:0:
256,192,202734,1,0,0:0:0:0:
256,192,203042,1,0,0:0:0:0:
256,192,203145,1,8,0:0:0:0:
256,192,203453,1,8,0:0:0:0:
256,192,203658,1,0,0:0:0:0:
256,192,203966,1,8,0:0:0:0:
256,192,204172,1,8,0:0:0:0:
256,192,204378,1,0,0:0:0:0:
256,192,204584,1,0,0:0:0:0:
256,192,204686,1,0,0:0:0:0:
256,192,204788,1,8,0:0:0:0:
256,192,205097,1,8,0:0:0:0:
256,192,205302,1,0,0:0:0:0:
256,192,205508,1,0,0:0:0:0:
256,192,205610,1,8,0:0:0:0:
256,192,205714,1,0,0:0:0:0:
256,192,205919,1,0,0:0:0:0:
256,192,206021,1,0,0:0:0:0:
256,192,206433,1,8,0:0:0:0:
256,192,206536,1,0,0:0:0:0:
256,192,206741,1,8,0:0:0:0:
256,192,206844,1,0,0:0:0:0:
256,192,206946,1,8,0:0:0:0:
256,192,207152,1,0,0:0:0:0:
256,192,207254,1,8,0:0:0:0:
256,192,207460,1,8,0:0:0:0:
256,192,207665,1,0,0:0:0:0:
256,192,207871,1,0,0:0:0:0:
256,192,207974,1,0,0:0:0:0:
256,192,208076,1,8,0:0:0:0:
256,192,208179,1,0,0:0:0:0:
256,192,208385,1,8,0:0:0:0:
256,192,208590,1,8,0:0:0:0:
256,192,208693,1,0,0:0:0:0:
256,192,208796,1,8,0:0:0:0:
256,192,208898,1,8,0:0:0:0:
256,192,209104,1,0,0:0:0:0:
256,192,209207,1,8,0:0:0:0:
256,192,209309,1,0,0:0:0:0:
256,192,209515,1,0,0:0:0:0:
256,192,209618,1,0,0:0:0:0:
256,192,209722,1,8,0:0:0:0:
256,192,209825,1,0,0:0:0:0:
256,192,210030,1,8,0:0:0:0:
256,192,210133,1,0,0:0:0:0:
256,192,210235,1,8,0:0:0:0:
256,192,210441,1,0,0:0:0:0:
256,192,210543,1,8,0:0:0:0:
256,192,210749,1,8,0:0:0:0:
256,192,210851,1,8,0:0:0:0:
256,192,210954,1,0,0:0:0:0:
256,192,211159,1,0,0:0:0:0:
256,192,211263,1,0,0:0:0:0:
256,192,211365,1,8,0:0:0:0:
256,192,211467,1,0,0:0:0:0:
256,192,211571,1,0,0:0:0:0:
256,192,211674,1,8,0:0:0:0:
256,192,211879,1,8,0:0:0:0:
256,192,211981,1,0,0:0:0:0:
256,192,212085,1,8,0:0:0:0:
256,192,212289,1,8,0:0:0:0:
256,192,212392,1,0,0:0:0:0:
256,192,212496,1,8,0:0:0:0:
256,192,212598,1,4,0:0:0:0:
256,192,212803,1,0,0:0:0:0:
256,192,212906,1,0,0:0:0:0:
256,192,213008,1,8,0:0:0:0:
256,192,213111,1,0,0:0:0:0:
256,192,213214,1,0,0:0:0:0:
256,192,213316,1,8,0:0:0:0:
256,192,213419,1,8,0:0:0:0:
256,192,213625,1,0,0:0:0:0:
256,192,213728,1,0,0:0:0:0:
256,192,213830,1,8,0:0:0:0:
256,192,213933,1,0,0:0:0:0:
256,192,214036,1,8,0:0:0:0:
256,192,214138,1,8,0:0:0:0:
256,192,214241,1,8,0:0:0:0:
256,192,214447,1,0,0:0:0:0:
256,192,214550,1,0,0:0:0:0:
256,192,214652,1,8,0:0:0:0:
256,192,214755,1,0,0:0:0:0:
256,192,214858,1,0,0:0:0:0:
256,192,214960,1,8,0:0:0:0:
256,192,215063,1,8,0:0:0:0:
256,192,215269,1,0,0:0:0:0:
256,192,215372,1,0,0:0:0:0:
256,192,215474,1,8,0:0:0:0:
256,192,215577,1,0,0:0:0:0:
256,192,215680,1,8,0:0:0:0:
256,192,215782,1,0,0:0:0:0:
256,192,215885,1,8,0:0:0:0:
256,192,216090,1,0,0:0:0:0:
256,192,216193,1,0,0:0:0:0:
256,192,216295,1,8,0:0:0:0:
256,192,216398,1,8,0:0:0:0:
256,192,216501,1,0,0:0:0:0:
256,192,216603,1,0,0:0:0:0:
256,192,216706,1,8,0:0:0:0:
256,192,216810,1,8,0:0:0:0:
256,192,216912,1,0,0:0:0:0:
256,192,217015,1,0,0:0:0:0:
256,192,217117,1,8,0:0:0:0:
256,192,217220,1,8,0:0:0:0:
256,192,217323,1,0,0:0:0:0:
256,192,217425,1,0,0:0:0:0:
256,192,217528,1,8,0:0:0:0:
256,192,217632,1,0,0:0:0:0:
256,192,217734,1,0,0:0:0:0:
256,192,217837,1,8,0:0:0:0:
256,192,217939,1,0,0:0:0:0:
256,192,218042,1,0,0:0:0:0:
256,192,218145,1,8,0:0:0:0:
256,192,218247,1,0,0:0:0:0:
256,192,218350,1,8,0:0:0:0:
256,192,218453,1,0,0:0:0:0:
256,192,218556,1,0,0:0:0:0:
256,192,218659,1,8,0:0:0:0:
256,192,218761,1,8,0:0:0:0:
256,192,218864,1,0,0:0:0:0:
256,192,218967,1,8,0:0:0:0:
256,192,219069,1,8,0:0:0:0:
256,192,219172,1,0,0:0:0:0:
256,192,219378,1,8,0:0:0:0:
256,192,219481,1,0,0:0:0:0:
256,192,219584,1,8,0:0:0:0:
256,192,219686,1,8,0:0:0:0:
256,192,219789,1,0,0:0:0:0:
256,192,219892,1,8,0:0:0:0:
256,192,219995,1,8,0:0:0:0:
256,192,220097,1,0,0:0:0:0:
256,192,220200,1,8,0:0:0:0:
256,192,220303,1,8,0:0:0:0:
256,192,220406,1,8,0:0:0:0:
256,192,220508,1,0,0:0:0:0:
256,192,220611,1,8,0:0:0:0:
256,192,220714,1,0,0:0:0:0:
256,192,220816,1,8,0:0:0:0:
256,192,220919,1,8,0:0:0:0:
256,192,221022,1,0,0:0:0:0:
256,192,221125,1,8,0:0:0:0:
256,192,221227,1,8,0:0:0:0:
256,192,221330,1,0,0:0:0:0:
256,192,221433,1,8,0:0:0:0:
256,192,221536,1,8,0:0:0:0:
256,192,221638,1,8,0:0:0:0:
256,192,221741,1,0,0:0:0:0:
256,192,221844,1,8,0:0:0:0:
256,192,221947,1,0,0:0:0:0:
256,192,222049,1,8,0:0:0:0:
256,192,222152,1,8,0:0:0:0:
256,192,222255,1,0,0:0:0:0:
256,192,222358,1,8,0:0:0:0:
256,192,222460,1,4,0:0:0:0:
256,192,222666,1,8,0:0:0:0:
256,192,222734,1,8,0:0:0:0:
256,192,222803,1,8,0:0:0:0:
256,192,222871,1,0,0:0:0:0:
256,192,222940,1,0,0:0:0:0:
256,192,223008,1,0,0:0:0:0:
256,192,223077,1,8,0:0:0:0:
256,192,223145,1,8,0:0:0:0:
256,192,223214,1,8,0:0:0:0:
256,192,223282,1,0,0:0:0:0:
256,192,223351,1,0,0:0:0:0:
256,192,223419,1,0,0:0:0:0:
256,192,223488,1,8,0:0:0:0:
256,192,223556,1,0,0:0:0:0:
256,192,223625,1,0,0:0:0:0:
256,192,223693,1,8,0:0:0:0:
256,192,223762,1,0,0:0:0:0:
256,192,223830,1,0,0:0:0:0:
256,192,223899,1,8,0:0:0:0:
256,192,223967,1,8,0:0:0:0:
256,192,224036,1,8,0:0:0:0:
256,192,224104,1,0,0:0:0:0:
256,192,224412,1,0,0:0:0:0:
256,192,224721,1,0,0:0:0:0:
256,192,225337,1,0,0:0:0:0:
256,192,225439,1,0,0:0:0:0:
256,192,225542,1,12,0:0:0:0:
256,192,225748,1,4,0:0:0:0:
256,192,225953,1,8,0:0:0:0:
256,192,226056,1,0,0:0:0:0:
256,192,226159,1,8,0:0:0:0:
256,192,226227,1,8,0:0:0:0:
256,192,226296,1,8,0:0:0:0:
256,192,226364,1,0,0:0:0:0:
256,192,226467,1,8,0:0:0:0:
256,192,226570,1,8,0:0:0:0:
256,192,226673,1,0,0:0:0:0:
256,192,226775,1,8,0:0:0:0:
256,192,226878,1,8,0:0:0:0:
256,192,226981,1,4,0:0:0:0:
256,192,227186,1,8,0:0:0:0:
256,192,227289,1,8,0:0:0:0:
256,192,227392,1,4,0:0:0:0:
256,192,227597,1,0,0:0:0:0:
256,192,227700,1,8,0:0:0:0:
256,192,227803,1,0,0:0:0:0:
256,192,227906,1,8,0:0:0:0:
256,192,228008,1,0,0:0:0:0:
256,192,228077,1,0,0:0:0:0:
256,192,228145,1,0,0:0:0:0:
256,192,228214,1,8,0:0:0:0:
256,192,228316,1,0,0:0:0:0:
256,192,228419,1,8,0:0:0:0:
256,192,228522,1,8,0:0:0:0:
256,192,228625,1,4,0:0:0:0:
256,192,228830,1,0,0:0:0:0:
256,192,228933,1,8,0:0:0:0:
256,192,229036,1,4,0:0:0:0:
256,192,229241,1,0,0:0:0:0:
256,192,229344,1,8,0:0:0:0:
256,192,229447,1,8,0:0:0:0:
256,192,229549,1,0,0:0:0:0:
256,192,229618,1,0,0:0:0:0:
256,192,229686,1,0,0:0:0:0:
256,192,229755,1,8,0:0:0:0:
256,192,229858,1,8,0:0:0:0:
256,192,229960,1,0,0:0:0:0:
256,192,230029,1,0,0:0:0:0:
256,192,230097,1,0,0:0:0:0:
256,192,230166,1,8,0:0:0:0:
256,192,230269,1,0,0:0:0:0:
256,192,230371,1,0,0:0:0:0:
256,192,230474,1,8,0:0:0:0:
256,192,230577,1,8,0:0:0:0:
256,192,230679,1,4,0:0:0:0:
256,192,230885,1,8,0:0:0:0:
256,192,230936,1,8,0:0:0:0:
256,192,231090,1,0,0:0:0:0:
256,192,231193,1,8,0:0:0:0:
256,192,231245,1,8,0:0:0:0:
256,192,231399,1,8,0:0:0:0:
256,192,231501,1,0,0:0:0:0:
256,192,231570,1,0,0:0:0:0:
256,192,231638,1,0,0:0:0:0:
256,192,231707,1,8,0:0:0:0:
256,192,231912,1,8,0:0:0:0:
256,192,231964,1,8,0:0:0:0:
256,192,232015,1,0,0:0:0:0:
256,192,232118,1,8,0:0:0:0:
256,192,232221,1,8,0:0:0:0:
256,192,232323,1,4,0:0:0:0:
256,192,232528,1,8,0:0:0:0:
256,192,232631,1,0,0:0:0:0:
256,192,232734,1,8,0:0:0:0:
256,192,232803,1,8,0:0:0:0:
256,192,232871,1,0,0:0:0:0:
256,192,232939,1,0,0:0:0:0:
256,192,233042,1,8,0:0:0:0:
256,192,233145,1,8,0:0:0:0:
256,192,233248,1,0,0:0:0:0:
256,192,233350,1,8,0:0:0:0:
256,192,233453,1,8,0:0:0:0:
256,192,233556,1,4,0:0:0:0:
256,192,233761,1,8,0:0:0:0:
256,192,233864,1,8,0:0:0:0:
256,192,233967,1,4,0:0:0:0:
256,192,234172,1,0,0:0:0:0:
256,192,234275,1,8,0:0:0:0:
256,192,234378,1,0,0:0:0:0:
256,192,234481,1,8,0:0:0:0:
256,192,234583,1,0,0:0:0:0:
256,192,234652,1,0,0:0:0:0:
256,192,234721,1,8,0:0:0:0:
256,192,234789,1,8,0:0:0:0:
256,192,234891,1,0,0:0:0:0:
256,192,234994,1,8,0:0:0:0:
256,192,235097,1,8,0:0:0:0:
256,192,235200,1,4,0:0:0:0:
256,192,235405,1,8,0:0:0:0:
256,192,235508,1,0,0:0:0:0:
256,192,235611,1,12,0:0:0:0:
256,192,235816,1,8,0:0:0:0:
256,192,235919,1,8,0:0:0:0:
256,192,236022,1,0,0:0:0:0:
256,192,236073,1,0,0:0:0:0:
256,192,236125,1,8,0:0:0:0:
256,192,236227,1,8,0:0:0:0:
256,192,236330,1,8,0:0:0:0:
256,192,236433,1,0,0:0:0:0:
256,192,236536,1,8,0:0:0:0:
256,192,236741,1,8,0:0:0:0:
256,192,236844,1,0,0:0:0:0:
256,192,237049,1,0,0:0:0:0:
256,192,237101,1,0,0:0:0:0:
256,192,237152,1,8,0:0:0:0:
256,192,237255,1,4,0:0:0:0:
256,192,237460,1,8,0:0:0:0:
256,192,237666,1,4,0:0:0:0:
256,192,237871,1,8,0:0:0:0:
256,192,238077,1,4,0:0:0:0:
256,192,238282,1,4,0:0:0:0:
256,192,238385,1,4,0:0:0:0:
256,192,238590,1,12,0:0:0:0:
256,192,238745,1,0,0:0:0:0:
256,192,238796,1,8,0:0:0:0:
256,192,238899,1,4,0:0:0:0:
256,192,239104,1,8,0:0:0:0:
256,192,239207,1,0,0:0:0:0:
256,192,239310,1,8,0:0:0:0:
256,192,239378,1,8,0:0:0:0:
256,192,239447,1,8,0:0:0:0:
256,192,239515,1,0,0:0:0:0:
256,192,239618,1,8,0:0:0:0:
256,192,239721,1,8,0:0:0:0:
256,192,239789,1,0,0:0:0:0:
256,192,239858,1,0,0:0:0:0:
256,192,239926,1,8,0:0:0:0:
256,192,240029,1,8,0:0:0:0:
256,192,240132,1,4,0:0:0:0:
256,192,240337,1,8,0:0:0:0:
256,192,240440,1,8,0:0:0:0:
256,192,240543,1,4,0:0:0:0:
256,192,240748,1,0,0:0:0:0:
256,192,240851,1,8,0:0:0:0:
256,192,240954,1,0,0:0:0:0:
256,192,241057,1,8,0:0:0:0:
256,192,241159,1,0,0:0:0:0:
256,192,241228,1,0,0:0:0:0:
256,192,241296,1,0,0:0:0:0:
256,192,241365,1,8,0:0:0:0:
256,192,241467,1,0,0:0:0:0:
256,192,241570,1,8,0:0:0:0:
256,192,241638,1,8,0:0:0:0:
256,192,241707,1,8,0:0:0:0:
256,192,241776,1,4,0:0:0:0:
256,192,241981,1,0,0:0:0:0:
256,192,242084,1,8,0:0:0:0:
256,192,242187,1,4,0:0:0:0:
256,192,242392,1,0,0:0:0:0:
256,192,242495,1,8,0:0:0:0:
256,192,242598,1,8,0:0:0:0:
256,192,242700,1,0,0:0:0:0:
256,192,242751,1,0,0:0:0:0:
256,192,242803,1,0,0:0:0:0:
256,192,242906,1,8,0:0:0:0:
256,192,243009,1,8,0:0:0:0:
256,192,243111,1,0,0:0:0:0:
256,192,243162,1,0,0:0:0:0:
256,192,243214,1,0,0:0:0:0:
256,192,243317,1,8,0:0:0:0:
256,192,243420,1,0,0:0:0:0:
256,192,243522,1,0,0:0:0:0:
256,192,243573,1,0,0:0:0:0:
256,192,243625,1,8,0:0:0:0:
256,192,243728,1,8,0:0:0:0:
256,192,243830,1,4,0:0:0:0:
256,192,244036,1,8,0:0:0:0:
256,192,244087,1,8,0:0:0:0:
256,192,244241,1,0,0:0:0:0:
256,192,244344,1,8,0:0:0:0:
256,192,244396,1,8,0:0:0:0:
256,192,244550,1,8,0:0:0:0:
256,192,244652,1,0,0:0:0:0:
256,192,244721,1,8,0:0:0:0:
256,192,244789,1,8,0:0:0:0:
256,192,244858,1,8,0:0:0:0:
256,192,245063,1,8,0:0:0:0:
256,192,245115,1,8,0:0:0:0:
256,192,245166,1,0,0:0:0:0:
256,192,245269,1,8,0:0:0:0:
256,192,245372,1,8,0:0:0:0:
256,192,245474,1,4,0:0:0:0:
256,192,245679,1,8,0:0:0:0:
256,192,245782,1,0,0:0:0:0:
256,192,245885,1,8,0:0:0:0:
256,192,245954,1,0,0:0:0:0:
256,192,246022,1,0,0:0:0:0:
256,192,246090,1,0,0:0:0:0:
256,192,246193,1,8,0:0:0:0:
256,192,246296,1,8,0:0:0:0:
256,192,246364,1,0,0:0:0:0:
256,192,246433,1,0,0:0:0:0:
256,192,246501,1,8,0:0:0:0:
256,192,246604,1,8,0:0:0:0:
256,192,246707,1,4,0:0:0:0:
256,192,246912,1,8,0:0:0:0:
256,192,247015,1,8,0:0:0:0:
256,192,247118,1,4,0:0:0:0:
256,192,247323,1,0,0:0:0:0:
256,192,247426,1,8,0:0:0:0:
256,192,247529,1,0,0:0:0:0:
256,192,247632,1,8,0:0:0:0:
256,192,247734,1,8,0:0:0:0:
256,192,247803,1,0,0:0:0:0:
256,192,247872,1,0,0:0:0:0:
256,192,247940,1,8,0:0:0:0:
256,192,248042,1,0,0:0:0:0:
256,192,248145,1,8,0:0:0:0:
256,192,248214,1,8,0:0:0:0:
256,192,248282,1,8,0:0:0:0:
256,192,248351,1,4,0:0:0:0:
256,192,248556,1,8,0:0:0:0:
256,192,248659,1,8,0:0:0:0:
256,192,248762,1,4,0:0:0:0:
256,192,248967,1,8,0:0:0:0:
256,192,249036,1,0,0:0:0:0:
256,192,249104,1,0,0:0:0:0:
256,192,249173,1,0,0:0:0:0:
256,192,249275,1,8,0:0:0:0:
256,192,249378,1,8,0:0:0:0:
256,192,249481,1,0,0:0:0:0:
256,192,249584,1,0,0:0:0:0:
256,192,249686,1,8,0:0:0:0:
256,192,249755,1,8,0:0:0:0:
256,192,249823,1,8,0:0:0:0:
256,192,249892,1,0,0:0:0:0:
256,192,249995,1,0,0:0:0:0:
256,192,250097,1,8,0:0:0:0:
256,192,250200,1,8,0:0:0:0:
256,192,250269,1,0,0:0:0:0:
256,192,250337,1,0,0:0:0:0:
256,192,250406,1,8,0:0:0:0:
256,192,250508,1,8,0:0:0:0:
256,192,250611,1,8,0:0:0:0:
256,192,250714,1,0,0:0:0:0:
256,192,250816,1,8,0:0:0:0:
256,192,250885,1,0,0:0:0:0:
256,192,250953,1,0,0:0:0:0:
256,192,251022,1,8,0:0:0:0:
256,192,251125,1,8,0:0:0:0:
256,192,251227,1,0,0:0:0:0:
256,192,251296,1,8,0:0:0:0:
256,192,251364,1,8,0:0:0:0:
256,192,251433,1,0,0:0:0:0:
256,192,251536,1,0,0:0:0:0:
256,192,251638,1,8,0:0:0:0:
256,192,251707,1,8,0:0:0:0:
256,192,251775,1,8,0:0:0:0:
256,192,251844,1,0,0:0:0:0:
256,192,251947,1,8,0:0:0:0:
256,192,252049,1,4,0:0:0:0:
256,192,252358,1,8,0:0:0:0:
256,192,252460,1,0,0:0:0:0:
256,192,252666,1,0,0:0:0:0:
256,192,252769,1,8,0:0:0:0:
256,192,252871,1,0,0:0:0:0:
256,192,252974,1,0,0:0:0:0:
256,192,253077,1,8,0:0:0:0:
256,192,253179,1,8,0:0:0:0:
256,192,253282,1,4,0:0:0:0:
256,192,253488,1,8,0:0:0:0:
256,192,253693,1,4,0:0:0:0:
256,192,253899,1,8,0:0:0:0:
256,192,254001,1,8,0:0:0:0:
256,192,254104,1,0,0:0:0:0:
256,192,254207,1,8,0:0:0:0:
256,192,254310,1,8,0:0:0:0:
256,192,254412,1,0,0:0:0:0:
256,192,254618,1,0,0:0:0:0:
256,192,254721,1,8,0:0:0:0:
256,192,254823,1,8,0:0:0:0:
256,192,254926,1,4,0:0:0:0:
256,192,255132,1,0,0:0:0:0:
256,192,255234,1,8,0:0:0:0:
256,192,255337,1,0,0:0:0:0:
256,192,255542,1,8,0:0:0:0:
256,192,255645,1,0,0:0:0:0:
256,192,255851,1,0,0:0:0:0:
256,192,255953,1,8,0:0:0:0:
256,192,256056,1,8,0:0:0:0:
256,192,256159,1,0,0:0:0:0:
256,192,256262,1,8,0:0:0:0:
256,192,256467,1,8,0:0:0:0:
256,192,256570,1,0,0:0:0:0:
256,192,256775,1,8,0:0:0:0:
256,192,256981,1,4,0:0:0:0:
256,192,257186,1,0,0:0:0:0:
256,192,257289,1,0,0:0:0:0:
256,192,257392,1,8,0:0:0:0:
256,192,257597,1,0,0:0:0:0:
256,192,257700,1,8,0:0:0:0:
256,192,257803,1,4,0:0:0:0:
256,192,258008,1,8,0:0:0:0:
256,192,258111,1,0,0:0:0:0:
256,192,258214,1,12,0:0:0:0:
256,192,258522,1,8,0:0:0:0:
256,192,258625,1,4,0:0:0:0:
256,192,258830,1,8,0:0:0:0:
256,192,258933,1,0,0:0:0:0:
256,192,259036,1,0,0:0:0:0:
256,192,259241,1,8,0:0:0:0:
256,192,259344,1,8,0:0:0:0:
256,192,259447,1,0,0:0:0:0:
256,192,259549,1,8,0:0:0:0:
256,192,259652,1,8,0:0:0:0:
256,192,259755,1,8,0:0:0:0:
256,192,259858,1,4,0:0:0:0:
256,192,260063,1,8,0:0:0:0:
256,192,260166,1,8,0:0:0:0:
256,192,260269,1,4,0:0:0:0:
256,192,260474,1,8,0:0:0:0:
256,192,260577,1,0,0:0:0:0:
256,192,260679,1,0,0:0:0:0:
256,192,260782,1,8,0:0:0:0:
256,192,260885,1,8,0:0:0:0:
256,192,260988,1,0,0:0:0:0:
256,192,261193,1,0,0:0:0:0:
256,192,261296,1,8,0:0:0:0:
256,192,261399,1,8,0:0:0:0:
256,192,261501,1,4,0:0:0:0:
256,192,261707,1,8,0:0:0:0:
256,192,261912,1,4,0:0:0:0:
256,192,262118,1,8,0:0:0:0:
256,192,262186,1,0,0:0:0:0:
256,192,262255,1,0,0:0:0:0:
256,192,262323,1,0,0:0:0:0:
256,192,262426,1,8,0:0:0:0:
256,192,262529,1,8,0:0:0:0:
256,192,262734,1,0,0:0:0:0:
256,192,262786,1,0,0:0:0:0:
256,192,262837,1,8,0:0:0:0:
256,192,263043,1,8,0:0:0:0:
256,192,263145,1,0,0:0:0:0:
256,192,263248,1,8,0:0:0:0:
256,192,263351,1,8,0:0:0:0:
256,192,263556,1,4,0:0:0:0:
256,192,263762,1,0,0:0:0:0:
256,192,263864,1,8,0:0:0:0:
256,192,264070,1,0,0:0:0:0:
256,192,264173,1,8,0:0:0:0:
256,192,264378,1,8,0:0:0:0:
256,192,264447,1,0,0:0:0:0:
256,192,264515,1,0,0:0:0:0:
256,192,264584,1,8,0:0:0:0:
256,192,264686,1,8,0:0:0:0:
256,192,264789,1,0,0:0:0:0:
256,192,264858,1,8,0:0:0:0:
256,192,264926,1,8,0:0:0:0:
256,192,264995,1,0,0:0:0:0:
256,192,265097,1,8,0:0:0:0:
256,192,265200,1,4,0:0:0:0:
256,192,265611,1,4,0:0:0:0:
256,192,265816,1,8,0:0:0:0:
256,192,265919,1,8,0:0:0:0:
256,192,266022,1,0,0:0:0:0:
256,192,266125,1,8,0:0:0:0:
256,192,266330,1,8,0:0:0:0:
256,192,266433,1,4,0:0:0:0:
256,192,266638,1,8,0:0:0:0:
256,192,266741,1,0,0:0:0:0:
256,192,266844,1,0,0:0:0:0:
256,192,267049,1,8,0:0:0:0:
256,192,267255,1,0,0:0:0:0:
256,192,267358,1,8,0:0:0:0:
256,192,267460,1,0,0:0:0:0:
256,192,267563,1,0,0:0:0:0:
256,192,267666,1,8,0:0:0:0:
256,192,267871,1,0,0:0:0:0:
256,192,268077,1,8,0:0:0:0:
256,192,268145,1,0,0:0:0:0:
256,192,268214,1,0,0:0:0:0:
256,192,268282,1,8,0:0:0:0:
256,192,268488,1,4,0:0:0:0:
256,192,268693,1,8,0:0:0:0:
256,192,268899,1,0,0:0:0:0:
256,192,269001,1,8,0:0:0:0:
256,192,269104,1,8,0:0:0:0:
256,192,269207,1,0,0:0:0:0:
256,192,269310,1,8,0:0:0:0:
256,192,269515,1,0,0:0:0:0:
256,192,269618,1,8,0:0:0:0:
256,192,269721,1,4,0:0:0:0:
256,192,269926,1,8,0:0:0:0:
256,192,270029,1,0,0:0:0:0:
256,192,270132,1,8,0:0:0:0:
256,192,270200,1,0,0:0:0:0:
256,192,270269,1,0,0:0:0:0:
256,192,270337,1,0,0:0:0:0:
256,192,270543,1,0,0:0:0:0:
256,192,270748,1,8,0:0:0:0:
256,192,270851,1,0,0:0:0:0:
256,192,271056,1,0,0:0:0:0:
256,192,271159,1,8,0:0:0:0:
256,192,271262,1,0,0:0:0:0:
256,192,271364,1,12,0:0:0:0:
256,192,271775,1,4,0:0:0:0:
256,192,271981,1,8,0:0:0:0:
256,192,272049,1,0,0:0:0:0:
256,192,272118,1,0,0:0:0:0:
256,192,272186,1,0,0:0:0:0:
256,192,272289,1,8,0:0:0:0:
256,192,272392,1,8,0:0:0:0:
256,192,272597,1,0,0:0:0:0:
256,192,272700,1,8,0:0:0:0:
256,192,272906,1,8,0:0:0:0:
256,192,273008,1,0,0:0:0:0:
256,192,273111,1,0,0:0:0:0:
256,192,273316,1,8,0:0:0:0:
256,192,273419,1,4,0:0:0:0:
256,192,273625,1,8,0:0:0:0:
256,192,273830,1,0,0:0:0:0:
256,192,273933,1,8,0:0:0:0:
256,192,274138,1,0,0:0:0:0:
256,192,274241,1,12,0:0:0:0:
256,192,274447,1,0,0:0:0:0:
256,192,274515,1,0,0:0:0:0:
256,192,274584,1,0,0:0:0:0:
256,192,274652,1,12,0:0:0:0:
256,192,274858,1,8,0:0:0:0:
256,192,275063,1,4,0:0:0:0:
256,192,275269,1,8,0:0:0:0:
256,192,275679,1,8,0:0:0:0:
256,192,275782,1,8,0:0:0:0:
256,192,275885,1,4,0:0:0:0:
256,192,276090,1,8,0:0:0:0:
256,192,276193,1,4,0:0:0:0:
256,192,276399,1,8,0:0:0:0:
256,192,276501,1,4,0:0:0:0:
256,192,276707,1,8,0:0:0:0:
256,192,276810,1,0,0:0:0:0:
256,192,276912,1,8,0:0:0:0:
256,192,277015,1,8,0:0:0:0:
256,192,277118,1,0,0:0:0:0:
256,192,277221,1,0,0:0:0:0:
256,192,277323,1,8,0:0:0:0:
256,192,277426,1,8,0:0:0:0:
256,192,277529,1,0,0:0:0:0:
256,192,277632,1,8,0:0:0:0:
256,192,277734,1,0,0:0:0:0:
256,192,277837,1,0,0:0:0:0:
256,192,278043,1,0,0:0:0:0:
256,192,278351,1,4,0:0:0:0:
256,192,278762,1,4,0:0:0:0:
256,192,278967,1,8,0:0:0:0:
256,192,279070,1,8,0:0:0:0:
256,192,279173,1,0,0:0:0:0:
256,192,279275,1,8,0:0:0:0:
256,192,279481,1,8,0:0:0:0:
256,192,279584,1,0,0:0:0:0:
256,192,279652,1,8,0:0:0:0:
256,192,279721,1,8,0:0:0:0:
256,192,279789,1,0,0:0:0:0:
256,192,279892,1,8,0:0:0:0:
256,192,279995,1,0,0:0:0:0:
256,192,280200,1,8,0:0:0:0:
256,192,280269,1,0,0:0:0:0:
256,192,280337,1,0,0:0:0:0:
256,192,280406,1,0,0:0:0:0:
256,192,280611,1,8,0:0:0:0:
256,192,280714,1,0,0:0:0:0:
256,192,280816,1,8,0:0:0:0:
256,192,280919,1,0,0:0:0:0:
256,192,281227,1,0,0:0:0:0:
256,192,281330,1,0,0:0:0:0:
256,192,281433,1,8,0:0:0:0:
256,192,281501,1,8,0:0:0:0:
256,192,281570,1,8,0:0:0:0:
256,192,281638,1,4,0:0:0:0:
256,192,281844,1,0,0:0:0:0:
256,192,281947,1,8,0:0:0:0:
256,192,282049,1,0,0:0:0:0:
256,192,282152,1,0,0:0:0:0:
256,192,282255,1,8,0:0:0:0:
256,192,282358,1,0,0:0:0:0:
256,192,282460,1,8,0:0:0:0:
256,192,282563,1,0,0:0:0:0:
256,192,282666,1,8,0:0:0:0:
256,192,282769,1,8,0:0:0:0:
256,192,282871,1,0,0:0:0:0:
256,192,282940,1,0,0:0:0:0:
256,192,283008,1,0,0:0:0:0:
256,192,283077,1,8,0:0:0:0:
256,192,283179,1,0,0:0:0:0:
256,192,283282,1,8,0:0:0:0:
256,192,283351,1,0,0:0:0:0:
256,192,283419,1,0,0:0:0:0:
256,192,283488,1,0,0:0:0:0:
256,192,283590,1,8,0:0:0:0:
256,192,283693,1,0,0:0:0:0:
256,192,283899,1,8,0:0:0:0:
256,192,284001,1,8,0:0:0:0:
256,192,284104,1,0,0:0:0:0:
256,192,284207,1,8,0:0:0:0:
256,192,284258,1,0,0:0:0:0:
256,192,284310,1,8,0:0:0:0:
256,192,284412,1,0,0:0:0:0:
256,192,284515,1,12,0:0:0:0:
256,192,284926,1,4,0:0:0:0:
256,192,285234,1,8,0:0:0:0:
256,192,285337,1,0,0:0:0:0:
256,192,285543,1,8,0:0:0:0:
256,192,285645,1,8,0:0:0:0:
256,192,285748,1,0,0:0:0:0:
256,192,285851,1,8,0:0:0:0:
256,192,285953,1,8,0:0:0:0:
256,192,286056,1,0,0:0:0:0:
256,192,286159,1,0,0:0:0:0:
256,192,286262,1,8,0:0:0:0:
256,192,286364,1,8,0:0:0:0:
256,192,286467,1,8,0:0:0:0:
256,192,286570,1,0,0:0:0:0:
256,192,286775,1,0,0:0:0:0:
256,192,286981,1,0,0:0:0:0:
256,192,287084,1,0,0:0:0:0:
256,192,287186,1,8,0:0:0:0:
256,192,287392,1,0,0:0:0:0:
256,192,287495,1,0,0:0:0:0:
256,192,287597,1,0,0:0:0:0:
256,192,287700,1,0,0:0:0:0:
256,192,287803,1,8,0:0:0:0:
256,192,287871,1,8,0:0:0:0:
256,192,287940,1,8,0:0:0:0:
256,192,288008,1,0,0:0:0:0:
256,192,288111,1,8,0:0:0:0:
256,192,288214,1,4,0:0:0:0:
256,192,288419,1,8,0:0:0:0:
256,192,288522,1,0,0:0:0:0:
256,192,288625,1,8,0:0:0:0:
256,192,288727,1,0,0:0:0:0:
256,192,288830,1,8,0:0:0:0:
256,192,288933,1,8,0:0:0:0:
256,192,289036,1,0,0:0:0:0:
256,192,289138,1,8,0:0:0:0:
256,192,289241,1,0,0:0:0:0:
256,192,289344,1,0,0:0:0:0:
256,192,289447,1,8,0:0:0:0:
256,192,289549,1,0,0:0:0:0:
256,192,289652,1,8,0:0:0:0:
256,192,289755,1,0,0:0:0:0:
256,192,289858,1,0,0:0:0:0:
256,192,290063,1,8,0:0:0:0:
256,192,290166,1,0,0:0:0:0:
256,192,290371,1,0,0:0:0:0:
256,192,290474,1,8,0:0:0:0:
256,192,290577,1,0,0:0:0:0:
256,192,290782,1,8,0:0:0:0:
256,192,290885,1,0,0:0:0:0:
256,192,290988,1,0,0:0:0:0:
256,192,291090,2,0,L|256:112,3,45
