osu file format v14

[General]
AudioFilename: audio.mp3
AudioLeadIn: 0
PreviewTime: 91053
Countdown: 1
SampleSet: Soft
StackLeniency: 0
Mode: 0
LetterboxInBreaks: 0
WidescreenStoryboard: 1

[Editor]
Bookmarks: 11533,15334,25202,26533,41640,120544,133690,197800,212594,265209,278462,291099
DistanceSpacing: 0.8
BeatDivisor: 4
GridSize: 16
TimelineZoom: 2.599999

[Metadata]
Title:Inner Spirit (Extended)
TitleUnicode:Inner Spirit (Extended)
Artist:lapix
ArtistUnicode:lapix
Creator:Akali
Version:ANOTHER
Source:BEATMANIA IIDX 23 Copula
Tags:sexxxtra hitech bananannian
BeatmapID:1069222
BeatmapSetID:502420

[Difficulty]
HPDrainRate:5.5
CircleSize:4
OverallDifficulty:9.2
ApproachRate:9.5
SliderMultiplier:2.8
SliderTickRate:1

[Events]
//Background and Video events
0,0,"art wallpapers girl gun monsters picture.jpg",0,0
//Break Periods
2,133902,144684
//Storyboard Layer 0 (Background)
//Storyboard Layer 1 (Fail)
//Storyboard Layer 2 (Pass)
//Storyboard Layer 3 (Foreground)
//Storyboard Sound Samples

[TimingPoints]
552,410.958904109589,4,2,1,85,1,0
1373,-200,4,2,1,85,0,0
1887,-200,4,2,1,5,0,0
1990,-75.187969924812,4,2,1,85,0,0
2195,-125,4,2,1,85,0,0
5072,-75.187969924812,4,2,1,85,0,0
5688,-125,4,2,1,85,0,0
8565,-75.187969924812,4,2,1,85,0,0
8976,-100,4,2,1,85,0,0
10415,-125,4,2,1,85,0,0
11647,-75.187969924812,4,2,1,85,0,0
12264,-100,4,2,1,85,0,0
15141,-75.187969924812,4,2,1,85,0,0
15346,-100,4,2,1,85,0,0
18223,-76.9230769230769,4,2,1,85,0,0
18839,-100,4,2,1,85,0,0
21716,-75.187969924812,4,2,1,85,0,0
22127,-100,4,2,1,85,0,0
27161,-400,4,2,1,85,0,0
28497,-200,4,2,1,85,0,0
28599,-200,4,2,1,25,0,0
29319,-200,4,2,1,30,0,0
30141,-200,4,2,1,35,0,0
30962,-200,4,2,1,40,0,0
31784,-200,4,2,1,45,0,0
32195,-200,4,2,1,47,0,0
32606,-200,4,2,1,50,0,0
33017,-200,4,2,1,53,0,0
33428,-200,4,2,1,55,0,0
33839,-200,4,2,1,57,0,0
34250,-200,4,2,1,60,0,0
34661,-200,4,2,1,63,0,0
35072,-125,4,2,1,63,0,0
38360,-75.187969924812,4,2,1,63,0,0
40004,-200,4,2,1,63,0,0
40415,-200,4,2,1,5,0,0
40517,-100,4,2,1,63,0,0
41236,-200,4,2,1,63,0,0
41391,-200,4,2,1,5,0,0
41442,-66.6666666666667,4,2,1,85,0,0
41956,-60.2409638554217,4,2,1,5,0,0
42058,-75.187969924812,4,2,1,85,0,0
43599,-75.187969924812,4,2,1,5,0,0
43702,-75.187969924812,4,2,1,85,0,0
44524,-66.6666666666667,4,2,1,85,0,0
45243,-66.6666666666667,4,2,1,5,0,0
45346,-66.6666666666667,4,2,1,85,0,0
45551,-75.187969924812,4,2,1,85,0,0
45757,-66.6666666666667,4,2,1,85,0,0
46579,-125,4,2,1,85,0,0
46887,-125,4,2,1,5,0,0
46990,-75.187969924812,4,2,1,85,0,0
47812,-55.5555555555556,4,2,1,85,0,0
48223,-66.6666666666667,4,2,1,85,0,0
48531,-66.6666666666667,4,2,1,5,0,0
48634,-75.187969924812,4,2,1,85,0,0
50175,-75.187969924812,4,2,1,5,0,0
50278,-75.187969924812,4,2,1,85,0,0
51510,-66.6666666666667,4,2,1,85,0,0
51819,-66.6666666666667,4,2,1,5,0,0
51921,-66.6666666666667,4,2,1,85,0,0
53565,-75.187969924812,4,2,1,85,0,0
54387,-200,4,2,1,85,0,0
54541,-200,4,2,1,5,0,0
54593,-50,4,2,1,85,0,0
54798,-181.818181818182,4,2,1,85,0,0
55106,-400,4,2,1,5,0,0
55209,-75.187969924812,4,2,1,85,0,0
56750,-75.187969924812,4,2,1,85,0,0
56853,-75.187969924812,4,2,1,85,0,0
57778,-66.6666666666667,4,2,1,85,0,0
58497,-75.187969924812,4,2,1,85,0,0
60141,-66.6666666666667,4,2,1,85,0,0
61373,-133.333333333333,4,2,1,85,0,0
61682,-133.333333333333,4,2,1,5,0,0
61784,-75.187969924812,4,2,1,85,0,0
63839,-66.6666666666667,4,2,1,85,0,0
64147,-66.6666666666667,4,2,1,5,0,0
64250,-66.6666666666667,4,2,1,85,0,0
64661,-50,4,2,1,85,0,0
65072,-75.187969924812,4,2,1,85,0,0
66305,-125,4,2,1,85,0,0
67127,-66.6666666666667,4,2,1,85,0,0
67949,-66.6666666666667,4,2,1,85,0,0
68257,-66.6666666666667,4,2,1,5,0,0
68360,-75.187969924812,4,2,1,85,0,0
71545,-75.187969924812,4,2,1,5,0,0
71647,-75.187969924812,4,2,1,85,0,0
74010,-75.187969924812,4,2,1,5,0,0
74113,-200,4,2,1,85,0,0
74421,-200,4,2,1,5,0,0
74524,-125,4,2,1,85,0,0
74832,-125,4,2,1,5,0,0
74935,-75.187969924812,4,2,1,85,0,0
77401,-100,4,2,1,85,0,0
77812,-75.187969924812,4,2,1,85,0,0
78120,-75.187969924812,4,2,1,5,0,0
78223,-75.187969924812,4,2,1,85,0,0
80688,-100,4,2,1,85,0,0
80894,-66.6666666666667,4,2,1,85,0,0
81099,-181.818181818182,4,2,1,85,0,0
81408,-400,4,2,1,5,0,0
81510,-100,4,2,1,85,0,0
82743,-75.187969924812,4,2,1,85,0,0
83052,-75.187969924812,4,2,1,5,0,0
83154,-100,4,2,1,85,0,0
83976,-75.187969924812,4,2,1,85,0,0
84387,-125,4,2,1,85,0,0
84798,-100,4,2,1,85,0,0
87572,-100,4,2,1,5,0,0
87675,-66.6666666666667,4,2,1,85,0,0
88086,-75.187969924812,4,2,1,85,0,0
88497,-100,4,2,1,85,0,0
90141,-60.2409638554217,4,2,1,85,0,0
90449,-60.2409638554217,4,2,1,5,0,0
90552,-60.2409638554217,4,2,1,85,0,0
91271,-60.2409638554217,4,2,1,5,0,0
91373,-60.2409638554217,4,2,1,85,0,0
91784,-75.187969924812,4,2,1,85,0,0
92093,-60.2409638554217,4,2,1,85,0,0
92401,-50,4,2,1,85,0,0
92606,-303.030303030303,4,2,1,85,0,0
92915,-400,4,2,1,5,0,0
93017,-100,4,2,1,55,0,0
93428,-100,4,2,1,65,0,0
93839,-100,4,2,1,85,0,0
94250,-75.187969924812,4,2,1,85,0,1
100004,-66.6666666666667,4,2,1,85,0,1
100415,-75.187969924812,4,2,1,85,0,1
100620,-125,4,2,1,85,0,1
100825,-75.187969924812,4,2,1,85,0,1
105757,-60.2409638554217,4,2,1,85,0,1
106168,-60.2409638554217,4,2,1,85,0,1
106219,-60.2409638554217,4,2,1,5,0,1
106271,-60.2409638554217,4,2,1,85,0,1
106322,-60.2409638554217,4,2,1,5,0,1
106373,-60.2409638554217,4,2,1,85,0,1
106425,-60.2409638554217,4,2,1,5,0,1
106476,-60.2409638554217,4,2,1,85,0,1
106528,-60.2409638554217,4,2,1,5,0,1
106579,-75.187969924812,4,2,1,85,0,1
113565,-75.187969924812,4,2,1,85,0,1
119113,-60.2409638554217,4,2,1,85,0,1
119730,-200,4,2,1,85,0,1
120038,-200,4,2,1,5,0,1
120141,-100,4,2,1,85,0,1
120551,-100,4,2,1,85,0,0
146750,-100,4,2,1,5,0,0
146853,-200,4,2,1,45,0,0
160004,-200,4,2,1,85,0,0
160106,-200,4,2,1,55,0,0
166579,-117.647058823529,4,2,1,55,0,0
171510,-303.030303030303,4,2,1,55,0,0
173052,-303.030303030303,4,2,1,5,0,0
173154,-100,4,2,1,65,0,0
183017,-125,4,2,1,65,0,0
184661,-75.187969924812,4,2,1,65,0,0
184969,-75.187969924812,4,2,1,5,0,0
185072,-100,4,2,1,65,0,0
186305,-100,4,2,1,75,0,0
190312,-75.187969924812,4,2,1,75,0,0
190723,-60.2409638554217,4,2,1,75,0,0
191031,-100,4,2,1,75,0,0
199456,-125,4,2,1,55,0,0
202641,-125,4,2,1,5,0,0
202743,-125,4,2,1,65,0,0
209216,-125,4,2,1,5,0,0
209319,-125,4,2,1,65,0,0
212606,-75.187969924812,4,2,1,75,0,0
220825,-60.2409638554217,4,2,1,85,0,0
222058,-75.187969924812,4,2,1,85,0,0
222469,-50,4,2,1,100,0,0
223291,-40,4,2,1,100,0,0
224113,-40,4,2,1,65,0,0
224935,-75.187969924812,4,2,1,65,0,0
225757,-75.187969924812,4,2,1,85,0,1
229764,-60.2409638554217,4,2,1,85,0,1
230278,-100,4,2,1,85,0,1
230688,-75.187969924812,4,2,1,85,0,1
231510,-60.2409638554217,4,2,1,85,0,1
232127,-75.187969924812,4,2,1,85,0,1
237264,-60.2409638554217,4,2,1,85,0,1
237675,-50,4,2,1,85,0,1
238086,-42.9184549356223,4,2,1,85,0,1
238188,-42.9184549356223,4,2,1,5,0,1
238291,-42.9184549356223,4,2,1,85,0,1
238343,-42.9184549356223,4,2,1,5,0,1
238394,-42.9184549356223,4,2,1,85,0,1
238445,-42.9184549356223,4,2,1,5,0,1
238497,-42.9184549356223,4,2,1,85,0,1
238908,-75.187969924812,4,2,1,85,0,1
241373,-100,4,2,1,85,0,1
241579,-75.187969924812,4,2,1,85,0,1
242606,-60.2409638554217,4,2,1,85,0,1
243017,-50,4,2,1,85,0,1
243428,-75.187969924812,4,2,1,85,0,1
244661,-50,4,2,1,85,0,1
245072,-75.187969924812,4,2,1,85,0,1
247127,-100,4,2,1,85,0,1
247435,-75.187969924812,4,2,1,85,0,1
248771,-60.2409638554217,4,2,1,85,0,1
249079,-60.2409638554217,4,2,1,5,0,1
249182,-75.187969924812,4,2,1,85,0,1
252058,-75.187969924812,4,2,1,75,0,0
252367,-100,4,2,1,5,0,0
252469,-100,4,2,1,75,0,0
253702,-75.187969924812,4,2,1,75,0,0
254010,-75.187969924812,4,2,1,75,0,0
254113,-100,4,2,1,75,0,0
255654,-100,4,2,1,5,0,0
255757,-100,4,2,1,75,0,0
256990,-75.187969924812,4,2,1,75,0,0
257298,-75.187969924812,4,2,1,5,0,0
257401,-75.187969924812,4,2,1,75,0,0
258223,-125,4,2,1,75,0,0
258531,-75.187969924812,4,2,1,75,0,0
258942,-100,4,2,1,75,0,0
259045,-100,4,2,1,75,0,0
260278,-75.187969924812,4,2,1,75,0,0
260586,-75.187969924812,4,2,1,5,0,0
260688,-100,4,2,1,75,0,0
261921,-75.187969924812,4,2,1,75,0,0
262230,-75.187969924812,4,2,1,5,0,0
262332,-75.187969924812,4,2,1,75,0,0
265209,-200,4,2,1,75,0,0
265517,-200,4,2,1,5,0,0
265620,-100,4,2,1,75,0,0
266442,-75.187969924812,4,2,1,75,0,0
266853,-100,4,2,1,75,0,0
268086,-75.187969924812,4,2,1,75,0,0
268394,-75.187969924812,4,2,1,5,0,0
268497,-151.515151515152,4,2,1,75,0,0
268805,-75.187969924812,4,2,1,5,0,0
268908,-100,4,2,1,75,0,0
269730,-60.2409638554217,4,2,1,75,0,0
270141,-100,4,2,1,75,0,0
270449,-100,4,2,1,5,0,0
270552,-100,4,2,1,75,0,0
271373,-125,4,2,1,75,0,0
271682,-125,4,2,1,5,0,0
271784,-62.5,4,2,1,75,0,0
272093,-100,4,2,1,5,0,0
272195,-100,4,2,1,75,0,0
273428,-151.515151515152,4,2,1,75,0,0
273634,-100,4,2,1,75,0,0
274456,-75.187969924812,4,2,1,75,0,0
275072,-151.515151515152,4,2,1,75,0,0
275380,-151.515151515152,4,2,1,5,0,0
275483,-100,4,2,1,75,0,0
277949,-50,4,2,1,75,0,0
278257,-50,4,2,1,5,0,0
278360,-75.187969924812,4,2,1,75,0,0
278668,-75.187969924812,4,2,1,5,0,0
278771,-100,4,2,1,75,0,0
279593,-75.187969924812,4,2,1,75,0,0
280825,-158.730158730159,4,2,1,75,0,0
281236,-75.187969924812,4,2,1,75,0,0
281647,-200,4,2,1,75,0,0
281956,-200,4,2,1,5,0,0
282058,-100,4,2,1,75,0,0
282880,-75.187969924812,4,2,1,75,0,0
283599,-75.187969924812,4,2,1,5,0,0
283702,-75.187969924812,4,2,1,75,0,0
284524,-200,4,2,1,75,0,0
284832,-200,4,2,1,5,0,0
284935,-100,4,2,1,75,0,0
285243,-100,4,2,1,5,0,0
285346,-100,4,2,1,75,0,0
290175,-100,4,2,1,5,0,0
290278,-100,4,2,1,75,0,0
291099,-1000,4,2,1,75,0,0
291408,-100,4,2,1,5,0,0

[Colours]
Combo1 : 149,0,0
Combo2 : 255,255,0
Combo3 : 255,0,0
Combo4 : 0,128,0

[HitObjects]
254,79,1373,6,0,B|235:220|235:220|219:191,1,175,2|0,0:0|0:0,0:0:0:0:
159,138,1990,6,0,P|139:182|166:251,1,93.0999961643983,4|0,0:0|0:0,0:0:0:0:
259,349,2195,6,0,L|272:251,1,56,6|0,0:0|0:0,0:0:0:0:
385,206,2401,5,0,0:0:0:0:
383,217,2504,1,0,0:0:0:0:
432,276,2606,2,0,B|435:304|435:304|431:331,1,56,2|0,0:0|0:0,0:0:0:0:
335,80,2812,5,0,0:0:0:0:
333,91,2915,2,0,B|329:118|329:118|332:146,1,56,2|0,0:0|0:0,0:0:0:0:
454,160,3120,2,0,L|467:62,2,56,2|0|0,0:0|0:0|0:0,0:0:0:0:
315,269,3428,2,0,L|307:324,1,56,2|0,0:0|0:0,0:0:0:0:
169,272,3634,5,0,0:0:0:0:
171,261,3737,1,0,0:0:0:0:
218,199,3839,2,0,B|221:171|221:171|217:144,1,56,2|0,0:0|0:0,0:0:0:0:
79,64,4045,5,0,0:0:0:0:
77,75,4148,1,0,0:0:0:0:
30,137,4250,2,0,B|27:165|27:165|31:192,1,56,2|0,0:0|0:0,0:0:0:0:
96,237,4456,5,0,0:0:0:0:
98,226,4559,1,2,0:0:0:0:
197,25,4764,1,2,0:0:0:0:
315,269,4969,1,2,0:0:0:0:
218,199,5072,2,0,B|207:127|207:127|219:142,3,93.0999961643983,6|0|0|0,0:0|0:0|0:0|0:0,0:0:0:0:
274,81,5483,6,0,P|298:120|298:166,1,93.0999961643983,6|0,0:0|0:0,0:0:0:0:
171,261,5688,5,2,0:0:0:0:
169,272,5791,1,0,0:0:0:0:
206,340,5894,2,0,B|219:352|219:352|268:361,1,56,2|0,0:0|0:0,0:0:0:0:
400,327,6099,1,0,0:0:0:0:
395,338,6202,2,0,B|382:350|382:350|345:357,1,56,2|0,0:0|0:0,0:0:0:0:
131,339,6408,2,0,L|42:362,2,56,2|0|0,0:0|0:0|0:0,0:0:0:0:
315,269,6716,2,0,B|313:239|313:239|280:172,1,56,2|0,0:0|0:0,0:0:0:0:
129,186,6921,5,2,0:0:0:0:
127,197,7024,1,0,0:0:0:0:
91,267,7127,2,0,P|51:216|73:136,1,112,2|0,0:0|0:0,0:0:0:0:
184,68,7435,1,2,0:0:0:0:
191,77,7538,2,0,L|189:133,1,56,2|0,0:0|0:0,0:0:0:0:
108,40,7743,5,0,0:0:0:0:
100,31,7846,2,0,P|72:27|46:34,1,56,2|0,0:0|0:0,0:0:0:0:
245,74,8051,2,0,P|217:70|191:77,1,56,2|0,0:0|0:0,0:0:0:0:
390,117,8257,2,0,P|362:113|336:120,1,56,2|0,0:0|0:0,0:0:0:0:
367,192,8462,1,2,0:0:0:0:
444,177,8565,6,0,P|471:119|455:65,1,93.0999961643983,6|0,0:0|0:0,0:0:0:0:
290,186,8771,2,0,P|263:244|279:298,1,93.0999961643983,6|0,0:0|0:0,0:0:0:0:
362,373,8976,5,2,0:0:0:0:
361,358,9079,1,2,0:0:0:0:
397,297,9182,2,0,B|396:257|396:257|379:199,1,70,2|0,0:0|0:0,0:0:0:0:
156,171,9387,1,0,0:0:0:0:
147,182,9491,2,0,B|148:222|148:222|156:250,1,70,2|0,0:0|0:0,0:0:0:0:
290,186,9695,5,2,0:0:0:0:
287,143,9798,1,2,0:0:0:0:
254,116,9901,1,0,0:0:0:0:
251,73,10004,2,0,B|251:41|251:41|276:-4,1,70,2|0,0:0|0:0,0:0:0:0:
287,143,10209,5,2,0:0:0:0:
290,186,10312,1,0,0:0:0:0:
260,216,10415,6,0,B|229:263|229:263|234:326,1,112,2|0,0:0|0:0,0:0:0:0:
268,224,10723,5,0,0:0:0:0:
260,216,10825,2,0,L|189:223,1,56,2|0,0:0|0:0,0:0:0:0:
0,174,11031,5,0,0:0:0:0:
8,166,11134,2,0,L|79:173,1,56,2|0,0:0|0:0,0:0:0:0:
251,73,11339,5,2,0:0:0:0:
162,84,11442,1,0,0:0:0:0:
249,84,11545,5,2,0:0:0:0:
160,95,11647,2,0,B|190:131|190:131|259:126,3,93.0999961643983,6|0|0|0,0:0|0:0|0:0|0:0,0:0:0:0:
287,73,12058,2,0,L|423:64,1,93.0999961643983,6|0,0:0|0:0,0:0:0:0:
507,129,12264,5,0,0:0:0:0:
504,142,12367,1,0,0:0:0:0:
443,199,12469,2,0,P|434:241|466:312,1,70,2|0,0:0|0:0,0:0:0:0:
287,368,12675,2,0,P|290:333|281:299,1,70,2|0,0:0|0:0,0:0:0:0:
62,177,12880,2,0,P|90:197|124:207,1,70,2|0,0:0|0:0,0:0:0:0:
339,77,13086,2,0,P|307:91|282:115,1,70,2|0,0:0|0:0,0:0:0:0:
162,371,13291,2,0,L|157:302,1,70,2|0,0:0|0:0,0:0:0:0:
0,29,13497,2,0,L|5:98,1,70,2|0,0:0|0:0,0:0:0:0:
128,137,13702,5,2,0:0:0:0:
129,114,13805,1,2,0:0:0:0:
131,91,13908,1,2,0:0:0:0:
133,68,14010,1,2,0:0:0:0:
128,137,14113,6,0,L|123:206,1,70,10|0,0:0|0:0,0:0:0:0:
356,310,14319,2,0,B|360:272|360:272|350:221,1,70,2|0,0:0|0:0,0:0:0:0:
281,115,14524,5,0,0:0:0:0:
346,139,14627,1,0,0:0:0:0:
411,163,14730,6,0,P|445:170|421:144,1,70,0|0,0:0|0:0,0:0:0:0:
311,99,14935,2,0,P|277:92|301:118,1,70,0|0,0:0|0:0,0:0:0:0:
356,310,15141,6,0,B|360:272|360:272|340:192,1,93.0999961643983,6|0,0:0|0:0,0:0:0:0:
122,206,15346,2,0,L|190:191,1,70,4|0,0:0|0:0,0:0:0:0:
185,6,15552,5,0,0:0:0:0:
172,10,15654,1,0,0:0:0:0:
105,30,15757,2,0,B|70:92|70:92|187:66,1,140,2|0,0:0|0:0,0:0:0:0:
163,196,16065,1,0,0:0:0:0:
67,219,16168,2,0,B|0:234|0:234|35:172,1,140,2|0,0:0|0:0,0:0:0:0:
200,120,16476,6,0,L|214:78,5,35,2|0|0|0|0|0,0:0|0:0|0:0|0:0|0:0|0:0,0:0:0:0:
246,85,16784,2,0,L|215:174,1,70,0|0,0:0|0:0,0:0:0:0:
276,331,16990,6,0,P|338:310|354:244,1,140,2|0,0:0|0:0,0:0:0:0:
256,187,17298,1,0,0:0:0:0:
378,129,17401,6,0,P|398:193|354:244,1,140,2|0,0:0|0:0,0:0:0:0:
329,179,17709,1,2,0:0:0:0:
378,129,17812,2,0,B|382:91|382:91|371:47,1,70,2|0,0:0|0:0,0:0:0:0:
210,51,18017,2,0,B|199:80|199:80|199:119,1,70,2|0,0:0|0:0,0:0:0:0:
266,270,18223,6,0,B|275:256|275:256|276:331,3,90.9999958343508,6|0|0|0,0:0|0:0|0:0|0:0,0:0:0:0:
199,296,18634,2,0,P|230:328|275:329,1,90.9999958343508,6|0,0:0|0:0,0:0:0:0:
450,178,18839,5,0,0:0:0:0:
439,187,18942,1,0,0:0:0:0:
383,229,19045,2,0,L|384:316,1,70,2|0,0:0|0:0,0:0:0:0:
200,216,19250,2,0,L|199:146,1,70,2|0,0:0|0:0,0:0:0:0:
17,246,19456,2,0,B|-12:311|-12:311|17:372,1,140,2|0,0:0|0:0,0:0:0:0:
73,308,19764,5,0,0:0:0:0:
82,297,19867,2,0,B|96:263|96:263|98:205,1,70,2|0,0:0|0:0,0:0:0:0:
6,83,20072,2,0,B|7:116|7:116|21:150,1,70,2|0,0:0|0:0,0:0:0:0:
200,216,20278,6,0,B|160:113|160:113|154:176,1,140,2|0,0:0|0:0,0:0:0:0:
156,156,20586,1,2,0:0:0:0:
305,82,20688,2,0,L|386:95,2,70,2|0|0,0:0|0:0|0:0,0:0:0:0:
167,312,21099,5,0,0:0:0:0:
253,315,21202,1,0,0:0:0:0:
337,338,21305,1,0,0:0:0:0:
422,320,21408,1,0,0:0:0:0:
433,293,21716,6,0,L|318:286,1,93.0999961643983,4|0,0:0|0:0,0:0:0:0:
77,274,21921,2,0,L|192:281,1,93.0999961643983,6|0,0:0|0:0,0:0:0:0:
436,276,22127,6,0,P|378:272|338:241,1,70,0|0,0:0|0:0,0:0:0:0:
116,145,22332,5,10,0:0:0:0:
162,147,22434,1,8,0:0:0:0:
209,150,22537,1,8,0:0:0:0:
255,153,22640,1,8,0:0:0:0:
305,82,22743,6,0,L|235:78,1,70,6|0,0:0|0:0,0:0:0:0:
75,253,22949,2,0,L|144:256,1,70,2|0,0:0|0:0,0:0:0:0:
394,161,23154,5,10,0:0:0:0:
348,158,23257,1,8,0:0:0:0:
301,155,23360,1,8,0:0:0:0:
255,153,23462,1,8,0:0:0:0:
223,224,23565,6,0,L|292:227,1,70,2|0,0:0|0:0,0:0:0:0:
512,53,23771,5,10,0:0:0:0:
466,50,23874,1,8,0:0:0:0:
419,47,23977,1,8,0:0:0:0:
372,44,24079,1,2,0:0:0:0:
410,355,24284,5,0,0:0:0:0:
425,311,24387,2,0,L|411:237,1,70,0|0,0:0|0:0,0:0:0:0:
372,44,24593,2,0,L|385:112,1,70,0|0,0:0|0:0,0:0:0:0:
264,223,24798,6,0,L|242:250,1,35,2|0,0:0|0:0,0:0:0:0:
252,187,24901,2,0,L|230:214,1,35,2|0,0:0|0:0,0:0:0:0:
240,151,25004,2,0,L|218:178,1,35,2|0,0:0|0:0,0:0:0:0:
228,115,25106,2,0,L|206:142,1,35,2|0,0:0|0:0,0:0:0:0:
168,86,25209,6,0,L|171:155,1,70,2|0,0:0|0:0,0:0:0:0:
137,67,25414,5,2,0:0:0:0:
141,174,25517,2,0,L|144:243,1,70,2|0,0:0|0:0,0:0:0:0:
110,155,25722,5,2,0:0:0:0:
114,262,25825,2,0,L|117:331,1,70,2|0,0:0|0:0,0:0:0:0:
83,243,26030,5,0,0:0:0:0:
189,303,26134,1,2,0:0:0:0:
44,314,26236,2,0,P|7:268|36:178,1,140,12|0,0:0|0:0,0:0:0:0:
337,152,26545,2,0,P|374:198|345:288,1,140,12|0,0:0|0:0,0:0:0:0:
44,314,26853,2,0,P|7:268|36:178,1,140,12|0,0:0|0:0,0:0:0:0:
291,221,27161,6,0,L|83:243,1,210,0|0,0:0|0:0,0:0:0:0:
291,221,28497,6,0,L|342:216,7,35,6|0|0|0|0|0|0|0,0:0|0:0|0:0|0:0|0:0|0:0|0:0|0:0,0:0:0:0:
256,224,29319,6,0,L|307:219,7,35,2|0|0|0|0|0|0|0,0:0|0:0|0:0|0:0|0:0|0:0|0:0|0:0,0:0:0:0:
221,227,30141,6,0,L|272:222,7,35,2|0|0|0|0|0|0|0,0:0|0:0|0:0|0:0|0:0|0:0|0:0|0:0,0:0:0:0:
186,230,30963,6,0,L|237:225,7,35,2|0|0|0|0|0|0|0,0:0|0:0|0:0|0:0|0:0|0:0|0:0|0:0,0:0:0:0:
290,220,31784,6,0,L|341:215,3,35,2|0|0|0,0:0|0:0|0:0|0:0,0:0:0:0:
255,223,32195,2,0,L|306:218,3,35,2|0|0|0,0:0|0:0|0:0|0:0,0:0:0:0:
220,226,32606,6,0,L|271:221,3,35,2|0|0|0,0:0|0:0|0:0|0:0,0:0:0:0:
185,229,33017,2,0,L|236:224,3,35,2|0|0|0,0:0|0:0|0:0|0:0,0:0:0:0:
290,220,33428,6,0,L|341:215,1,35,2|0,0:0|0:0,0:0:0:0:
254,222,33634,2,0,L|305:217,1,35,2|0,0:0|0:0,0:0:0:0:
219,225,33839,2,0,L|270:220,1,35,2|0,0:0|0:0,0:0:0:0:
183,227,34045,2,0,L|234:222,1,35,2|0,0:0|0:0,0:0:0:0:
359,212,34250,6,0,L|325:216,1,35,2|0,0:0|0:0,0:0:0:0:
394,208,34456,2,0,L|360:212,1,35,2|0,0:0|0:0,0:0:0:0:
256,334,34661,2,0,L|290:338,1,35,2|0,0:0|0:0,0:0:0:0:
462,198,34867,2,0,L|428:202,1,35,2|0,0:0|0:0,0:0:0:0:
101,140,35072,6,0,L|169:153,1,56,14|0,0:0|0:0,0:0:0:0:
324,216,35278,1,0,0:0:0:0:
287,208,35380,1,0,0:0:0:0:
250,201,35483,1,2,0:0:0:0:
214,194,35586,1,0,0:0:0:0:
177,187,35688,1,0,0:0:0:0:
140,180,35791,1,0,0:0:0:0:
104,173,35894,2,0,L|114:239,3,56,2|0|0|0,0:0|0:0|0:0|0:0,0:0:0:0:
193,304,36305,2,0,L|202:369,3,56,2|0|0|0,0:0|0:0|0:0|0:0,0:0:0:0:
314,325,36716,5,2,0:0:0:0:
369,323,36818,1,0,0:0:0:0:
415,294,36921,1,2,0:0:0:0:
440,244,37024,1,0,0:0:0:0:
370,221,37127,5,2,0:0:0:0:
341,176,37230,1,0,0:0:0:0:
338,121,37333,1,2,0:0:0:0:
365,72,37435,1,0,0:0:0:0:
277,44,37538,5,2,0:0:0:0:
266,97,37641,1,0,0:0:0:0:
229,138,37743,1,0,0:0:0:0:
178,154,37846,1,0,0:0:0:0:
108,126,37949,5,2,0:0:0:0:
96,180,38052,1,0,0:0:0:0:
113,233,38155,1,0,0:0:0:0:
155,270,38257,1,2,0:0:0:0:
234,239,38360,6,0,L|196:211,1,46.5499980821992,2|0,0:0|0:0,0:0:0:0:
248,208,38462,2,0,L|204:191,1,46.5499980821992,2|0,0:0|0:0,0:0:0:0:
253,176,38565,2,0,L|206:171,1,46.5499980821992,2|0,0:0|0:0,0:0:0:0:
251,142,38668,2,0,L|205:149,1,46.5499980821992,2|0,0:0|0:0,0:0:0:0:
209,103,38771,6,0,L|204:149,1,46.5499980821992,2|0,0:0|0:0,0:0:0:0:
175,106,38873,2,0,L|182:151,1,46.5499980821992,2|0,0:0|0:0,0:0:0:0:
144,118,38976,2,0,L|162:160,1,46.5499980821992,2|0,0:0|0:0,0:0:0:0:
116,136,39079,2,0,L|145:172,1,46.5499980821992,2|0,0:0|0:0,0:0:0:0:
102,191,39182,6,0,L|144:172,1,46.5499980821992,2|0,0:0|0:0,0:0:0:0:
121,218,39284,2,0,L|157:188,1,46.5499980821992,2|0,0:0|0:0,0:0:0:0:
147,239,39387,2,0,L|174:201,1,46.5499980821992,2|0,0:0|0:0,0:0:0:0:
177,255,39490,2,0,L|193:211,1,46.5499980821992,2|0,0:0|0:0,0:0:0:0:
193,252,39593,6,0,L|209:208,1,46.5499980821992,2|0,0:0|0:0,0:0:0:0:
209,249,39695,2,0,L|225:205,1,46.5499980821992,2|0,0:0|0:0,0:0:0:0:
225,246,39798,2,0,L|241:202,1,46.5499980821992,2|0,0:0|0:0,0:0:0:0:
241,243,39901,2,0,L|257:199,1,46.5499980821992,2|0,0:0|0:0,0:0:0:0:
273,196,40004,6,0,B|242:303|242:303|280:285,1,140,10|0,0:0|0:0,0:0:0:0:
336,255,40517,6,0,P|344:295|336:325,2,70,0|0|0,0:0|0:0|0:0,0:0:0:0:
387,181,40825,6,0,P|403:202|421:211,1,35,2|0,0:0|0:0,0:0:0:0:
398,160,40928,2,0,P|424:156|440:145,1,35,2|0,0:0|0:0,0:0:0:0:
397,142,41031,2,0,P|407:117|405:97,1,35,2|0,0:0|0:0,0:0:0:0:
380,129,41134,2,0,P|378:112|370:97,1,35,2|0,0:0|0:0,0:0:0:0:
353,120,41236,6,0,L|346:61,1,52.5,0|0,0:0|0:0,0:0:0:0:
267,12,41442,5,10,0:0:0:0:
161,144,41647,2,0,B|180:212|180:212|215:133|215:133|258:115|258:115|241:76|241:76|267:12,1,315.000012016297,0|0,0:0|0:0,0:0:0:0:
155,59,42058,5,8,0:0:0:0:
119,145,42161,1,0,0:0:0:0:
140,235,42264,1,0,0:0:0:0:
104,321,42367,1,2,0:0:0:0:
48,247,42469,6,0,B|17:194|17:194|60:214,1,93.0999961643983,2|0,0:0|0:0,0:0:0:0:
229,287,42675,2,0,B|198:340|198:340|195:308,1,93.0999961643983,0|0,0:0|0:0,0:0:0:0:
199,152,42880,5,10,0:0:0:0:
290,133,42983,1,0,0:0:0:0:
360,194,43086,1,2,0:0:0:0:
326,280,43188,1,2,0:0:0:0:
273,204,43291,6,0,B|259:140|327:110|327:110|367:116|367:116|427:70|427:70|438:-7,1,279.299988493195,0|0,0:0|0:0,0:0:0:0:
304,11,43702,5,10,0:0:0:0:
376,119,43805,2,0,L|364:212,2,93.0999961643983,0|0|0,0:0|0:0|0:0,0:0:0:0:
181,68,44113,5,2,0:0:0:0:
253,176,44216,2,0,L|240:268,2,93.0999961643983,0|0|0,0:0|0:0|0:0,0:0:0:0:
50,50,44524,6,0,P|17:82|76:109,1,105.000004005432,10|0,0:0|0:0,0:0:0:0:
103,321,44730,2,0,P|135:286|102:251,1,105.000004005432,10|0,0:0|0:0,0:0:0:0:
50,50,44935,6,0,B|78:305|78:305|113:232,1,315.000012016297,6|0,0:0|0:0,0:0:0:0:
209,42,45346,5,10,0:0:0:0:
172,117,45449,1,0,0:0:0:0:
88,125,45551,2,0,L|102:230,1,93.0999961643983,0|0,0:0|0:0,0:0:0:0:
220,188,45757,5,2,0:0:0:0:
184,264,45860,1,0,0:0:0:0:
218,340,45962,6,0,B|331:360|331:360|288:363|242:295,1,210.000008010865,0|2,0:0|0:0,0:0:0:0:
412,193,46271,2,0,B|448:244|420:302|420:302|391:263|338:257,1,210.000008010865,2|0,0:0|0:0,0:0:0:0:
56,299,46579,6,0,B|125:315|125:315|137:323|137:323|218:340,1,168,6|0,0:0|0:0,0:0:0:0:
127,317,46990,5,10,0:0:0:0:
116,224,47093,1,0,0:0:0:0:
182,159,47195,1,0,0:0:0:0:
171,66,47298,1,0,0:0:0:0:
77,64,47401,5,2,0:0:0:0:
54,155,47504,1,0,0:0:0:0:
116,224,47606,1,0,0:0:0:0:
127,317,47709,1,0,0:0:0:0:
193,252,47812,6,0,B|181:159|181:159|206:191,1,125.999996154785,0|0,0:0|0:0,0:0:0:0:
328,313,48017,2,0,B|339:405|339:405|319:380,1,125.999996154785,0|0,0:0|0:0,0:0:0:0:
116,224,48223,6,0,B|102:65|102:65|221:207,1,315.000012016297,6|0,0:0|0:0,0:0:0:0:
328,313,48634,5,10,0:0:0:0:
316,221,48736,1,0,0:0:0:0:
350,135,48839,1,2,0:0:0:0:
422,77,48942,2,0,P|469:52|495:2,2,93.0999961643983,2|0|0,0:0|0:0|0:0,0:0:0:0:
354,139,49250,5,0,0:0:0:0:
320,225,49353,1,0,0:0:0:0:
332,317,49456,2,0,L|346:207,1,93.0999961643983,10|10,0:0|0:0,0:0:0:0:
176,20,49661,2,0,L|164:112,1,93.0999961643983
208,286,49867,6,2,P|120:211|107:339,1,279.299988493195,0|0,0:0|0:0,0:0:0:0:
139,278,50278,1,0,0:0:0:0:
89,192,50380,2,0,B|84:144|84:144|94:99,2,93.0999961643983,0|10|0,0:0|0:0|0:0,0:0:0:0:
139,278,50688,6,0,P|187:305|209:283,1,93.0999961643983,2|0,0:0|0:0,0:0:0:0:
452,301,50894,2,0,P|404:274|382:296,1,93.0999961643983,0|0,0:0|0:0,0:0:0:0:
208,284,51099,6,0,B|298:321|298:321|433:281,1,186.199992328797,10|0,0:0|0:0,0:0:0:0:
346,159,51408,1,0,0:0:0:0:
208,284,51510,6,0,B|252:301|252:301|222:208|222:208|239:168|239:168|220:103|220:103|178:177,1,315.000012016297,6|0,0:0|0:0,0:0:0:0:
49,220,51921,6,0,B|32:157|32:157|56:88,1,105.000004005432,10|0,0:0|0:0,0:0:0:0:
112,64,52127,1,0,0:0:0:0:
220,103,52230,6,0,B|231:167|231:167|201:233,1,105.000004005432,2|0,0:0|0:0,0:0:0:0:
121,162,52435,1,0,0:0:0:0:
201,95,52538,2,0,L|304:109,1,105.000004005432,4|0,0:0|0:0,0:0:0:0:
458,45,52743,5,8,0:0:0:0:
31,133,52949,1,2,0:0:0:0:
243,290,53154,6,0,L|259:367,1,52.5000020027161,0|0,0:0|0:0,0:0:0:0:
221,329,53257,2,0,L|211:278,1,52.5000020027161,0|0,0:0|0:0,0:0:0:0:
181,319,53360,2,0,L|171:268,1,52.5000020027161,0|0,0:0|0:0,0:0:0:0:
145,308,53462,2,0,L|135:257,1,52.5000020027161,0|0,0:0|0:0,0:0:0:0:
64,219,53565,6,0,P|109:181|160:181,1,93.0999961643983,2|0,0:0|0:0,0:0:0:0:
448,175,53771,2,0,P|402:212|351:212,1,93.0999961643983,2|0,0:0|0:0,0:0:0:0:
201,95,53976,1,0,0:0:0:0:
211,110,54079,6,0,L|206:176,1,46.5499980821992,0|0,0:0|0:0,0:0:0:0:
241,183,54182,2,0,L|237:245,3,46.5499980821992,0|0|0|0,0:0|0:0|0:0|0:0,0:0:0:0:
247,249,54387,6,0,P|284:230|291:211,1,52.5,2|0,0:0|0:0,0:0:0:0:
318,158,54593,6,0,B|314:260|314:260|345:243|364:217,1,140,2|0,0:0|0:0,0:0:0:0:
403,180,54798,6,0,L|409:31,1,115.50000352478,0|0,0:0|0:0,0:0:0:0:
209,167,55209,5,6,0:0:0:0:
169,103,55312,1,0,0:0:0:0:
196,33,55415,1,0,0:0:0:0:
263,2,55517,1,0,0:0:0:0:
300,68,55620,6,0,B|319:116|319:116|317:157,1,93.0999961643983,2|0,0:0|0:0,0:0:0:0:
154,312,55825,2,0,B|156:271|156:271|153:256|153:256|157:190,1,93.0999961643983,0|0,0:0|0:0,0:0:0:0:
40,31,56031,6,0,B|20:91|40:144|40:144|17:174|17:174|45:207,1,186.199992328797,10|0,0:0|0:0,0:0:0:0:
163,329,56339,1,0,0:0:0:0:
271,276,56442,2,0,B|302:263|302:263|267:234|267:234|233:227|233:227|200:232|200:232|167:205|167:205|154:163|154:163|159:87,1,279.299988493195,2|0,0:0|0:0,0:0:0:0:
253,58,56853,6,0,L|240:203,1,93.0999961643983,2|0,0:0|0:0,0:0:0:0:
354,172,57058,1,0,0:0:0:0:
341,245,57161,1,0,0:0:0:0:
271,276,57264,6,0,L|258:421,1,93.0999961643983,10|0,0:0|0:0,0:0:0:0:
262,157,57469,2,0,L|270:64,1,93.0999961643983,0|0,0:0|0:0,0:0:0:0:
406,27,57675,5,10,0:0:0:0:
438,159,57778,2,0,B|450:210|450:210|377:154,1,105.000004005432,2|0,0:0|0:0,0:0:0:0:
253,58,57983,5,2,0:0:0:0:
221,190,58086,2,0,B|209:241|209:241|282:185,1,105.000004005432,2|0,0:0|0:0,0:0:0:0:
405,26,58291,2,0,B|454:46|454:46|404:62,1,105.000004005432,2|0,0:0|0:0,0:0:0:0:
328,62,58497,5,2,0:0:0:0:
253,58,58599,1,0,0:0:0:0:
178,54,58702,1,0,0:0:0:0:
103,50,58805,1,0,0:0:0:0:
28,46,58908,5,10,0:0:0:0:
62,113,59011,1,0,0:0:0:0:
96,180,59113,1,0,0:0:0:0:
131,247,59216,1,0,0:0:0:0:
166,314,59319,5,10,0:0:0:0:
328,62,59524,1,2,0:0:0:0:
28,46,59730,6,0,B|67:23|67:23|127:69,1,93.0999961643983,2|0,0:0|0:0,0:0:0:0:
242,320,59935,2,0,B|205:291|205:291|166:314,1,93.0999961643983,2|0,0:0|0:0,0:0:0:0:
96,180,60141,6,0,L|236:195,1,105.000004005432,4|0,0:0|0:0,0:0:0:0:
498,162,60346,2,0,L|358:147,1,105.000004005432,4|0,0:0|0:0,0:0:0:0:
208,82,60551,5,2,0:0:0:0:
210,102,60654,1,0,0:0:0:0:
309,258,60757,5,2,0:0:0:0:
307,238,60860,1,0,0:0:0:0:
300,136,60962,5,10,0:0:0:0:
80,272,61168,2,0,P|55:300|69:265,1,105.000004005432,0|0,0:0|0:0,0:0:0:0:
80,272,61373,6,0,P|38:320|61:260,1,157.500006008148,0|0,0:0|0:0,0:0:0:0:
85,182,61784,5,2,0:0:0:0:
113,270,61887,1,0,0:0:0:0:
177,337,61990,1,0,0:0:0:0:
268,357,62093,1,0,0:0:0:0:
354,325,62195,2,0,B|367:276|367:276|367:220,1,93.0999961643983,10|0,0:0|0:0,0:0:0:0:
238,70,62401,6,0,L|242:116,1,46.5499980821992,0|0,0:0|0:0,0:0:0:0:
219,81,62504,2,2,L|223:127,1,46.5499980821992,2|0,0:0|0:0,0:0:0:0:
200,148,62606,6,0,L|192:55,1,93.0999961643983,10|0,0:0|0:0,0:0:0:0:
385,47,62812,5,0,0:0:0:0:
394,138,62914,1,0,0:0:0:0:
320,195,63017,2,0,B|274:219|274:219|216:219,1,93.0999961643983,2|0,0:0|0:0,0:0:0:0:
97,99,63222,1,0,0:0:0:0:
98,117,63325,1,0,0:0:0:0:
60,202,63428,2,0,P|51:262|76:302,1,93.0999961643983,10|0,0:0|0:0,0:0:0:0:
208,377,63634,2,0,P|181:339|181:293,1,93.0999961643983,0|0,0:0|0:0,0:0:0:0:
216,122,63839,6,0,B|219:99|207:82|207:82|227:66|231:40|231:40|255:41|275:29|275:29|285:44|303:45|303:45|312:65|314:88|314:88|334:93|342:104|342:104|360:92|386:93|386:93|408:54,1,315.000012016297,2|0,0:0|0:0,0:0:0:0:
422,1,64250,5,10,0:0:0:0:
418,3,64353,1,2,0:0:0:0:
414,5,64456,1,2,0:0:0:0:
410,7,64558,1,2,0:0:0:0:
406,9,64661,6,0,P|393:56|404:89,1,70,2|0,0:0|0:0,0:0:0:0:
397,75,64764,2,0,P|409:107|405:141,1,70,2|0,0:0|0:0,0:0:0:0:
405,141,64867,2,0,P|418:188|407:221,1,70,2|0,0:0|0:0,0:0:0:0:
414,207,64970,2,0,P|401:239|405:273,1,70,2|0,0:0|0:0,0:0:0:0:
405,273,65072,5,0,0:0:0:0:
350,226,65174,1,0,0:0:0:0:
277,229,65277,1,0,0:0:0:0:
226,281,65380,1,0,0:0:0:0:
234,355,65483,2,0,L|332:368,1,93.0999961643983,10|0,0:0|0:0,0:0:0:0:
314,227,65688,5,2,0:0:0:0:
226,280,65791,2,0,L|134:293,1,93.0999961643983,10|0,0:0|0:0,0:0:0:0:
13,148,65997,1,0,0:0:0:0:
20,131,66099,6,0,B|66:122|66:122|112:144,1,93.0999961643983,10|0,0:0|0:0,0:0:0:0:
223,259,66305,2,0,B|209:225|234:192|234:192|196:172|196:172|206:144|194:99,1,168,0|0,0:0|0:0,0:0:0:0:
128,34,66716,5,2,0:0:0:0:
129,45,66819,1,0,0:0:0:0:
285,95,66921,5,0,0:0:0:0:
284,84,67024,1,2,0:0:0:0:
359,43,67127,6,0,B|380:73|390:119|356:155|338:169|338:169|330:185|330:185|346:169|346:169|338:193|338:193|354:169|354:169|346:201|346:201|362:169|362:169|354:209|354:209,1,315.000012016297,0|0,0:0|0:0,0:0:0:0:
366,180,67538,5,2,0:0:0:0:
0,0,67743,5,10,0:0:0:0:
76,264,67949,6,0,B|201:270|201:270|66:218|66:218|22:298,1,315.000012016297,6|0,0:0|0:0,0:0:0:0:
93,344,68360,5,10,0:0:0:0:
185,349,68462,1,0,0:0:0:0:
278,354,68565,2,0,P|322:373|371:346,1,93.0999961643983,0|0,0:0|0:0,0:0:0:0:
460,120,68771,5,2,0:0:0:0:
426,206,68874,2,0,P|385:225|343:209,1,93.0999961643983,0|0,0:0|0:0,0:0:0:0:
169,13,69079,5,0,0:0:0:0:
230,83,69182,2,0,L|224:186,1,93.0999961643983,10|0,0:0|0:0,0:0:0:0:
94,338,69387,2,0,L|99:245,1,93.0999961643983,0|0,0:0|0:0,0:0:0:0:
1,124,69593,6,0,B|-2:182|-2:182|60:115,1,93.0999961643983,2|0,0:0|0:0,0:0:0:0:
169,13,69798,5,2,0:0:0:0:
453,316,70004,1,10,0:0:0:0:
151,20,70209,5,0,0:0:0:0:
145,112,70312,1,0,0:0:0:0:
93,189,70415,5,2,0:0:0:0:
91,212,70517,1,0,0:0:0:0:
89,235,70620,1,0,0:0:0:0:
88,258,70723,1,0,0:0:0:0:
168,314,70825,6,0,B|189:277|189:277|192:201|192:201|177:178|177:178|181:115,1,186.199992328797,10|0,0:0|0:0,0:0:0:0:
296,58,71134,1,0,0:0:0:0:
392,157,71236,6,0,B|299:134|299:134|356:127|369:73|369:73|491:99,1,279.299988493195,2|0,0:0|0:0,0:0:0:0:
480,178,71647,5,10,0:0:0:0:
417,247,71750,1,0,0:0:0:0:
326,268,71853,2,0,P|278:264|244:295,1,93.0999961643983,0|0,0:0|0:0,0:0:0:0:
67,240,72058,5,2,0:0:0:0:
101,153,72161,2,0,P|136:124|181:129,1,93.0999961643983,0|0,0:0|0:0,0:0:0:0:
417,247,72367,5,0,0:0:0:0:
360,173,72469,2,0,L|353:61,1,93.0999961643983,10|0,0:0|0:0,0:0:0:0:
506,13,72675,2,0,L|512:106,1,93.0999961643983,0|0,0:0|0:0,0:0:0:0:
417,247,72880,6,0,B|393:296|393:296|367:228,1,93.0999961643983,2|0,0:0|0:0,0:0:0:0:
321,99,73086,1,2,0:0:0:0:
43,345,73291,1,10,0:0:0:0:
94,61,73497,5,0,0:0:0:0:
101,153,73599,1,0,0:0:0:0:
7,154,73702,6,0,P|60:70|193:168,1,279.299988493195,2|0,0:0|0:0,0:0:0:0:
113,235,74113,6,0,B|110:224|110:224|115:215|115:215|106:209|106:209|111:199|111:199|102:194|102:194|107:184|107:184|97:178|97:178|101:151,1,105,0|0,0:0|0:0,0:0:0:0:
193,140,74524,6,0,B|210:207|210:207|201:245|201:245|220:316,1,168,0|0,0:0|0:0,0:0:0:0:
344,367,74935,5,10,0:0:0:0:
319,276,75038,1,0,0:0:0:0:
344,185,75141,2,0,P|389:165|442:206,1,93.0999961643983,2|0,0:0|0:0,0:0:0:0:
193,140,75346,5,10,0:0:0:0:
168,49,75449,2,0,P|123:29|70:70,1,93.0999961643983,0|0,0:0|0:0,0:0:0:0:
0,238,75654,5,0,0:0:0:0:
11,144,75757,2,0,B|77:123|77:123|193:140,1,186.199992328797,10|0,0:0|0:0,0:0:0:0:
199,157,76065,5,0,0:0:0:0:
113,227,76168,2,0,B|103:284|103:284|135:254,1,93.0999961643983,2|0,0:0|0:0,0:0:0:0:
205,174,76373,5,2,0:0:0:0:
503,356,76579,1,10,0:0:0:0:
209,269,76784,5,0,0:0:0:0:
292,227,76887,1,0,0:0:0:0:
318,137,76990,5,2,0:0:0:0:
316,113,77092,1,0,0:0:0:0:
314,90,77195,1,0,0:0:0:0:
312,67,77298,1,0,0:0:0:0:
199,104,77401,6,0,L|205:174,1,70,10|0,0:0|0:0,0:0:0:0:
351,124,77606,2,0,L|345:54,1,70,0|0,0:0|0:0,0:0:0:0:
462,208,77812,6,0,B|427:202|400:189|400:189|364:212|330:201|330:201|289:231|289:231|302:276|302:276|229:235,1,279.299988493195,6|0,0:0|0:0,0:0:0:0:
196,312,78223,6,0,B|256:348|256:348|215:361,1,93.0999961643983,10|0,0:0|0:0,0:0:0:0:
42,301,78428,2,0,B|102:337|102:337|61:350,1,93.0999961643983,0|0,0:0|0:0,0:0:0:0:
141,214,78634,5,10,0:0:0:0:
46,204,78736,1,2,0:0:0:0:
129,143,78839,5,10,0:0:0:0:
34,133,78941,1,2,0:0:0:0:
66,215,79045,5,10,0:0:0:0:
463,12,79250,1,2,0:0:0:0:
303,97,79456,5,10,0:0:0:0:
309,119,79558,1,0,0:0:0:0:
322,138,79661,1,2,0:0:0:0:
340,153,79764,1,2,0:0:0:0:
314,280,79867,5,10,0:0:0:0:
292,274,79969,1,0,0:0:0:0:
269,276,80072,1,2,0:0:0:0:
247,284,80175,1,0,0:0:0:0:
150,198,80278,5,10,0:0:0:0:
166,181,80380,1,0,0:0:0:0:
176,161,80483,1,2,0:0:0:0:
180,138,80586,1,0,0:0:0:0:
94,65,80688,6,0,L|99:135,1,70,10|0,0:0|0:0,0:0:0:0:
290,357,80894,6,0,B|338:366|368:339|368:339|402:341,1,105.000004005432,0|0,0:0|0:0,0:0:0:0:
485,238,81099,6,0,B|431:237|431:237|417:231|417:231|360:236,1,115.50000352478,2|0,0:0|0:0,0:0:0:0:
179,139,81510,5,10,0:0:0:0:
257,167,81612,1,0,0:0:0:0:
340,160,81715,1,0,0:0:0:0:
413,120,81818,1,0,0:0:0:0:
457,48,81921,2,0,L|361:39,1,70,2|0,0:0|0:0,0:0:0:0:
165,134,82128,5,0,0:0:0:0:
136,212,82230,1,0,0:0:0:0:
143,295,82332,2,0,B|144:336|144:336|127:374,1,70,10|0,0:0|0:0,0:0:0:0:
5,284,82538,5,2,0:0:0:0:
70,161,82641,1,2,0:0:0:0:
136,282,82743,2,0,B|98:239|56:223|56:223|71:161|71:161|20:144|20:144|50:221,1,279.299988493195,2|0,0:0|0:0,0:0:0:0:
136,212,83154,6,0,L|153:130,1,70,10|0,0:0|0:0,0:0:0:0:
116,23,83360,1,0,0:0:0:0:
113,36,83462,1,0,0:0:0:0:
59,91,83565,2,0,L|71:161,1,70,2|0,0:0|0:0,0:0:0:0:
217,197,83771,1,0,0:0:0:0:
234,115,83873,1,0,0:0:0:0:
295,57,83976,6,0,B|344:45|344:45|400:59,1,93.0999961643983,10|0,0:0|0:0,0:0:0:0:
509,250,84182,2,0,B|476:222|476:222|427:211,1,93.0999961643983,0|0,0:0|0:0,0:0:0:0:
206,206,84387,6,0,B|268:217|268:217|316:270|316:270|370:281,1,168,2|0,0:0|0:0,0:0:0:0:
433,204,84798,5,10,0:0:0:0:
350,188,84901,1,0,0:0:0:0:
272,220,85004,1,0,0:0:0:0:
224,288,85106,1,0,0:0:0:0:
149,328,85209,2,0,L|58:318,1,70,2|0,0:0|0:0,0:0:0:0:
15,100,85415,5,0,0:0:0:0:
94,73,85517,1,0,0:0:0:0:
164,119,85620,2,0,B|169:161|169:161|156:194,1,70,10|0,0:0|0:0,0:0:0:0:
254,362,85825,2,0,B|250:334|250:334|266:295,1,70,10|0,0:0|0:0,0:0:0:0:
446,268,86031,5,2,0:0:0:0:
364,284,86134,1,2,0:0:0:0:
305,224,86236,2,0,L|296:146,1,70,2|0,0:0|0:0,0:0:0:0:
439,29,86442,5,10,0:0:0:0:
495,90,86545,1,0,0:0:0:0:
452,163,86648,1,0,0:0:0:0:
371,146,86750,1,0,0:0:0:0:
361,61,86853,2,0,B|328:50|328:50|284:56,1,70,0|0,0:0|0:0,0:0:0:0:
112,203,87058,5,2,0:0:0:0:
185,245,87161,1,2,0:0:0:0:
269,223,87264,2,0,B|258:127|258:127|213:250,1,210,10|0,0:0|0:0,0:0:0:0:
192,308,87675,5,2,0:0:0:0:
437,200,87880,2,0,B|496:159|496:159|393:161,1,105.000004005432,2|0,0:0|0:0,0:0:0:0:
117,183,88086,6,0,L|209:176,3,93.0999961643983,10|0|0|0,0:0|0:0|0:0|0:0,0:0:0:0:
384,327,88497,6,0,L|467:332,3,70,2|0|0|0,0:0|0:0|0:0|0:0,0:0:0:0:
462,159,88908,5,0,0:0:0:0:
417,106,89010,1,0,0:0:0:0:
350,92,89113,1,0,0:0:0:0:
288,123,89216,1,0,0:0:0:0:
363,198,89319,5,2,0:0:0:0:
161,46,89524,2,0,L|133:50,6,17.5,10|0|0|0|0|0|0,0:0|0:0|0:0|0:0|0:0|0:0|0:0,0:0:0:0:
74,62,89730,5,2,0:0:0:0:
104,312,89935,2,0,L|86:334,6,17.5,10|0|0|0|0|0|0,0:0|0:0|0:0|0:0|0:0|0:0|0:0,0:0:0:0:
40,263,90141,6,0,B|77:238|77:238|107:233|107:233|140:243|140:243|163:268|163:268|190:282|190:282|222:282|222:282|259:298|259:298|293:293|293:293|333:312|333:312|393:309,1,348.600005053253,0|0,0:0|0:0,0:0:0:0:
421,276,90552,5,10,0:0:0:0:
421,252,90654,1,2,0:0:0:0:
339,228,90757,5,10,0:0:0:0:
340,204,90859,1,2,0:0:0:0:
320,156,90962,6,0,B|269:122|219:154|219:154|246:85|318:70|370:86|395:103|395:103|391:168,1,348.600005053253,2|0,0:0|0:0,0:0:0:0:
385,206,91373,5,0,0:0:0:0:
382,229,91476,1,0,0:0:0:0:
379,252,91579,1,0,0:0:0:0:
376,275,91682,1,0,0:0:0:0:
304,332,91784,2,0,L|160:346,1,93.0999961643983,14|0,0:0|0:0,0:0:0:0:
96,198,91990,5,0,0:0:0:0:
168,268,92093,2,0,L|283:257,1,116.200001684418,14|0,0:0|0:0,0:0:0:0:
326,91,92298,5,0,0:0:0:0:
262,180,92401,2,0,L|122:193,1,140,14|0,0:0|0:0,0:0:0:0:
82,115,92606,6,0,L|169:109,1,69.2999997885132,2|0,0:0|0:0,0:0:0:0:
230,55,93017,5,10,0:0:0:0:
264,60,93120,1,8,0:0:0:0:
298,66,93223,1,8,0:0:0:0:
332,72,93325,1,8,0:0:0:0:
414,86,93428,5,10,0:0:0:0:
417,170,93530,1,8,0:0:0:0:
379,245,93633,1,8,0:0:0:0:
381,328,93736,1,8,0:0:0:0:
408,287,93839,6,0,L|404:207,1,70,2|0,0:0|0:0,0:0:0:0:
0,314,94045,2,0,L|3:383,1,70,2|0,0:0|0:0,0:0:0:0:
302,307,94250,6,0,L|296:196,1,93.0999961643983,6|0,0:0|0:0,0:0:0:0:
77,50,94456,1,0,0:0:0:0:
57,122,94558,1,0,0:0:0:0:
106,180,94661,2,0,B|156:165|156:165|260:185,1,93.0999961643983,10|0,0:0|0:0,0:0:0:0:
414,86,94867,5,0,0:0:0:0:
431,91,94969,1,0,0:0:0:0:
469,155,95072,2,0,L|463:247,1,93.0999961643983,2|0,0:0|0:0,0:0:0:0:
399,372,95278,5,0,0:0:0:0:
344,321,95380,1,0,0:0:0:0:
270,305,95483,1,10,0:0:0:0:
216,357,95586,2,0,L|89:364,2,93.0999961643983,0|0|0,0:0|0:0|0:0,0:0:0:0:
279,226,95894,5,2,0:0:0:0:
230,169,95997,1,0,0:0:0:0:
158,149,96099,1,0,0:0:0:0:
86,169,96202,1,0,0:0:0:0:
47,231,96305,2,0,L|53:346,1,93.0999961643983,10|0,0:0|0:0,0:0:0:0:
279,226,96510,2,0,P|269:181|241:145,1,93.0999961643983,0|0,0:0|0:0,0:0:0:0:
53,35,96716,5,2,0:0:0:0:
29,104,96818,1,0,0:0:0:0:
51,175,96921,1,0,0:0:0:0:
104,227,97024,1,0,0:0:0:0:
177,247,97127,2,0,L|322:241,1,93.0999961643983,10|0,0:0|0:0,0:0:0:0:
478,110,97332,2,0,B|424:105|424:105|373:121,1,93.0999961643983,0|0,0:0|0:0,0:0:0:0:
381,373,97538,6,0,P|377:327|353:287,1,93.0999961643983,2|0,0:0|0:0,0:0:0:0:
8,360,97743,2,0,L|101:356,1,93.0999961643983,0|0,0:0|0:0,0:0:0:0:
279,227,97949,5,0,0:0:0:0:
270,243,98052,1,10,0:0:0:0:
176,246,98154,2,0,P|188:290|220:325,1,93.0999961643983,0|0,0:0|0:0,0:0:0:0:
387,237,98360,5,2,0:0:0:0:
438,184,98462,1,0,0:0:0:0:
441,109,98565,1,0,0:0:0:0:
403,45,98667,1,0,0:0:0:0:
332,17,98771,6,0,B|280:12|280:12|198:43,1,93.0999961643983,10|0,0:0|0:0,0:0:0:0:
107,77,98976,1,0,0:0:0:0:
103,95,99079,1,0,0:0:0:0:
66,160,99182,6,0,P|67:218|107:258,1,93.0999961643983,2|0,0:0|0:0,0:0:0:0:
401,384,99387,2,0,P|400:326|360:286,1,93.0999961643983,2|0,0:0|0:0,0:0:0:0:
134,189,99593,5,10,0:0:0:0:
226,196,99695,1,2,0:0:0:0:
312,160,99798,1,2,0:0:0:0:
404,167,99901,1,2,0:0:0:0:
463,239,100004,6,0,P|426:288|411:238,1,105.000004005432,2|0,0:0|0:0,0:0:0:0:
103,95,100209,2,0,P|140:46|155:96,1,105.000004005432,2|0,0:0|0:0,0:0:0:0:
226,196,100415,5,2,0:0:0:0:
224,214,100517,1,2,0:0:0:0:
172,267,100620,6,0,L|167:351,1,56,2|0,0:0|0:0,0:0:0:0:
271,367,100825,6,0,L|278:260,1,93.0999961643983,6|0,0:0|0:0,0:0:0:0:
82,226,101031,5,0,0:0:0:0:
112,158,101134,1,0,0:0:0:0:
182,134,101236,2,0,L|276:141,1,93.0999961643983,10|0,0:0|0:0,0:0:0:0:
145,31,101442,5,0,0:0:0:0:
220,27,101545,1,0,0:0:0:0:
295,25,101647,2,0,L|389:32,1,93.0999961643983,2|0,0:0|0:0,0:0:0:0:
491,166,101853,5,0,0:0:0:0:
455,232,101956,1,0,0:0:0:0:
384,251,102058,2,0,B|338:232|338:232|275:246,1,93.0999961643983,10|0,0:0|0:0,0:0:0:0:
128,362,102264,5,0,0:0:0:0:
204,338,102367,1,0,0:0:0:0:
152,285,102469,6,0,P|74:283|37:315,1,93.0999961643983,2|0,0:0|0:0,0:0:0:0:
7,84,102675,2,0,P|73:124|121:115,1,93.0999961643983,0|0,0:0|0:0,0:0:0:0:
299,31,102880,5,10,0:0:0:0:
281,36,102983,1,0,0:0:0:0:
232,92,103086,2,0,L|242:245,1,93.0999961643983,0|0,0:0|0:0,0:0:0:0:
462,301,103291,5,2,0:0:0:0:
505,240,103394,1,0,0:0:0:0:
471,170,103497,1,0,0:0:0:0:
397,180,103599,1,0,0:0:0:0:
355,243,103702,6,0,B|327:245|327:245|288:263|288:263|234:266,1,93.0999961643983,10|0,0:0|0:0,0:0:0:0:
0,265,103908,2,0,B|28:264|28:264|68:279|68:279|122:277,1,93.0999961643983,0|0,0:0|0:0,0:0:0:0:
225,354,104113,5,2,0:0:0:0:
250,283,104216,1,0,0:0:0:0:
250,208,104319,1,0,0:0:0:0:
206,147,104422,1,0,0:0:0:0:
137,115,104524,2,0,B|113:69|113:69|115:10,1,93.0999961643983,10|0,0:0|0:0,0:0:0:0:
355,9,104730,2,0,B|357:60|357:60|388:110,1,93.0999961643983,0|0,0:0|0:0,0:0:0:0:
496,218,104935,2,0,L|350:201,1,93.0999961643983,2|0,0:0|0:0,0:0:0:0:
434,329,105141,2,0,L|288:312,1,93.0999961643983,0|0,0:0|0:0,0:0:0:0:
223,197,105346,5,10,0:0:0:0:
235,289,105449,1,0,0:0:0:0:
238,186,105551,5,2,0:0:0:0:
250,278,105654,1,0,0:0:0:0:
319,184,105757,6,0,B|325:111|325:111|278:153,1,116.200001684418,2|0,0:0|0:0,0:0:0:0:
119,294,105962,2,0,B|63:342|63:342|126:344,1,116.200001684418,0|0,0:0|0:0,0:0:0:0:
341,318,106168,6,0,L|345:256,1,58.1000008422089,10|0,0:0|0:0,0:0:0:0:
352,309,106271,2,0,L|356:247,1,58.1000008422089,2|0,0:0|0:0,0:0:0:0:
363,300,106373,2,0,L|367:238,1,58.1000008422089,2|0,0:0|0:0,0:0:0:0:
374,291,106476,2,0,L|378:229,1,58.1000008422089,2|0,0:0|0:0,0:0:0:0:
385,282,106579,5,2,0:0:0:0:
393,207,106682,1,2,0:0:0:0:
344,151,106784,1,2,0:0:0:0:
352,76,106887,1,2,0:0:0:0:
422,52,106990,5,2,0:0:0:0:
424,70,107093,1,2,0:0:0:0:
265,152,107195,5,2,0:0:0:0:
263,134,107298,1,2,0:0:0:0:
352,76,107401,6,0,L|340:203,1,93.0999961643983,6|0,0:0|0:0,0:0:0:0:
119,294,107606,2,0,L|127:201,1,93.0999961643983,0|0,0:0|0:0,0:0:0:0:
65,36,107812,1,10,0:0:0:0:
31,102,107915,1,0,0:0:0:0:
9,173,108017,2,0,B|2:233|2:233|23:285,1,93.0999961643983,0|0,0:0|0:0,0:0:0:0:
180,371,108223,5,2,0:0:0:0:
197,299,108325,1,0,0:0:0:0:
167,230,108428,1,0,0:0:0:0:
131,164,108531,1,0,0:0:0:0:
151,92,108634,2,0,L|158:-28,1,93.0999961643983,10|0,0:0|0:0,0:0:0:0:
246,183,108839,5,0,0:0:0:0:
317,162,108942,1,0,0:0:0:0:
388,140,109045,2,0,B|437:133|437:133|516:155,1,93.0999961643983,2|0,0:0|0:0,0:0:0:0:
483,314,109250,2,0,B|435:303|435:303|391:308,1,93.0999961643983,0|0,0:0|0:0,0:0:0:0:
174,354,109456,1,10,0:0:0:0:
161,281,109558,1,0,0:0:0:0:
199,217,109661,2,0,P|201:163|164:111,1,93.0999961643983,0|0,0:0|0:0,0:0:0:0:
12,61,109867,6,0,P|57:89|121:83,1,93.0999961643983,2|0,0:0|0:0,0:0:0:0:
343,82,110072,1,0,0:0:0:0:
331,155,110175,1,0,0:0:0:0:
276,219,110278,1,10,0:0:0:0:
258,293,110380,2,0,P|256:340|300:393,2,93.0999961643983,0|0|0,0:0|0:0|0:0,0:0:0:0:
469,82,110688,6,0,L|459:174,1,93.0999961643983,2|0,0:0|0:0,0:0:0:0:
339,320,110894,2,0,L|354:181,1,93.0999961643983,0|0,0:0|0:0,0:0:0:0:
293,156,111099,5,10,0:0:0:0:
375,141,111202,1,0,0:0:0:0:
436,96,111305,2,0,L|445:3,1,93.0999961643983,2|0,0:0|0:0,0:0:0:0:
208,33,111510,5,2,0:0:0:0:
143,86,111613,1,0,0:0:0:0:
103,159,111716,1,0,0:0:0:0:
108,242,111819,1,0,0:0:0:0:
132,312,111921,2,0,B|180:330|180:330|224:323,1,93.0999961643983,10|0,0:0|0:0,0:0:0:0:
101,182,112127,5,0,0:0:0:0:
29,200,112230,1,0,0:0:0:0:
8,271,112332,6,0,L|19:381,1,93.0999961643983,2|0,0:0|0:0,0:0:0:0:
310,334,112538,2,0,B|262:316|262:316|218:323,1,93.0999961643983,0|0,0:0|0:0,0:0:0:0:
144,71,112743,5,10,0:0:0:0:
228,66,112846,1,0,0:0:0:0:
306,95,112949,1,10,0:0:0:0:
345,169,113052,1,0,0:0:0:0:
281,207,113154,6,0,L|275:313,2,93.0999961643983,2|0|0,0:0|0:0|0:0,0:0:0:0:
387,53,113462,1,0,0:0:0:0:
374,192,113565,6,0,L|371:233,2,23.2749990410996,2|0|0,0:0|0:0|0:0,0:0:0:0:
374,192,113976,6,0,P|353:147|300:119,1,93.0999961643983,2|0,0:0|0:0,0:0:0:0:
38,84,114182,2,0,P|59:129|112:157,1,93.0999961643983,0|0,0:0|0:0,0:0:0:0:
236,33,114387,5,10,0:0:0:0:
162,73,114490,1,0,0:0:0:0:
125,148,114593,1,0,0:0:0:0:
128,231,114695,1,0,0:0:0:0:
147,312,114798,2,0,B|176:353|176:353|219:383,1,93.0999961643983,2|0,0:3|0:3,0:3:0:0:
372,368,115004,5,0,0:0:0:0:
412,295,115106,1,0,0:0:0:0:
401,211,115209,1,10,0:0:0:0:
323,178,115312,1,0,0:0:0:0:
243,205,115415,1,0,0:0:0:0:
225,286,115517,1,0,0:0:0:0:
269,357,115620,6,0,L|374:343,1,93.0999961643983,2|0,0:0|0:0,0:0:0:0:
491,168,115825,2,0,L|503:75,1,93.0999961643983,0|0,0:0|0:0,0:0:0:0:
335,54,116031,5,2,0:0:0:0:
331,137,116134,1,0,0:0:0:0:
279,192,116236,2,0,B|232:193|232:193|190:172,1,93.0999961643983,0|0,0:0|0:0,0:0:0:0:
40,59,116442,5,2,0:0:0:0:
40,77,116545,1,0,0:0:0:0:
103,216,116647,5,2,0:0:0:0:
103,198,116750,1,0,0:0:0:0:
42,153,116853,5,10,0:0:0:0:
62,244,116956,1,0,0:0:0:0:
137,296,117058,1,0,0:0:0:0:
230,299,117161,1,0,0:0:0:0:
313,257,117264,6,0,B|314:214|314:214|311:201|311:201|320:107,1,93.0999961643983,2|0,0:0|0:0,0:0:0:0:
485,24,117469,1,0,0:0:0:0:
469,163,117572,1,0,0:0:0:0:
417,85,117675,5,10,0:0:0:0:
332,45,117778,1,0,0:0:0:0:
245,77,117880,1,0,0:0:0:0:
194,155,117983,1,0,0:0:0:0:
203,247,118086,2,0,L|226:372,1,93.0999961643983,10|0,0:0|0:0,0:0:0:0:
136,84,118291,5,2,0:0:0:0:
107,229,118394,2,0,L|130:354,1,93.0999961643983,8|0,0:0|0:0,0:0:0:0:
376,300,118599,5,2,0:0:0:0:
405,155,118702,2,0,L|382:30,1,93.0999961643983,8|0,0:0|0:0,0:0:0:0:
216,25,118908,6,0,L|167:39,3,46.5499980821992,0|0|0|0,0:0|0:0|0:0|0:0,0:0:0:0:
153,125,119113,6,0,B|220:103|220:103|214:154,1,116.200001684418,0|0,0:0|0:0,0:0:0:0:
199,284,119319,2,0,L|226:356,3,58.1000008422089,0|0|0|0,0:0|0:0|0:0|0:0,0:0:0:0:
347,334,119524,2,0,L|327:280,3,58.1000008422089,0|0|0|0,0:0|0:0|0:0|0:0,0:0:0:0:
264,227,119730,6,0,P|291:209|366:214,1,105,2|0,0:0|0:0,0:0:0:0:
449,261,120141,5,10,0:0:0:0:
446,233,120243,1,0,0:0:0:0:
383,120,120346,5,2,0:0:0:0:
380,92,120448,1,0,0:0:0:0:
457,55,120551,6,0,L|471:176,2,93.3333333333333,0|0|0,0:0|0:0|0:0,0:0:0:0:
120,130,120962,2,0,P|186:147|229:130,1,93.3333333333333,10|0,0:0|0:0,0:0:0:0:
349,16,121236,1,0,0:0:0:0:
361,202,121373,2,0,L|336:317,2,93.3333333333333,2|0|0,0:0|0:0|0:0,0:0:0:0:
176,59,121784,5,10,0:0:0:0:
237,235,121921,1,0,0:0:0:0:
359,95,122058,1,2,0:0:0:0:
54,264,122195,6,0,L|147:276,1,93.3333333333333,2|0,0:0|0:0,0:0:0:0:
446,142,122469,1,0,0:0:0:0:
328,393,122606,6,0,L|340:301,1,93.3333333333333,10|0,0:0|0:0,0:0:0:0:
176,59,122880,1,0,0:0:0:0:
256,267,123017,5,2,0:0:0:0:
298,85,123154,1,0,0:0:0:0:
120,140,123291,1,0,0:0:0:0:
312,186,123428,5,10,0:0:0:0:
70,43,123565,1,0,0:0:0:0:
183,301,123702,1,0,0:0:0:0:
400,122,123839,6,0,L|391:232,1,93.3333333333333,2|0,0:0|0:0,0:0:0:0:
134,370,124113,1,0,0:0:0:0:
112,122,124250,6,0,L|119:215,1,93.3333333333333,10|0,0:0|0:0,0:0:0:0:
378,370,124524,1,0,0:0:0:0:
219,187,124661,5,2,0:0:0:0:
388,266,124798,1,0,0:0:0:0:
205,302,124935,1,0,0:0:0:0:
332,165,125072,5,10,0:0:0:0:
310,350,125209,1,2,0:0:0:0:
219,187,125346,1,2,0:0:0:0:
436,163,125483,5,2,0:0:0:0:
199,283,125620,1,0,0:0:0:0:
326,146,125757,1,0,0:0:0:0:
60,131,125894,5,10,0:0:0:0:
181,370,126031,1,0,0:0:0:0:
230,37,126168,1,0,0:0:0:0:
318,126,126305,6,0,L|314:254,2,93.3333333333333,2|0|0,0:0|0:0|0:0,0:0:0:0:
50,107,126716,2,0,L|54:235,2,93.3333333333333,10|0|0,0:0|0:0|0:0,0:0:0:0:
313,89,127127,6,0,P|277:118|232:131,1,93.3333333333333,6|0,0:0|0:0,0:0:0:0:
4,23,127401,1,0,0:0:0:0:
147,247,127538,6,0,L|254:260,1,93.3333333333333,10|0,0:0|0:0,0:0:0:0:
499,92,127812,1,0,0:0:0:0:
403,252,127949,5,2,0:0:0:0:
313,89,128086,1,0,0:0:0:0:
222,293,128223,1,0,0:0:0:0:
387,207,128360,5,10,0:0:0:0:
257,72,128497,1,2,0:0:0:0:
222,293,128634,1,2,0:0:0:0:
9,116,128771,6,0,L|4:23,1,93.3333333333333,2|0,0:0|0:0,0:0:0:0:
248,34,129045,1,0,0:0:0:0:
110,210,129182,5,10,0:0:0:0:
285,147,129319,1,0,0:0:0:0:
468,180,129456,1,0,0:0:0:0:
98,133,129593,5,2,0:0:0:0:
282,166,129730,1,0,0:0:0:0:
424,287,129867,1,0,0:0:0:0:
136,68,130004,5,10,0:0:0:0:
278,188,130141,1,0,0:0:0:0:
341,364,130278,1,0,0:0:0:0:
66,310,130415,6,0,L|58:203,1,93.3333333333333,2|0,0:0|0:0,0:0:0:0:
256,24,130688,1,0,0:0:0:0:
446,310,130825,6,0,L|454:203,1,93.3333333333333,10|0,0:0|0:0,0:0:0:0:
256,24,131098,1,0,0:0:0:0:
111,135,131236,2,0,P|143:175|148:264,2,93.3333333333333,2|0|0,0:0|0:0|0:0,0:0:0:0:
401,135,131647,2,0,P|369:175|364:264,2,93.3333333333333,10|0|0,0:0|0:0|0:0,0:0:0:0:
498,52,132058,5,10,0:0:0:0:
138,67,132195,1,2,0:0:0:0:
480,22,132332,1,2,0:0:0:0:
120,37,132469,1,2,0:0:0:0:
138,67,132880,5,10,0:0:0:0:
158,346,133017,1,2,0:0:0:0:
156,97,133154,1,2,0:0:0:0:
140,316,133291,5,10,0:0:0:0:
339,45,133428,1,2,0:0:0:0:
338,382,133565,1,2,0:0:0:0:
268,213,133702,5,10,0:0:0:0:
256,192,145209,12,0,146750,0:0:0:0:
109,165,146853,6,0,P|105:219|129:274,2,105,0|0|0,0:0|0:0|0:0,0:0:0:0:
184,91,147778,1,0,0:0:0:0:
284,61,148086,1,0,0:0:0:0:
193,102,150141,5,0,0:0:0:0:
293,72,150449,1,0,0:0:0:0:
394,96,150757,1,0,0:0:0:0:
199,124,151065,5,0,0:0:0:0:
299,94,151373,1,0,0:0:0:0:
501,150,151681,1,0,0:0:0:0:
351,241,153428,6,0,L|340:362,2,105,0|0|0,0:0|0:0|0:0,0:0:0:0:
264,181,154353,1,0,0:0:0:0:
159,187,154661,1,0,0:0:0:0:
206,93,154969,1,0,0:0:0:0:
218,303,155278,1,0,0:0:0:0:
192,81,156716,5,0,0:0:0:0:
145,175,157024,1,0,0:0:0:0:
250,169,157332,1,0,0:0:0:0:
44,124,157641,1,0,0:0:0:0:
105,324,157949,1,0,0:0:0:0:
170,80,158257,5,0,0:0:0:0:
337,321,158565,1,0,0:0:0:0:
494,24,158873,1,0,0:0:0:0:
50,39,160004,6,0,L|48:116,1,70,10|0,0:0|0:0,0:0:0:0:
91,165,160312,1,0,0:0:0:0:
106,188,160415,1,0,0:0:0:0:
120,211,160517,2,0,L|117:262,1,35,0|0,0:0|0:0,0:0:0:0:
46,334,160723,2,0,P|73:351|100:352,1,35,0|0,0:0|0:0,0:0:0:0:
180,310,160928,5,0,0:0:0:0:
206,300,161031,1,0,0:0:0:0:
234,299,161134,2,0,P|261:304|289:301,1,35,0|0,0:0|0:0,0:0:0:0:
413,325,161339,2,0,P|386:330|358:327,2,35,0|0|0,0:0|0:0|0:0,0:0:0:0:
342,237,161647,5,0,0:0:0:0:
332,210,161750,2,0,P|330:179|334:166,2,35,0|0|0,0:0|0:0|0:0,0:0:0:0:
442,189,162058,1,0,0:0:0:0:
452,162,162161,2,0,P|454:131|450:118,2,35,0|0|0,0:0|0:0|0:0,0:0:0:0:
342,237,162469,5,0,0:0:0:0:
314,230,162572,1,0,0:0:0:0:
286,233,162675,2,0,L|233:241,1,35,0|0,0:0|0:0,0:0:0:0:
180,310,162880,1,0,0:0:0:0:
152,317,162983,1,0,0:0:0:0:
124,314,163086,2,0,L|71:306,1,35,0|0,0:0|0:0,0:0:0:0:
21,219,163291,6,0,P|45:205|74:202,1,35,0|0,0:0|0:0,0:0:0:0:
117,176,163497,1,0,0:0:0:0:
138,158,163599,2,0,P|153:134|153:112,1,35,0|0,0:0|0:0,0:0:0:0:
103,40,163805,1,0,0:0:0:0:
82,58,163907,2,0,P|67:82|67:104,1,35,0|0,0:0|0:0,0:0:0:0:
117,176,164113,5,0,0:0:0:0:
138,193,164215,1,0,0:0:0:0:
165,201,164318,1,0,0:0:0:0:
193,199,164421,1,0,0:0:0:0:
217,163,164523,5,0,0:0:0:0:
236,143,164628,1,0,0:0:0:0:
261,131,164730,1,0,0:0:0:0:
289,130,164833,1,0,0:0:0:0:
316,164,164935,6,0,L|319:219,1,35,0|0,0:0|0:0,0:0:0:0:
275,255,165141,1,0,0:0:0:0:
292,276,165243,1,0,0:0:0:0:
317,288,165346,1,0,0:0:0:0:
344,283,165449,2,0,L|393:264,1,35,0|0,0:0|0:0,0:0:0:0:
242,361,165654,2,0,L|291:342,1,35,0|0,0:0|0:0,0:0:0:0:
136,322,165860,6,0,P|110:325|91:336,2,35,0|0|0,0:0|0:0|0:0,0:0:0:0:
185,272,166168,1,0,0:0:0:0:
81,227,166271,2,0,P|58:168|63:141,1,70,0|0,0:0|0:0,0:0:0:0:
99,97,166579,6,0,L|199:83,1,59.5000011348725,0|0,0:0|0:0,0:0:0:0:
224,128,166784,2,0,L|324:142,1,59.5000011348725,0|0,0:0|0:0,0:0:0:0:
344,88,166990,1,0,0:0:0:0:
388,71,167093,1,0,0:0:0:0:
434,78,167195,1,0,0:0:0:0:
473,104,167298,1,0,0:0:0:0:
434,171,167401,6,0,P|445:210|456:224,1,59.5000011348725,0|0,0:0|0:0,0:0:0:0:
354,333,167606,2,0,P|327:320|307:297,1,59.5000011348725,0|0,0:0|0:0,0:0:0:0:
182,241,167812,1,0,0:0:0:0:
206,222,167915,1,0,0:0:0:0:
252,210,168017,1,0,0:0:0:0:
299,220,168120,1,0,0:0:0:0:
286,143,168223,6,0,P|242:135|214:145,1,59.5000011348725,0|0,0:0|0:0,0:0:0:0:
131,294,168428,1,0,0:0:0:0:
97,259,168531,2,0,L|89:188,1,59.5000011348725,0|0,0:0|0:0,0:0:0:0:
37,89,168736,2,0,L|31:149,1,59.5000011348725,0|0,0:0|0:0,0:0:0:0:
69,342,168942,5,0,0:0:0:0:
106,370,169045,2,0,P|140:374|194:340,1,59.5000011348725,0|0,0:0|0:0,0:0:0:0:
252,210,169250,2,0,P|231:237|233:301,1,59.5000011348725,0|0,0:0|0:0,0:0:0:0:
321,369,169456,1,0,0:0:0:0:
358,340,169558,1,0,0:0:0:0:
378,296,169661,1,0,0:0:0:0:
369,249,169764,1,0,0:0:0:0:
340,211,169867,5,0,0:0:0:0:
424,167,169969,2,0,L|486:175,2,59.5000011348725,0|0|0,0:0|0:0|0:0,0:0:0:0:
327,165,170278,5,0,0:0:0:0:
238,198,170380,2,0,P|192:214|142:200,2,59.5000011348725,0|0|0,0:0|0:0|0:0,0:0:0:0:
340,119,170688,5,0,0:0:0:0:
340,211,170791,2,0,L|353:285,2,59.5000011348725,0|0|0,0:0|0:0|0:0,0:0:0:0:
370,81,171099,5,0,0:0:0:0:
284,123,171202,1,0,0:0:0:0:
188,129,171305,1,0,0:0:0:0:
130,52,171408,1,0,0:0:0:0:
198,9,171510,6,0,B|214:36|214:36|187:50|179:74|179:74|202:134|166:207|166:207|216:268|196:339,1,346.499998942566,0|0,0:0|0:0,0:0:0:0:
83,292,173154,6,0,P|56:256|47:204,1,70,0|0,0:0|0:0,0:0:0:0:
99,112,173360,2,0,L|99:182,1,70,0|0,0:0|0:0,0:0:0:0:
165,204,173565,5,0,0:0:0:0:
233,188,173668,1,0,0:0:0:0:
301,203,173771,1,0,0:0:0:0:
348,253,173873,1,0,0:0:0:0:
280,270,173976,5,0,0:0:0:0:
301,203,174079,1,0,0:0:0:0:
279,136,174182,1,0,0:0:0:0:
308,73,174284,1,0,0:0:0:0:
369,38,174387,2,0,L|448:42,1,70,14|0,0:0|0:0,0:0:0:0:
419,156,174593,2,0,L|349:152,1,70,2|0,0:0|0:0,0:0:0:0:
113,94,174798,6,0,L|37:118,1,70,14|0,0:0|0:0,0:0:0:0:
95,220,175004,2,0,L|161:198,1,70,0|0,0:0|0:0,0:0:0:0:
219,127,175209,5,0,0:0:0:0:
230,135,175312,1,0,0:0:0:0:
256,222,175415,5,0,0:0:0:0:
267,230,175518,1,0,0:0:0:0:
317,155,175620,5,0,0:0:0:0:
381,182,175723,1,0,0:0:0:0:
414,242,175825,1,0,0:0:0:0:
410,312,175928,1,0,0:0:0:0:
371,370,176031,6,0,L|281:376,1,70,14|0,0:0|0:0,0:0:0:0:
170,344,176236,2,0,L|240:340,1,70,2|0,0:0|0:0,0:0:0:0:
484,118,176442,6,0,L|415:123,1,70,14|0,0:0|0:0,0:0:0:0:
294,50,176647,5,0,0:0:0:0:
200,134,176750,2,0,P|176:193|223:297,1,140,0|0,0:0|0:0,0:0:0:0:
306,207,177058,5,0,0:0:0:0:
272,82,177161,2,0,B|231:82|231:82|178:99|178:99|134:99,1,140,8|0,0:0|0:0,0:0:0:0:
92,43,177469,5,0,0:0:0:0:
214,12,177572,1,0,0:0:0:0:
73,223,177778,5,0,0:0:0:0:
101,308,177880,1,0,0:0:0:0:
179,354,177983,1,0,0:0:0:0:
261,314,178086,6,0,B|267:272|267:272|261:227,1,70,14|0,0:0|0:0,0:0:0:0:
76,154,178291,2,0,B|68:197|68:197|76:241,1,70,0|0,0:0|0:0,0:0:0:0:
179,354,178497,5,0,0:0:0:0:
162,265,178599,2,0,L|176:179,1,70,0|0,0:0|0:0,0:0:0:0:
287,112,178805,1,14,0:0:0:0:
360,187,178908,2,0,P|398:194|449:182,2,70,0|0|0,0:0|0:0|0:0,0:0:0:0:
280,99,179216,5,0,0:0:0:0:
316,39,179319,1,0,0:0:0:0:
392,43,179421,5,0,0:0:0:0:
417,108,179524,1,0,0:0:0:0:
369,374,179730,6,0,L|358:282,1,70,0|0,0:0|0:0,0:0:0:0:
285,172,179935,2,0,L|294:242,1,70,0|0,0:0|0:0,0:0:0:0:
216,310,180141,5,0,0:0:0:0:
160,351,180243,1,0,0:0:0:0:
92,360,180346,1,0,0:0:0:0:
29,331,180449,1,0,0:0:0:0:
22,261,180552,5,0,0:0:0:0:
85,291,180655,1,0,0:0:0:0:
153,283,180758,1,0,0:0:0:0:
208,240,180860,1,0,0:0:0:0:
162,187,180962,6,0,L|146:99,1,70,14|0,0:0|0:0,0:0:0:0:
49,25,181168,2,0,P|62:58|88:82,1,70,2|0,0:0|0:0,0:0:0:0:
336,155,181373,6,0,P|333:189|316:220,1,70,14|0,0:0|0:0,0:0:0:0:
280,345,181579,2,0,L|270:275,1,70,0|0,0:0|0:0,0:0:0:0:
222,143,181784,5,0,0:0:0:0:
223,129,181887,1,0,0:0:0:0:
305,74,181990,5,0,0:0:0:0:
304,88,182093,1,0,0:0:0:0:
243,35,182195,6,0,P|284:4|320:2,1,70,0|0,0:0|0:0,0:0:0:0:
284,182,182401,2,0,P|243:213|207:215,1,70,0|0,0:0|0:0,0:0:0:0:
86,89,182606,2,0,L|156:98,1,70,14|0,0:0|0:0,0:0:0:0:
439,130,182812,2,0,L|369:121,1,70,2|0,0:0|0:0,0:0:0:0:
160,172,183017,5,14,0:0:0:0:
150,178,183120,1,0,0:0:0:0:
88,223,183223,5,0,0:0:0:0:
98,229,183326,1,0,0:0:0:0:
140,287,183428,6,0,L|133:332,6,28,0|0|0|0|0|0|0,0:0|0:0|0:0|0:0|0:0|0:0|0:0,0:0:0:0:
196,240,183839,5,0,0:0:0:0:
217,279,183942,2,0,B|273:299|273:299|333:297,1,112,0|0,0:0|0:0,0:0:0:0:
397,283,184250,1,0,0:0:0:0:
391,238,184353,1,0,0:0:0:0:
357,208,184456,2,0,B|351:181|351:181|357:150,1,56,0|0,0:0|0:0,0:0:0:0:
402,100,184661,6,0,B|317:136|317:136|190:123|190:123|278:91,1,279.299988493195,6|0,0:0|0:0,0:0:0:0:
313,82,185072,6,0,L|246:102,1,70,2|0,0:0|0:0,0:0:0:0:
217,279,185278,2,0,L|150:299,1,70,2|0,0:0|0:0,0:0:0:0:
53,110,185483,5,10,0:0:0:0:
122,116,185585,1,0,0:0:0:0:
192,123,185688,1,2,0:0:0:0:
261,130,185791,1,0,0:0:0:0:
122,116,185894,5,10,0:0:0:0:
168,120,185996,1,2,0:0:0:0:
214,124,186099,1,10,0:0:0:0:
261,129,186202,1,2,0:0:0:0:
338,80,186305,6,0,P|350:103|345:162,1,70,6|0,0:0|0:0,0:0:0:0:
293,290,186510,2,0,L|299:221,1,70,0|0,0:0|0:0,0:0:0:0:
465,117,186716,5,8,0:0:0:0:
460,186,186819,1,0,0:0:0:0:
425,248,186922,1,0,0:0:0:0:
421,318,187025,1,2,0:0:0:0:
362,356,187127,6,0,B|328:365|328:365|273:360,1,70,2|0,0:0|0:0,0:0:0:0:
87,332,187332,1,2,0:0:0:0:
154,313,187435,1,0,0:0:0:0:
197,253,187538,5,10,0:0:0:0:
130,234,187641,1,0,0:0:0:0:
111,161,187743,5,2,0:0:0:0:
181,160,187846,1,0,0:0:0:0:
231,98,187949,6,0,P|251:57|248:10,2,70,2|0|0,0:0|0:0|0:0,0:0:0:0:
148,226,188257,1,0,0:0:0:0:
188,283,188360,2,0,L|271:300,1,70,10|0,0:0|0:0,0:0:0:0:
372,218,188565,1,0,0:0:0:0:
379,230,188668,1,2,0:0:0:0:
424,308,188771,6,0,L|420:388,1,70,2|0,0:0|0:0,0:0:0:0:
260,227,188976,2,0,L|256:307,1,70,0|0,0:0|0:0,0:0:0:0:
441,179,189182,5,0,0:0:0:0:
459,112,189284,1,0,0:0:0:0:
432,49,189387,1,0,0:0:0:0:
371,16,189490,1,0,0:0:0:0:
307,100,189593,6,0,L|310:195,2,70,0|0|0,0:0|0:0|0:0,0:0:0:0:
95,88,189901,1,2,0:0:0:0:
76,157,190004,2,0,L|98:224,1,70,8|0,0:0|0:0,0:0:0:0:
207,182,190209,5,2,0:0:0:0:
70,67,190312,2,0,B|44:160|44:160|81:272,1,186.199992328797,2|0,0:0|0:0,0:0:0:0:
202,145,190620,5,2,0:0:0:0:
40,47,190723,2,0,B|9:158|9:158|54:291,1,232.400003368835,0|0,0:0|0:0,0:0:0:0:
163,330,191031,5,2,0:0:0:0:
252,307,191134,1,0,0:0:0:0:
311,239,191236,6,0,L|308:169,1,70,2|0,0:0|0:0,0:0:0:0:
462,347,191442,2,0,L|459:277,1,70,0|0,0:0|0:0,0:0:0:0:
482,56,191647,5,10,0:0:0:0:
399,122,191750,2,0,L|401:191,1,70,0|0,0:0|0:0,0:0:0:0:
168,149,191956,5,2,0:0:0:0:
250,83,192058,2,0,L|248:14,2,70,0|0|0,0:0|0:0|0:0,0:0:0:0:
140,212,192367,5,0,0:0:0:0:
98,156,192469,1,10,0:0:0:0:
88,86,192572,1,0,0:0:0:0:
125,25,192674,1,0,0:0:0:0:
196,329,192880,6,0,L|126:309,1,70,6|0,0:0|0:0,0:0:0:0:
369,252,193086,2,0,L|436:271,1,70,6|0,0:0|0:0,0:0:0:0:
307,331,193291,5,8,0:0:0:0:
272,271,193393,1,0,0:0:0:0:
283,203,193496,1,0,0:0:0:0:
335,158,193599,1,2,0:0:0:0:
404,148,193702,6,0,P|436:125|453:66,1,70,2|0,0:0|0:0,0:0:0:0:
261,2,193908,2,0,P|221:5|177:48,1,70,0|0,0:0|0:0,0:0:0:0:
151,232,194113,5,0,0:0:0:0:
213,201,194215,1,0,0:0:0:0:
249,142,194318,1,0,0:0:0:0:
247,73,194421,1,0,0:0:0:0:
215,110,194524,5,2,0:0:0:0:
218,144,194626,1,0,0:0:0:0:
221,179,194729,1,0,0:0:0:0:
225,214,194832,1,0,0:0:0:0:
301,236,194935,5,10,0:0:0:0:
299,223,195037,1,0,0:0:0:0:
148,191,195141,5,0,0:0:0:0:
150,204,195243,1,2,0:0:0:0:
198,290,195346,5,2,0:0:0:0:
244,340,195448,1,0,0:0:0:0:
312,355,195551,1,2,0:0:0:0:
375,330,195654,1,0,0:0:0:0:
419,250,195757,5,10,0:0:0:0:
385,172,195860,1,0,0:0:0:0:
414,101,195962,1,0,0:0:0:0:
384,53,196065,1,0,0:0:0:0:
344,37,196168,6,0,L|229:45,1,70,2|0,0:0|0:0,0:0:0:0:
99,121,196373,1,0,0:0:0:0:
97,134,196476,1,0,0:0:0:0:
87,210,196579,6,0,L|151:305,1,70,10|0,0:0|0:0,0:0:0:0:
282,380,196784,1,0,0:0:0:0:
294,375,196887,1,2,0:0:0:0:
364,342,196990,6,0,L|347:263,1,70,2|0,0:0|0:0,0:0:0:0:
192,102,197195,1,2,0:0:0:0:
204,107,197298,1,0,0:0:0:0:
274,138,197401,6,0,L|259:206,1,70,10|0,0:0|0:0,0:0:0:0:
148,342,197606,1,0,0:0:0:0:
134,344,197709,1,0,0:0:0:0:
64,355,197812,5,0,0:0:0:0:
389,267,198017,5,0,0:0:0:0:
423,274,198120,1,0,0:0:0:0:
40,187,198325,5,0,0:0:0:0:
95,199,198428,1,0,0:0:0:0:
149,212,198531,1,2,0:0:0:0:
150,134,198634,6,0,L|34:107,1,70,2|0,0:0|0:0,0:0:0:0:
148,342,198839,1,0,0:0:0:0:
213,315,198942,1,0,0:0:0:0:
266,261,199045,6,0,L|263:201,1,35,10|0,0:0|0:0,0:0:0:0:
274,249,199147,2,0,L|271:189,1,35,10|0,0:0|0:0,0:0:0:0:
282,237,199250,2,0,L|279:177,1,35,10|0,0:0|0:0,0:0:0:0:
290,225,199353,2,0,L|287:165,1,35,10|0,0:0|0:0,0:0:0:0:
309,201,199456,6,0,L|308:124,1,56,12|0,0:0|0:0,0:0:0:0:
191,56,199661,5,0,0:0:0:0:
190,67,199764,1,0,0:0:0:0:
150,134,199867,2,0,B|144:170|144:170|156:230,1,56,0|0,0:0|0:0,0:0:0:0:
213,315,200072,5,0,0:0:0:0:
221,322,200175,2,0,L|300:330,1,56,0|0,0:0|0:0,0:0:0:0:
418,264,200380,6,0,L|339:272,2,56,0|0|0,0:0|0:0|0:0,0:0:0:0:
476,211,200688,1,0,0:0:0:0:
128,327,200894,5,0,0:0:0:0:
72,271,200997,1,0,0:0:0:0:
16,215,201099,2,0,L|16:150,1,56,0|0,0:0|0:0,0:0:0:0:
143,32,201305,5,0,0:0:0:0:
139,42,201408,1,0,0:0:0:0:
96,107,201510,2,0,B|90:142|90:142|102:185,1,56,0|0,0:0|0:0,0:0:0:0:
254,124,201716,5,0,0:0:0:0:
263,130,201819,2,0,L|256:198,1,56,0|0,0:0|0:0,0:0:0:0:
127,328,202024,5,0,0:0:0:0:
193,287,202127,1,0,0:0:0:0:
272,293,202230,1,0,0:0:0:0:
377,357,202332,2,0,B|412:347|412:347|456:356|456:356|456:312|456:312|487:265,1,168,0|0,0:0|0:0,0:0:0:0:
447,173,202743,6,0,L|410:233,1,56,0|0,0:0|0:0,0:0:0:0:
272,293,202949,5,0,0:0:0:0:
270,282,203051,1,0,0:0:0:0:
327,228,203154,2,0,B|333:192|333:192|331:127,1,56,0|0,0:0|0:0,0:0:0:0:
173,75,203360,5,0,0:0:0:0:
165,82,203462,2,0,L|168:170,1,56,0|0,0:0|0:0,0:0:0:0:
133,266,203668,6,0,B|138:247|138:247|137:211,2,56,0|0|0,0:0|0:0|0:0,0:0:0:0:
80,324,203976,1,0,0:0:0:0:
247,40,204182,5,0,0:0:0:0:
314,78,204284,1,0,0:0:0:0:
354,145,204387,2,0,B|382:159|382:159|437:157,1,56,0|0,0:0|0:0,0:0:0:0:
499,63,204593,5,0,0:0:0:0:
497,74,204695,1,0,0:0:0:0:
499,152,204798,2,0,L|482:236,1,56,0|0,0:0|0:0,0:0:0:0:
379,319,205004,5,0,0:0:0:0:
389,314,205106,2,0,P|393:279|379:237,1,56,0|0,0:0|0:0,0:0:0:0:
216,368,205312,2,0,P|249:354|278:321,1,56,0|0,0:0|0:0,0:0:0:0:
82,246,205517,2,0,P|110:266|153:275,1,56,0|0,0:0|0:0,0:0:0:0:
221,143,205723,2,0,L|230:82,2,56,0|0|0,0:0|0:0|0:0,0:0:0:0:
148,189,206031,5,2,0:0:0:0:
178,217,206133,1,0,0:0:0:0:
217,230,206236,1,0,0:0:0:0:
259,224,206339,1,0,0:0:0:0:
314,167,206442,5,2,0:0:0:0:
353,157,206544,1,0,0:0:0:0:
394,165,206647,1,0,0:0:0:0:
427,192,206750,1,0,0:0:0:0:
423,270,206853,6,0,P|410:305|387:323,3,56,2|0|0|0,0:0|0:0|0:0|0:0,0:0:0:0:
224,312,207264,2,0,L|216:368,3,56,2|0|0|0,0:0|0:0|0:0|0:0,0:0:0:0:
152,323,207675,5,2,0:0:0:0:
125,290,207778,1,0,0:0:0:0:
117,249,207881,1,0,0:0:0:0:
127,210,207983,1,0,0:0:0:0:
203,193,208086,5,2,0:0:0:0:
214,151,208189,1,0,0:0:0:0:
207,110,208292,1,0,0:0:0:0:
182,78,208394,1,0,0:0:0:0:
102,97,208497,5,2,0:0:0:0:
92,136,208599,1,0,0:0:0:0:
100,177,208702,1,0,0:0:0:0:
127,210,208805,1,0,0:0:0:0:
256,247,208908,6,0,B|304:239|304:239|338:251|338:251|371:227|371:227|431:216,1,168,0|0,0:0|0:0,0:0:0:0:
367,153,209319,5,2,0:0:0:0:
325,160,209421,1,0,0:0:0:0:
284,168,209524,1,0,0:0:0:0:
243,175,209627,1,0,0:0:0:0:
230,104,209730,5,2,0:0:0:0:
257,136,209832,1,0,0:0:0:0:
284,168,209935,1,0,0:0:0:0:
311,200,210038,1,0,0:0:0:0:
256,247,210141,5,2,0:0:0:0:
270,207,210243,1,0,0:0:0:0:
284,168,210346,1,0,0:0:0:0:
298,128,210449,1,0,0:0:0:0:
244,64,210551,5,2,0:0:0:0:
230,104,210654,1,0,0:0:0:0:
216,143,210757,1,0,0:0:0:0:
202,183,210860,1,0,0:0:0:0:
120,199,210962,5,2,0:0:0:0:
161,191,211065,1,0,0:0:0:0:
202,183,211168,1,0,0:0:0:0:
244,175,211271,1,0,0:0:0:0:
257,247,211373,5,2,0:0:0:0:
229,215,211476,1,0,0:0:0:0:
202,183,211579,1,0,0:0:0:0:
174,151,211682,1,0,0:0:0:0:
82,214,211784,5,2,0:0:0:0:
70,254,211887,1,0,0:0:0:0:
112,265,211990,1,0,0:0:0:0:
123,223,212093,1,0,0:0:0:0:
57,195,212195,5,2,0:0:0:0:
55,254,212298,1,0,0:0:0:0:
116,254,212401,1,0,0:0:0:0:
117,193,212504,1,0,0:0:0:0:
135,175,212606,6,0,L|131:111,15,46.5499980821992,10|0|0|0|0|0|0|0|0|0|0|0|0|0|0|0,0:0|0:0|0:0|0:0|0:0|0:0|0:0|0:0|0:0|0:0|0:0|0:0|0:0|0:0|0:0|0:0,0:0:0:0:
222,103,213428,6,0,L|226:39,15,46.5499980821992,10|0|0|0|0|0|0|0|0|0|0|0|0|0|0|0,0:0|0:0|0:0|0:0|0:0|0:0|0:0|0:0|0:0|0:0|0:0|0:0|0:0|0:0|0:0|0:0,0:0:0:0:
306,157,214250,6,0,L|363:128,15,46.5499980821992,10|0|0|0|0|0|0|0|0|0|0|0|0|0|0|0,0:0|0:0|0:0|0:0|0:0|0:0|0:0|0:0|0:0|0:0|0:0|0:0|0:0|0:0|0:0|0:0,0:0:0:0:
301,256,215072,6,0,L|354:291,15,46.5499980821992,10|0|0|0|0|0|0|0|0|0|0|0|0|0|0|0,0:0|0:0|0:0|0:0|0:0|0:0|0:0|0:0|0:0|0:0|0:0|0:0|0:0|0:0|0:0|0:0,0:0:0:0:
252,355,215894,6,0,P|236:322|236:289,7,46.5499980821992,10|0|0|0|0|0|0|0,0:0|0:0|0:0|0:0|0:0|0:0|0:0|0:0,0:0:0:0:
159,256,216305,2,0,P|175:223|175:190,7,46.5499980821992,10|0|0|0|0|0|0|0,0:0|0:0|0:0|0:0|0:0|0:0|0:0|0:0,0:0:0:0:
282,180,216716,6,0,P|266:147|266:114,7,46.5499980821992,10|0|0|0|0|0|0|0,0:0|0:0|0:0|0:0|0:0|0:0|0:0|0:0,0:0:0:0:
189,81,217127,2,0,P|205:48|205:15,7,46.5499980821992,10|0|0|0|0|0|0|0,0:0|0:0|0:0|0:0|0:0|0:0|0:0|0:0,0:0:0:0:
130,33,217538,6,0,L|141:105,1,46.5499980821992,10|0,0:0|0:0,0:0:0:0:
123,55,217641,2,0,L|134:127,1,46.5499980821992,0|0,0:0|0:0,0:0:0:0:
116,77,217743,2,0,L|127:149,1,46.5499980821992,0|0,0:0|0:0,0:0:0:0:
109,99,217846,2,0,L|120:171,1,46.5499980821992,0|0,0:0|0:0,0:0:0:0:
102,121,217949,6,0,L|113:193,1,46.5499980821992,10|0,0:0|0:0,0:0:0:0:
95,143,218051,2,0,L|106:215,1,46.5499980821992,0|0,0:0|0:0,0:0:0:0:
88,165,218154,2,0,L|99:237,1,46.5499980821992,0|0,0:0|0:0,0:0:0:0:
81,187,218257,2,0,L|92:259,1,46.5499980821992,0|0,0:0|0:0,0:0:0:0:
74,209,218360,6,0,L|85:281,1,46.5499980821992,10|0,0:0|0:0,0:0:0:0:
67,231,218462,2,0,L|78:303,1,46.5499980821992,0|0,0:0|0:0,0:0:0:0:
60,253,218565,2,0,L|71:325,1,46.5499980821992,0|0,0:0|0:0,0:0:0:0:
53,275,218668,2,0,L|64:347,1,46.5499980821992,0|0,0:0|0:0,0:0:0:0:
46,297,218771,5,10,0:0:0:0:
112,329,218873,1,10,0:0:0:0:
185,318,218976,5,10,0:0:0:0:
251,350,219078,1,10,0:0:0:0:
319,318,219182,6,0,P|341:299|353:277,1,46.5499980821992,10|0,0:0|0:0,0:0:0:0:
313,285,219284,2,0,P|329:260|335:236,1,46.5499980821992,0|0,0:0|0:0,0:0:0:0:
298,254,219387,2,0,P|307:226|306:201,1,46.5499980821992,0|0,0:0|0:0,0:0:0:0:
274,226,219490,2,0,P|276:197|269:172,1,46.5499980821992,0|0,0:0|0:0,0:0:0:0:
203,206,219593,6,8,P|176:193|159:175,1,46.5499980821992,10|8,0:0|0:0,0:0:0:0:
200,172,219695,2,8,P|178:152|166:131,1,46.5499980821992,8|8,0:0|0:0,0:0:0:0:
206,138,219798,2,8,P|189:113|183:89,1,46.5499980821992,8|8,0:0|0:0,0:0:0:0:
222,105,219901,2,8,P|212:77|213:52,1,46.5499980821992,8|8,0:0|0:0,0:0:0:0:
284,65,220004,6,8,P|296:38|314:21,1,46.5499980821992,10|8,0:0|0:0,0:0:0:0:
318,62,220106,2,8,P|337:40|359:28,1,46.5499980821992,8|8,0:0|0:0,0:0:0:0:
352,68,220209,2,8,P|376:51|400:45,1,46.5499980821992,8|8,0:0|0:0,0:0:0:0:
385,84,220312,2,8,P|412:74|437:75,1,46.5499980821992,8|8,0:0|0:0,0:0:0:0:
424,149,220415,6,0,P|441:172|447:196,1,46.5499980821992,2|0,0:0|0:0,0:0:0:0:
409,179,220517,2,0,P|418:206|417:231,1,46.5499980821992,0|0,0:0|0:0,0:0:0:0:
387,206,220620,2,0,P|389:235|382:259,1,46.5499980821992,0|0,0:0|0:0,0:0:0:0:
357,226,220723,2,0,P|352:254|338:275,1,46.5499980821992,0|0,0:0|0:0,0:0:0:0:
274,226,220825,6,0,P|257:268|260:302,1,58.1000008422089,10|0,0:0|0:0,0:0:0:0:
218,238,220928,2,0,P|245:273|276:288,1,58.1000008422089,0|0,0:0|0:0,0:0:0:0:
200,292,221031,2,0,P|244:285|272:266,1,58.1000008422089,10|0,0:0|0:0,0:0:0:0:
238,334,221134,2,0,P|255:292|252:258,1,58.1000008422089,0|0,0:0|0:0,0:0:0:0:
293,322,221236,6,0,P|265:286|234:271,1,58.1000008422089,10|0,0:0|0:0,0:0:0:0:
310,268,221339,2,0,P|265:274|237:293,1,58.1000008422089,0|0,0:0|0:0,0:0:0:0:
274,226,221442,2,0,P|257:268|260:302,1,58.1000008422089,10|0,0:0|0:0,0:0:0:0:
179,195,221545,2,0,P|206:230|237:245,1,58.1000008422089,0|0,0:0|0:0,0:0:0:0:
309,151,221647,6,10,L|309:121,14,29.0500004211044,10|10|10|10|10|10|10|10|10|10|10|10|10|10|10,0:0|0:0|0:0|0:0|0:0|0:0|0:0|0:0|0:0|0:0|0:0|0:0|0:0|0:0|0:0,0:0:0:0:
336,131,222058,6,0,B|332:80|332:80|310:39,1,93.0999961643983,10|0,0:0|0:0,0:0:0:0:
40,166,222264,2,0,B|44:217|44:217|66:258,1,93.0999961643983,10|0,0:0|0:0,0:0:0:0:
187,332,222469,6,0,P|223:343|265:341,1,70,14|0,0:0|0:0,0:0:0:0:
255,342,222572,2,0,P|280:314|318:295,1,70,2|0,0:0|0:0,0:0:0:0:
308,298,222675,2,0,P|344:289|380:266,1,70,2|0,0:0|0:0,0:0:0:0:
371,272,222778,2,0,P|379:235|402:199,1,70,2|0,0:0|0:0,0:0:0:0:
395,207,222880,2,0,P|367:181|348:143,1,70,2|0,0:0|0:0,0:0:0:0:
351,153,222983,2,0,P|342:116|319:80,1,70,2|0,0:0|0:0,0:0:0:0:
325,90,223086,2,0,P|288:81|252:58,1,70,2|0,0:0|0:0,0:0:0:0:
260,65,223188,2,0,P|230:82|196:90,1,70,2|0,0:0|0:0,0:0:0:0:
195,90,223291,6,0,B|225:199,1,87.5,10|0,0:0|0:0,0:0:0:0:
168,162,223394,2,0,B|247:241,1,87.5,10|0,0:0|0:0,0:0:0:0:
180,238,223497,2,0,B|289:267,1,87.5,10|0,0:0|0:0,0:0:0:0:
228,297,223599,2,0,B|336:267,1,87.5,10|0,0:0|0:0,0:0:0:0:
319,334,223702,6,0,P|319:269|293:232,1,87.5,10|0,0:0|0:0,0:0:0:0:
389,240,223805,2,0,P|356:183|315:164,1,87.5,10|0,0:0|0:0,0:0:0:0:
392,159,223908,2,0,P|335:126|290:130,1,87.5,10|0,0:0|0:0,0:0:0:0:
342,100,224010,2,0,P|277:99|240:125,1,87.5,10|0,0:0|0:0,0:0:0:0:
123,100,224113,6,0,B|124:215|124:215|172:156,1,175,14|0,0:0|0:0,0:0:0:0:
402,123,224421,6,0,B|301:66|301:66|329:137,1,175,14|0,0:0|0:0,0:0:0:0:
242,352,224730,6,0,B|341:294|341:294|266:282,1,175,14|0,0:0|0:0,0:0:0:0:
138,305,224935,6,0,L|129:391,1,46.5499980821992
98,310,225038,2,0,L|102:263,1,46.5499980821992
72,269,225141,2,0,L|63:355,1,46.5499980821992
24,281,225243,2,0,L|28:234,1,46.5499980821992
0,232,225346,6,0,L|14:106,1,93.0999961643983,0|0,0:0|0:0,0:0:0:0:
421,39,225551,1,14,0:0:0:0:
348,164,225757,6,0,B|299:167|299:167|223:146,1,93.0999961643983,6|0,0:0|0:0,0:0:0:0:
43,59,225962,2,0,L|149:53,1,93.0999961643983
289,42,226168,5,10,0:0:0:0:
209,90,226271,1,0,0:0:0:0:
167,175,226373,1,0,0:0:0:0:
169,268,226476,1,0,0:0:0:0:
224,342,226579,6,0,L|316:351,1,93.0999961643983,2|0,0:0|0:0,0:0:0:0:
512,250,226784,2,0,L|420:240,1,93.0999961643983
218,51,226990,5,14,0:0:0:0:
302,12,227093,1,0,0:0:0:0:
398,27,227195,1,0,0:0:0:0:
456,101,227299,1,0,0:0:0:0:
372,135,227401,2,0,B|325:141|325:141|243:116,1,93.0999961643983,6|0,0:0|0:0,0:0:0:0:
47,46,227606,5,0,0:0:0:0:
132,88,227709,1,0,0:0:0:0:
163,175,227812,2,0,L|146:286,1,93.0999961643983,0|0,0:0|0:0,0:0:0:0:
20,301,228017,5,0,0:0:0:0:
22,314,228120,1,0,0:0:0:0:
15,224,228223,2,0,P|24:176|50:141,1,93.0999961643983
312,185,228428,2,0,P|324:232|315:275,1,93.0999961643983,0|0,0:0|0:0,0:0:0:0:
175,160,228634,5,14,0:0:0:0:
243,98,228736,1,0,0:0:0:0:
334,82,228839,1,0,0:0:0:0:
421,115,228942,1,0,0:0:0:0:
451,203,229045,6,0,P|444:243|386:299,1,93.0999961643983,6|0,0:0|0:0,0:0:0:0:
340,331,229250,5,2,0:0:0:0:
336,349,229353,1,2,0:0:0:0:
250,355,229456,2,0,L|135:366,1,93.0999961643983,10|0,0:0|0:0,0:0:0:0:
86,213,229661,5,2,0:0:0:0:
90,235,229764,1,2,0:0:0:0:
175,281,229867,2,0,L|290:270,1,116.200001684418,10|0,0:0|0:0,0:0:0:0:
364,179,230072,1,2,0:0:0:0:
274,103,230175,1,2,0:0:0:0:
177,124,230278,6,0,B|184:165|184:165|182:218,1,70,10|0,0:0|0:0,0:0:0:0:
91,292,230483,2,0,B|83:251|83:251|85:198,1,70,0|0,0:0|0:0,0:0:0:0:
210,103,230688,6,0,B|219:157|219:157|216:228,1,93.0999961643983,14|0,0:0|0:0,0:0:0:0:
60,308,230894,2,0,B|50:253|50:253|53:182,1,93.0999961643983,0|0,0:0|0:0,0:0:0:0:
127,181,231099,5,10,0:0:0:0:
57,136,231202,2,0,L|68:6,1,93.0999961643983,0|0,0:0|0:0,0:0:0:0:
312,34,231408,5,10,0:0:0:0:
401,90,231510,2,0,P|414:136|375:116,1,116.200001684418,2|0,0:0|0:0,0:0:0:0:
226,249,231716,2,0,P|179:237|216:213,1,116.200001684418,0|0,0:0|0:0,0:0:0:0:
309,288,231921,5,10,0:0:0:0:
226,330,232024,1,0,0:0:0:0:
140,318,232127,2,0,P|109:282|102:224,1,93.0999961643983,0|0,0:0|0:0,0:0:0:0:
266,27,232332,6,0,B|270:79|270:79|256:174,1,93.0999961643983,6|0,0:0|0:0,0:0:0:0:
388,334,232538,2,0,B|384:282|384:282|389:241,1,93.0999961643983,0|0,0:0|0:0,0:0:0:0:
298,60,232743,5,10,0:0:0:0:
254,143,232846,1,0,0:0:0:0:
266,235,232949,1,0,0:0:0:0:
338,293,233051,1,0,0:0:0:0:
401,226,233154,6,0,P|388:181|356:148,1,93.0999961643983,2|0,0:0|0:0,0:0:0:0:
61,139,233360,2,0,L|152:120,1,93.0999961643983
235,329,233565,2,0,L|141:329,1,93.0999961643983,10|0,0:0|0:0,0:0:0:0:
83,232,233771,5,0,0:0:0:0:
172,214,233873,1,0,0:0:0:0:
240,150,233976,6,0,B|239:97|239:97|219:35,1,93.0999961643983,2|0,0:0|0:0,0:0:0:0:
97,16,234181,1,0,0:0:0:0:
29,74,234284,1,0,0:0:0:0:
30,167,234387,5,10,0:0:0:0:
31,185,234490,1,0,0:0:0:0:
120,238,234593,5,10,0:0:0:0:
119,256,234696,1,0,0:0:0:0:
91,323,234798,6,0,B|84:272|84:272|104:185,1,93.0999961643983,0|0,0:0|0:0,0:0:0:0:
371,111,235004,2,0,B|378:162|378:162|358:249,1,93.0999961643983,0|0,0:0|0:0,0:0:0:0:
127,146,235209,5,10,0:0:0:0:
161,60,235312,1,0,0:0:0:0:
235,6,235415,1,0,0:0:0:0:
324,29,235517,1,0,0:0:0:0:
257,97,235620,6,0,B|257:129|257:129|265:165|265:165|264:206,1,93.0999961643983,2|0,0:0|0:0,0:0:0:0:
238,356,235825,1,0,0:0:0:0:
252,343,235928,1,0,0:0:0:0:
267,332,236031,6,0,L|269:292,6,23.2749990410996,0|0|0|0|0|0|0,0:0|0:0|0:0|0:0|0:0|0:0|0:0,0:0:0:0:
193,267,236236,2,0,L|195:227,6,23.2749990410996,0|0|0|0|0|0|0,0:0|0:0|0:0|0:0|0:0|0:0|0:0,0:0:0:0:
254,190,236442,6,0,L|258:58,2,93.0999961643983,0|0|0,0:0|0:0|0:0,0:0:0:0:
263,205,236750,5,0,0:0:0:0:
258,79,236853,2,0,B|208:67|208:67|146:89,1,93.0999961643983,0|0,0:0|0:0,0:0:0:0:
65,123,237058,1,0,0:0:0:0:
62,141,237161,1,0,0:0:0:0:
59,159,237264,6,0,B|91:290|91:290|112:149,1,232.400003368835,6|0,0:0|0:0,0:0:0:0:
65,123,237675,6,0,B|103:280|103:280|128:110,1,280,6|0,0:0|0:0,0:0:0:0:
71,87,238086,6,0,L|115:278,1,163.10000653286,10|0,0:0|0:0,0:0:0:0:
171,194,238291,6,0,L|188:273,1,81.55000326643,10|0,0:0|0:0,0:0:0:0:
205,202,238394,2,0,L|222:281,1,81.55000326643,10|0,0:0|0:0,0:0:0:0:
379,232,238599,6,0,P|387:256|342:222,2,163.10000653286,0|0|0,0:0|0:0|0:0,0:0:0:0:
456,214,238908,6,0,P|465:271|427:331,1,93.0999961643983,6|0,0:0|0:0,0:0:0:0:
326,322,239113,1,0,0:0:0:0:
299,232,239216,1,0,0:0:0:0:
323,142,239319,2,0,B|340:91|340:91|348:5,1,93.0999961643983,10|0,0:0|0:0,0:0:0:0:
227,138,239524,5,0,0:0:0:0:
183,220,239627,1,0,0:0:0:0:
103,255,239730,2,0,L|-6:243,1,93.0999961643983,2|0,0:0|0:0,0:0:0:0:
70,85,239935,5,0,0:0:0:0:
151,38,240038,1,0,0:0:0:0:
243,24,240141,1,14,0:0:0:0:
333,40,240243,1,0,0:0:0:0:
420,71,240346,1,0,0:0:0:0:
460,155,240449,1,0,0:0:0:0:
396,221,240551,6,0,B|415:267|415:267|448:299,2,93.0999961643983,6|0|0,0:0|0:0|0:0,0:0:0:0:
316,170,240860,1,0,0:0:0:0:
228,209,240962,2,0,B|221:258|221:258|234:302,1,93.0999961643983,10|0,0:0|0:0,0:0:0:0:
372,375,241168,5,0,0:0:0:0:
372,356,241271,1,0,0:0:0:0:
313,300,241373,2,0,L|317:230,1,70,2|0,0:0|0:0,0:0:0:0:
402,124,241579,5,0,0:0:0:0:
336,58,241681,1,0,0:0:0:0:
244,40,241784,1,10,0:0:0:0:
150,61,241886,1,0,0:0:0:0:
92,135,241990,2,0,L|73:269,1,93.0999961643983
192,294,242195,6,0,P|239:307|288:302,1,93.0999961643983,6|0,0:0|0:0,0:0:0:0:
310,225,242401,1,0,0:0:0:0:
312,206,242503,1,0,0:0:0:0:
199,212,242606,6,0,L|186:327,1,116.200001684418,10|0,0:0|0:0,0:0:0:0:
315,188,242812,1,0,0:0:0:0:
318,169,242915,1,0,0:0:0:0:
199,136,243017,6,0,L|181:284,1,140,2|0,0:0|0:0,0:0:0:0:
284,373,243223,1,0,0:0:0:0:
371,347,243325,1,0,0:0:0:0:
392,275,243428,6,0,L|376:176,1,93.0999961643983,10|0,0:0|0:0,0:0:0:0:
257,134,243634,2,0,L|271:42,1,93.0999961643983,0|0,0:0|0:0,0:0:0:0:
483,122,243839,6,0,B|477:163|477:163|454:209,1,93.0999961643983,6|0,0:0|0:0,0:0:0:0:
279,335,244045,2,0,B|284:293|284:293|307:247,1,93.0999961643983,0|0,0:0|0:0,0:0:0:0:
378,163,244250,5,0,0:0:0:0:
301,229,244353,2,0,L|172:217,1,93.0999961643983,0|0,0:0|0:0,0:0:0:0:
280,196,244558,5,0,0:0:0:0:
373,281,244661,2,0,P|373:338|351:309,1,140,0|0,0:0|0:0,0:0:0:0:
128,271,244867,2,0,P|125:327|148:300,1,140,0|0,0:0|0:0,0:0:0:0:
373,171,245072,5,10,0:0:0:0:
280,196,245175,1,0,0:0:0:0:
187,182,245278,1,0,0:0:0:0:
262,27,245483,6,0,L|276:150,1,93.0999961643983,6|0,0:0|0:0,0:0:0:0:
479,239,245688,2,0,L|489:146,1,93.0999961643983,0|0,0:0|0:0,0:0:0:0:
344,59,245894,5,10,0:0:0:0:
271,42,245997,1,0,0:0:0:0:
199,59,246099,1,0,0:0:0:0:
140,105,246202,1,0,0:0:0:0:
114,175,246305,1,2,0:0:0:0:
119,249,246408,1,0,0:0:0:0:
164,307,246510,1,2,0:0:0:0:
238,311,246613,1,0,0:0:0:0:
292,259,246716,5,10,0:0:0:0:
290,240,246819,1,0,0:0:0:0:
218,220,246921,5,0,0:0:0:0:
216,239,247024,1,0,0:0:0:0:
196,312,247127,6,0,P|235:314|274:297,2,70,2|0|0,0:0|0:0|0:0,0:0:0:0:
116,198,247435,5,0,0:0:0:0:
188,138,247538,1,10,0:0:0:0:
279,118,247641,1,0,0:0:0:0:
369,134,247743,5,0,0:0:0:0:
444,189,247846,1,0,0:0:0:0:
472,277,247949,2,0,B|467:328|467:328|447:367,1,93.0999961643983,2|0,0:0|0:0,0:0:0:0:
91,286,248154,2,0,B|96:235|96:235|116:196,1,93.0999961643983,2|0,0:0|0:0,0:0:0:0:
444,189,248360,2,0,B|463:151|463:151|468:100,1,93.0999961643983,2|0,0:0|0:0,0:0:0:0:
260,92,248565,2,0,B|240:129|240:129|235:180,1,93.0999961643983,2|0,0:0|0:0,0:0:0:0:
140,315,248771,6,0,B|116:356|116:356|61:371|61:371|46:316|46:316|70:274|70:274|49:216|49:216|81:207|81:207|69:181|69:181|89:147,1,348.600005053253,6|0,0:0|0:0,0:0:0:0:
169,75,249182,5,10,0:0:0:0:
170,93,249284,1,0,0:0:0:0:
219,149,249387,2,0,B|200:196|200:196|165:220,1,93.0999961643983
267,6,249593,5,2,0:0:0:0:
269,24,249695,2,0,B|278:59|278:59|300:90|300:90|312:154,1,93.0999961643983,0|0,0:0|0:0,0:0:0:0:
382,103,249901,5,0,0:0:0:0:
306,127,250004,2,0,B|316:183|316:183|341:228,1,93.0999961643983,10|0,0:0|0:0,0:0:0:0:
511,344,250209,2,0,B|465:326|465:326|410:337,1,93.0999961643983,0|0,0:0|0:0,0:0:0:0:
256,352,250415,5,2,0:0:0:0:
167,323,250517,1,0,0:0:0:0:
98,259,250620,1,0,0:0:0:0:
73,168,250723,1,0,0:0:0:0:
118,87,250825,6,0,B|162:59|162:59|245:57,1,93.0999961643983,10|0,0:0|0:0,0:0:0:0:
486,150,251031,2,0,B|461:196|461:196|391:239,1,93.0999961643983,2|0,0:0|0:0,0:0:0:0:
304,241,251236,5,2,0:0:0:0:
245,194,251338,1,0,0:0:0:0:
262,121,251441,1,2,0:0:0:0:
333,100,251544,1,0,0:0:0:0:
386,152,251647,1,10,0:0:0:0:
374,226,251750,1,0,0:0:0:0:
312,267,251853,1,2,0:0:0:0:
242,297,251956,1,0,0:0:0:0:
165,312,252058,6,0,B|99:319|99:319|118:273|118:273|71:200|71:200|77:103,1,279.299988493195,6|0,0:0|0:0,0:0:0:0:
161,43,252469,6,0,L|150:182,1,140,10|0,0:0|0:0,0:0:0:0:
161,192,252778,1,0,0:0:0:0:
253,254,252880,2,0,B|289:259|289:259|383:241,1,70,0|0,0:0|0:0,0:0:0:0:
448,118,253086,5,0,0:0:0:0:
324,171,253188,2,0,B|320:251|320:251|331:285|331:285|367:307,1,140,0|0,0:0|0:0,0:0:0:0:
444,178,253497,1,0,0:0:0:0:
408,93,253599,1,0,0:0:0:0:
325,64,253702,6,0,B|232:73|216:166|216:166|207:108|207:108|153:44,1,279.299988493195,2|0,0:0|0:0,0:0:0:0:
140,146,254113,6,0,B|216:230|216:230|189:230,1,140,10|0,0:0|0:0,0:0:0:0:
126,144,254421,1,0,0:0:0:0:
44,210,254524,2,0,L|36:313,1,70,0|0,0:0|0:0,0:0:0:0:
159,323,254730,5,0,0:0:0:0:
124,246,254832,1,0,0:0:0:0:
45,195,254935,6,0,P|34:114|111:45,1,140,10|0,0:0|0:0,0:0:0:0:
76,61,255243,1,0,0:0:0:0:
211,25,255346,6,0,B|278:36|278:36|327:74|327:74|374:65|413:99,1,210,2|0,0:0|0:0,0:0:0:0:
348,153,255757,1,0,0:0:0:0:
267,176,255860,1,0,0:0:0:0:
264,259,255962,1,0,0:0:0:0:
346,279,256065,5,0,0:0:0:0:
347,265,256168,1,0,0:0:0:0:
247,192,256271,2,0,B|241:253|241:253|249:288|249:288|245:345,1,140,0|0,0:0|0:0,0:0:0:0:
165,360,256579,6,0,L|171:266,1,70,10|0,0:0|0:0,0:0:0:0:
328,161,256784,2,0,L|322:230,1,70,10|0,0:0|0:0,0:0:0:0:
53,199,256990,6,0,P|-11:110|117:112,1,279.299988493195,2|0,0:0|0:0,0:0:0:0:
83,267,257401,2,0,B|68:290|68:290|53:132,1,186.199992328797,10|0,0:0|0:0,0:0:0:0:
64,146,257709,5,0,0:0:0:0:
144,223,257812,2,0,P|207:234|256:202,1,93.0999961643983,2|0,0:0|0:0,0:0:0:0:
274,144,258017,2,0,P|229:130|185:143,1,93.0999961643983,0|0,0:0|0:0,0:0:0:0:
258,323,258223,6,0,B|304:339|304:339|398:329,1,112,10|0,0:0|0:0,0:0:0:0:
375,315,258531,1,0,0:0:0:0:
242,245,258634,2,0,B|171:272|180:339|180:339|100:308|100:308|84:230,1,279.299988493195,0|0,0:0|0:0,0:0:0:0:
93,70,259045,5,0,0:0:0:0:
90,83,259147,1,0,0:0:0:0:
130,172,259250,2,0,B|170:178|170:178|240:157,1,70,0|0,0:0|0:0,0:0:0:0:
257,82,259456,5,0,0:0:0:0:
260,94,259558,1,0,0:0:0:0:
405,87,259661,2,0,B|384:108|384:108|347:123,1,70,0|0,0:0|0:0,0:0:0:0:
170,19,259867,2,0,L|339:31,1,140,10|0,0:0|0:0,0:0:0:0:
317,41,260175,5,0,0:0:0:0:
392,214,260278,2,0,B|367:281|367:281|349:244|349:244|407:79,1,279.299988493195,6|0,0:0|0:0,0:0:0:0:
413,71,260688,6,10,B|487:160|487:160|469:223,1,140,0|0,0:0|0:0,0:0:0:0:
474,196,260997,1,0,0:0:0:0:
428,313,261099,2,0,L|330:311,1,70,2|0,0:0|0:0,0:0:0:0:
112,240,261305,2,0,L|210:238,1,70,0|0,0:0|0:0,0:0:0:0:
419,345,261510,6,0,B|315:345|315:345|242:305,1,140,0|0,0:0|0:0,0:0:0:0:
279,314,261819,1,0,0:0:0:0:
202,208,261921,2,0,B|156:187|156:187|98:207|98:207|147:152|147:152|116:96|161:45,1,279.299988493195,2|0,0:0|0:0,0:0:0:0:
214,106,262332,6,0,P|274:124|328:106,1,93.0999961643983,10|0,0:0|0:0,0:0:0:0:
512,243,262538,2,0,P|470:223|441:187,1,93.0999961643983,0|0,0:0|0:0,0:0:0:0:
374,54,262743,1,0,0:0:0:0:
298,224,262846,2,0,B|289:253|289:253|297:343|297:343|232:312,1,186.199992328797,0|0,0:0|0:0,0:0:0:0:
158,238,263154,5,10,0:0:0:0:
173,164,263257,1,0,0:0:0:0:
158,90,263360,1,10,0:0:0:0:
104,39,263462,1,0,0:0:0:0:
20,19,263565,6,0,L|9:132,1,93.0999961643983,0|0,0:0|0:0,0:0:0:0:
181,132,263771,5,2,0:0:0:0:
167,145,263873,2,0,L|156:258,1,93.0999961643983,2|8,0:0|0:0,0:0:0:0:
384,184,264079,5,2,0:0:0:0:
314,271,264182,2,0,L|303:384,1,93.0999961643983,2|8,0:0|0:0,0:0:0:0:
455,204,264387,6,0,P|418:121|314:163,1,186.199992328797,2|0,0:0|0:0,0:0:0:0:
326,257,264695,5,0,0:0:0:0:
384,184,264798,2,0,P|385:93|273:88,1,186.199992328797,10|0,0:0|0:0,0:0:0:0:
231,124,265106,1,0,0:0:0:0:
146,246,265209,6,0,B|137:334|137:334|164:310,1,105,6|0,0:0|0:0,0:0:0:0:
230,255,265620,5,10,0:0:0:0:
194,178,265723,1,0,0:0:0:0:
109,170,265825,1,0,0:0:0:0:
59,239,265928,1,0,0:0:0:0:
102,334,266031,2,0,P|157:349|192:335,1,70,2|0,0:0|0:0,0:0:0:0:
318,243,266236,5,0,0:0:0:0:
317,257,266339,1,0,0:0:0:0:
347,345,266442,6,0,P|398:302|407:255,1,93.0999961643983,10|0,0:0|0:0,0:0:0:0:
374,132,266647,1,0,0:0:0:0:
373,146,266750,1,0,0:0:0:0:
340,99,266853,6,0,L|337:169,1,70,0|0,0:0|0:0,0:0:0:0:
277,42,267058,1,0,0:0:0:0:
264,353,267264,1,0,0:0:0:0:
92,94,267469,5,0,0:0:0:0:
176,99,267572,1,0,0:0:0:0:
237,156,267675,2,0,B|274:168|274:168|323:153,1,70,2|0,0:0|0:0,0:0:0:0:
471,76,267880,1,0,0:0:0:0:
264,353,268086,6,0,P|222:269|101:363,1,279.299988493195,10|0,0:0|0:0,0:0:0:0:
143,338,268497,6,0,P|186:294|225:341,1,138.599999577026,2|0,0:0|0:0,0:0:0:0:
110,299,268908,5,10,0:0:0:0:
83,219,269010,1,0,0:0:0:0:
108,138,269113,2,0,P|115:78|103:57,1,70,0|0,0:0|0:0,0:0:0:0:
289,23,269319,5,2,0:0:0:0:
244,117,269421,2,0,P|237:150|248:183,1,70,0|0,0:0|0:0,0:0:0:0:
420,130,269627,5,2,0:0:0:0:
455,239,269730,2,0,B|471:296|471:296|400:277,1,116.200001684418,10|0,0:0|0:0,0:0:0:0:
265,239,269935,2,0,B|207:224|207:224|259:172,1,116.200001684418,10|0,0:0|0:0,0:0:0:0:
360,74,270141,2,0,B|401:31|401:31|422:130|422:130|344:205,1,210,2|0,0:0|0:0,0:0:0:0:
246,184,270552,5,10,0:0:0:0:
195,171,270654,1,0,0:0:0:0:
145,157,270757,1,0,0:0:0:0:
93,143,270860,1,0,0:0:0:0:
185,87,270962,5,2,0:0:0:0:
195,171,271065,1,0,0:0:0:0:
139,234,271168,1,0,0:0:0:0:
149,318,271271,1,0,0:0:0:0:
255,300,271373,6,0,B|259:293|259:293|250:286|250:286|257:277|257:277|248:270|248:270|255:262|255:262|247:255|247:255|254:246|254:246|245:239|245:239|252:230|252:230|243:223|243:223|250:214|250:214|241:207|241:207|248:198|248:198|239:191|239:191|246:182|246:182|245:183,1,168,10|0,0:0|0:0,0:0:0:0:
337,101,271784,6,0,B|323:119|323:119|341:133|341:133|327:150|327:150|344:164|344:164|330:182|330:182|348:196|348:196|334:214|334:214|352:228|352:228|338:246|338:246|356:260|356:260|342:277|342:277|360:291|360:291|346:309|346:309|364:323|364:323|345:343,1,336,6|0,0:0|0:0,0:0:0:0:
440,279,272195,5,10,0:0:0:0:
429,195,272298,1,0,0:0:0:0:
467,120,272401,2,0,P|461:65|441:39,1,70,0|0,0:0|0:0,0:0:0:0:
210,30,272606,5,2,0:0:0:0:
267,92,272709,2,0,L|376:106,1,70,0|0,0:0|0:0,0:0:0:0:
144,168,272915,5,2,0:0:0:0:
64,193,273018,2,0,L|-37:150,1,70,10|0,0:0|0:0,0:0:0:0:
56,352,273223,2,0,L|120:378,1,70,0|0,0:0|0:0,0:0:0:0:
254,310,273428,6,0,L|258:264,1,46.1999998590088,2|0,0:0|0:0,0:0:0:0:
191,358,273634,1,0,0:0:0:0:
210,30,273839,1,0,0:0:0:0:
360,286,274045,5,0,0:0:0:0:
365,201,274147,1,0,0:0:0:0:
370,116,274250,1,10,0:0:0:0:
128,241,274456,6,0,L|16:151,1,93.0999961643983,2|0,0:0|0:0,0:0:0:0:
375,31,274661,1,10,0:0:0:0:
365,201,274867,5,0,0:0:0:0:
360,286,274969,1,0,0:0:0:0:
453,322,275072,6,0,L|462:172,1,138.599999577026,0|0,0:0|0:0,0:0:0:0:
413,114,275483,5,10,0:0:0:0:
399,115,275586,1,0,0:0:0:0:
304,136,275688,5,0,0:0:0:0:
289,160,275791,1,0,0:0:0:0:
256,252,275894,5,6,0:0:0:0:
219,272,275997,1,0,0:0:0:0:
125,245,276099,5,0,0:0:0:0:
99,195,276202,1,6,0:0:0:0:
132,155,276305,2,0,L|136:96,3,35,10|0|0|0,0:0|0:0|0:0|0:0,0:0:0:0:
156,51,276510,2,0,P|185:71|201:102,1,70,6|0,0:0|0:0,0:0:0:0:
227,210,276716,5,2,0:0:0:0:
256,252,276818,1,0,0:0:0:0:
302,277,276921,1,0,0:0:0:0:
354,278,277024,1,0,0:0:0:0:
457,243,277127,5,2,0:0:0:0:
410,264,277229,1,0,0:0:0:0:
358,263,277332,1,0,0:0:0:0:
313,238,277435,1,0,0:0:0:0:
296,155,277538,5,0,0:0:0:0:
382,109,277641,1,0,0:0:0:0:
368,40,277743,2,0,P|328:62|311:102,1,70,0|0,0:0|0:0,0:0:0:0:
296,155,277949,6,0,B|268:171|268:171|276:184|276:184|290:176|290:176|282:163|282:163|268:171|268:171|276:184|276:184|290:176|290:176|282:163|282:163|232:173|191:197|157:235|157:235|165:248|165:248|179:240|179:240|171:227|171:227|157:235|157:235|165:248|165:248|179:240|179:240|171:227|171:227|157:235|157:235|165:248|165:248|165:248,1,420,0|0,0:0|0:0,0:0:0:0:
126,161,278360,6,0,B|104:176|87:202|87:202|72:259|97:319|171:327|171:327|251:289,1,279.299988493195,2|0,0:0|0:0,0:0:0:0:
213,222,278771,5,10,0:0:0:0:
210,138,278873,1,0,0:0:0:0:
149,79,278976,1,0,0:0:0:0:
209,20,279079,1,0,0:0:0:0:
269,79,279182,2,0,L|344:90,1,70,2|0,0:0|0:0,0:0:0:0:
429,215,279387,5,0,0:0:0:0:
488,154,279490,1,0,0:0:0:0:
414,139,279593,6,0,B|398:185|398:185|409:258,1,93.0999961643983,10|0,0:0|0:0,0:0:0:0:
419,304,279798,2,0,B|435:258|435:258|424:185,1,93.0999961643983,0|0,0:0|0:0,0:0:0:0:
312,88,280004,6,0,P|298:51|269:79,1,93.0999961643983,2|0,0:0|0:0,0:0:0:0:
240,278,280209,1,0,0:0:0:0:
10,49,280415,5,8,0:0:0:0:
243,259,280620,1,0,0:0:0:0:
246,240,280723,1,0,0:0:0:0:
177,177,280825,6,0,B|154:221|154:221|154:259,1,88.1999973083497,2|0,0:0|0:0,0:0:0:0:
188,163,281134,5,0,0:0:0:0:
191,144,281236,1,10,0:0:0:0:
313,384,281442,2,0,L|318:291,1,93.0999961643983,0|0,0:0|0:0,0:0:0:0:
457,177,281647,6,0,B|443:202|443:202|420:212|420:212|395:206|395:206|377:184,1,105,2|0,0:0|0:0,0:0:0:0:
377,116,282058,5,10,0:0:0:0:
446,106,282161,1,0,0:0:0:0:
379,186,282264,5,0,0:0:0:0:
310,176,282367,1,0,0:0:0:0:
302,59,282469,5,2,0:0:0:0:
344,52,282572,1,0,0:0:0:0:
303,102,282675,5,0,0:0:0:0:
260,96,282778,1,0,0:0:0:0:
194,60,282880,6,0,P|149:72|103:67,1,93.0999961643983,10|0,0:0|0:0,0:0:0:0:
131,343,283086,2,0,P|179:347|227:333,1,93.0999961643983,2|0,0:0|0:0,0:0:0:0:
168,150,283291,6,0,P|134:260|225:197,1,279.299988493195,6|0,0:0|0:0,0:0:0:0:
281,140,283702,6,0,B|308:185|308:185|311:250,1,93.0999961643983,8|0,0:0|0:0,0:0:0:0:
304,135,283908,2,0,B|318:185|318:185|304:249,1,93.0999961643983,2|0,0:0|0:0,0:0:0:0:
49,295,284113,6,0,B|22:250|22:250|19:185,1,93.0999961643983,8|0,0:0|0:0,0:0:0:0:
2,297,284319,2,0,B|1:244|1:244|31:186,1,93.0999961643983,2|0,0:0|0:0,0:0:0:0:
143,71,284524,6,0,B|159:55|159:55|175:55|175:55|191:71|191:71|207:71|207:71|223:55|223:55|255:55,1,105,10|0,0:0|0:0,0:0:0:0:
350,27,284935,6,0,B|453:38|453:38|386:89|386:89|378:170,1,210,6|0,0:0|0:0,0:0:0:0:
330,176,285346,5,10,0:0:0:0:
322,258,285448,1,0,0:0:0:0:
371,323,285551,1,0,0:0:0:0:
452,338,285654,1,0,0:0:0:0:
402,245,285757,5,2,0:0:0:0:
350,255,285859,1,0,0:0:0:0:
299,265,285962,1,0,0:0:0:0:
247,276,286065,1,0,0:0:0:0:
195,209,286168,5,10,0:0:0:0:
129,261,286271,1,0,0:0:0:0:
44,204,286373,5,0,0:0:0:0:
71,125,286476,1,0,0:0:0:0:
136,71,286579,6,0,B|182:63|182:63|218:75|218:75|296:80,1,140,2|2,0:0|0:0,0:0:0:0:
445,164,286887,2,0,B|400:149|400:149|363:156|363:156|285:150,1,140,2|0,0:0|0:0,0:0:0:0:
329,19,287195,2,0,P|353:55|353:101,1,70,2|0,0:0|0:0,0:0:0:0:
232,194,287401,5,2,0:0:0:0:
192,227,287503,1,0,0:0:0:0:
171,275,287606,1,0,0:0:0:0:
172,327,287709,1,0,0:0:0:0:
231,372,287812,6,0,P|247:325|234:290,1,70,10|0,0:0|0:0,0:0:0:0:
145,116,288017,2,0,P|129:163|142:198,1,70,0|0,0:0|0:0,0:0:0:0:
295,245,288223,6,0,L|378:236,1,70,2|0,0:0|0:0,0:0:0:0:
488,184,288428,2,0,L|405:175,1,70,0|0,0:0|0:0,0:0:0:0:
273,78,288634,5,0,0:0:0:0:
273,91,288736,1,0,0:0:0:0:
327,153,288839,5,0,0:0:0:0:
327,166,288941,1,0,0:0:0:0:
295,245,289045,5,0,0:0:0:0:
203,319,289147,2,0,B|162:335|162:335|109:331,2,70,0|0|0,0:0|0:0|0:0,0:0:0:0:
310,268,289456,1,0,0:0:0:0:
410,315,289558,2,0,L|520:314,2,70,0|0|0,0:0|0:0|0:0,0:0:0:0:
295,245,289867,6,0,B|293:243|293:226|293:226|300:191|300:191|327:167|327:167|358:159|358:159|393:166|393:166|417:193|417:193|421:208,1,210,0|0,0:0|0:0,0:0:0:0:
310,268,290278,5,0,0:0:0:0:
226,264,290380,1,0,0:0:0:0:
87,245,290483,5,0,0:0:0:0:
167,219,290585,1,0,0:0:0:0:
206,144,290688,5,0,0:0:0:0:
206,115,290791,1,0,0:0:0:0:
55,71,290894,5,0,0:0:0:0:
55,100,290997,1,0,0:0:0:0:
118,154,291099,6,0,L|118:132,1,21,0|0,0:0|0:0,0:0:0:0:
