osu file format v14

[General]
AudioFilename: audio.mp3
AudioLeadIn: 0
PreviewTime: 196688
Countdown: 0
SampleSet: Normal
StackLeniency: 0.7
Mode: 2
LetterboxInBreaks: 0
WidescreenStoryboard: 1

[Editor]
Bookmarks: 30650,60073,78650,108188,137727,152496,167265,182035,196804,226342,255881,270650
DistanceSpacing: 1.6
BeatDivisor: 4
GridSize: 4
TimelineZoom: 3.599998

[Metadata]
Title:Good Time ft. Mayumi Morinaga
TitleUnicode:Good Time ft. Mayumi Morinaga
Artist:lapix
ArtistUnicode:lapix
Creator:JBHyperion
Version:Collab Overdose
Source:
Tags:Ultimate Catch Mapping Collab Contest MEGAREX Diverse Direct Core Signal イシカワウキョウ Ishikawa Ukyo ORANGE★JAM Renko DJ Poyoshi Noriken electro house Sorcerer JBH
BeatmapID:1710067
BeatmapSetID:815390

[Difficulty]
HPDrainRate:6
CircleSize:4.4
OverallDifficulty:9.3
ApproachRate:9.3
SliderMultiplier:2.2
SliderTickRate:2

[Events]
//Background and Video events
0,0,"909212.jpg",0,0
//Break Periods
2,167465,177788
//Storyboard Layer 0 (Background)
//Storyboard Layer 1 (Fail)
//Storyboard Layer 2 (Pass)
//Storyboard Layer 3 (Foreground)
Sprite,Foreground,Centre,"JBH.png",320,240 M,0,1112,,500,90 S,0,1112,,0.25 F,0,1112,1342,0,1 F,0,59842,60073,1,0 F,0,108188,108419,0,1 F,0,152265,152496,1,0 F,0,182035,182265,0,1 F,0,196573,196804,1,0 F,0,226342,226573,0,1 F,0,255650,255881,1,0 F,0,270650,270881,0,1 F,0,283573,285419,1,0
Sprite,Foreground,Centre,"Sorcerer.png",320,240 M,0,60073,,100,390 S,0,60073,,0.25 F,0,60073,60304,0,1 F,0,107958,108188,1,0 F,0,152496,152727,0,1 F,0,167035,167265,1,0 F,0,196804,197035,0,1 F,0,226112,226342,1,0 F,0,255881,256112,0,1 F,0,270419,270650,1,0
//Storyboard Sound Samples

[TimingPoints]
1112,461.538461538462,4,2,0,80,1,0
1573,-100,4,2,0,50,0,0
1688,-100,4,2,0,80,0,0
1919,-100,4,2,0,50,0,0
2034,-100,4,2,0,80,0,0
2265,-100,4,3,0,50,0,0
2496,-100,4,1,0,60,0,0
2612,-100,4,3,0,50,0,0
2842,-83.3333333333333,4,2,0,80,0,0
3188,-100,4,2,0,80,0,0
3419,-100,4,2,0,60,0,0
3534,-100,4,2,0,80,0,0
3765,-100,4,2,0,70,0,0
3880,-100,4,2,0,80,0,0
4342,-80,4,1,0,60,0,0
4573,-100,4,3,0,50,0,0
4688,-100,4,2,0,80,0,0
5265,-100,4,2,0,70,0,0
5381,-100,4,2,0,80,0,0
5612,-100,4,2,0,60,0,0
5727,-100,4,2,0,80,0,0
5958,-100,4,3,0,60,0,0
6188,-66.6666666666667,4,1,0,60,0,0
6419,-100,4,2,0,80,0,0
7458,-80,4,2,0,80,0,0
7804,-100,4,2,0,80,0,0
8035,-100,4,2,0,60,0,0
8381,-100,4,2,0,80,0,0
8727,-100,4,2,0,60,0,0
9650,-100,4,3,0,60,0,0
9881,-80,4,1,0,70,0,0
10112,-100,4,3,0,50,0,0
10227,-100,4,2,0,80,0,0
10804,-100,4,2,0,70,0,0
11265,-66.6666666666667,4,2,0,60,0,0
11496,-100,4,2,0,60,0,0
11727,-100,4,3,0,50,0,0
11842,-100,4,1,0,70,0,0
12073,-100,4,2,0,80,0,0
12419,-100,4,2,0,60,0,0
12650,-100,4,3,0,45,0,0
13342,-100,4,3,0,60,0,0
13573,-100,4,1,0,60,0,0
13688,-100,4,3,0,50,0,0
13919,-100,4,2,0,80,0,0
14496,-100,4,2,0,60,0,0
14842,-100,4,2,0,70,0,0
15073,-100,4,2,0,60,0,0
15304,-66.6666666666667,4,2,0,80,0,0
15535,-100,4,2,0,70,0,0
15650,-100,4,3,0,60,0,0
15765,-100,4,3,0,50,0,0
15881,-100,4,2,0,80,0,0
16112,-100,4,2,0,60,0,0
16573,-117.647058823529,4,2,0,60,0,0
18650,-117.647058823529,4,3,0,60,0,0
18765,-117.647058823529,4,2,0,60,0,0
19112,-117.647058823529,4,3,0,60,0,0
19227,-117.647058823529,4,2,0,60,0,0
19573,-117.647058823529,4,3,0,60,0,0
19688,-117.647058823529,4,2,0,60,0,0
20496,-117.647058823529,4,3,0,60,0,0
20611,-117.647058823529,4,2,0,60,0,0
21419,-117.647058823529,4,3,0,60,0,0
21534,-117.647058823529,4,2,0,60,0,0
22112,-117.647058823529,4,3,0,60,0,0
22227,-117.647058823529,4,2,0,60,0,0
23265,-100,4,3,0,50,0,0
24304,-100,4,2,0,50,0,0
24650,-100,4,3,0,50,0,0
25112,-100,4,3,0,55,0,0
25804,-100,4,2,0,55,0,0
26035,-100,4,3,0,55,0,0
26265,-100,4,3,0,58,0,0
26496,-100,4,3,0,61,0,0
26727,-100,4,3,0,64,0,0
26958,-100,4,3,0,67,0,0
27881,-100,4,3,0,70,0,0
28342,-100,4,1,0,60,0,0
28573,-100,4,3,0,65,0,0
28804,-100,4,1,0,80,0,0
29727,-80,4,1,0,80,0,0
29958,-80,4,2,0,40,0,0
30073,-80,4,1,0,80,0,0
30304,-80,4,2,0,40,0,0
30419,-80,4,1,0,80,0,0
30535,-80,4,2,0,40,0,0
30650,-80,4,2,0,80,0,0
30708,-80,4,2,0,50,0,0
31112,-80,4,1,0,80,0,0
31227,-80,4,1,0,60,0,0
31458,-80,4,1,0,80,0,1
31515,-80,4,1,0,80,0,0
31688,-80,4,3,0,70,0,0
31804,-80,4,1,0,80,0,0
31919,-80,4,2,0,80,0,0
32035,-66.6666666666667,4,1,0,80,0,0
32265,-80,4,2,0,80,0,0
32381,-80,4,3,0,70,0,0
32496,-80,4,1,0,80,0,0
32612,-80,4,3,0,70,0,0
32727,-80,4,1,0,80,0,0
32842,-80,4,2,0,80,0,0
32958,-80,4,1,0,80,0,0
32987,-80,4,2,0,40,0,0
33419,-80,4,1,0,80,0,1
33477,-80,4,1,0,80,0,0
33650,-80,4,2,0,80,0,0
33881,-80,4,1,0,80,0,0
34112,-80,4,2,0,80,0,0
34227,-80,4,3,0,70,0,0
34342,-80,4,1,0,80,0,0
34400,-80,4,2,0,50,0,0
34458,-80,4,3,0,70,0,0
34688,-80,4,2,0,80,0,0
34804,-80,4,1,0,80,0,0
34919,-80,4,2,0,80,0,0
35265,-80,4,1,0,80,0,1
35323,-80,4,1,0,80,0,0
35381,-80,4,2,0,80,0,0
35496,-80,4,1,0,80,0,0
35611,-80,4,2,0,80,0,0
35727,-80,4,1,0,80,0,0
35785,-80,4,2,0,50,0,0
36073,-80,4,1,0,70,0,0
36188,-80,4,2,0,70,0,0
36650,-80,4,3,0,60,0,0
37112,-66.6666666666667,4,1,0,60,0,0
37342,-80,4,3,0,60,0,0
37573,-80,4,1,0,60,0,0
37688,-80,4,3,0,60,0,0
38035,-80,4,2,0,60,0,0
38150,-80,4,1,0,60,0,0
38265,-80,4,3,0,60,0,0
38381,-80,4,1,0,70,0,0
38496,-80,4,1,0,80,0,0
38612,-80,4,1,0,70,0,0
38727,-80,4,3,0,70,0,0
38842,-80,4,1,0,80,0,1
38900,-80,4,1,0,80,0,0
38958,-80,4,2,0,80,0,0
39073,-80,4,3,0,60,0,0
39188,-80,4,1,0,80,0,0
39304,-80,4,2,0,80,0,0
39419,-80,4,1,0,80,0,0
39650,-80,4,3,0,60,0,0
39765,-80,4,3,0,70,0,0
40573,-80,4,1,0,70,0,0
40804,-66.6666666666667,4,1,0,80,0,1
40919,-66.6666666666667,4,1,0,80,0,0
41034,-80,4,2,0,80,0,0
41150,-80,4,3,0,60,0,0
41265,-80,4,1,0,80,0,0
41495,-80,4,2,0,80,0,0
41612,-80,4,2,0,50,0,0
41688,-80,4,2,0,60,0,0
41765,-80,4,2,0,70,0,0
41958,-80,4,3,0,60,0,0
42188,-66.6666666666667,4,1,0,80,0,1
42304,-80,4,2,0,80,0,0
42650,-80,4,1,0,80,0,0
42765,-80,4,2,0,80,0,0
42881,-80,4,1,0,80,0,0
42996,-80,4,2,0,80,0,0
43112,-66.6666666666667,4,1,0,80,0,0
43342,-80,4,2,0,80,0,0
43573,-80,4,2,0,80,0,0
44496,-80,4,3,0,50,0,0
44958,-66.6666666666667,4,2,0,80,0,0
45188,-80,4,2,0,80,0,0
45419,-80,4,2,0,40,0,0
45765,-80,4,3,0,60,0,0
45881,-80,4,2,0,50,0,0
46227,-80,4,1,0,80,0,1
46285,-80,4,1,0,80,0,0
46342,-80,4,2,0,80,0,0
46458,-80,4,3,0,60,0,0
46573,-80,4,1,0,80,0,0
46688,-80,4,2,0,80,0,0
46804,-66.6666666666667,4,1,0,80,0,0
47034,-80,4,2,0,80,0,0
47150,-80,4,3,0,60,0,0
47265,-80,4,2,0,40,0,0
47294,-80,4,2,0,42,0,0
47323,-80,4,2,0,44,0,0
47352,-80,4,2,0,46,0,0
47381,-80,4,2,0,48,0,0
47410,-80,4,2,0,50,0,0
47438,-80,4,2,0,52,0,0
47467,-80,4,2,0,54,0,0
47496,-80,4,2,0,56,0,0
47525,-80,4,2,0,52,0,0
47554,-80,4,2,0,48,0,0
47583,-80,4,2,0,44,0,0
47612,-80,4,2,0,40,0,0
47727,-80,4,3,0,70,0,0
47842,-80,4,1,0,70,0,0
47958,-80,4,1,0,70,0,0
48188,-80,4,1,0,80,0,1
48246,-80,4,1,0,80,0,0
48419,-80,4,3,0,60,0,0
48535,-80,4,1,0,80,0,0
48650,-80,4,2,0,80,0,0
48765,-80,4,3,0,60,0,0
48881,-80,4,1,0,80,0,0
48996,-80,4,2,0,80,0,0
49112,-80,4,1,0,80,0,0
49227,-80,4,2,0,80,0,0
49285,-80,4,2,0,60,0,0
49342,-80,4,2,0,55,0,0
49400,-80,4,2,0,50,0,0
49573,-66.6666666666667,4,1,0,80,0,1
49631,-66.6666666666667,4,1,0,80,0,0
49803,-80,4,2,0,80,0,0
50035,-80,4,3,0,60,0,0
50150,-80,4,1,0,80,0,0
50612,-80,4,3,0,60,0,0
50727,-80,4,2,0,80,0,0
50842,-66.6666666666667,4,2,0,80,0,0
50958,-66.6666666666667,4,2,0,70,0,0
51188,-80,4,2,0,70,0,0
51650,-80,4,3,0,50,0,0
51881,-80,4,1,0,70,0,0
52112,-80,4,2,0,70,0,0
52342,-80,4,1,0,70,0,0
52573,-80,4,3,0,50,0,0
52919,-80,4,3,0,70,0,0
53035,-80,4,3,0,50,0,0
53150,-80,4,1,0,80,0,0
53265,-80,4,3,0,60,0,0
53612,-80,4,1,0,80,0,1
53669,-80,4,1,0,80,0,0
53727,-80,4,2,0,80,0,0
53842,-80,4,3,0,60,0,0
53958,-80,4,1,0,80,0,0
54073,-80,4,2,0,80,0,0
54188,-80,4,1,0,80,0,0
54419,-80,4,3,0,60,0,0
54535,-80,4,3,0,70,0,0
55343,-80,4,1,0,70,0,0
55573,-66.6666666666667,4,1,0,80,0,1
55688,-66.6666666666667,4,1,0,80,0,0
55804,-80,4,2,0,80,0,0
55919,-80,4,3,0,60,0,0
56035,-80,4,1,0,80,0,0
56265,-80,4,2,0,80,0,0
56381,-80,4,2,0,50,0,0
56458,-80,4,2,0,60,0,0
56535,-80,4,2,0,70,0,0
56727,-80,4,3,0,60,0,0
56958,-57.1428571428571,4,1,0,80,0,1
57073,-57.1428571428571,4,1,0,80,0,0
57188,-80,4,2,0,80,0,0
57419,-80,4,1,0,80,0,0
57535,-80,4,2,0,80,0,0
57650,-80,4,2,0,80,0,0
57765,-80,4,2,0,80,0,0
57881,-80,4,1,0,80,0,0
57996,-80,4,2,0,80,0,0
58227,-80,4,3,0,60,0,0
58342,-50,4,2,0,80,0,0
58573,-80,4,2,0,80,0,0
58804,-80,4,3,0,60,0,0
58919,-80,4,2,0,70,0,0
59150,-80,4,3,0,60,0,0
59265,-80,4,2,0,70,0,0
59496,-80,4,3,0,60,0,0
59611,-80,4,2,0,70,0,0
59727,-80,4,1,0,80,0,0
59842,-80,4,2,0,70,0,0
60073,-80,4,2,0,70,0,1
60188,-80,4,2,0,70,0,0
60535,-80,4,3,0,60,0,0
60650,-80,4,1,0,70,0,0
60881,-80,4,2,0,70,0,0
61112,-80,4,3,0,60,0,0
61342,-80,4,2,0,70,0,0
61573,-80,4,1,0,70,0,0
61804,-80,4,2,0,70,0,0
61919,-80,4,3,0,50,0,0
62496,-80,4,1,0,70,0,0
62727,-80,4,3,0,50,0,0
63188,-80,4,2,0,70,0,0
63419,-80,4,1,0,70,0,0
63650,-80,4,2,0,70,0,0
63765,-80,4,3,0,60,0,0
63996,-80,4,2,0,70,0,0
64112,-80,4,3,0,60,0,0
64342,-80,4,2,0,70,0,0
64804,-80,4,3,0,60,0,0
65265,-80,4,1,0,70,0,0
65381,-80,4,2,0,70,0,0
65612,-80,4,3,0,50,0,0
65958,-80,4,2,0,70,0,0
66535,-80,4,3,0,50,0,0
66650,-80,4,1,0,70,0,0
66881,-80,4,3,0,50,0,0
67112,-80,4,1,0,70,0,0
67227,-80,4,3,0,60,0,0
67458,-80,4,2,0,70,0,0
67919,-80,4,3,0,50,0,0
68034,-80,4,1,0,70,0,0
68265,-80,4,2,0,70,0,0
68496,-80,4,3,0,60,0,0
68727,-80,4,2,0,70,0,0
68958,-80,4,1,0,70,0,0
69188,-80,4,2,0,70,0,0
69304,-80,4,3,0,50,0,0
69881,-80,4,1,0,70,0,0
70112,-80,4,3,0,50,0,0
70688,-80,4,2,0,70,0,0
70804,-80,4,1,0,70,0,0
71035,-80,4,2,0,70,0,0
71150,-80,4,3,0,60,0,0
71381,-80,4,2,0,70,0,0
71496,-80,4,3,0,50,0,0
72535,-80,4,2,0,70,0,0
72650,-80,4,3,0,50,0,0
72708,-80,4,2,0,30,0,0
72996,-80,4,3,0,50,0,0
73054,-80,4,2,0,30,0,0
73112,-80,4,2,0,40,0,0
73227,-80,4,3,0,50,0,0
73285,-80,4,2,0,40,0,0
73573,-80,4,2,0,50,0,0
73688,-80,4,3,0,50,0,0
73746,-80,4,2,0,50,0,0
73919,-80,4,3,0,50,0,0
73977,-80,4,2,0,50,0,0
74035,-80,4,2,0,60,0,0
74265,-80,4,1,0,60,0,0
74323,-80,4,2,0,60,0,0
74496,-80,4,2,0,30,0,0
74612,-80,4,2,0,40,0,0
74727,-80,4,2,0,50,0,0
74842,-80,4,2,0,60,0,0
74958,-80,4,1,0,80,0,0
75073,-80,4,2,0,40,0,0
78188,-80,4,3,0,50,0,0
78650,-80,4,2,0,70,0,0
78765,-80,4,3,0,60,0,0
79804,-80,4,2,0,50,0,0
80035,-80,4,3,0,60,0,0
80265,-80,4,2,0,50,0,0
80496,-80,4,3,0,60,0,0
80612,-80,4,2,0,40,0,0
80958,-80,4,3,0,60,0,0
81650,-80,4,2,0,50,0,0
81881,-80,4,3,0,60,0,0
82112,-80,4,2,0,50,0,0
82342,-80,4,3,0,60,0,0
83496,-80,4,2,0,50,0,0
83727,-80,4,3,0,60,0,0
83958,-80,4,2,0,50,0,0
84188,-80,4,3,0,60,0,0
84304,-80,4,2,0,40,0,0
84650,-80,4,3,0,60,0,0
85573,-80,4,2,0,60,0,0
85804,-80,4,3,0,60,0,0
87188,-80,4,2,0,50,0,0
87419,-80,4,3,0,60,0,0
87535,-80,4,2,0,40,0,0
87881,-80,4,3,0,60,0,0
89035,-80,4,2,0,50,0,0
89265,-80,4,3,0,60,0,0
89496,-80,4,2,0,50,0,0
89727,-80,4,3,0,60,0,0
90881,-80,4,2,0,50,0,0
91112,-80,4,3,0,60,0,0
91227,-80,4,2,0,40,0,0
91573,-80,4,3,0,60,0,0
92958,-80,4,2,0,60,0,0
93188,-80,4,3,0,60,0,0
93419,-80,4,2,0,70,0,0
93650,-80,4,3,0,50,0,0
93881,-80,4,1,0,60,0,0
94112,-80,4,3,0,60,0,0
94804,-80,4,1,0,60,0,0
94919,-80,4,3,0,60,0,0
95381,-80,4,2,0,40,0,0
95727,-80,4,1,0,60,0,0
95958,-80,4,2,0,70,0,0
96188,-80,4,3,0,60,0,0
96650,-80,4,2,0,60,0,0
96881,-80,4,3,0,60,0,0
97227,-80,4,2,0,40,0,0
97573,-80,4,1,0,60,0,0
97804,-80,4,2,0,70,0,0
98035,-80,4,3,0,60,0,0
98612,-80,4,2,0,40,0,0
98958,-80,4,3,0,60,0,0
99419,-80,4,1,0,60,0,0
99650,-80,4,2,0,60,0,0
99881,-80,4,3,0,60,0,0
100342,-80,4,2,0,70,0,0
100804,-80,4,3,0,60,0,0
100919,-80,4,2,0,40,0,0
101265,-80,4,1,0,60,0,0
101496,-80,4,2,0,60,0,0
101727,-80,4,3,0,60,0,0
102188,-80,4,1,0,60,0,0
102304,-80,4,2,0,40,0,0
102650,-80,4,3,0,60,0,0
103112,-80,4,1,0,60,0,0
103343,-80,4,2,0,60,0,0
103573,-80,4,3,0,60,0,0
104035,-80,4,2,0,70,0,0
104381,-80,4,3,0,60,0,0
104496,-80,4,2,0,70,0,0
104727,-80,4,3,0,60,0,0
104958,-80,4,1,0,60,0,0
105189,-80,4,2,0,60,0,0
105419,-80,4,3,0,60,0,0
105535,-80,4,2,0,40,0,0
105881,-80,4,3,0,60,0,0
106342,-80,4,1,0,40,0,0
106573,-80,4,1,0,42,0,0
106804,-80,4,1,0,45,0,0
107035,-80,4,1,0,48,0,0
107265,-80,4,1,0,50,0,0
107496,-80,4,1,0,52,0,0
107727,-80,4,1,0,55,0,0
107958,-80,4,1,0,58,0,0
108188,-57.1428571428571,4,2,0,70,0,1
108304,-57.1428571428571,4,2,0,70,0,0
108535,-80,4,2,0,40,0,0
108650,-80,4,1,0,60,0,0
108881,-80,4,3,0,60,0,0
109573,-80,4,1,0,60,0,0
109804,-80,4,3,0,60,0,0
110496,-80,4,1,0,60,0,0
110727,-80,4,3,0,60,0,0
111419,-80,4,1,0,60,0,0
111650,-80,4,3,0,60,0,0
111881,-66.6666666666667,4,3,0,60,0,0
112112,-80,4,3,0,60,0,0
112342,-80,4,1,0,60,0,0
112458,-80,4,2,0,60,0,0
112573,-80,4,3,0,60,0,0
113265,-80,4,1,0,60,0,0
113496,-80,4,3,0,60,0,0
114188,-80,4,1,0,60,0,0
114419,-80,4,3,0,60,0,0
114650,-80,4,1,0,60,0,0
114881,-80,4,3,0,60,0,0
115112,-80,4,1,0,60,0,0
115227,-80,4,3,0,60,0,0
115458,-66.6666666666667,4,2,0,70,0,0
115688,-80,4,2,0,40,0,0
116035,-80,4,1,0,60,0,0
116266,-80,4,3,0,60,0,0
116958,-80,4,1,0,60,0,0
117189,-80,4,3,0,60,0,0
117881,-80,4,1,0,60,0,0
117996,-80,4,2,0,60,0,0
118112,-80,4,3,0,60,0,0
118804,-80,4,1,0,60,0,0
118919,-80,4,2,0,60,0,0
119035,-80,4,3,0,60,0,0
119265,-57.1428571428571,4,3,0,60,0,0
119496,-80,4,3,0,60,0,0
119727,-80,4,1,0,60,0,0
119958,-80,4,3,0,60,0,0
120650,-80,4,1,0,60,0,0
120765,-80,4,2,0,60,0,0
120881,-80,4,3,0,60,0,0
121573,-80,4,1,0,60,0,0
121688,-80,4,2,0,60,0,0
121804,-80,4,3,0,60,0,0
122035,-80,4,1,0,60,0,0
122150,-80,4,2,0,60,0,0
122266,-80,4,3,0,60,0,0
122496,-66.6666666666667,4,1,0,60,0,0
122727,-80,4,3,0,60,0,0
122958,-80,4,2,0,70,0,0
123304,-80,4,3,0,60,0,0
123419,-80,4,2,0,60,0,0
123535,-80,4,2,0,60,0,0
123650,-57.1428571428571,4,2,0,60,0,0
123881,-57.1428571428571,4,3,0,60,0,0
124112,-80,4,3,0,60,0,0
124342,-80,4,2,0,60,0,0
124573,-80,4,3,0,60,0,0
125265,-80,4,2,0,60,0,0
125496,-80,4,3,0,60,0,0
126188,-80,4,2,0,60,0,0
126419,-80,4,3,0,60,0,0
126650,-57.1428571428571,4,3,0,60,0,0
126881,-80,4,3,0,60,0,0
127112,-80,4,2,0,60,0,0
127343,-80,4,3,0,60,0,0
128035,-80,4,2,0,60,0,0
128266,-80,4,3,0,60,0,0
128958,-80,4,2,0,60,0,0
129189,-80,4,3,0,60,0,0
129419,-80,4,1,0,70,0,0
129650,-80,4,3,0,70,0,0
129881,-80,4,1,0,70,0,0
130112,-80,4,3,0,70,0,0
130227,-66.6666666666667,4,1,0,70,0,0
130573,-80,4,2,0,50,0,0
130804,-80,4,2,0,60,0,0
131035,-80,4,3,0,60,0,0
131727,-80,4,2,0,60,0,0
131958,-80,4,3,0,60,0,0
132188,-80,4,3,0,50,0,0
132650,-80,4,2,0,60,0,0
132881,-80,4,3,0,60,0,0
133573,-80,4,2,0,60,0,0
133804,-80,4,3,0,60,0,0
134496,-80,4,2,0,60,0,0
134727,-80,4,3,0,60,0,0
135419,-80,4,2,0,60,0,0
135650,-80,4,3,0,60,0,0
135881,-57.1428571428571,4,3,0,60,0,0
136112,-80,4,3,0,60,0,0
136342,-80,4,2,0,60,0,0
136573,-80,4,3,0,60,0,0
136804,-80,4,1,0,70,0,0
137035,-80,4,3,0,70,0,0
137265,-80,4,1,0,70,0,0
137496,-80,4,3,0,70,0,0
137727,-66.6666666666667,4,1,0,70,0,0
137958,-100,4,2,0,50,0,0
138188,-100,4,1,0,50,0,0
138419,-100,4,2,0,50,0,0
138650,-100,4,3,0,50,0,0
139112,-100,4,1,0,50,0,0
139343,-100,4,3,0,50,0,0
139573,-100,4,3,0,40,0,0
140035,-100,4,1,0,50,0,0
140266,-100,4,2,0,50,0,0
140958,-100,4,1,0,60,0,0
141073,-100,4,3,0,50,0,0
141881,-100,4,1,0,50,0,0
141996,-100,4,2,0,50,0,0
142112,-100,4,3,0,50,0,0
142342,-100,4,3,0,40,0,0
142804,-100,4,1,0,60,0,0
142919,-100,4,2,0,60,0,0
143035,-100,4,3,0,60,0,0
143727,-100,4,1,0,60,0,0
143958,-100,4,3,0,60,0,0
144188,-66.6666666666667,4,1,0,70,0,0
144419,-100,4,3,0,70,0,0
144650,-66.6666666666667,4,1,0,70,0,0
144765,-100,4,3,0,70,0,0
145112,-66.6666666666667,4,2,0,70,0,0
145342,-100,4,3,0,60,0,0
145573,-100,4,1,0,60,0,0
145688,-100,4,3,0,60,0,0
146496,-100,4,1,0,60,0,0
146611,-100,4,3,0,60,0,0
146727,-100,4,3,0,50,0,0
147419,-100,4,1,0,60,0,0
147650,-100,4,3,0,60,0,0
147881,-100,4,3,0,50,0,0
148342,-100,4,1,0,60,0,0
148573,-100,4,3,0,60,0,0
149265,-100,4,1,0,50,0,0
149496,-100,4,3,0,50,0,0
149726,-100,4,3,0,40,0,0
150188,-100,4,1,0,60,0,0
150303,-100,4,2,0,60,0,0
150419,-100,4,3,0,60,0,0
150650,-66.6666666666667,4,3,0,60,0,0
150881,-100,4,3,0,60,0,0
151111,-100,4,1,0,60,0,0
151227,-100,4,2,0,60,0,0
151342,-100,4,3,0,60,0,0
151573,-100,4,1,0,60,0,0
151804,-100,4,3,0,60,0,0
152035,-100,4,1,0,70,0,0
152266,-100,4,3,0,70,0,0
152496,-100,4,2,0,70,0,0
152727,-100,4,2,0,60,0,0
154342,-100,4,3,0,50,0,0
154458,-100,4,2,0,60,0,0
156188,-100,4,3,0,50,0,0
156304,-100,4,2,0,60,0,0
158035,-100,4,3,0,60,0,0
158151,-100,4,2,0,60,0,0
158727,-100,4,3,0,50,0,0
158958,-100,4,2,0,60,0,0
159188,-100,4,3,0,50,0,0
159419,-100,4,2,0,60,0,0
159535,-100,4,3,0,50,0,0
159765,-100,4,2,0,60,0,0
160112,-100,4,3,0,50,0,0
160342,-100,4,2,0,60,0,0
160804,-100,4,3,0,50,0,0
161034,-100,4,2,0,60,0,0
161727,-100,4,3,0,50,0,0
161957,-100,4,2,0,60,0,0
162650,-100,4,3,0,30,0,0
163112,-100,4,2,0,60,0,0
163342,-100,4,3,0,40,0,0
163458,-100,4,2,0,50,0,0
163804,-100,4,2,0,40,0,0
164265,-100,4,3,0,50,0,0
164381,-100,4,1,0,50,0,0
164496,-100,4,3,0,50,0,0
164727,-100,4,1,0,50,0,0
164842,-100,4,3,0,50,0,0
164958,-100,4,2,0,50,0,0
165073,-100,4,2,0,30,0,0
165304,-100,4,2,0,50,0,0
165650,-100,4,3,0,50,0,0
165881,-100,4,1,0,50,0,0
165996,-100,4,3,0,50,0,0
166112,-100,4,2,0,50,0,0
166342,-100,4,1,0,50,0,0
166573,-100,4,3,0,50,0,0
166804,-100,4,1,0,50,0,0
166919,-100,4,3,0,50,0,0
167035,-100,4,1,0,50,0,0
167150,-100,4,3,0,50,0,0
167265,-100,4,1,0,70,0,0
178342,-100,4,2,0,30,0,0
178804,-100,4,2,0,32,0,0
179265,-100,4,2,0,34,0,0
179727,-100,4,2,0,36,0,0
180188,-100,4,2,0,38,0,0
180650,-100,4,2,0,40,0,0
181112,-100,4,2,0,42,0,0
181573,-100,4,2,0,44,0,0
182035,-100,4,2,0,60,0,0
182265,-100,4,3,0,40,0,0
182496,-100,4,3,0,30,0,0
182958,-100,4,3,0,40,0,0
183419,-100,4,3,0,30,0,0
183881,-100,4,2,0,50,0,0
184112,-100,4,3,0,40,0,0
184342,-100,4,3,0,30,0,0
184804,-100,4,3,0,40,0,0
185265,-100,4,3,0,30,0,0
185727,-100,4,3,0,55,0,0
185842,-100,4,3,0,45,0,0
186188,-100,4,3,0,35,0,0
186650,-100,4,3,0,45,0,0
187112,-100,4,3,0,35,0,0
187573,-100,4,2,0,60,0,0
187804,-100,4,3,0,50,0,0
188034,-100,4,3,0,40,0,0
188496,-100,4,3,0,50,0,0
188957,-100,4,3,0,40,0,0
189419,-100,4,2,0,65,0,0
189535,-100,4,3,0,55,0,0
190342,-100,4,3,0,60,0,0
191265,-100,4,2,0,70,0,0
191381,-100,4,3,0,65,0,0
192188,-100,4,2,0,75,0,0
192304,-100,4,3,0,70,0,0
193112,-100,4,3,0,55,0,0
193573,-100,4,3,0,50,0,0
194035,-100,4,3,0,45,0,0
194496,-100,4,3,0,40,0,0
194958,-100,4,1,0,50,0,0
195881,-100,4,3,0,50,0,0
196342,-57.1428571428571,4,3,0,60,0,0
196688,-80,4,2,0,60,0,0
196804,-80,4,2,0,80,0,1
197035,-80,4,2,0,70,0,1
197265,-80,4,1,0,70,0,1
197381,-80,4,2,0,70,0,1
197496,-80,4,3,0,70,0,1
198188,-80,4,1,0,70,0,1
198304,-80,4,3,0,70,0,1
198881,-80,4,2,0,50,0,1
199112,-80,4,1,0,70,0,1
199228,-80,4,2,0,70,0,1
199343,-80,4,3,0,70,0,1
200035,-80,4,1,0,70,0,1
200151,-80,4,3,0,70,0,1
200727,-80,4,2,0,50,0,1
200958,-80,4,1,0,70,0,1
201074,-80,4,2,0,70,0,1
201189,-80,4,3,0,70,0,1
201881,-80,4,1,0,70,0,1
201997,-80,4,3,0,60,0,1
202804,-80,4,1,0,70,0,1
203035,-80,4,3,0,70,0,1
203150,-80,4,1,0,70,0,1
203265,-80,4,3,0,70,0,1
203381,-80,4,1,0,70,0,1
203612,-80,4,3,0,70,0,1
203727,-80,4,1,0,70,0,1
203843,-80,4,3,0,70,0,1
204188,-80,4,2,0,70,0,1
204419,-80,4,2,0,50,0,1
204650,-80,4,1,0,70,0,1
204766,-80,4,2,0,70,0,1
204881,-80,4,3,0,70,0,1
205573,-80,4,1,0,70,0,1
205689,-80,4,3,0,70,0,1
206265,-80,4,2,0,50,0,1
206496,-80,4,1,0,70,0,1
206612,-80,4,2,0,70,0,1
206727,-80,4,3,0,70,0,1
207419,-80,4,1,0,70,0,1
207535,-80,4,3,0,70,0,1
208112,-80,4,2,0,50,0,1
208343,-80,4,1,0,70,0,1
208459,-80,4,2,0,70,0,1
208574,-80,4,3,0,70,0,1
209266,-80,4,1,0,70,0,1
209382,-80,4,3,0,70,0,1
210534,-80,4,1,0,70,0,1
210649,-80,4,3,0,70,0,1
210765,-80,4,1,0,70,0,1
210996,-80,4,3,0,70,0,1
211111,-80,4,1,0,70,0,1
211227,-80,4,3,0,70,0,1
211458,-80,4,2,0,50,0,0
211573,-80,4,2,0,80,0,1
211804,-80,4,2,0,70,0,1
212035,-80,4,1,0,70,0,1
212150,-80,4,2,0,70,0,1
212265,-80,4,3,0,70,0,1
212958,-80,4,1,0,70,0,1
213073,-80,4,3,0,70,0,1
213650,-80,4,2,0,50,0,1
213881,-80,4,1,0,70,0,1
213996,-80,4,2,0,70,0,1
214112,-80,4,3,0,70,0,1
214804,-80,4,1,0,70,0,1
214919,-80,4,3,0,70,0,1
215496,-80,4,2,0,50,0,1
215727,-80,4,1,0,70,0,1
215842,-80,4,2,0,70,0,1
215958,-80,4,3,0,70,0,1
216650,-80,4,1,0,70,0,1
216765,-80,4,3,0,60,0,1
217573,-80,4,1,0,70,0,1
217804,-80,4,3,0,70,0,1
217919,-80,4,1,0,70,0,1
218035,-80,4,3,0,70,0,1
218150,-80,4,1,0,70,0,1
218381,-80,4,3,0,70,0,1
218496,-80,4,1,0,70,0,1
218612,-80,4,3,0,70,0,1
218958,-80,4,2,0,70,0,1
219188,-80,4,2,0,50,0,1
219419,-80,4,1,0,70,0,1
219535,-80,4,2,0,70,0,1
219650,-80,4,3,0,70,0,1
220342,-80,4,1,0,70,0,1
220458,-80,4,3,0,70,0,1
221035,-80,4,2,0,50,0,1
221265,-80,4,1,0,70,0,1
221381,-80,4,2,0,70,0,1
221496,-80,4,3,0,70,0,1
222188,-80,4,1,0,70,0,1
222304,-80,4,3,0,70,0,1
222881,-80,4,2,0,50,0,1
223112,-80,4,1,0,70,0,1
223227,-80,4,2,0,70,0,1
223342,-80,4,3,0,70,0,1
224035,-80,4,1,0,70,0,1
224150,-80,4,3,0,70,0,1
224496,-80,4,2,0,70,0,1
224612,-80,4,3,0,70,0,1
225188,-80,4,1,0,70,0,1
225419,-80,4,3,0,70,0,1
225535,-80,4,1,0,70,0,1
225765,-80,4,3,0,70,0,1
225881,-80,4,1,0,70,0,1
225996,-80,4,3,0,70,0,1
226227,-80,4,3,0,70,0,0
226342,-80,4,2,0,80,0,1
226573,-80,4,2,0,70,0,1
226803,-80,4,1,0,70,0,1
227034,-80,4,3,0,70,0,1
227726,-80,4,1,0,70,0,1
227958,-80,4,3,0,60,0,1
228650,-80,4,1,0,70,0,1
228766,-80,4,2,0,70,0,1
228881,-80,4,3,0,70,0,1
229573,-80,4,1,0,70,0,1
229689,-80,4,3,0,70,0,1
230265,-80,4,3,0,50,0,1
230496,-80,4,1,0,70,0,1
230612,-80,4,2,0,70,0,1
230727,-80,4,3,0,70,0,1
231419,-80,4,1,0,70,0,1
231535,-80,4,3,0,60,0,1
232342,-80,4,1,0,70,0,1
232573,-80,4,3,0,60,0,1
232919,-80,4,1,0,70,0,1
233150,-80,4,3,0,70,0,1
233265,-80,4,1,0,70,0,1
233381,-66.6666666666667,4,3,0,70,0,1
233612,-80,4,2,0,70,0,1
233726,-80,4,3,0,70,0,1
233957,-80,4,3,0,50,0,1
234188,-80,4,1,0,70,0,1
234419,-80,4,3,0,70,0,1
234650,-80,4,3,0,60,0,1
235111,-66.6666666666667,4,1,0,70,0,1
235342,-80,4,3,0,70,0,1
235803,-80,4,3,0,50,0,1
236034,-80,4,1,0,70,0,1
236265,-80,4,3,0,70,0,1
236957,-80,4,1,0,70,0,1
237073,-80,4,3,0,70,0,1
237650,-80,4,3,0,50,0,1
237881,-80,4,1,0,70,0,1
237997,-80,4,2,0,70,0,1
238112,-80,4,3,0,60,0,1
238804,-80,4,1,0,70,0,1
238920,-80,4,3,0,70,0,1
239727,-80,4,1,0,70,0,1
239842,-80,4,3,0,70,0,1
240073,-80,4,1,0,70,0,1
240304,-80,4,2,0,70,0,1
240419,-80,4,3,0,70,0,1
240650,-80,4,1,0,70,0,1
240765,-80,4,3,0,70,0,1
240996,-80,4,2,0,50,0,0
241112,-80,4,2,0,80,0,1
241342,-80,4,2,0,70,0,1
241573,-80,4,1,0,70,0,1
241804,-80,4,3,0,60,0,1
242150,-80,4,3,0,70,0,1
242496,-80,4,1,0,70,0,1
242612,-80,4,3,0,70,0,1
243188,-80,4,2,0,50,0,1
243419,-80,4,1,0,70,0,1
243535,-80,4,2,0,70,0,1
243650,-80,4,3,0,70,0,1
244342,-80,4,1,0,70,0,1
244458,-80,4,3,0,70,0,1
244804,-80,4,3,0,60,0,1
245265,-80,4,1,0,70,0,1
245496,-80,4,3,0,70,0,1
245727,-80,4,3,0,60,0,1
246188,-80,4,1,0,70,0,1
246304,-80,4,3,0,60,0,1
246650,-57.1428571428571,4,3,0,60,0,1
247342,-66.6666666666667,4,1,0,70,0,1
247573,-80,4,3,0,70,0,1
247688,-66.6666666666667,4,1,0,70,0,1
247919,-80,4,3,0,70,0,1
248035,-66.6666666666667,4,1,0,70,0,1
248150,-66.6666666666667,4,3,0,70,0,1
248496,-80,4,3,0,60,0,1
248958,-80,4,1,0,70,0,1
249073,-80,4,2,0,70,0,1
249188,-80,4,3,0,70,0,1
249419,-80,4,3,0,60,0,1
249881,-80,4,1,0,70,0,1
249996,-80,4,3,0,70,0,1
250573,-80,4,3,0,50,0,1
250804,-80,4,1,0,70,0,1
250919,-80,4,2,0,70,0,1
251035,-80,4,3,0,70,0,1
251727,-80,4,1,0,70,0,1
251842,-80,4,3,0,70,0,1
252188,-100,4,3,0,60,0,1
252265,-80,4,2,0,35,0,1
252649,-100,4,1,0,60,0,1
252727,-100,4,2,0,35,0,1
253111,-80,4,3,0,60,0,1
253188,-80,4,3,0,45,0,1
253572,-57.1428571428571,4,1,0,70,0,1
253804,-80,4,3,0,60,0,1
254035,-80,4,2,0,70,0,1
254151,-80,4,3,0,70,0,1
254727,-80,4,1,0,70,0,1
254958,-80,4,3,0,70,0,1
255073,-80,4,1,0,70,0,1
255304,-80,4,3,0,70,0,1
255419,-80,4,1,0,70,0,1
255766,-80,4,3,0,70,0,1
255881,-100,4,2,0,70,0,0
256342,-100,4,1,0,60,0,1
256458,-100,4,2,0,60,0,0
256688,-100,4,3,0,60,0,0
257150,-100,4,2,0,60,0,0
257265,-100,4,1,0,60,0,0
257381,-100,4,2,0,60,0,0
257727,-100,4,3,0,60,0,0
258073,-100,4,2,0,60,0,0
258188,-100,4,1,0,60,0,0
258304,-100,4,2,0,60,0,0
258535,-100,4,3,0,60,0,0
258765,-100,4,1,0,60,0,0
258881,-100,4,3,0,60,0,0
259112,-100,4,1,0,60,0,0
259227,-100,4,2,0,60,0,0
259573,-100,4,3,0,60,0,0
259919,-100,4,2,0,60,0,0
260035,-100,4,1,0,60,0,0
260150,-100,4,2,0,60,0,0
260381,-100,4,3,0,60,0,0
260842,-100,4,2,0,60,0,0
260958,-100,4,1,0,60,0,0
261073,-100,4,2,0,60,0,0
261419,-100,4,3,0,60,0,0
261881,-100,4,1,0,60,0,0
261996,-100,4,2,0,60,0,0
262227,-100,4,3,0,60,0,0
262458,-100,4,1,0,60,0,0
262573,-100,4,3,0,60,0,0
262804,-76.9230769230769,4,2,0,60,0,0
263265,-100,4,3,0,60,0,0
263612,-100,4,2,0,60,0,0
263727,-100,4,1,0,60,0,0
263842,-100,4,2,0,60,0,0
264073,-100,4,3,0,60,0,0
264535,-100,4,2,0,60,0,0
264650,-100,4,1,0,60,0,0
264765,-100,4,2,0,60,0,0
265112,-100,4,3,0,60,0,0
265573,-100,4,1,0,60,0,0
265688,-100,4,2,0,60,0,0
265919,-100,4,3,0,60,0,0
266150,-100,4,1,0,60,0,0
266265,-100,4,3,0,60,0,0
266496,-100,4,1,0,60,0,0
266612,-100,4,2,0,60,0,0
266958,-100,4,3,0,60,0,0
267304,-100,4,2,0,60,0,0
267419,-100,4,1,0,60,0,0
267535,-100,4,2,0,60,0,0
267765,-100,4,3,0,60,0,0
268227,-100,4,2,0,60,0,0
268342,-100,4,1,0,60,0,0
268458,-100,4,2,0,60,0,0
268804,-100,4,3,0,60,0,0
269150,-100,4,2,0,60,0,0
269265,-100,4,1,0,60,0,0
269381,-100,4,2,0,60,0,0
269612,-100,4,1,0,60,0,0
269727,-100,4,3,0,60,0,0
270188,-100,4,1,0,60,0,0
270304,-100,4,2,0,60,0,0
270650,-100,4,2,0,60,0,0
270765,-100,4,3,0,50,0,0
271227,-100,4,3,0,50,0,0
271804,-100,4,2,0,40,0,0
272035,-100,4,3,0,50,0,0
272265,-100,4,2,0,40,0,0
272496,-100,4,3,0,50,0,0
272612,-100,4,2,0,30,0,0
272958,-100,4,3,0,50,0,0
273535,-100,4,2,0,30,0,0
273881,-100,4,3,0,50,0,0
274112,-100,4,2,0,40,0,0
274342,-100,4,3,0,50,0,0
274573,-100,4,2,0,30,0,0
274804,-100,4,3,0,50,0,0
274919,-100,4,2,0,30,0,0
275265,-100,4,3,0,50,0,0
275496,-100,4,2,0,40,0,0
275727,-100,4,3,0,50,0,0
275958,-100,4,2,0,40,0,0
276188,-100,4,3,0,50,0,0
276304,-100,4,2,0,40,0,0
276650,-100,4,3,0,50,0,0
276881,-100,4,2,0,40,0,0
277112,-100,4,3,0,50,0,0
277343,-100,4,2,0,40,0,0
277573,-100,4,2,0,50,0,0
277804,-100,4,3,0,50,0,0
278035,-100,4,2,0,32,0,0
278265,-100,4,2,0,40,0,0
278496,-100,4,3,0,50,0,0
278727,-100,4,2,0,40,0,0
278958,-100,4,3,0,50,0,0
279189,-100,4,2,0,40,0,0
279419,-100,4,3,0,50,0,0
279650,-100,4,2,0,30,0,0
279881,-100,4,3,0,45,0,0
280112,-100,4,2,0,35,0,0
280342,-100,4,3,0,45,0,0
280573,-100,4,2,0,35,0,0
280804,-100,4,3,0,45,0,0
281035,-100,4,2,0,35,0,0
281265,-100,4,3,0,45,0,0
281496,-100,4,2,0,35,0,0
281727,-100,4,3,0,40,0,0
281958,-100,4,2,0,30,0,0
282188,-100,4,3,0,40,0,0
282419,-100,4,2,0,30,0,0
282650,-100,4,3,0,40,0,0
282881,-100,4,2,0,30,0,0
283112,-100,4,3,0,40,0,0
283343,-100,4,2,0,30,0,0
283573,-100,4,3,0,35,0,0
283804,-100,4,2,0,25,0,0
284035,-100,4,2,0,30,0,0
284496,-100,4,2,0,40,0,0
284958,-100,4,2,0,50,0,0
285419,-100,4,2,0,37,0,0
285650,-100,4,2,0,35,0,0
285881,-100,4,2,0,33,0,0
286112,-100,4,2,0,31,0,0
286342,-100,4,2,0,29,0,0
286573,-100,4,2,0,27,0,0
286804,-100,4,2,0,25,0,0
287035,-100,4,2,0,23,0,0
287265,-100,4,2,0,21,0,0
287496,-100,4,2,0,19,0,0
287727,-100,4,2,0,17,0,0
287958,-100,4,2,0,15,0,0
288188,-100,4,2,0,13,0,0
288419,-100,4,2,0,11,0,0
288650,-100,4,2,0,9,0,0
288881,-100,4,2,0,7,0,0
289112,-100,4,2,0,5,0,0

[Colours]
Combo1 : 62,151,151
Combo2 : 62,106,151
Combo3 : 62,62,151
Combo4 : 100,60,145
Combo5 : 145,60,145
Combo6 : 190,90,140
Combo7 : 62,151,106

[HitObjects]
244,216,1112,6,0,L|132:216,1,110,4|0,0:0|0:0,0:0:0:0:
344,216,1573,2,0,L|348:156,1,55,2|0,0:0|0:0,0:0:0:0:
184,148,1919,2,0,P|136:88|200:48,1,165,2|2,0:0|0:0,0:0:0:0:
226,48,2323,1,0,0:0:0:0:
259,48,2381,1,0,0:0:0:0:
67,48,2496,2,0,L|-1:48,1,55
311,48,2842,6,0,P|403:84|423:176,1,197.99999395752,4|0,0:0|0:0,0:0:0:0:
247,172,3419,2,0,L|239:232,1,55,2|0,0:0|0:0,0:0:0:0:
467,172,3765,2,0,B|507:224|467:272|467:272|411:272,1,165,2|0,0:0|0:0,0:0:0:0:
127,272,4342,2,0,L|195:272,2,68.75
347,272,4688,6,0,B|459:272|459:272|459:208,1,165,4|0,0:0|0:0,0:0:0:0:
251,192,5265,2,0,L|239:136,1,55,2|0,0:0|0:0,0:0:0:0:
307,104,5496,1,0,0:0:0:0:
107,100,5612,2,0,B|51:100|51:100|111:100,1,110,4|0,0:0|0:0,0:0:0:0:
239,36,5958,1,2,0:0:0:0:
267,36,6015,1,0,0:0:0:0:
295,36,6073,1,0,0:0:0:0:
80,36,6188,2,0,P|64:104|136:152,1,165.000006294251
32,192,6535,1,0,0:0:0:0:
232,192,6650,6,0,L|341:152,1,110,4|0,0:0|0:0,0:0:0:0:
32,192,7112,2,0,L|19:303,1,110,2|0,0:0|0:0,0:0:0:0:
212,304,7458,2,0,P|281:243|212:188,1,206.25,4|0,0:0|0:0,0:0:0:0:
400,192,8035,2,0,L|344:192,1,55,2|2,0:0|0:0,0:0:0:0:
16,264,8381,6,0,L|132:264,1,110,4|0,0:0|0:0,0:0:0:0:
180,264,8727,1,0,0:0:0:0:
356,264,8958,1,2,0:0:0:0:
152,192,9188,1,0,0:0:0:0:
440,192,9419,2,0,L|444:132,1,55,2|0,0:0|0:0,0:0:0:0:
320,96,9650,2,0,L|288:96,2,27.5,2|0|0,0:0|0:0|0:0,0:0:0:0:
495,48,9881,2,0,L|427:48,2,68.75,0|0|4,0:0|0:0|0:0,0:0:0:0:
284,48,10227,6,0,L|116:48,1,165,4|0,0:0|0:0,0:0:0:0:
300,120,10804,2,0,L|384:192,1,110,2|0,0:0|0:0,0:0:0:0:
184,192,11265,2,0,P|120:212|80:296,1,165.000006294251,2|0,0:0|0:0,0:0:0:0:
368,296,11727,2,0,L|424:296,1,55,4|0,0:0|0:0,0:0:0:0:
136,296,12073,6,0,P|88:244|136:176,1,165,4|0,0:0|0:0,0:0:0:0:
212,176,12535,1,0,0:0:0:0:
288,176,12650,2,0,L|296:120,1,55,2|0,0:2|0:0,0:0:0:0:
216,104,12881,2,0,L|164:74,1,55
88,76,13112,2,0,L|96:20,1,55,2|0,0:2|0:0,0:0:0:0:
232,20,13342,2,0,L|288:20,1,55,4|0,0:0|0:0,0:0:0:0:
85,21,13573,2,0,L|77:75,1,55
364,76,13919,6,0,B|476:76|476:76|476:136,1,165,4|0,0:0|0:0,0:0:0:0:
160,192,14496,2,0,L|156:136,1,55,2|2,0:0|0:0,0:0:0:0:
368,192,14842,1,4,0:0:0:0:
180,192,15073,1,2,0:0:0:0:
468,192,15304,2,0,P|508:264|468:328,1,165.000006294251,4|0,0:0|0:0,0:0:0:0:
236,328,15650,2,0,L|180:328,1,55
428,192,15881,6,0,P|448:140|344:40,1,220,4|0,0:0|0:0,0:0:0:0:
160,40,16573,2,0,L|268:40,1,93.500001783371,2|0,0:0|0:0,0:0:0:0:
72,40,17035,2,0,L|64:144,1,93.500001783371,2|0,0:0|0:0,0:0:0:0:
332,132,17496,6,0,P|392:192|332:256,1,187.000003566742,2|0,0:0|0:0,0:0:0:0:
180,256,18188,2,0,P|138:235|120:192,1,93.500001783371,2|0,0:0|0:0,0:0:0:0:
188,188,18535,1,0,0:0:0:0:
292,188,18650,1,2,0:0:0:0:
335,146,18765,1,0,0:0:0:0:
331,86,18880,1,0,0:0:0:0:
281,52,18996,1,0,0:0:0:0:
164,52,19112,2,0,L|205:27,1,46.7500008916855,2|0,0:0|0:0,0:0:0:0:
281,52,19342,2,0,L|239:27,1,46.7500008916855
124,52,19573,6,0,L|108:96,3,46.7500008916855,2|0|0|0,0:0|0:0|0:0|0:0,0:0:0:0:
224,128,20035,2,0,L|265:152,1,46.7500008916855,2|0,0:0|0:0,0:0:0:0:
336,192,20265,2,0,L|290:218,1,46.7500008916855
192,216,20496,2,0,L|300:216,1,93.500001783371,2|0,0:0|0:0,0:0:0:0:
336,192,20842,1,0,0:0:0:0:
220,120,20958,2,0,L|208:168,1,46.7500008916855,2|0,0:0|0:0,0:0:0:0:
304,76,21188,2,0,L|292:124,1,46.7500008916855,2|0,0:0|0:0,0:0:0:0:
180,120,21419,6,0,L|84:120,2,93.500001783371,2|0|0,0:0|0:0|0:0,0:0:0:0:
348,120,22112,2,0,P|408:136|464:240,1,187.000003566742,2|0,0:0|0:0,0:0:0:0:
344,240,22804,2,0,L|440:240,1,93.500001783371,2|0,0:0|0:0,0:0:0:0:
192,240,23265,6,0,L|80:240,1,110,4|0,0:0|0:0,0:0:0:0:
148,240,23612,1,0,0:0:0:0:
212,240,23727,1,4,0:0:0:0:
344,192,23958,1,0,0:0:0:0:
288,192,24073,1,0,0:0:0:0:
404,192,24188,2,0,L|432:144,3,55,4|2|2|2,0:0|0:0|0:0|0:0,0:0:0:0:
364,140,24650,1,4,0:0:0:0:
431,144,24765,1,0,0:0:0:0:
496,140,24881,1,0,0:0:0:0:
316,52,25112,6,0,L|432:52,1,110,4|0,0:0|0:0,0:0:0:0:
360,52,25459,1,0,0:0:0:0:
296,52,25574,1,4,0:0:0:0:
426,52,25804,2,0,L|368:52,1,55,2|2,0:0|0:0,0:0:0:0:
248,128,26035,2,0,L|220:176,1,55,4|0,0:0|0:0,0:0:0:0:
304,169,26265,2,0,L|332:216,1,55,4|0,0:0|0:0,0:0:0:0:
224,249,26496,2,0,L|172:268,1,55,4|0,0:0|0:0,0:0:0:0:
284,289,26727,2,0,L|336:308,1,55,4|0,0:0|0:0,0:0:0:0:
140,268,26958,5,4,0:0:0:0:
260,193,27188,1,4,0:0:0:0:
380,121,27419,1,4,0:0:0:0:
261,193,27650,1,4,0:0:0:0:
411,103,27881,1,4,0:0:0:0:
232,101,28112,2,0,L|240:40,1,55,4|4,0:0|0:0,0:0:0:0:
344,101,28342,2,0,L|384:52,1,55
260,48,28573,2,0,L|200:48,1,55,8|8,0:0|0:0,0:0:0:0:
20,48,28804,5,4,0:0:0:0:
360,144,29265,1,4,0:0:0:0:
28,192,29727,2,0,P|64:256|128:276,1,137.5,4|0,0:0|0:0,0:0:0:0:
384,192,30073,2,0,P|348:256|284:276,1,137.5,4|0,0:0|0:0,0:0:0:0:
96,192,30419,2,0,L|16:192,1,68.75,4|0,0:0|0:0,0:0:0:0:
292,192,30650,6,0,L|320:160,4,34.375,4|2|2|2|2,0:0|0:0|0:0|0:0|0:0,0:0:0:0:
196,56,30996,1,0,0:0:0:0:
432,56,31112,2,0,L|504:56,2,68.75,8|4|0,0:0|0:0|0:0,0:0:0:0:
168,132,31458,6,2,L|24:132,1,137.5,6|6,0:0|0:0,0:0:0:0:
336,132,31804,2,0,L|404:132,1,68.75
156,212,32035,2,0,P|100:264|156:316,1,165.000006294251,4|0,0:0|0:0,0:0:0:0:
288,316,32381,1,4,0:0:0:0:
96,316,32496,6,0,L|92:248,1,68.75,0|4,0:0|0:0,0:0:0:0:
332,192,32727,2,0,L|408:192,1,68.75,8|0,0:0|0:0,0:0:0:0:
168,192,32958,1,4,0:0:0:0:
145,192,32987,1,2,0:0:0:0:
123,186,33015,1,2,0:0:0:0:
103,174,33044,1,2,0:0:0:0:
88,156,33073,1,2,0:0:0:0:
79,136,33102,1,2,0:0:0:0:
75,113,33131,1,2,0:0:0:0:
79,91,33160,1,2,0:0:0:0:
89,70,33188,1,2,0:0:0:0:
104,53,33217,1,2,0:0:0:0:
123,41,33246,1,2,0:0:0:0:
145,35,33275,1,2,0:0:0:0:
168,36,33304,1,2,0:0:0:0:
376,40,33419,6,2,L|232:40,1,137.5,6|2,0:0|0:0,0:0:0:0:
336,40,33765,1,0,0:0:0:0:
128,192,33881,2,0,L|272:192,1,137.5,4|0,0:0|0:0,0:0:0:0:
168,192,34227,1,4,0:0:0:0:
376,192,34342,6,0,L|384:232,2,34.375,4|2|4,0:0|0:0|0:0,0:0:0:0:
296,308,34573,1,4,0:0:0:0:
392,308,34688,1,0,0:0:0:0:
164,304,34804,2,0,L|101:268,1,68.75,4|0,0:0|0:0,0:0:0:0:
236,256,35035,2,0,L|272:193,1,68.75,2|0,0:0|0:0,0:0:0:0:
64,196,35265,5,4,0:0:0:0:
288,196,35381,1,0,0:0:0:0:
186,196,35496,2,0,L|182:120,1,68.75,8|0,0:0|0:0,0:0:0:0:
384,128,35727,1,4,0:0:0:0:
420,128,35785,1,2,0:0:0:0:
440,128,35842,1,2,0:0:0:0:
420,128,35900,1,2,0:0:0:0:
384,128,35958,1,2,0:0:0:0:
100,124,36073,6,0,P|28:68|100:12,1,206.25,4|0,0:0|0:0,0:0:0:0:
180,12,36535,1,0,0:0:0:0:
388,12,36650,2,0,L|322:50,1,68.75,2|0,0:0|0:0,0:0:0:0:
208,48,36881,2,0,L|246:113,1,68.75
436,108,37112,2,0,P|484:176|436:224,1,165.000006294251
132,224,37573,2,0,L|64:224,1,68.75,0|4,0:0|0:0,0:0:0:0:
172,224,37804,2,0,L|176:292,1,68.75,8|8,0:0|0:0,0:0:0:0:
44,292,38035,5,0,0:0:0:0:
304,292,38150,1,0,0:0:0:0:
184,292,38265,1,4,0:0:0:0:
364,292,38381,1,8,0:0:0:0:
104,224,38496,2,0,L|180:224,2,68.75,0|0|4,0:0|0:0|0:0,0:0:0:0:
312,224,38842,6,2,L|372:192,1,68.75,6|2,0:0|0:0,0:0:0:0:
192,148,39073,1,4,0:0:0:0:
396,152,39188,2,0,L|456:120,1,68.75,4|0,0:0|0:0,0:0:0:0:
236,72,39419,2,0,L|96:72,1,137.5,4|4,0:0|0:0,0:0:0:0:
244,72,39765,6,0,L|252:140,1,68.75,6|0,0:0|0:0,0:0:0:0:
132,140,39996,2,0,L|140:208,1,68.75,6|0,0:0|0:0,0:0:0:0:
268,216,40227,2,0,L|276:284,1,68.75,6|0,0:0|0:0,0:0:0:0:
180,284,40458,1,6,0:0:0:0:
456,284,40573,1,8,0:0:0:0:
56,284,40804,6,2,B|224:284,1,165.000006294251,6|2,0:0|0:0,0:0:0:0:
116,172,41150,1,0,0:0:0:0:
324,172,41265,2,0,L|472:172,1,137.5,4|0,0:0|0:0,0:0:0:0:
184,64,41612,1,2,0:0:0:0:
153,78,41650,1,2,0:0:0:0:
132,112,41688,1,2,0:0:0:0:
140,152,41727,1,2,0:0:0:0:
168,172,41765,1,2,0:0:0:0:
364,172,41958,1,4,0:0:0:0:
56,176,42188,6,0,P|20:260|136:328,1,247.500009441376,4|0,0:0|0:0,0:0:0:0:
356,328,42650,1,8,0:0:0:0:
260,328,42765,1,0,0:0:0:0:
392,328,42881,2,0,L|396:248,1,68.75
188,260,43112,2,0,P|184:176|248:144,1,165.000006294251,4|0,0:0|0:0,0:0:0:0:
340,144,43458,1,0,0:0:0:0:
136,144,43573,6,0,L|64:144,1,68.75,2|0,0:0|0:0,0:0:0:0:
164,144,43804,2,0,L|108:97,1,68.75
256,56,44035,2,0,L|321:18,1,68.75,2|0,0:0|0:0,0:0:0:0:
180,56,44265,2,0,L|108:56,1,68.75,2|0,0:0|0:0,0:0:0:0:
336,120,44496,2,0,L|392:120,2,45.8333333333333,4|4|4,0:0|0:0|0:0,0:0:0:0:
232,192,44727,2,0,L|176:192,2,45.8333333333333,4|4|4,0:0|0:0|0:0,0:0:0:0:
420,192,44958,2,0,P|488:232|480:308,1,165.000006294251,4|0,0:0|0:0,0:0:0:0:
396,308,45304,1,0,0:0:0:0:
156,308,45419,5,2,0:0:0:0:
132,308,45448,1,2,0:0:0:0:
112,308,45477,1,2,0:0:0:0:
132,308,45506,1,2,0:0:0:0:
156,308,45535,1,2,0:0:0:0:
180,308,45563,1,2,0:0:0:0:
196,308,45592,1,2,0:0:0:0:
180,308,45621,1,2,0:0:0:0:
156,308,45650,1,2,0:0:0:0:
52,308,45765,1,0,0:0:0:0:
280,308,45881,1,2,0:0:0:0:
316,268,45957,1,2,0:0:0:0:
312,212,46034,1,2,0:0:0:0:
264,180,46111,1,2,0:0:0:0:
68,64,46227,6,2,L|136:64,1,68.75,6|2,0:0|0:0,0:0:0:0:
332,64,46458,1,4,0:0:0:0:
128,180,46573,2,0,L|60:180,1,68.75,4|0,0:0|0:0,0:0:0:0:
264,180,46804,2,0,P|320:232|264:284,1,165.000006294251,4|0,0:0|0:0,0:0:0:0:
132,284,47150,1,4,0:0:0:0:
348,348,47265,5,2,0:0:0:0:
359,318,47294,1,2,0:0:0:0:
363,286,47323,1,2,0:0:0:0:
357,255,47352,1,2,0:0:0:0:
343,227,47381,1,2,0:0:0:0:
321,204,47410,1,2,0:0:0:0:
294,187,47438,1,2,0:0:0:0:
263,179,47467,1,2,0:0:0:0:
232,180,47496,1,2,0:0:0:0:
204,172,47525,1,2,0:0:0:0:
184,152,47554,1,2,0:0:0:0:
176,124,47583,1,2,0:0:0:0:
180,96,47612,1,2,0:0:0:0:
308,108,47727,2,0,L|312:36,1,68.75,4|4,0:0|0:0,0:0:0:0:
116,40,47958,1,8,0:0:0:0:
440,40,48188,6,0,L|356:40,2,68.75,4|0|4,0:0|0:0|0:0,0:0:0:0:
232,120,48535,2,0,L|148:120,1,68.75,4|0,0:0|0:0,0:0:0:0:
384,120,48765,1,4,0:0:0:0:
128,120,48881,2,0,L|124:192,1,68.75,4|0,0:0|0:0,0:0:0:0:
352,192,49112,2,2,L|360:272,1,68.75
304,260,49285,1,2,0:0:0:0:
358,260,49342,1,2,0:0:0:0:
416,260,49400,1,2,0:0:0:0:
112,260,49573,6,2,P|36:224|16:148,1,165.000006294251,6|2,0:0|0:0,0:0:0:0:
92,120,49919,1,0,0:0:0:0:
288,120,50035,1,4,0:0:0:0:
108,120,50150,1,4,0:0:0:0:
300,120,50265,1,8,0:0:0:0:
120,120,50381,1,0,0:0:0:0:
360,120,50496,2,0,L|436:120,2,68.75,4|4|0,0:0|0:0|0:0,0:0:0:0:
92,120,50842,6,0,P|16:192|96:280,1,247.500009441376,4|0,0:0|0:0,0:0:0:0:
348,280,51419,2,0,L|208:280,1,137.5,2|0,0:0|0:0,0:0:0:0:
280,280,51765,1,0,0:0:0:0:
460,280,51881,2,0,L|464:140,1,137.5
204,148,52342,2,0,L|240:85,1,68.75
364,148,52573,2,0,L|328:85,1,68.75,4|4,0:0|0:0,0:0:0:0:
116,88,52919,5,0,0:0:0:0:
260,88,53035,1,4,0:0:0:0:
56,164,53150,2,0,L|44:232,1,68.75,8|4,0:0|0:0,0:0:0:0:
140,232,53381,2,0,L|64:232,1,68.75,8|0,0:0|0:0,0:0:0:0:
280,232,53612,6,2,L|220:200,1,68.75,6|2,0:0|0:0,0:0:0:0:
400,156,53843,1,4,0:0:0:0:
199,120,53958,2,0,L|259:88,1,68.75,4|0,0:0|0:0,0:0:0:0:
468,88,54188,2,0,L|330:88,1,137.5,4|4,0:0|0:0,0:0:0:0:
180,52,54535,6,0,L|172:120,1,68.75,6|0,0:0|0:0,0:0:0:0:
304,164,54766,2,0,L|312:232,1,68.75,6|0,0:0|0:0,0:0:0:0:
444,264,54997,2,0,L|436:332,1,68.75,6|0,0:0|0:0,0:0:0:0:
296,332,55228,1,6,0:0:0:0:
56,332,55343,1,8,0:0:0:0:
388,268,55573,6,2,P|384:188|312:156,1,165.000006294251,6|2,0:0|0:0,0:0:0:0:
420,156,55919,1,0,0:0:0:0:
180,156,56035,2,0,B|113:155|113:155|184:156,1,137.5,4|0,0:0|0:0,0:0:0:0:
388,48,56381,1,2,0:0:0:0:
360,48,56419,1,2,0:0:0:0:
332,48,56457,1,2,0:0:0:0:
304,48,56496,1,2,0:0:0:0:
276,48,56534,1,2,0:0:0:0:
476,48,56727,1,4,0:0:0:0:
128,48,56958,6,2,P|45:101|52:192,1,192.500001835823,6|2,0:0|0:0,0:0:0:0:
132,192,57304,1,0,0:0:0:0:
328,192,57420,1,8,0:0:0:0:
232,192,57535,1,0,0:0:0:0:
440,192,57650,2,0,L|444:272,1,68.75,2|0,0:0|0:0,0:0:0:0:
220,260,57882,2,0,L|80:260,1,137.5,4|0,0:0|0:0,0:0:0:0:
260,260,58227,1,4,0:0:0:0:
436,376,58342,6,0,P|464:296|372:216,1,220,4|0,0:0|0:0,0:0:0:0:
292,216,58688,1,0,0:0:0:0:
152,152,58804,2,0,P|196:92|256:76,1,137.5,2|0,0:0|0:0,0:0:0:0:
392,76,59150,2,0,L|252:76,1,137.5,2|0,0:0|0:0,0:0:0:0:
392,148,59496,2,0,L|316:148,1,68.75,2|0,0:0|0:0,0:0:0:0:
88,148,59727,2,0,L|80:76,1,68.75
424,236,60073,6,0,P|484:192|400:108,1,206.25,4|0,0:0|0:0,0:0:0:0:
348,104,60535,1,4,0:0:0:0:
168,112,60650,2,0,L|328:112,1,137.5
108,108,61112,2,0,L|100:264,1,137.5,4|0,0:0|0:0,0:0:0:0:
420,212,61573,2,0,L|428:368,1,137.5
196,332,61919,6,0,L|188:232,1,68.75,4|0,0:0|0:0,0:0:0:0:
316,292,62150,2,0,L|308:184,1,68.75,4|0,0:0|0:0,0:0:0:0:
188,224,62381,1,4,0:0:0:0:
424,224,62496,2,0,P|460:160|416:132,1,137.5,0|4,0:0|0:0,0:0:0:0:
232,112,62958,2,0,L|376:108,1,137.5,4|0,0:0|0:0,0:0:0:0:
40,100,63419,2,0,L|60:268,1,137.5
252,116,63765,6,0,P|296:168|236:180,1,137.5,4|0,0:0|0:0,0:0:0:0:
124,184,64112,1,4,0:0:0:0:
420,184,64342,2,2,L|440:352,1,137.5
256,176,64804,2,0,L|412:160,1,137.5
80,168,65265,1,0,0:0:0:0:
64,128,65381,1,0,0:0:0:0:
48,92,65496,1,0,0:0:0:0:
332,164,65612,6,0,L|184:172,1,137.5,4|4,0:0|0:0,0:0:0:0:
332,164,65958,2,0,L|344:304,1,137.5,2|0,0:0|0:0,0:0:0:0:
232,300,66304,1,2,0:0:0:0:
444,296,66535,1,4,0:0:0:0:
232,264,66650,2,0,L|368:216,1,137.5,0|4,0:0|0:0,0:0:0:0:
108,216,67112,2,0,L|60:160,2,68.75,8|4|0,0:0|0:0|0:0,0:0:0:0:
312,176,67458,6,0,P|352:128|224:52,1,206.25,4|0,0:0|0:0,0:0:0:0:
184,28,67919,1,4,0:0:0:0:
360,72,68035,2,0,L|384:224,1,137.5
192,192,68496,2,0,L|16:228,1,137.5,4|0,0:0|0:0,0:0:0:0:
412,160,68958,2,0,P|456:212|384:232,1,137.5
216,244,69304,5,4,0:0:0:0:
380,248,69535,1,4,0:0:0:0:
200,208,69765,1,4,0:0:0:0:
420,188,69881,2,0,P|456:128|384:132,1,137.5,0|4,0:0|0:0,0:0:0:0:
224,156,70342,2,2,P|152:124|220:28,1,206.25,6|2,0:0|0:0,0:0:0:0:
396,36,70804,2,0,L|424:192,1,137.5
200,180,71150,6,0,L|48:236,1,137.5,4|0,0:0|0:0,0:0:0:0:
396,268,71496,1,4,0:0:0:0:
136,196,71842,1,4,0:0:0:0:
404,208,72188,2,0,P|464:148|376:76,1,206.25,4|0,0:0|0:0,0:0:0:0:
220,76,72650,1,4,0:0:0:0:
189,91,72707,1,2,0:0:0:0:
166,116,72765,1,2,0:0:0:0:
153,148,72823,1,2,0:0:0:0:
154,182,72880,1,2,0:0:0:0:
166,214,72938,1,2,0:0:0:0:
190,238,72996,1,4,0:0:0:0:
220,253,73053,1,2,0:0:0:0:
344,260,73112,6,0,L|372:292,7,34.375,2|2|4|2|2|2|2|2,0:0|0:0|0:0|0:0|0:0|0:0|0:0|0:0,0:0:0:0:
240,288,73573,5,2,0:0:0:0:
208,275,73630,1,2,0:0:0:0:
184,251,73688,1,4,0:0:0:0:
171,219,73746,1,2,0:0:0:0:
172,185,73803,1,2,0:0:0:0:
186,154,73861,1,2,0:0:0:0:
211,131,73919,1,4,0:0:0:0:
244,120,73976,1,2,0:0:0:0:
388,292,74035,5,0,0:0:0:0:
419,279,74092,1,2,0:0:0:0:
443,255,74150,1,2,0:0:0:0:
456,223,74208,1,2,0:0:0:0:
455,189,74265,1,0,0:0:0:0:
441,158,74323,1,2,0:0:0:0:
416,135,74381,1,2,0:0:0:0:
383,124,74438,1,2,0:0:0:0:
248,316,74496,5,2,0:0:0:0:
228,308,74525,1,2,0:0:0:0:
208,292,74554,1,2,0:0:0:0:
192,264,74583,1,2,0:0:0:0:
188,240,74612,1,2,0:0:0:0:
192,224,74640,1,2,0:0:0:0:
208,200,74669,1,2,0:0:0:0:
232,184,74698,1,2,0:0:0:0:
252,208,74727,1,2,0:0:0:0:
272,192,74756,1,2,0:0:0:0:
288,164,74785,1,2,0:0:0:0:
292,140,74814,1,2,0:0:0:0:
288,124,74842,1,2,0:0:0:0:
272,100,74871,1,2,0:0:0:0:
248,84,74900,1,2,0:0:0:0:
68,80,74958,5,4,0:0:0:0:
256,192,75073,12,0,77958,0:0:0:0:
176,288,78188,6,0,L|192:196,1,68.75,6|0,0:0|0:0,0:0:0:0:
328,208,78419,2,0,L|344:116,1,68.75,6|0,0:0|0:0,0:0:0:0:
136,160,78650,6,0,L|72:120,1,68.75,4|0,0:0|0:0,0:0:0:0:
92,64,78881,2,0,L|151:101,1,68.75
328,152,79112,2,0,L|348:4,1,137.5,4|0,0:0|0:0,0:0:0:0:
166,189,79573,2,0,L|151:120,1,68.75,4|0,0:0|0:0,0:0:0:0:
228,104,79804,1,2,0:0:0:0:
146,75,79919,1,0,0:0:0:0:
320,84,80035,2,0,L|420:100,1,68.75,4|0,0:0|0:0,0:0:0:0:
456,108,80265,1,2,0:0:0:0:
136,152,80496,6,0,L|64:176,3,68.75,0|2|2|2,0:0|0:0|0:0|0:0,0:0:0:0:
276,220,80958,2,0,L|144:148,1,137.5,4|0,0:0|0:0,0:0:0:0:
352,116,81419,2,0,L|372:200,1,68.75,4|0,0:0|0:0,0:0:0:0:
272,200,81650,2,0,L|252:284,1,68.75,2|0,0:0|0:0,0:0:0:0:
52,268,81881,2,0,L|32:184,1,68.75,4|0,0:0|0:0,0:0:0:0:
112,168,82112,1,2,0:0:0:0:
432,176,82342,6,0,L|392:112,1,68.75,4|0,0:0|0:0,0:0:0:0:
304,120,82573,2,0,L|264:56,1,68.75
448,48,82804,2,0,P|496:100|460:152,1,137.5,4|0,0:0|0:0,0:0:0:0:
272,124,83265,2,0,P|232:176|280:212,1,137.5,4|2,0:0|0:0,0:0:0:0:
376,208,83612,1,0,0:0:0:0:
184,272,83727,2,0,L|92:248,1,68.75,4|0,0:0|0:0,0:0:0:0:
196,216,83958,2,0,L|104:192,1,68.75,2|0,0:0|0:0,0:0:0:0:
332,196,84188,5,0,0:0:0:0:
384,140,84303,1,2,0:0:0:0:
368,76,84418,1,2,0:0:0:0:
305,42,84534,1,2,0:0:0:0:
128,40,84650,2,2,L|116:192,1,137.5,6|2,0:0|0:0,0:0:0:0:
312,236,85112,2,0,L|316:148,1,68.75,4|0,0:0|0:0,0:0:0:0:
412,88,85342,2,0,L|416:156,1,68.75
160,172,85573,2,0,L|392:156,1,206.25,12|0,0:0|0:0,0:0:0:0:
100,172,86035,6,0,L|80:252,1,68.75,4|0,0:0|0:0,0:0:0:0:
152,238,86265,2,0,L|68:238,1,68.75
268,208,86496,2,0,L|424:188,1,137.5,4|0,0:0|0:0,0:0:0:0:
208,160,86958,2,0,L|172:100,2,68.75,4|0|2,0:0|0:0|0:0,0:0:0:0:
296,168,87304,1,0,0:0:0:0:
472,168,87419,2,0,L|408:220,3,68.75,4|2|2|2,0:0|0:0|0:0|0:0,0:0:0:0:
224,220,87881,6,0,L|196:124,1,68.75
276,140,88112,2,0,L|172:140,1,68.75
416,140,88342,2,0,P|392:56|332:32,1,137.5,4|0,0:0|0:0,0:0:0:0:
168,56,88804,2,0,L|80:76,1,68.75,4|0,0:0|0:0,0:0:0:0:
184,112,89035,2,0,L|272:132,1,68.75,2|0,0:0|0:0,0:0:0:0:
436,140,89265,2,0,L|464:288,1,137.5,4|2,0:0|0:0,0:0:0:0:
140,288,89727,6,0,L|52:268,1,68.75,4|0,0:0|0:0,0:0:0:0:
164,248,89958,2,0,L|76:228,1,68.75
280,224,90188,2,0,L|432:204,1,137.5,4|0,0:0|0:0,0:0:0:0:
232,192,90650,2,0,L|220:120,1,68.75,4|0,0:0|0:0,0:0:0:0:
312,112,90881,2,0,L|300:40,1,68.75,2|0,0:0|0:0,0:0:0:0:
120,36,91112,1,4,0:0:0:0:
61,65,91227,1,2,0:0:0:0:
63,130,91342,1,2,0:0:0:0:
123,155,91458,1,2,0:0:0:0:
344,156,91573,6,0,L|296:92,1,68.75,4|2,0:0|0:0,0:0:0:0:
128,76,91804,1,0,0:0:0:0:
444,72,92035,2,0,L|340:180,1,137.5,4|2,0:0|0:0,0:0:0:0:
260,172,92381,1,2,0:0:0:0:
460,200,92496,2,0,L|296:216,1,137.5,4|0,0:0|0:0,0:0:0:0:
236,224,92842,1,0,0:0:0:0:
484,272,92958,2,0,L|292:276,1,137.5,12|0,0:0|0:0,0:0:0:0:
232,276,93304,1,0,0:0:0:0:
440,256,93419,6,0,L|468:180,1,68.75,4|0,0:0|0:0,0:0:0:0:
352,172,93650,2,0,L|344:92,1,68.75,4|0,0:0|0:0,0:0:0:0:
160,92,93881,2,0,L|268:188,1,137.5
184,188,94227,1,4,0:0:0:0:
364,212,94342,2,0,L|412:272,2,68.75,2|0|4,0:0|0:0|0:0,0:0:0:0:
284,196,94688,1,0,0:0:0:0:
104,200,94804,2,0,L|84:296,1,68.75
158,267,95035,2,0,L|78:267,1,68.75,4|0,0:0|0:0,0:0:0:0:
296,240,95265,6,0,L|384:216,3,68.75,4|2|2|2,0:0|0:0|0:0|0:0,0:0:0:0:
168,212,95727,2,0,L|304:172,1,137.5
372,156,96073,1,0,0:0:0:0:
188,144,96188,2,0,L|208:56,1,68.75,4|0,0:0|0:0,0:0:0:0:
324,101,96419,2,0,L|344:13,1,68.75,4|0,0:0|0:0,0:0:0:0:
132,180,96650,2,0,L|376:180,1,206.25,12|0,0:0|0:0,0:0:0:0:
148,112,97112,6,0,L|64:112,3,68.75,4|2|2|2,0:0|0:0|0:0|0:0,0:0:0:0:
272,112,97573,2,0,L|140:160,1,137.5
224,184,97919,1,0,0:0:0:0:
408,184,98035,2,0,L|424:276,1,68.75,4|0,0:0|0:0,0:0:0:0:
296,276,98265,2,0,L|208:288,1,68.75,4|0,0:0|0:0,0:0:0:0:
420,264,98496,1,4,0:0:0:0:
475,231,98611,1,2,0:0:0:0:
462,168,98726,1,2,0:0:0:0:
398,160,98842,1,2,0:0:0:0:
192,224,98958,6,2,P|152:172|200:136,1,137.5,6|2,0:0|0:0,0:0:0:0:
276,136,99304,1,0,0:0:0:0:
456,96,99419,2,2,L|312:92,1,137.5
240,84,99765,1,0,0:0:0:0:
444,224,99881,2,0,P|484:172|436:136,1,137.5,4|0,0:0|0:0,0:0:0:0:
360,136,100227,1,0,0:0:0:0:
152,196,100342,2,0,L|396:196,1,206.25,12|0,0:0|0:0,0:0:0:0:
156,224,100804,6,0,L|88:252,3,68.75,4|2|2|2,0:0|0:0|0:0|0:0,0:0:0:0:
284,212,101265,2,0,L|152:164,1,137.5
232,148,101612,1,0,0:0:0:0:
416,156,101727,2,0,L|392:236,1,68.75,4|0,0:0|0:0,0:0:0:0:
264,220,101958,2,0,L|240:300,1,68.75,4|0,0:0|0:0,0:0:0:0:
428,276,102188,2,0,L|508:252,3,68.75,0|2|2|2,0:0|0:0|0:0|0:0,0:0:0:0:
240,268,102650,6,0,L|228:152,1,68.75,4|0,0:0|0:0,0:0:0:0:
301,199,102881,2,0,L|213:199,1,68.75
432,196,103112,2,0,L|476:44,1,137.5
392,48,103458,1,0,0:0:0:0:
180,200,103573,2,0,L|136:48,1,137.5,4|0,0:0|0:0,0:0:0:0:
220,52,103919,1,0,0:0:0:0:
408,208,104035,2,0,L|176:204,1,206.25,12|0,0:0|0:0,0:0:0:0:
436,120,104496,6,0,L|276:132,1,137.5,4|0,0:0|0:0,0:0:0:0:
372,80,104842,1,0,0:0:0:0:
180,76,104958,2,0,P|108:120|108:188,1,137.5
180,188,105304,1,0,0:0:0:0:
368,196,105419,1,4,0:0:0:0:
431,169,105534,1,2,0:0:0:0:
428,120,105650,1,2,0:0:0:0:
365,93,105765,1,2,0:0:0:0:
164,152,105881,2,0,L|156:56,1,68.75,4|0,0:0|0:0,0:0:0:0:
292,112,106112,2,0,L|297:43,1,68.75,2|0,0:0|0:0,0:0:0:0:
116,184,106342,6,0,L|108:88,1,68.75,4|0,0:0|0:0,0:0:0:0:
300,168,106573,2,0,L|200:100,1,68.75
428,112,106804,2,0,L|433:43,1,68.75,4|0,0:0|0:0,0:0:0:0:
243,129,107035,2,0,L|300:168,1,68.75
116,172,107265,2,0,L|100:268,1,68.75,4|0,0:0|0:0,0:0:0:0:
336,244,107496,2,0,L|352:340,1,68.75,4|0,0:0|0:0,0:0:0:0:
128,208,107727,2,0,L|28:212,1,68.75,4|0,0:0|0:0,0:0:0:0:
408,208,107958,2,0,L|476:210,1,68.75,4|0,0:0|0:0,0:0:0:0:
64,336,108188,6,0,P|48:248|128:208,1,192.500001835823,4|0,0:0|0:0,0:0:0:0:
212,208,108535,1,0,0:0:0:0:
348,208,108650,2,2,L|476:152,1,137.5,10|6,0:0|0:0,0:0:0:0:
395,152,108996,1,8,0:0:0:0:
316,152,109112,2,0,L|256:120,1,68.75,4|0,0:0|0:0,0:0:0:0:
372,72,109342,1,4,0:0:0:0:
164,72,109458,2,0,P|72:96|36:192,1,206.25,0|4,0:0|0:0,0:0:0:0:
120,192,109919,1,4,0:0:0:0:
328,192,110035,6,0,L|256:192,1,68.75,8|2,0:0|0:0,0:0:0:0:
152,192,110265,2,0,L|186:250,1,68.75,8|2,0:0|0:0,0:0:0:0:
396,192,110496,2,2,L|252:192,1,137.5,10|6,0:0|0:0,0:0:0:0:
452,192,110958,1,2,0:0:0:0:
212,192,111188,2,0,L|208:264,1,68.75,4|4,0:0|0:0,0:0:0:0:
416,260,111419,2,0,L|348:260,1,68.75,8|0,0:0|0:0,0:0:0:0:
232,260,111650,2,0,L|235:191,1,68.75,4|8,0:0|0:0,0:0:0:0:
472,192,111881,6,0,P|508:112|448:72,1,165.000006294251,4|4,0:0|0:0,0:0:0:0:
380,72,112227,1,4,0:0:0:0:
176,72,112342,2,2,L|108:72,2,68.75,10|2|6,0:0|0:0|0:0,0:0:0:0:
252,72,112688,1,0,0:0:0:0:
116,148,112804,2,0,L|108:220,1,68.75,4|0,0:0|0:0,0:0:0:0:
200,216,113035,2,0,L|272:216,1,68.75,4|4,0:0|0:0,0:0:0:0:
64,216,113265,2,0,P|16:256|60:296,1,137.5,8|4,0:0|0:0,0:0:0:0:
144,296,113612,1,0,0:0:0:0:
348,296,113727,6,0,L|492:296,1,137.5
408,296,114073,1,0,0:0:0:0:
272,296,114188,2,2,P|228:252|264:192,1,137.5,10|2,0:0|0:0,0:0:0:0:
336,192,114535,1,0,0:0:0:0:
88,192,114650,2,0,B|20:192|20:192|20:120,1,137.5,8|0,0:0|0:0,0:0:0:0:
96,124,114996,1,0,0:0:0:0:
304,124,115112,2,0,L|228:124,1,68.75,8|4,0:0|0:0,0:0:0:0:
332,124,115342,1,8,0:0:0:0:
96,124,115458,6,0,P|116:48|192:16,1,165.000006294251,4|0,0:0|0:0,0:0:0:0:
287,15,115804,2,0,L|188:16,1,68.75
356,16,116035,2,2,L|477:86,1,137.5,10|2,0:0|0:0,0:0:0:0:
392,84,116381,1,4,0:0:0:0:
308,84,116496,2,0,L|448:84,1,137.5,0|4,0:0|0:0,0:0:0:0:
112,84,116958,2,0,P|52:108|28:180,1,137.5,8|4,0:0|0:0,0:0:0:0:
112,172,117304,1,4,0:0:0:0:
316,176,117419,6,0,L|248:176,1,68.75,8|2,0:0|0:0,0:0:0:0:
132,256,117650,2,0,L|156:192,1,68.75,8|2,0:0|0:0,0:0:0:0:
376,172,117881,1,8,0:0:0:0:
304,216,117996,1,0,0:0:0:0:
304,292,118112,1,4,0:0:0:0:
376,328,118227,1,2,0:0:0:0:
172,328,118342,2,0,B|100:328|100:328|60:272,1,137.5,4|4,0:0|0:0,0:0:0:0:
272,216,118688,2,0,L|348:216,2,68.75,4|0|0,0:0|0:0|0:0,0:0:0:0:
62,275,119035,2,0,L|94:199,1,68.75,0|8,0:0|0:0,0:0:0:0:
356,152,119265,6,0,P|420:92|356:36,1,192.500001835823,4|4,0:0|0:0,0:0:0:0:
276,36,119612,1,0,0:0:0:0:
140,36,119727,2,2,L|268:110,1,137.5,10|2,0:0|0:0,0:0:0:0:
108,120,120188,2,0,L|100:188,1,68.75,4|0,0:0|0:0,0:0:0:0:
228,168,120419,2,0,L|164:192,1,68.75,4|0,0:0|0:0,0:0:0:0:
372,256,120650,2,0,L|323:207,1,68.75,8|0,0:0|0:0,0:0:0:0:
111,296,120881,2,0,L|179:296,1,68.75,4|0,0:0|0:0,0:0:0:0:
392,256,121112,5,4,0:0:0:0:
180,296,121227,1,8,0:0:0:0:
392,256,121342,2,0,L|472:256,1,68.75,4|4,0:0|0:0,0:0:0:0:
252,256,121573,2,2,L|248:180,1,68.75,10|2,0:0|0:0,0:0:0:0:
344,184,121804,2,0,L|400:136,1,68.75,4|8,0:0|0:0,0:0:0:0:
188,140,122035,2,0,L|116:140,2,68.75,8|0|4,0:0|0:0|0:0,0:0:0:0:
268,140,122381,1,8,0:0:0:0:
52,140,122496,2,0,P|0:200|44:260,1,165.000006294251,8|4,0:0|0:0,0:0:0:0:
376,268,122958,6,0,L|232:268,1,137.5,4|0,0:0|0:0,0:0:0:0:
376,192,123304,1,4,0:0:0:0:
136,192,123419,2,0,L|132:120,1,68.75,8|0,0:0|0:0,0:0:0:0:
400,128,123650,2,2,P|377:262|352:128,1,385.000003671646,2|6,0:0|0:0,0:0:0:0:
436,128,124227,1,4,0:0:0:0:
220,128,124342,2,0,L|152:128,1,68.75
360,128,124573,2,0,L|364:200,1,68.75,4|0,0:0|0:0,0:0:0:0:
237,232,124804,6,0,L|305:232,1,68.75,8|2,0:0|0:0,0:0:0:0:
209,308,125035,2,0,L|277:308,1,68.75,8|2,0:0|0:0,0:0:0:0:
406,355,125265,2,2,L|270:305,1,137.5,10|6,0:0|0:0,0:0:0:0:
76,192,125727,1,4,0:0:0:0:
296,124,125842,1,0,0:0:0:0:
88,192,125958,2,0,L|84:116,1,68.75,4|8,0:0|0:0,0:0:0:0:
296,124,126188,2,0,P|280:184|212:216,1,137.5,8|4,0:0|0:0,0:0:0:0:
312,212,126535,1,8,0:0:0:0:
108,212,126650,6,0,P|52:280|104:360,1,192.500001835823,4|4,0:0|0:0,0:0:0:0:
184,360,126996,1,0,0:0:0:0:
320,360,127112,2,2,L|444:288,1,137.5,10|6,0:0|0:0,0:0:0:0:
204,264,127573,2,0,P|220:208|288:180,1,137.5,4|4,0:0|0:0,0:0:0:0:
208,180,127919,1,8,0:0:0:0:
416,180,128035,2,0,L|428:100,1,68.75,8|0,0:0|0:0,0:0:0:0:
224,92,128265,2,0,L|161:55,1,68.75,4|0,0:0|0:0,0:0:0:0:
388,32,128496,6,0,L|308:32,2,68.75,4|0|4,0:0|0:0|0:0,0:0:0:0:
164,192,128842,2,0,L|244:192,2,68.75,4|8|0,0:0|0:0|0:0,0:0:0:0:
392,192,129188,2,0,L|396:264,1,68.75,4|4,0:0|0:0,0:0:0:0:
168,260,129419,1,0,0:0:0:0:
428,260,129535,2,0,L|440:192,1,68.75,0|4,0:0|0:0,0:0:0:0:
304,192,129765,1,4,0:0:0:0:
108,192,129881,1,0,0:0:0:0:
280,192,129996,1,0,0:0:0:0:
452,192,130112,1,0,0:0:0:0:
132,192,130227,6,0,P|64:108|156:44,1,247.500009441376,4|2,0:0|0:0,0:0:0:0:
232,44,130688,1,2,0:0:0:0:
91,20,130804,2,0,L|162:45,1,68.75,8|0,0:0|0:0,0:0:0:0:
396,44,131035,1,4,0:0:0:0:
476,78,131150,1,0,0:0:0:0:
487,165,131265,1,4,0:0:0:0:
418,219,131381,1,0,0:0:0:0:
308,220,131496,2,0,L|236:220,1,68.75,4|8,0:0|0:0,0:0:0:0:
376,220,131727,2,0,L|497:290,1,137.5,8|4,0:0|0:0,0:0:0:0:
412,288,132073,1,0,0:0:0:0:
204,288,132188,5,8,0:0:0:0:
280,288,132304,1,2,0:0:0:0:
356,288,132419,1,8,0:0:0:0:
280,288,132535,1,2,0:0:0:0:
484,288,132650,2,0,L|488:220,1,68.75,8|0,0:0|0:0,0:0:0:0:
232,192,132881,2,0,L|164:192,1,68.75,4|0,0:0|0:0,0:0:0:0:
296,192,133112,2,0,P|336:140|296:92,1,137.5,4|4,0:0|0:0,0:0:0:0:
220,92,133458,1,8,0:0:0:0:
356,92,133573,2,0,L|477:22,1,137.5,8|4,0:0|0:0,0:0:0:0:
400,24,133919,1,4,0:0:0:0:
192,24,134035,6,0,B|124:24|124:24|84:80,1,137.5,4|4,0:0|0:0,0:0:0:0:
160,80,134381,1,8,0:0:0:0:
296,80,134496,1,8,0:0:0:0:
354,110,134611,1,0,0:0:0:0:
364,175,134726,1,4,0:0:0:0:
316,221,134842,1,0,0:0:0:0:
180,220,134958,2,0,L|244:192,1,68.75,4|0,0:0|0:0,0:0:0:0:
364,175,135188,2,0,L|300:147,1,68.75,8|0,0:0|0:0,0:0:0:0:
92,148,135419,2,0,L|160:148,1,68.75,8|0,0:0|0:0,0:0:0:0:
295,175,135650,2,0,L|363:175,1,68.75,4|4,0:0|0:0,0:0:0:0:
144,228,135881,6,0,P|140:304|228:372,1,192.500001835823,4|4,0:0|0:0,0:0:0:0:
128,368,136227,1,8,0:0:0:0:
264,372,136342,2,0,L|284:300,1,68.75,8|0,0:0|0:0,0:0:0:0:
76,228,136573,2,0,L|56:156,1,68.75,4|4,0:0|0:0,0:0:0:0:
300,160,136804,2,0,L|440:160,1,137.5
356,160,137150,1,0,0:0:0:0:
140,160,137265,2,0,L|84:113,1,68.75
385,204,137496,2,0,L|440:157,1,68.75,4|4,0:0|0:0,0:0:0:0:
124,32,137727,6,0,P|52:60|20:140,1,165.000006294251,4|0,0:0|0:0,0:0:0:0:
220,140,138188,2,2,L|104:140,1,110
176,140,138535,1,0,0:0:0:0:
308,140,138650,2,0,L|364:140,2,55,4|0|4,0:0|0:0|0:0,0:0:0:0:
252,140,138996,1,8,0:0:0:0:
384,140,139112,2,0,L|388:256,1,110,0|4,0:0|0:0,0:0:0:0:
320,252,139458,1,4,0:0:0:0:
136,252,139573,6,0,L|80:252,1,55,8|2,0:0|0:0,0:0:0:0:
152,180,139804,2,0,L|92:180,1,55,8|2,0:0|0:0,0:0:0:0:
288,180,140035,2,2,B|400:192,1,110
332,192,140381,1,0,0:0:0:0:
148,288,140496,2,0,L|204:288,1,55,8|2,0:0|0:0,0:0:0:0:
324,348,140727,2,0,L|268:348,1,55,8|2,0:0|0:0,0:0:0:0:
88,288,140958,1,0,0:0:0:0:
288,288,141073,2,0,L|356:288,2,55,4|8|0,0:0|0:0|0:0,0:0:0:0:
164,288,141419,6,0,P|152:232|172:176,1,110,4|4,0:0|0:0,0:0:0:0:
240,184,141765,1,0,0:0:0:0:
352,184,141881,2,2,L|364:124,1,55,6|2,0:2|0:0,0:0:0:0:
184,112,142112,2,0,L|124:112,1,55,4|0,0:0|0:0,0:0:0:0:
252,112,142342,1,8,0:0:0:0:
248,184,142457,1,2,0:0:0:0:
196,240,142572,1,8,0:0:0:0:
124,252,142688,1,2,0:0:0:0:
240,304,142804,2,0,L|300:304,1,55
228,376,143035,2,0,L|164:376,1,55,4|8,0:0|0:0,0:0:0:0:
356,376,143265,6,0,L|468:376,1,110,4|4,0:0|0:0,0:0:0:0:
172,376,143727,2,2,L|52:376,1,110,2|6,0:0|0:0,0:0:0:0:
128,376,144073,1,4,0:0:0:0:
320,380,144188,2,4,P|368:320|320:256,1,165.000006294251,0|4,0:0|0:0,0:0:0:0:
244,260,144535,1,4,0:0:0:0:
432,256,144650,1,8,0:0:0:0:
184,260,144765,2,0,L|176:200,1,55,4|0,0:2|0:0,0:0:0:0:
288,204,144996,1,4,0:0:0:0:
72,204,145112,6,0,P|88:132|164:88,1,165.000006294251,4|4,0:0|0:0,0:0:0:0:
240,88,145458,1,0,0:0:0:0:
372,88,145573,1,2,0:0:0:0:
284,88,145688,1,4,0:0:0:0:
196,88,145804,1,8,0:0:0:0:
388,20,145919,1,0,0:0:0:0:
180,20,146035,2,0,L|68:20,1,110,4|4,0:0|0:0,0:0:0:0:
292,88,146496,2,0,L|284:152,1,55,0|4,0:0|0:0,0:0:0:0:
192,144,146727,2,0,L|198:198,1,55,8|8,0:0|0:0,0:0:0:0:
332,256,146958,6,0,L|220:256,1,110,4|4,0:0|0:0,0:0:0:0:
156,256,147304,1,8,0:0:0:0:
280,324,147419,2,2,L|392:324,1,110,2|6,0:0|0:0,0:0:0:0:
170,324,147881,1,8,0:0:0:0:
236,324,147996,1,2,0:0:0:0:
302,324,148112,1,8,0:0:0:0:
236,324,148227,1,2,0:0:0:0:
368,324,148342,2,0,L|480:324,1,110,0|4,0:0|0:0,0:0:0:0:
412,324,148688,1,8,0:0:0:0:
212,324,148804,5,4,0:0:0:0:
151,289,148919,1,0,0:0:0:0:
154,219,149034,1,4,0:0:0:0:
218,191,149150,1,0,0:0:0:0:
352,192,149265,2,2,L|240:192,1,110,6|2,0:0|0:0,0:0:0:0:
308,192,149612,1,0,0:0:0:0:
196,116,149727,2,0,L|192:48,1,55,8|2,0:0|0:0,0:0:0:0:
312,64,149958,2,0,L|361:22,1,55,8|2,0:0|0:0,0:0:0:0:
137,61,150188,2,0,L|193:61,1,55
409,28,150419,2,0,L|353:28,1,55,4|8,0:0|0:0,0:0:0:0:
84,60,150650,6,0,P|88:136|160:176,1,165.000006294251,4|0,0:0|0:0,0:0:0:0:
236,176,150996,1,4,0:0:0:0:
432,176,151112,2,2,L|372:176,1,55
452,176,151342,2,0,L|456:240,1,55
256,272,151573,2,0,L|199:292,1,55,12|0,0:0|0:0,0:0:0:0:
396,352,151804,2,0,L|456:330,1,55,4|4,0:0|0:0,0:0:0:0:
204,291,152035,1,12,0:0:0:0:
447,333,152150,1,4,0:0:0:0:
172,292,152265,2,0,L|108:292,1,55,4|4,0:0|0:0,0:0:0:0:
360,264,152496,6,0,L|332:140,1,110,4|0,0:0|0:0,0:0:0:0:
132,144,152958,2,0,L|80:96,1,55,8|0,0:0|0:0,0:0:0:0:
380,92,153304,2,0,P|444:164|400:196,1,165,2|8,0:0|0:0,0:0:0:0:
232,188,153881,2,0,L|224:272,1,55,8|0,0:0|0:0,0:0:0:0:
320,264,154112,2,0,L|332:336,1,55,8|0,0:0|0:0,0:0:0:0:
132,328,154342,6,0,L|112:184,1,110,2|0,0:0|0:0,0:0:0:0:
184,180,154688,1,0,0:0:0:0:
324,140,154804,2,0,L|200:72,1,110,8|0,0:0|0:0,0:0:0:0:
428,68,155150,2,0,P|480:96|404:156,1,165,2|8,0:0|0:0,0:0:0:0:
256,172,155727,2,0,L|160:172,3,55,8|0|8|0,0:0|0:0|0:0|0:0,0:0:0:0:
464,204,156188,6,0,L|488:68,1,110,2|0,0:0|0:0,0:0:0:0:
284,84,156650,2,0,L|380:84,1,55,8|0,0:0|0:0,0:0:0:0:
52,88,156996,2,0,P|16:156|80:236,1,165,2|8,0:0|0:0,0:0:0:0:
268,224,157573,2,0,L|412:208,1,110,8|8,0:0|0:0,0:0:0:0:
320,176,157919,1,0,0:0:0:0:
132,144,158035,6,0,L|268:116,1,110,2|0,0:0|0:0,0:0:0:0:
300,104,158381,1,0,0:0:0:0:
120,124,158496,2,0,L|100:248,1,110,8|2,0:0|0:0,0:0:0:0:
336,228,158958,2,0,L|356:352,1,110,8|2,0:0|0:0,0:0:0:0:
148,324,159419,2,0,L|132:260,1,55,8|2,0:0|0:0,0:0:0:0:
208,224,159650,1,2,0:0:0:0:
424,264,159765,6,0,P|456:212|372:156,1,165,2|2,0:0|0:0,0:0:0:0:
184,180,160342,2,0,L|308:168,1,110,8|0,0:0|0:0,0:0:0:0:
88,76,160804,1,2,0:0:0:0:
8,108,160919,2,0,L|32:220,1,110
212,204,161265,2,0,L|228:272,1,55,8|0,0:0|0:0,0:0:0:0:
112,272,161496,2,0,L|96:340,1,55
308,332,161727,6,0,L|328:180,1,110,2|0,0:0|0:0,0:0:0:0:
112,208,162188,2,0,L|92:56,1,110,8|0,0:0|0:0,0:0:0:0:
300,168,162650,2,0,L|384:152,1,55,4|2,0:0|0:0,0:0:0:0:
354,157,162881,2,0,L|300:168,1,55,4|2,0:0|0:0,0:0:0:0:
216,128,163112,2,0,L|232:52,1,55,8|0,0:0|0:0,0:0:0:0:
308,48,163342,1,2,0:0:0:0:
112,120,163458,6,0,P|56:144|76:244,1,165,4|2,0:0|0:0,0:0:0:0:
140,268,163919,1,2,0:0:0:0:
344,264,164035,2,0,L|480:232,1,110,8|2,0:0|0:0,0:0:0:0:
264,208,164381,2,0,L|280:128,1,55,0|2,0:0|0:0,0:0:0:0:
348,128,164612,1,0,0:0:0:0:
168,140,164727,2,0,L|114:150,1,55,0|2,0:0|0:0,0:0:0:0:
216,200,164958,2,0,L|288:232,2,55,8|2|2,0:0|0:0|0:0,0:0:0:0:
416,196,165304,6,0,P|472:164|392:128,1,165,4|2,0:0|0:0,0:0:0:0:
196,112,165881,2,0,L|180:212,1,55,0|2,0:0|0:0,0:0:0:0:
288,176,166112,2,0,L|304:276,1,55
184,244,166342,2,0,L|96:256,1,55
129,251,166573,2,0,L|184:244,1,55,2|2,0:0|0:0,0:0:0:0:
372,240,166804,2,0,L|360:160,1,55,0|2,0:0|0:0,0:0:0:0:
152,176,167035,2,0,L|164:96,1,55,0|2,0:0|0:0,0:0:0:0:
432,132,167265,5,4,0:0:0:0:
256,192,178342,12,0,181804,0:0:0:0:
220,192,182035,6,2,L|96:192,1,110,6|6,0:0|0:0,0:0:0:0:
192,192,182381,1,0,0:0:0:0:
276,192,182496,1,8,0:0:0:0:
334,152,182611,1,2,0:0:0:0:
336,82,182726,1,8,0:0:0:0:
279,40,182842,1,2,0:0:0:0:
88,40,182958,2,0,L|144:40,1,55,4|0,0:0|0:0,0:0:0:0:
279,40,183188,2,0,L|215:40,1,55,4|0,0:0|0:0,0:0:0:0:
152,128,183419,2,0,L|200:156,3,55,8|2|8|2,0:0|0:0|0:0|0:0,0:0:0:0:
392,160,183881,6,2,L|504:160,1,110,6|6,0:0|0:0,0:0:0:0:
420,160,184227,1,0,0:0:0:0:
336,160,184342,2,0,L|280:160,1,55,8|2,0:0|0:0,0:0:0:0:
404,232,184573,2,0,L|460:232,1,55,8|2,0:0|0:0,0:0:0:0:
268,232,184804,2,0,L|324:232,1,55,4|0,0:0|0:0,0:0:0:0:
204,308,185035,2,0,L|144:308,1,55,4|0,0:0|0:0,0:0:0:0:
280,308,185265,2,0,L|284:368,1,55,8|2,0:0|0:0,0:0:0:0:
145,253,185496,2,0,L|149:313,1,55,8|2,0:0|0:0,0:0:0:0:
372,308,185727,6,2,L|428:308,1,55,6|2,0:0|0:0,0:0:0:0:
316,308,185958,2,0,L|312:252,1,55,4|0,0:0|0:0,0:0:0:0:
112,252,186188,2,0,L|44:252,1,55,8|2,0:0|0:0,0:0:0:0:
180,192,186419,2,0,L|236:192,1,55,8|2,0:0|0:0,0:0:0:0:
36,192,186650,2,0,L|32:128,1,55,4|0,0:0|0:0,0:0:0:0:
236,108,186881,2,0,L|172:108,1,55,4|0,0:0|0:0,0:0:0:0:
380,108,187112,2,0,L|440:108,1,55,8|2,0:0|0:0,0:0:0:0:
232,32,187342,2,0,L|172:32,1,55,8|2,0:0|0:0,0:0:0:0:
400,32,187573,6,2,L|408:112,1,55,6|2,0:0|0:0,0:0:0:0:
209,108,187804,2,0,L|205:168,1,55,8|0,0:0|0:0,0:0:0:0:
16,164,188035,2,0,L|20:224,1,55,8|2,0:0|0:0,0:0:0:0:
220,248,188265,2,0,L|280:248,1,55,8|2,0:0|0:0,0:0:0:0:
76,324,188496,1,4,0:0:0:0:
156,324,188612,1,8,0:0:0:0:
348,324,188727,1,4,0:0:0:0:
428,324,188843,1,8,0:0:0:0:
208,248,188958,1,8,0:0:0:0:
96,248,189073,1,2,0:0:0:0:
316,248,189188,1,8,0:0:0:0:
428,248,189303,1,2,0:0:0:0:
216,160,189419,6,2,L|156:160,1,55,6|6,0:0|0:0,0:0:0:0:
284,160,189650,2,0,L|224:160,1,55,4|4,0:0|0:0,0:0:0:0:
356,160,189881,2,0,L|368:100,1,55,6|4,0:0|0:0,0:0:0:0:
240,92,190112,2,0,L|228:32,1,55,4|4,0:0|0:0,0:0:0:0:
440,36,190342,2,0,L|372:36,1,55,6|4,0:0|0:0,0:0:0:0:
256,36,190573,2,0,L|316:36,1,55,4|4,0:0|0:0,0:0:0:0:
185,92,190804,2,0,L|245:92,1,55,6|4,0:0|0:0,0:0:0:0:
114,148,191035,2,0,L|174:148,1,55,4|4,0:0|0:0,0:0:0:0:
372,148,191265,6,2,L|436:148,1,55,6|6,0:0|0:0,0:0:0:0:
300,148,191496,2,0,L|284:200,1,55,4|4,0:0|0:0,0:0:0:0:
416,224,191727,2,0,L|356:224,1,55,6|4,0:0|0:0,0:0:0:0:
232,280,191958,2,0,L|288:280,1,55,4|4,0:0|0:0,0:0:0:0:
96,280,192188,2,0,L|92:216,1,55,4|4,0:0|0:0,0:0:0:0:
312,224,192419,2,0,L|320:168,1,55,4|4,0:0|0:0,0:0:0:0:
108,104,192650,2,0,L|164:104,1,55,6|4,0:0|0:0,0:0:0:0:
384,104,192881,2,0,L|440:104,1,55,4|4,0:0|0:0,0:0:0:0:
184,104,193112,5,4,0:0:0:0:
133,112,193188,1,4,0:0:0:0:
94,144,193265,1,4,0:0:0:0:
75,191,193342,1,8,0:0:0:0:
81,242,193419,1,8,0:0:0:0:
111,283,193496,1,8,0:0:0:0:
296,284,193573,1,4,0:0:0:0:
336,252,193650,1,4,0:0:0:0:
305,211,193727,1,4,0:0:0:0:
252,212,193804,1,8,0:0:0:0:
212,180,193881,1,8,0:0:0:0:
242,139,193958,1,8,0:0:0:0:
424,140,194035,5,4,0:0:0:0:
432,182,194111,1,4,0:0:0:0:
422,225,194188,1,4,0:0:0:0:
396,260,194265,1,8,0:0:0:0:
357,281,194342,1,8,0:0:0:0:
314,284,194419,1,8,0:0:0:0:
128,284,194496,2,0,L|88:264,2,36.6666666666667,8|8|8,0:0|0:0|0:0,0:0:0:0:
204,288,194727,2,0,L|236:304,2,36.6666666666667,8|8|8,0:0|0:0|0:0,0:0:0:0:
48,192,194958,5,4,0:3:0:0:
160,192,195073,1,8,0:3:0:0:
48,192,195188,1,4,0:3:0:0:
356,192,195419,2,0,L|468:192,1,110,4|0,0:3|0:0,0:0:0:0:
388,192,195765,1,0,0:0:0:0:
184,192,195881,2,0,L|244:148,1,73.3333333333333,6|0,0:0|0:0,0:0:0:0:
468,300,196112,2,0,L|408:256,1,73.3333333333333,6|0,0:0|0:0,0:0:0:0:
132,192,196342,2,0,P|36:100|132:20,1,288.750002753735,8|0,0:0|0:0,0:0:0:0:
400,108,196804,6,0,L|240:108,1,137.5,4|0,0:0|0:0,0:0:0:0:
328,72,197150,1,0,0:0:0:0:
128,64,197265,2,0,L|44:108,1,68.75,8|0,0:0|0:0,0:0:0:0:
288,108,197496,2,0,L|300:256,1,137.5,4|2,0:0|0:0,0:0:0:0:
108,200,197842,2,0,L|120:348,1,137.5,4|2,0:0|0:0,0:0:0:0:
336,328,198188,2,0,L|384:276,1,68.75,8|0,0:0|0:0,0:0:0:0:
168,328,198419,2,0,L|120:276,1,68.75,4|0,0:0|0:0,0:0:0:0:
424,264,198650,6,0,L|256:264,1,137.5,4|2,0:0|0:0,0:0:0:0:
217,264,198996,1,2,0:0:0:0:
408,224,199112,2,0,L|448:160,1,68.75,8|0,0:0|0:0,0:0:0:0:
208,160,199342,2,0,P|172:92|224:64,1,137.5,4|2,0:0|0:0,0:0:0:0:
392,132,199688,2,0,P|428:64|376:36,1,137.5,4|2,0:0|0:0,0:0:0:0:
180,184,200035,2,0,L|168:272,1,68.75,8|0,0:0|0:0,0:0:0:0:
388,240,200265,2,0,L|376:328,1,68.75,4|0,0:0|0:0,0:0:0:0:
56,68,200496,6,0,L|48:216,1,137.5,4|2,0:0|0:0,0:0:0:0:
120,248,200842,1,2,0:0:0:0:
308,240,200958,2,0,L|392:240,1,68.75,8|0,0:0|0:0,0:0:0:0:
164,192,201188,2,0,L|232:56,1,137.5,4|2,0:0|0:0,0:0:0:0:
432,52,201535,2,0,L|256:52,1,137.5,4|2,0:0|0:0,0:0:0:0:
480,80,201881,2,0,L|488:156,1,68.75,8|0,0:0|0:0,0:0:0:0:
276,144,202112,2,0,L|268:220,1,68.75,4|0,0:0|0:0,0:0:0:0:
480,212,202342,6,0,L|372:312,1,137.5,4|2,0:0|0:0,0:0:0:0:
488,312,202688,1,2,0:0:0:0:
232,204,202804,2,0,L|376:252,1,137.5,8|4,0:0|0:0,0:0:0:0:
276,276,203150,1,4,0:0:0:0:
88,276,203265,1,4,0:0:0:0:
300,272,203381,2,0,L|448:272,1,137.5,4|4,0:0|0:0,0:0:0:0:
204,224,203727,1,8,0:0:0:0:
96,224,203842,1,0,0:0:0:0:
204,224,203958,1,4,0:0:0:0:
96,224,204073,1,8,0:0:0:0:
372,176,204188,6,0,L|212:176,1,137.5,4|2,0:0|0:0,0:0:0:0:
164,176,204535,1,2,0:0:0:0:
360,148,204650,2,0,L|372:64,1,68.75,8|0,0:0|0:0,0:0:0:0:
188,92,204881,2,0,L|48:144,1,137.5,4|2,0:0|0:0,0:0:0:0:
260,164,205227,2,0,L|400:216,1,137.5,4|2,0:0|0:0,0:0:0:0:
172,232,205573,2,0,L|92:232,1,68.75,8|0,0:0|0:0,0:0:0:0:
340,232,205804,2,0,L|420:232,1,68.75,4|0,0:0|0:0,0:0:0:0:
152,184,206035,6,0,L|332:184,1,137.5,4|2,0:0|0:0,0:0:0:0:
212,152,206381,1,2,0:0:0:0:
400,148,206496,2,0,L|412:80,1,68.75,8|2,0:0|0:0,0:0:0:0:
188,72,206727,2,0,L|232:236,1,137.5,4|2,0:0|0:0,0:0:0:0:
424,192,207073,2,0,L|380:356,1,137.5,4|2,0:0|0:0,0:0:0:0:
128,296,207419,2,0,L|112:364,1,68.75,8|0,0:0|0:0,0:0:0:0:
328,288,207650,2,0,L|312:356,1,68.75,4|0,0:0|0:0,0:0:0:0:
80,228,207881,6,0,L|240:228,1,137.5,6|2,0:0|0:0,0:0:0:0:
288,224,208227,1,2,0:0:0:0:
92,212,208342,2,0,L|128:112,1,68.75,8|2,0:0|0:0,0:0:0:0:
352,28,208573,2,0,L|267:136,1,137.5,4|2,0:0|0:0,0:0:0:0:
56,124,208919,2,0,L|152:4,1,137.5,4|2,0:0|0:0,0:0:0:0:
372,68,209265,2,0,L|292:68,1,68.75,8|0,0:0|0:0,0:0:0:0:
120,144,209496,2,0,L|40:144,1,68.75,4|0,0:0|0:0,0:0:0:0:
292,144,209727,6,0,L|140:144,1,137.5,4|2,0:0|0:0,0:0:0:0:
348,188,210073,2,0,L|356:44,1,137.5,4|2,0:0|0:0,0:0:0:0:
168,40,210419,1,0,0:0:0:0:
360,216,210535,2,0,L|400:156,1,68.75,4|4,0:0|0:0,0:0:0:0:
184,168,210765,2,0,L|28:168,1,137.5,4|4,0:0|0:0,0:0:0:0:
280,96,211112,1,8,0:0:0:0:
388,96,211227,1,8,0:0:0:0:
280,96,211343,1,4,0:0:0:0:
388,96,211458,1,8,0:0:0:0:
112,124,211573,6,0,L|296:124,1,137.5,4|0,0:0|0:0,0:0:0:0:
320,124,211919,1,0,0:0:0:0:
144,172,212035,2,0,L|64:172,1,68.75,8|0,0:0|0:0,0:0:0:0:
324,164,212265,2,0,L|308:320,1,137.5,4|2,0:0|0:0,0:0:0:0:
64,216,212612,2,0,L|48:372,1,137.5,4|2,0:0|0:0,0:0:0:0:
256,288,212958,2,0,L|268:355,1,68.75,8|0,0:0|0:0,0:0:0:0:
468,252,213188,2,0,L|480:319,1,68.75,4|0,0:0|0:0,0:0:0:0:
268,328,213419,6,0,L|104:328,1,137.5,4|2,0:0|0:0,0:0:0:0:
240,288,213765,1,2,0:0:0:0:
56,292,213881,2,0,L|36:204,1,68.75,8|8,0:0|0:0,0:0:0:0:
252,192,214112,2,0,L|440:136,1,137.5,4|2,0:0|0:0,0:0:0:0:
176,136,214458,2,0,L|-12:80,1,137.5,4|2,0:0|0:0,0:0:0:0:
256,104,214804,2,0,L|320:44,1,68.75,8|0,0:0|0:0,0:0:0:0:
96,104,215035,2,0,L|32:44,1,68.75,4|0,0:0|0:0,0:0:0:0:
292,100,215265,6,0,P|336:168|296:204,1,137.5,4|2,0:0|0:0,0:0:0:0:
224,204,215612,1,2,0:0:0:0:
408,208,215727,2,0,L|464:152,1,68.75,8|0,0:0|0:0,0:0:0:0:
216,168,215958,2,0,P|192:104|252:76,1,137.5,4|2,0:0|0:0,0:0:0:0:
444,128,216304,2,0,P|468:64|408:36,1,137.5,4|2,0:0|0:0,0:0:0:0:
196,32,216650,2,0,L|208:100,1,68.75,8|0,0:0|0:0,0:0:0:0:
416,120,216881,2,0,L|428:188,1,68.75,4|0,0:0|0:0,0:0:0:0:
200,196,217112,6,0,L|396:196,1,137.5,4|2,0:0|0:0,0:0:0:0:
232,156,217458,1,2,0:0:0:0:
460,112,217573,2,0,L|308:112,1,137.5,8|4,0:0|0:0,0:0:0:0:
248,104,217919,1,4,0:0:0:0:
460,112,218035,1,4,0:0:0:0:
212,132,218150,2,0,L|48:132,1,137.5,4|4,0:0|0:0,0:0:0:0:
308,128,218496,1,8,0:0:0:0:
416,128,218611,1,0,0:0:0:0:
308,128,218727,1,4,0:0:0:0:
416,128,218842,1,8,0:0:0:0:
148,132,218958,6,0,L|176:288,1,137.5,4|0,0:0|0:0,0:0:0:0:
276,284,219304,1,0,0:0:0:0:
64,284,219419,2,0,L|92:208,1,68.75,8|0,0:0|0:0,0:0:0:0:
320,200,219650,2,0,L|276:60,1,137.5,4|2,0:0|0:0,0:0:0:0:
64,180,219996,2,0,L|108:40,1,137.5,4|2,0:0|0:0,0:0:0:0:
320,48,220342,2,0,L|256:104,1,68.75,8|0,0:0|0:0,0:0:0:0:
72,144,220573,2,0,L|20:98,1,68.75,4|0,0:0|0:0,0:0:0:0:
252,152,220804,6,0,L|424:152,1,137.5,4|2,0:0|0:0,0:0:0:0:
460,148,221150,1,2,0:0:0:0:
256,184,221265,2,0,L|176:184,1,68.75,8|0,0:0|0:0,0:0:0:0:
388,176,221496,2,0,P|448:128|428:56,1,137.5,4|2,0:0|0:0,0:0:0:0:
224,156,221842,2,0,P|164:108|184:36,1,137.5,4|2,0:0|0:0,0:0:0:0:
384,48,222188,2,0,L|396:136,1,68.75,8|0,0:0|0:0,0:0:0:0:
176,128,222419,2,0,L|164:216,1,68.75,4|0,0:0|0:0,0:0:0:0:
392,248,222650,6,0,L|200:248,1,137.5,4|2,0:0|0:0,0:0:0:0:
336,208,222996,1,2,0:0:0:0:
140,208,223112,2,0,L|88:132,1,68.75,8|8,0:0|0:0,0:0:0:0:
320,136,223342,2,0,L|224:20,1,137.5,4|2,0:0|0:0,0:0:0:0:
40,144,223688,2,0,L|136:28,1,137.5,4|2,0:0|0:0,0:0:0:0:
340,36,224035,2,0,L|404:80,1,68.75,8|0,0:0|0:0,0:0:0:0:
188,96,224265,2,0,L|252:140,1,68.75,4|0,0:0|0:0,0:0:0:0:
448,200,224496,6,0,L|272:200,1,137.5,4|2,0:0|0:0,0:0:0:0:
96,180,224842,2,0,L|280:180,1,137.5,4|2,0:0|0:0,0:0:0:0:
420,144,225188,2,0,L|408:292,1,137.5,4|4,0:0|0:0,0:0:0:0:
188,260,225535,2,0,L|384:260,1,137.5,4|0,0:0|0:0,0:0:0:0:
132,208,225881,1,8,0:0:0:0:
24,212,225996,1,4,0:0:0:0:
132,208,226112,1,8,0:0:0:0:
24,212,226227,1,2,0:0:0:0:
300,132,226342,6,0,L|440:132,1,137.5,4|0,0:0|0:0,0:0:0:0:
312,56,226688,1,0,0:0:0:0:
188,56,226804,2,0,P|152:128|164:184,1,137.5,8|2,0:0|0:0,0:0:0:0:
252,184,227150,1,0,0:0:0:0:
162,181,227265,2,0,L|120:244,2,68.75,4|0|4,0:0|0:0|0:0,0:0:0:0:
384,184,227727,1,8,0:0:0:0:
136,180,227958,1,4,0:0:0:0:
484,184,228188,6,0,L|488:256,1,68.75,4|0,0:0|0:0,0:0:0:0:
348,252,228419,2,0,L|276:252,1,68.75,4|0,0:0|0:0,0:0:0:0:
72,252,228650,2,0,L|4:252,2,68.75,8|0|4,0:0|0:0|0:0,0:0:0:0:
212,252,228996,2,0,P|284:232|304:176,1,137.5,2|2,0:0|0:0,0:0:0:0:
220,176,229342,2,0,L|296:176,1,68.75,4|0,0:0|0:0,0:0:0:0:
496,176,229573,2,0,B|456:120|456:120|368:120,1,137.5,8|4,0:0|0:0,0:0:0:0:
56,84,230035,6,0,P|76:148|136:176,1,137.5,4|2,0:0|0:0,0:0:0:0:
228,176,230381,1,2,0:0:0:0:
88,176,230496,2,0,L|80:248,1,68.75,8|0,0:0|0:0,0:0:0:0:
148,304,230727,1,4,0:0:0:0:
352,308,230842,2,0,P|400:280|352:244,1,137.5,2|2,0:0|0:0,0:0:0:0:
260,244,231188,2,0,L|188:244,1,68.75,4|0,0:0|0:0,0:0:0:0:
400,140,231419,2,0,L|272:92,1,137.5,8|4,0:0|0:0,0:0:0:0:
368,92,231765,1,0,0:0:0:0:
160,92,231881,6,0,L|16:92,1,137.5,4|2,0:0|0:0,0:0:0:0:
148,176,232227,1,2,0:0:0:0:
272,176,232342,2,0,L|384:92,1,137.5,8|4,0:0|0:0,0:0:0:0:
284,96,232688,1,4,0:0:0:0:
424,24,232804,2,0,L|348:24,2,68.75,8|8|4,0:0|0:0|0:0,0:0:0:0:
492,24,233150,1,4,0:0:0:0:
252,24,233265,1,4,0:0:0:0:
156,24,233381,2,0,P|100:64|156:112,1,165.000006294251,4|0,0:0|0:0,0:0:0:0:
364,112,233727,6,0,B|432:112|432:112|456:180,1,137.5,4|2,0:0|0:0,0:0:0:0:
372,176,234073,1,2,0:0:0:0:
168,176,234188,2,0,L|24:176,1,137.5,8|2,0:0|0:0,0:0:0:0:
128,176,234535,1,2,0:0:0:0:
224,176,234650,1,4,0:0:0:0:
292,204,234765,1,2,0:0:0:0:
292,276,234880,1,4,0:0:0:0:
224,304,234996,1,0,0:0:0:0:
440,320,235112,2,0,P|484:260|452:184,1,165.000006294251,8|4,0:0|0:0,0:0:0:0:
356,184,235458,1,0,0:0:0:0:
136,184,235573,6,0,P|84:140|120:92,1,137.5,4|2,0:0|0:0,0:0:0:0:
240,92,235919,1,2,0:0:0:0:
364,92,236035,2,0,L|240:32,1,137.5,8|2,0:0|0:0,0:0:0:0:
364,36,236381,1,2,0:0:0:0:
184,32,236496,1,4,0:0:0:0:
100,64,236612,2,0,P|96:136|148:164,1,137.5,2|2,0:0|0:0,0:0:0:0:
288,164,236958,2,0,L|424:192,1,137.5,8|4,0:0|0:0,0:0:0:0:
92,296,237419,6,0,P|52:256|84:192,1,137.5,4|2,0:0|0:0,0:0:0:0:
208,192,237765,1,2,0:0:0:0:
332,192,237881,2,0,L|404:192,2,68.75,8|0|4,0:0|0:0|0:0,0:0:0:0:
124,192,238227,2,0,L|116:120,1,68.75,2|4,0:0|0:0,0:0:0:0:
324,96,238458,1,2,0:0:0:0:
392,96,238573,1,4,0:0:0:0:
460,96,238688,1,0,0:0:0:0:
252,96,238804,2,0,L|240:24,1,68.75,8|0,0:0|0:0,0:0:0:0:
324,28,239035,1,4,0:0:0:0:
228,28,239150,1,0,0:0:0:0:
24,28,239265,6,0,L|161:28,1,137.5,4|2,0:0|0:0,0:0:0:0:
448,120,239727,2,0,L|379:120,1,68.75,8|0,0:0|0:0,0:0:0:0:
40,120,240073,2,0,L|184:120,1,137.5,12|0,0:0|0:0,0:0:0:0:
80,192,240419,2,0,L|152:192,1,68.75,4|0,0:0|0:0,0:0:0:0:
372,192,240650,1,12,0:0:0:0:
459,208,240765,1,4,0:0:0:0:
501,285,240880,1,8,0:0:0:0:
467,368,240996,1,2,0:0:0:0:
224,292,241112,6,0,L|84:292,1,137.5,4|0,0:0|0:0,0:0:0:0:
212,368,241458,1,0,0:0:0:0:
336,368,241574,2,0,L|172:368,1,137.5,8|4,0:0|0:0,0:0:0:0:
116,368,241920,1,4,0:0:0:0:
340,288,242035,1,0,0:0:0:0:
436,288,242150,2,0,P|432:220|376:192,1,137.5,2|2,0:0|0:0,0:0:0:0:
164,192,242497,1,8,0:0:0:0:
384,192,242727,1,4,0:0:0:0:
80,192,242958,6,0,P|92:120|152:96,1,137.5,4|2,0:0|0:0,0:0:0:0:
228,96,243304,1,2,0:0:0:0:
88,20,243420,2,0,L|156:20,2,68.75,8|0|4,0:0|0:0|0:0,0:0:0:0:
312,20,243766,2,0,L|380:20,1,68.75,2|4,0:0|0:0,0:0:0:0:
145,95,243996,2,0,P|84:120|60:184,1,137.5,2|2,0:0|0:0,0:0:0:0:
268,184,244342,2,0,L|128:184,1,137.5,8|4,0:0|0:0,0:0:0:0:
212,184,244688,1,2,0:0:0:0:
420,184,244804,5,4,0:0:0:0:
465,108,244919,1,2,0:0:0:0:
425,30,245034,1,4,0:0:0:0:
338,22,245150,1,2,0:0:0:0:
136,24,245265,2,0,B|68:24|68:24|52:96,1,137.5,8|4,0:0|0:0,0:0:0:0:
180,92,245612,1,2,0:0:0:0:
304,92,245727,2,0,L|372:92,3,68.75,4|8|4|8,0:0|0:0|0:0|0:0,0:0:0:0:
168,92,246188,2,0,P|124:152|128:212,1,137.5,8|4,0:0|0:0,0:0:0:0:
464,212,246650,6,0,P|488:292|400:336,1,192.500001835823,4|2,0:0|0:0,0:0:0:0:
248,336,246996,2,0,P|224:252|312:212,1,192.500001835823,4|2,0:0|0:0,0:0:0:0:
92,212,247342,2,0,P|16:176|12:104,1,165.000006294251,4|2,0:0|0:0,0:0:0:0:
240,104,247688,2,0,L|324:104,1,82.5000031471254
172,104,247919,1,4,0:0:0:0:
400,24,248035,2,0,L|358:96,1,82.5000031471254,12|0,0:0|0:0,0:0:0:0:
184,32,248265,2,0,L|226:104,1,82.5000031471254,4|0,0:0|0:0,0:0:0:0:
448,164,248496,6,0,L|380:164,1,68.75,10|0,0:0|0:0,0:0:0:0:
476,236,248727,2,0,L|400:236,1,68.75,10|0,0:0|0:0,0:0:0:0:
200,236,248958,1,8,0:0:0:0:
132,228,249073,1,0,0:0:0:0:
83,182,249188,1,4,0:0:0:0:
76,116,249304,1,2,0:0:0:0:
228,116,249419,2,0,L|236:48,1,68.75,8|2,0:0|0:0,0:0:0:0:
96,116,249650,2,0,L|104:48,1,68.75,8|2,0:0|0:0,0:0:0:0:
312,48,249881,2,0,L|384:48,1,68.75,8|0,0:0|0:0,0:0:0:0:
284,156,250112,2,0,L|214:105,1,68.75,4|0,0:0|0:0,0:0:0:0:
27,116,250342,6,0,L|95:116,1,68.75,4|0,0:0|0:0,0:0:0:0:
192,192,250573,2,0,L|116:192,1,68.75,2|2,0:0|0:0,0:0:0:0:
332,192,250804,2,0,L|404:192,1,68.75,8|0,0:0|0:0,0:0:0:0:
260,264,251035,1,2,0:0:0:0:
384,264,251150,1,2,0:0:0:0:
168,264,251265,1,4,0:0:0:0:
80,264,251381,2,0,L|8:264,2,68.75,2|0|2,0:0|0:0|0:0,0:0:0:0:
288,192,251727,2,0,L|218:141,1,68.75,8|0,0:0|0:0,0:0:0:0:
92,152,251958,2,0,L|162:101,1,68.75,4|0,0:0|0:0,0:0:0:0:
352,32,252188,5,4,0:0:0:0:
360,98,252265,1,2,0:0:0:0:
316,147,252342,1,2,0:0:0:0:
260,148,252419,1,2,0:0:0:0:
215,197,252496,1,2,0:0:0:0:
224,263,252573,1,2,0:0:0:0:
408,264,252650,1,8,0:0:0:0:
410,216,252726,1,2,0:0:0:0:
398,169,252803,1,2,0:0:0:0:
372,129,252880,1,2,0:0:0:0:
335,98,252957,1,2,0:0:0:0:
291,80,253034,1,2,0:0:0:0:
104,80,253112,6,0,L|44:80,2,45.8333333333333,4|4|4,0:0|0:0|0:0,0:0:0:0:
212,80,253342,2,0,L|272:80,2,45.8333333333333,4|4|4,0:0|0:0|0:0,0:0:0:0:
16,80,253573,2,0,P|4:152|92:220,1,192.500001835823,12|4,0:0|0:0,0:0:0:0:
172,220,253919,1,0,0:0:0:0:
368,220,254035,6,0,P|392:160|360:100,1,137.5,4|2,0:0|0:0,0:0:0:0:
220,220,254381,2,0,P|196:160|228:100,1,137.5,4|2,0:0|0:0,0:0:0:0:
436,100,254727,2,0,L|499:76,2,68.75,8|0|4,0:0|0:0|0:0,0:0:0:0:
228,99,255073,2,0,L|291:75,2,68.75,8|0|4,0:0|0:0|0:0,0:0:0:0:
116,100,255419,2,0,P|36:168|44:264,1,206.25,4|0,0:0|0:0,0:0:0:0:
268,276,255881,6,0,L|396:276,1,110,4|0,0:0|0:0,0:0:0:0:
320,248,256227,1,0,0:0:0:0:
140,240,256342,2,0,L|60:224,1,55
96,216,256573,2,0,L|149:226,1,55,0|2,0:0|0:0,0:0:0:0:
320,232,256804,2,0,L|208:192,1,110,4|4,0:0|0:0,0:0:0:0:
160,176,257150,1,0,0:0:0:0:
348,172,257265,2,0,L|392:252,1,55
264,240,257496,2,0,L|220:320,1,55
444,296,257727,6,0,L|312:296,1,110,4|0,0:0|0:0,0:0:0:0:
392,256,258073,1,0,0:0:0:0:
216,256,258188,2,0,L|200:136,1,110
320,144,258535,1,2,0:0:0:0:
146,152,258650,2,0,L|222:144,3,55,4|0|4|2,0:0|0:0|0:0|0:0,0:0:0:0:
380,200,259112,2,0,L|452:220,1,55
433,214,259342,2,0,L|380:200,1,55
164,196,259573,6,0,L|40:196,1,110,4|0,0:0|0:0,0:0:0:0:
127,146,259919,1,0,0:0:0:0:
292,144,260035,2,0,L|320:80,1,55
204,92,260265,2,0,L|176:28,1,55,0|2,0:0|0:0,0:0:0:0:
312,36,260496,2,0,L|364:72,1,55,4|0,0:0|0:0,0:0:0:0:
484,80,260727,2,0,L|504:144,1,55,4|0,0:0|0:0,0:0:0:0:
304,144,260958,2,0,L|204:144,1,55
372,188,261188,2,0,L|460:188,1,55
188,196,261419,6,0,L|208:84,1,110,4|0,0:0|0:0,0:0:0:0:
448,160,261881,2,0,L|428:48,1,110
336,32,262227,1,2,0:0:0:0:
132,48,262342,2,0,L|212:72,3,55,4|0|4|2,0:0|0:0|0:0|0:0,0:0:0:0:
392,200,262804,2,0,L|136:176,1,214.49999018097,12|0,0:0|0:0,0:0:0:0:
376,128,263265,6,0,L|500:128,1,110,4|0,0:0|0:0,0:0:0:0:
424,88,263612,1,0,0:0:0:0:
232,96,263727,2,0,L|160:112,3,55,0|0|0|2,0:0|0:0|0:0|0:0,0:0:0:0:
352,160,264188,2,0,L|368:284,1,110,4|4,0:0|0:0,0:0:0:0:
272,288,264535,1,0,0:0:0:0:
92,292,264650,2,0,L|64:208,1,55
184,196,264881,2,0,L|268:168,1,55
416,136,265112,6,0,L|260:136,1,110,4|0,0:0|0:0,0:0:0:0:
88,112,265573,2,0,L|244:112,1,110
136,80,265919,1,2,0:0:0:0:
328,144,266035,2,0,L|248:156,3,55,4|0|4|2,0:0|0:0|0:0|0:0,0:0:0:0:
96,152,266496,2,0,L|12:132,1,55
43,139,266727,2,0,L|96:152,1,55
300,196,266958,6,0,L|152:196,1,110,4|0,0:0|0:0,0:0:0:0:
128,200,267304,1,0,0:0:0:0:
332,176,267419,2,0,L|348:92,1,55
220,128,267650,2,0,L|204:44,1,55,0|2,0:0|0:0,0:0:0:0:
328,56,267881,2,0,L|256:56,1,55,4|0,0:0|0:0,0:0:0:0:
152,56,268112,2,0,L|76:56,1,55,4|0,0:0|0:0,0:0:0:0:
288,136,268342,2,0,L|368:136,1,55
220,188,268573,2,0,L|300:188,1,55
448,188,268804,6,0,P|444:252|372:308,1,110,4|0,0:0|0:0,0:0:0:0:
344,304,269150,1,0,0:0:0:0:
164,260,269265,2,0,L|312:260,1,110
164,216,269612,1,0,0:0:0:0:
356,212,269727,2,0,P|412:184|412:136,1,110,4|4,0:0|0:0,0:0:0:0:
356,108,270073,1,2,0:0:0:0:
168,104,270188,2,0,L|272:192,1,110
320,192,270535,1,0,0:0:0:0:
112,216,270650,6,0,L|252:216,1,110,4|0,0:0|0:0,0:0:0:0:
280,216,270996,1,0,0:0:0:0:
164,172,271112,2,0,L|100:160,1,55,8|0,0:0|0:0,0:0:0:0:
109,161,271342,2,0,L|163:171,1,55
288,168,271573,2,0,L|304:52,1,110,4|2,0:0|0:0,0:0:0:0:
236,28,271919,1,0,0:0:0:0:
356,36,272035,2,0,L|436:44,1,55,4|0,0:0|0:0,0:0:0:0:
410,41,272265,2,0,L|356:36,1,55,2|0,0:0|0:0,0:0:0:0:
176,88,272496,6,0,L|56:88,1,110,4|0,0:0|0:0,0:0:0:0:
124,56,272842,1,0,0:0:0:0:
244,60,272958,2,0,L|280:112,1,55,4|0,0:0|0:0,0:0:0:0:
212,124,273188,2,0,L|176:176,1,55
300,184,273419,2,0,L|360:216,3,55,4|2|2|2,0:0|0:0|0:0|0:0,0:0:0:0:
220,216,273881,2,0,L|132:220,1,55,4|0,0:0|0:0,0:0:0:0:
165,218,274112,2,0,L|220:216,1,55,2|0,0:0|0:0,0:0:0:0:
404,212,274342,6,0,L|504:152,1,110,4|2,0:0|0:0,0:0:0:0:
436,128,274688,1,0,0:0:0:0:
316,124,274804,2,0,L|300:200,1,55,4|2,0:0|0:0,0:0:0:0:
372,192,275035,2,0,L|356:268,1,55,2|2,0:0|0:0,0:0:0:0:
256,260,275265,2,0,L|344:256,3,55,4|0|2|0,0:0|0:0|0:0|0:0,0:0:0:0:
188,224,275727,2,0,L|108:228,1,55,4|0,0:0|0:0,0:0:0:0:
133,226,275958,2,0,L|188:224,1,55,2|0,0:0|0:0,0:0:0:0:
364,212,276188,6,0,L|480:200,1,110,4|2,0:0|0:0,0:0:0:0:
240,168,276650,2,0,L|96:160,1,110,4|2,0:0|0:0,0:0:0:0:
376,160,277112,2,0,L|388:40,1,110,4|2,0:0|0:0,0:0:0:0:
100,88,277573,2,0,L|292:92,1,165,12|0,0:0|0:0,0:0:0:0:
88,124,278035,6,0,L|36:240,1,110,4|2,0:0|0:0,0:0:0:0:
104,268,278381,1,0,0:0:0:0:
228,268,278496,2,0,L|284:240,1,55,4|2,0:0|0:0,0:0:0:0:
277,243,278727,2,0,L|228:268,1,55,2|0,0:0|0:0,0:0:0:0:
344,264,278958,2,0,L|356:188,1,55,4|0,0:0|0:0,0:0:0:0:
280,192,279188,2,0,L|268:116,1,55,2|0,0:0|0:0,0:0:0:0:
392,112,279419,2,0,L|464:96,1,55,4|2,0:0|0:0,0:0:0:0:
445,100,279650,2,0,L|392:112,1,55,2|2,0:0|0:0,0:0:0:0:
272,112,279881,6,0,L|160:112,1,110,4|2,0:0|0:0,0:0:0:0:
368,144,280342,2,0,L|376:284,1,110,4|2,0:0|0:0,0:0:0:0:
168,236,280804,2,0,L|160:376,1,110,4|2,0:0|0:0,0:0:0:0:
360,328,281265,1,4,0:0:0:0:
415,328,281380,1,0,0:0:0:0:
470,328,281495,1,2,0:0:0:0:
244,284,281727,6,0,L|376:284,1,110,4|2,0:0|0:0,0:0:0:0:
144,284,282188,2,0,L|128:152,1,110,4|2,0:0|0:0,0:0:0:0:
336,180,282650,2,0,L|196:176,1,110,4|2,0:0|0:0,0:0:0:0:
436,172,283112,2,0,L|452:40,1,110,4|2,0:0|0:0,0:0:0:0:
348,64,283458,1,2,0:0:0:0:
148,208,283573,6,0,L|4:208,1,110,4|2,0:0|0:0,0:0:0:0:
236,184,284035,2,0,L|346:184,1,110,2|0,0:0|0:0,0:0:0:0:
192,164,284496,2,0,L|180:28,1,110
320,144,284958,2,0,L|332:8,1,110,2|0,0:0|0:0,0:0:0:0:
256,192,285419,12,0,289112,0:0:0:0:
