osu file format v14

[General]
AudioFilename: audio.mp3
AudioLeadIn: 0
PreviewTime: 113872
Countdown: 0
SampleSet: Normal
StackLeniency: 0.2
Mode: 0
LetterboxInBreaks: 0
WidescreenStoryboard: 0

[Editor]
Bookmarks: 12314,34902,57490,80078,102667,113961,136549,161961,184541,184629,184717,184806,184894,184982,185070,185159,185247,185335,185423,185511,185600,185688,185776,185864,185953,186041,186129,186217,186306,186394,186482,186570,186659,186747,186835,186923,187011,187100,187188,187276,187364
DistanceSpacing: 0.5
BeatDivisor: 8
GridSize: 32
TimelineZoom: 3.599999

[Metadata]
Title:Get Over The Culture
TitleUnicode:Get Over The Culture
Artist:lapix
ArtistUnicode:lapix
Creator:megafanx3
Version:Akali wannabe
Source:
Tags:
BeatmapID:1710182
BeatmapSetID:815442

[Difficulty]
HPDrainRate:4.2
CircleSize:4.2
OverallDifficulty:8
ApproachRate:9.6
SliderMultiplier:2
SliderTickRate:1

[Events]
//Background and Video events
0,0,"68475003_p0.png",0,0
//Break Periods
//Storyboard Layer 0 (Background)
//Storyboard Layer 1 (Fail)
//Storyboard Layer 2 (Pass)
//Storyboard Layer 3 (Foreground)
//Storyboard Sound Samples

[TimingPoints]
1012,352.941176470588,4,1,0,70,1,0
1012,-200,4,1,0,20,0,0
3835,-200,4,1,0,30,0,0
6659,-133.333333333333,4,1,0,45,0,0
9482,-133.333333333333,4,1,0,70,0,0
11600,-100,4,1,0,70,0,0
12306,-66.6666666666667,4,1,0,70,0,0
14423,-50,4,1,0,70,0,0
14953,-66.6666666666667,4,1,0,70,0,0
16364,-50,4,1,0,70,0,0
17953,-66.6666666666667,4,1,0,70,0,0
20070,-50,4,1,0,70,0,0
21835,-66.6666666666667,4,1,0,70,0,0
23247,-50,4,1,0,70,0,0
23423,-42.9184549356223,4,1,0,70,0,0
23600,-100,4,1,0,70,0,0
23953,-66.6666666666667,4,1,0,70,0,0
25717,-50,4,1,0,70,0,0
26247,-66.6666666666667,4,1,0,70,0,0
27482,-50,4,1,0,70,0,0
27835,-66.6666666666667,4,1,0,70,0,0
29247,-133.333333333333,4,1,0,70,0,0
29953,-66.6666666666667,4,1,0,70,0,0
31717,-50,4,1,0,70,0,0
32070,-133.333333333333,4,1,0,70,0,0
34188,-66.6666666666667,4,1,0,70,0,0
37717,-100,4,1,0,70,0,0
40364,-66.6666666666667,4,1,0,70,0,0
46541,-133.333333333333,4,1,0,70,0,0
46894,-66.6666666666667,4,1,0,70,0,0
50247,-50,4,1,0,70,0,0
50600,-66.6666666666667,4,1,0,70,0,0
54835,-50,4,1,0,70,0,0
55364,-66.6666666666667,4,1,0,70,0,0
77776,-80,4,1,0,70,0,0
78129,-100,4,1,0,70,0,0
78482,-150.15015015015,4,1,0,70,0,0
80070,-150.15015015015,4,1,0,45,0,0
91364,-133.333333333333,4,1,0,70,0,0
102659,-100,4,1,0,70,0,0
113953,-50,4,1,0,70,0,0
115364,-42.9184549356223,4,1,0,70,0,0
116247,-50,4,1,0,70,0,0
121717,-41.6666666666667,4,1,0,70,0,0
136541,-66.6666666666667,4,1,0,70,0,0
139011,-50,4,1,0,70,0,0
139364,-41.6666666666667,4,1,0,70,0,0
153482,-66.6666666666667,4,1,0,70,0,0
156482,-50,4,1,0,70,0,0
156835,-66.6666666666667,4,1,0,70,0,0

[Colours]
Combo1 : 176,216,227
Combo2 : 47,159,134
Combo3 : 245,239,245
Combo4 : 255,100,83

[HitObjects]
123,145,1012,6,0,P|149:133|224:150,1,100,0|0,0:0|0:0,0:0:0:0:
143,128,1717,2,0,P|171:123|239:158,1,100,0|0,0:0|0:0,0:0:0:0:
166,116,2423,2,0,P|194:118|250:170,1,100,0|0,0:0|0:0,0:0:0:0:
191,110,3129,2,0,P|217:119|258:184,1,100,0|0,0:0|0:0,0:0:0:0:
329,82,3835,6,0,L|320:159,2,75,0|0|0,0:0|0:0|0:0,0:0:0:0:
410,126,4541,2,0,L|419:203,2,75,0|0|0,0:0|0:0|0:0,0:0:0:0:
320,156,5247,2,0,L|311:233,2,75,0|0|0,0:0|0:0|0:0,0:0:0:0:
418,200,5953,2,0,L|427:277,1,75,0|0,0:0|0:0,0:0:0:0:
432,342,6306,5,0,0:0:0:0:
428,346,6394,1,0,0:0:0:0:
423,351,6482,1,0,0:0:0:0:
418,355,6570,1,0,0:0:0:0:
393,360,6659,6,0,L|321:348,1,37.5000014305115,0|0,0:0|0:0,0:0:0:0:
293,290,6835,2,0,L|221:278,1,37.5000014305115,0|0,0:0|0:0,0:0:0:0:
155,332,7011,2,0,L|131:338,2,18.7500007152558,0|0|0,0:0|0:0|0:0,0:0:0:0:
49,309,7188,2,0,L|43:285,2,18.7500007152558,0|0|0,0:0|0:0|0:0,0:0:0:0:
26,208,7364,1,0,0:0:0:0:
177,187,7541,2,0,L|183:163,2,18.7500007152558,0|0|0,0:0|0:0|0:0,0:0:0:0:
200,86,7717,1,0,0:0:0:0:
322,229,7894,2,0,L|316:205,2,18.7500007152558,0|0|0,0:0|0:0|0:0,0:0:0:0:
299,128,8070,5,0,0:0:0:0:
497,212,8247,1,0,0:0:0:0:
256,283,8423,1,0,0:0:0:0:
454,367,8600,1,0,0:0:0:0:
305,229,8776,1,0,0:0:0:0:
458,294,8953,1,0,0:0:0:0:
343,187,9129,1,0,0:0:0:0:
461,237,9306,2,0,L|461:211,2,18.7500007152558,0|0|0,0:0|0:0|0:0,0:0:0:0:
449,149,9482,5,0,0:0:0:0:
436,113,9570,1,0,0:0:0:0:
414,83,9658,1,0,0:0:0:0:
384,61,9746,1,0,0:0:0:0:
349,49,9834,1,0,0:0:0:0:
312,48,9923,1,0,0:0:0:0:
276,58,10011,1,0,0:0:0:0:
244,78,10099,1,0,0:0:0:0:
240,147,10187,5,0,0:0:0:0:
220,166,10276,1,0,0:0:0:0:
193,174,10364,1,0,0:0:0:0:
166,169,10452,1,0,0:0:0:0:
145,151,10540,1,0,0:0:0:0:
135,125,10629,1,0,0:0:0:0:
139,97,10717,1,0,0:0:0:0:
155,75,10805,1,0,0:0:0:0:
181,63,10894,6,0,P|207:58|220:45,1,37.5000014305115,0|0,0:0|0:0,0:0:0:0:
244,78,11070,2,0,P|270:79|286:70,1,37.5000014305115,0|0,0:0|0:0,0:0:0:0:
402,131,11247,2,0,P|376:126|363:113,1,37.5000014305115,0|0,0:0|0:0,0:0:0:0:
339,146,11423,2,0,P|312:147|296:138,1,37.5000014305115,0|0,0:0|0:0,0:0:0:0:
220,166,11600,2,0,L|208:220,1,50,0|0,0:0|0:0,0:0:0:0:
184,314,11776,5,0,0:0:0:0:
184,314,11953,1,0,0:0:0:0:
184,314,12129,1,0,0:0:0:0:
184,314,12306,6,0,P|321:320|424:261,1,225.000008583069,0|0,0:0|0:0,0:0:0:0:
392,244,12659,1,0,0:0:0:0:
429,247,12747,1,0,0:0:0:0:
404,209,12835,1,0,0:0:0:0:
422,210,12923,1,0,0:0:0:0:
415,176,13011,2,0,P|417:149|453:103,1,75.0000028610231,0|0,0:0|0:0,0:0:0:0:
359,102,13188,2,0,P|298:151|280:43,1,225.000008583069,0|0,0:0|0:0,0:0:0:0:
193,5,13541,5,0,0:0:0:0:
127,39,13629,1,0,0:0:0:0:
99,107,13717,1,0,0:0:0:0:
121,177,13805,1,0,0:0:0:0:
182,217,13893,1,0,0:0:0:0:
187,145,13982,1,0,0:0:0:0:
189,24,14070,5,0,0:0:0:0:
123,58,14159,1,0,0:0:0:0:
95,126,14247,1,0,0:0:0:0:
117,196,14335,1,0,0:0:0:0:
176,234,14423,6,0,P|213:252|230:283,1,50,0|0,0:0|0:0,0:0:0:0:
232,278,14511,2,0,B|250:256|271:252|271:252|298:265|306:281|306:281|322:234|364:232|357:242|416:234|411:174|411:174|376:176|376:176|427:163|464:116,1,400,0|0,0:0|0:0,0:0:0:0:
428,16,14953,5,0,0:0:0:0:
401,84,15041,1,0,0:0:0:0:
334,113,15129,1,0,0:0:0:0:
267,85,15217,1,0,0:0:0:0:
239,17,15305,1,0,0:0:0:0:
312,27,15394,1,0,0:0:0:0:
411,4,15482,5,0,0:0:0:0:
384,72,15570,1,0,0:0:0:0:
317,101,15658,1,0,0:0:0:0:
250,73,15746,1,0,0:0:0:0:
220,5,15835,6,0,P|188:17|178:29,1,37.5000014305115,0|0,0:0|0:0,0:0:0:0:
178,31,15923,2,0,B|89:165|211:105|120:244,1,225.000008583069,0|0,0:0|0:0,0:0:0:0:
77,176,16276,1,0,0:0:0:0:
37,196,16364,2,0,B|21:221|21:221|13:264|13:264|26:305,1,100,0|0,0:0|0:0,0:0:0:0:
90,350,16541,6,0,P|86:332|114:326,1,50
90,350,16629,2,0,P|102:320|130:326,1,50
90,350,16717,2,0,B|134:350|134:350|152:356|152:356|170:350|170:350|211:348,1,100,0|0,0:0|0:0,0:0:0:0:
217,349,16894,1,0,0:0:0:0:
264,167,17070,6,0,P|299:171|377:222,1,100,0|0,0:0|0:0,0:0:0:0:
471,356,17247,1,0,0:0:0:0:
470,206,17423,5,0,0:0:0:0:
470,255,17511,1,0,0:0:0:0:
470,305,17600,2,0,B|451:303|431:324|431:324|415:301|389:300|389:300|369:265|384:230|387:243|404:199|384:154|384:154|360:175|353:219,1,300,0|0,0:0|0:0,0:0:0:0:
337,232,17953,6,0,P|200:238|97:179,1,225.000008583069,0|0,0:0|0:0,0:0:0:0:
129,162,18306,1,0,0:0:0:0:
92,165,18394,1,0,0:0:0:0:
117,127,18482,1,0,0:0:0:0:
99,128,18570,1,0,0:0:0:0:
106,94,18658,2,0,P|104:67|68:21,1,75.0000028610231,0|0,0:0|0:0,0:0:0:0:
131,50,18835,2,0,P|175:113|286:29,1,225.000008583069,0|0,0:0|0:0,0:0:0:0:
412,72,19188,5,0,0:0:0:0:
451,133,19276,1,0,0:0:0:0:
436,205,19364,1,0,0:0:0:0:
377,248,19452,1,0,0:0:0:0:
304,238,19540,1,0,0:0:0:0:
260,296,19629,1,0,0:0:0:0:
203,224,19717,5,0,0:0:0:0:
112,236,19805,1,0,0:0:0:0:
38,183,19893,1,0,0:0:0:0:
20,93,19981,1,0,0:0:0:0:
70,17,20070,6,0,P|102:18|131:57,1,50,0|0,0:0|0:0,0:0:0:0:
233,178,20247,2,0,P|219:218|183:248,1,50,0|0,0:0|0:0,0:0:0:0:
203,224,20335,2,0,P|190:245|184:269,1,50,0|0,0:0|0:0,0:0:0:0:
190,283,20423,2,0,P|238:305|287:254,1,100,0|0,0:0|0:0,0:0:0:0:
322,201,20600,5,0,0:0:0:0:
321,191,20688,1,0,0:0:0:0:
334,176,20776,1,0,0:0:0:0:
361,165,20864,1,0,0:0:0:0:
396,146,20953,1,0,0:0:0:0:
423,104,21041,1,0,0:0:0:0:
406,46,21129,2,0,P|376:36|333:51,1,50,0|0,0:0|0:0,0:0:0:0:
342,44,21217,2,0,P|310:54|278:44,1,50,0|0,0:0|0:0,0:0:0:0:
269,46,21306,2,0,P|200:60|153:102,1,100,0|0,0:0|0:0,0:0:0:0:
112,236,21482,5,0,0:0:0:0:
375,274,21659,2,0,P|364:222|327:190,1,100,0|0,0:0|0:0,0:0:0:0:
297,265,21835,2,0,P|399:349|453:284,1,225.000008583069,0|0,0:0|0:0,0:0:0:0:
468,228,22188,5,0,0:0:0:0:
458,154,22276,1,0,0:0:0:0:
411,97,22364,1,0,0:0:0:0:
341,73,22452,1,0,0:0:0:0:
269,89,22540,5,0,0:0:0:0:
267,98,22629,1,0,0:0:0:0:
265,107,22717,2,0,P|262:139|219:193,1,75.0000028610231,0|0,0:0|0:0,0:0:0:0:
93,218,22894,1,0,0:0:0:0:
244,314,23070,6,0,L|333:320,1,75.0000028610231,0|0,0:0|0:0,0:0:0:0:
244,314,23247,2,0,L|346:263,1,100,0|0,0:0|0:0,0:0:0:0:
244,314,23423,2,0,L|314:209,1,116.500004666329,0|0,0:0|0:0,0:0:0:0:
304,103,23600,6,0,P|242:79|150:99,1,150,0|0,0:0|0:0,0:0:0:0:
133,128,23953,1,0,0:0:0:0:
150,200,24041,1,0,0:0:0:0:
128,223,24129,1,0,0:0:0:0:
447,283,24306,1,0,0:0:0:0:
237,132,24482,2,0,P|267:110|304:103,1,75.0000028610231,0|0,0:0|0:0,0:0:0:0:
414,80,24658,2,0,P|448:95|473:123,1,75.0000028610231,0|0,0:0|0:0,0:0:0:0:
447,283,24835,5,0,0:0:0:0:
386,323,24923,1,0,0:0:0:0:
315,306,25011,1,0,0:0:0:0:
278,243,25099,1,0,0:0:0:0:
299,173,25187,1,0,0:0:0:0:
349,225,25276,1,0,0:0:0:0:
456,267,25364,5,0,0:0:0:0:
395,307,25452,1,0,0:0:0:0:
324,290,25540,1,0,0:0:0:0:
287,227,25628,1,0,0:0:0:0:
308,157,25717,6,0,P|309:132|300:102,1,50,0|0,0:0|0:0,0:0:0:0:
292,94,25806,2,0,B|274:73|249:59|249:59|238:79|233:109|233:109|221:163|156:182|113:125|113:125|136:98|114:54|114:54|83:49|56:78|94:94,1,400,0|0,0:0|0:0,0:0:0:0:
27,177,26247,5,0,0:0:0:0:
8,248,26335,1,0,0:0:0:0:
42,313,26423,1,0,0:0:0:0:
110,340,26511,1,0,0:0:0:0:
179,314,26599,1,0,0:0:0:0:
123,268,26688,1,0,0:0:0:0:
20,193,26776,5,0,0:0:0:0:
1,264,26864,1,0,0:0:0:0:
35,329,26952,1,0,0:0:0:0:
103,356,27040,1,0,0:0:0:0:
173,329,27129,2,0,P|196:314|215:319,1,37.5000014305115,0|0,0:0|0:0,0:0:0:0:
214,320,27217,2,0,B|260:341|288:301|278:303|320:268|378:317,1,150.000005722046,0|0,0:0|0:0,0:0:0:0:
422,324,27482,2,0,P|444:271|356:272,2,133.333333333333
353,301,27835,6,0,P|319:252|340:192,1,75.0000028610231,0|0,0:0|0:0,0:0:0:0:
251,203,28011,2,0,P|271:150|142:133,1,225.000008583069,0|0,0:0|0:0,0:0:0:0:
156,138,28364,2,0,P|131:168|91:177,1,75.0000028610231,0|0,0:0|0:0,0:0:0:0:
83,80,28541,1,0,0:0:0:0:
77,236,28717,5,0,0:0:0:0:
97,177,28806,1,0,0:0:0:0:
102,172,28894,2,0,P|167:174|193:298,1,150.000005722046,0|0,0:0|0:0,0:0:0:0:
95,351,29247,6,0,P|104:334|109:307,1,37.5000014305115,0|0,0:0|0:0,0:0:0:0:
96,341,29423,2,0,B|186:286|193:369|298:292,1,187.500007152558,0|0,0:0|0:0,0:0:0:0:
336,214,29953,2,0,P|373:206|410:212,1,75.0000028610231,0|0,0:0|0:0,0:0:0:0:
495,299,30129,1,0,0:0:0:0:
445,147,30306,2,0,P|433:182|409:211,1,75.0000028610231,0|0,0:0|0:0,0:0:0:0:
300,238,30482,5,0,0:0:0:0:
275,307,30570,1,0,0:0:0:0:
207,331,30658,1,0,0:0:0:0:
144,294,30746,1,0,0:0:0:0:
134,222,30834,1,0,0:0:0:0:
67,195,30923,1,0,0:0:0:0:
151,162,31012,5,0,0:0:0:0:
164,72,31100,1,0,0:0:0:0:
242,25,31188,1,0,0:0:0:0:
327,55,31276,1,0,0:0:0:0:
359,142,31364,6,0,P|406:172|451:163,1,75.0000028610231,0|0,0:0|0:0,0:0:0:0:
499,277,31541,2,0,P|449:302|434:346,1,75.0000028610231,0|0,0:0|0:0,0:0:0:0:
314,375,31717,2,0,P|364:326|200:270,1,300,0|0,0:0|0:0,0:0:0:0:
209,246,32070,6,0,P|178:251|131:231,2,50.0000019073487,0|0|0,0:0|0:0|0:0,0:0:0:0:
184,180,32423,5,0,0:0:0:0:
180,176,32512,1,0,0:0:0:0:
184,172,32600,1,0,0:0:0:0:
187,176,32688,1,0,0:0:0:0:
180,183,32776,5,0,0:0:0:0:
177,172,32865,1,0,0:0:0:0:
188,169,32953,1,0,0:0:0:0:
189,179,33041,1,0,0:0:0:0:
163,189,33129,5,0,0:0:0:0:
172,156,33218,1,0,0:0:0:0:
205,165,33306,1,0,0:0:0:0:
193,192,33394,1,0,0:0:0:0:
188,226,33482,5,0,0:0:0:0:
194,273,33570,1,0,0:0:0:0:
217,315,33658,1,0,0:0:0:0:
253,347,33746,1,0,0:0:0:0:
298,363,33834,1,0,0:0:0:0:
346,364,33923,1,0,0:0:0:0:
391,347,34011,1,0,0:0:0:0:
428,316,34099,1,0,0:0:0:0:
451,274,34188,6,0,P|451:232|422:210,1,75.0000028610231,0|0,0:0|0:0,0:0:0:0:
296,225,34364,1,0,0:0:0:0:
295,206,34453,1,0,0:0:0:0:
297,187,34541,2,0,P|307:147|369:113,1,75.0000028610231,0|0,0:0|0:0,0:0:0:0:
363,60,34717,2,0,P|353:99|291:133,1,75.0000028610231,0|0,0:0|0:0,0:0:0:0:
116,139,34894,6,0,P|171:59|308:75,1,225.000008583069,0|0,0:0|0:0,0:0:0:0:
275,106,35247,5,0,0:0:0:0:
312,103,35335,1,0,0:0:0:0:
287,141,35423,1,0,0:0:0:0:
305,140,35511,1,0,0:0:0:0:
280,178,35600,5,0,0:0:0:0:
317,175,35688,1,0,0:0:0:0:
292,213,35776,1,0,0:0:0:0:
310,212,35865,1,0,0:0:0:0:
306,258,35953,5,0,0:0:0:0:
289,60,36129,6,0,P|251:42|228:43,1,37.5000014305115,0|0,0:0|0:0,0:0:0:0:
286,46,36217,2,0,P|246:31|223:34,1,37.5000014305115,0|0,0:0|0:0,0:0:0:0:
280,36,36306,2,0,P|227:22|126:74,1,150.000005722046,0|0,0:0|0:0,0:0:0:0:
136,169,36659,6,0,P|149:203|122:247,1,75.0000028610231,0|0,0:0|0:0,0:0:0:0:
153,247,36835,2,0,P|140:281|167:325,1,75.0000028610231,0|0,0:0|0:0,0:0:0:0:
238,344,37011,2,0,P|316:324|225:295,1,225.000008583069,0|0,0:0|0:0,0:0:0:0:
215,204,37364,5,0,0:0:0:0:
221,196,37452,1,0,0:0:0:0:
227,189,37540,1,0,0:0:0:0:
233,182,37628,1,0,0:0:0:0:
322,150,37717,5,0,0:0:0:0:
322,150,37806,2,0,L|339:215,1,50,0|0,0:0|0:0,0:0:0:0:
471,34,38070,5,0,0:0:0:0:
471,34,38159,1,0,0:0:0:0:
471,34,38247,2,0,P|448:61|449:91,1,50,0|0,0:0|0:0,0:0:0:0:
451,219,38423,1,0,0:0:0:0:
193,47,38600,5,0,0:0:0:0:
201,59,38688,1,0,0:0:0:0:
199,104,38776,1,0,0:0:0:0:
278,245,38953,5,0,0:0:0:0:
270,257,39041,1,0,0:0:0:0:
272,302,39129,1,0,0:0:0:0:
359,202,39306,5,0,0:0:0:0:
322,168,39394,1,0,0:0:0:0:
274,160,39482,1,0,0:0:0:0:
143,292,39659,5,0,0:0:0:0:
95,284,39747,1,0,0:0:0:0:
58,250,39835,2,0,P|40:212|42:183,1,50,0|0,0:0|0:0,0:0:0:0:
109,37,40011,2,0,P|126:74|125:104,1,50,0|0,0:0|0:0,0:0:0:0:
8,222,40188,2,0,P|11:181|27:156,1,50,0|0,0:0|0:0,0:0:0:0:
158,64,40364,2,0,P|140:101|156:150,1,75.0000028610231,0|0,0:0|0:0,0:0:0:0:
211,186,40541,6,0,P|278:190|422:99,1,225.000008583069,0|0,0:0|0:0,0:0:0:0:
445,96,40894,5,0,0:0:0:0:
411,76,40982,1,0,0:0:0:0:
454,60,41070,1,0,0:0:0:0:
439,50,41158,1,0,0:0:0:0:
474,16,41247,1,0,0:0:0:0:
491,223,41423,6,0,P|451:247|406:252,1,75.0000028610231,0|0,0:0|0:0,0:0:0:0:
277,209,41600,1,0,0:0:0:0:
491,223,41776,2,0,P|454:193|410:182,1,75.0000028610231,0|0,0:0|0:0,0:0:0:0:
206,208,41953,5,0,0:0:0:0:
156,155,42041,1,0,0:0:0:0:
165,83,42129,1,0,0:0:0:0:
226,44,42217,1,0,0:0:0:0:
141,60,42306,5,0,0:0:0:0:
131,131,42394,1,0,0:0:0:0:
181,183,42482,1,0,0:0:0:0:
255,178,42570,1,0,0:0:0:0:
321,210,42659,6,0,P|364:249|367:289,1,75.0000028610231,0|0,0:0|0:0,0:0:0:0:
188,326,42835,1,0,0:0:0:0:
322,30,43011,1,0,0:0:0:0:
387,348,43188,5,0,0:0:0:0:
454,200,43364,1,0,0:0:0:0:
359,67,43541,1,0,0:0:0:0:
196,82,43717,1,0,0:0:0:0:
127,230,43894,1,0,0:0:0:0:
127,230,43982,1,0,0:0:0:0:
127,230,44070,1,0,0:0:0:0:
224,363,44247,1,0,0:0:0:0:
292,215,44423,6,0,P|274:159|111:70,1,225.000008583069,0|0,0:0|0:0,0:0:0:0:
63,91,44776,2,0,P|43:142|44:170,1,75.0000028610231,0|0,0:0|0:0,0:0:0:0:
96,331,44953,1,0,0:0:0:0:
127,285,45041,1,0,0:0:0:0:
127,230,45129,2,0,P|168:274|268:282,1,150.000005722046,0|0,0:0|0:0,0:0:0:0:
292,215,45394,1,0,0:0:0:0:
366,160,45482,2,0,P|408:152|446:164,1,75.0000028610231,0|0,0:0|0:0,0:0:0:0:
400,244,45659,6,0,L|333:209,1,37.5000014305115,0|0,0:0|0:0,0:0:0:0:
400,244,45747,2,0,L|335:221,1,37.5000014305115,0|0,0:0|0:0,0:0:0:0:
400,244,45835,2,0,L|342:235,1,37.5000014305115,0|0,0:0|0:0,0:0:0:0:
400,244,45923,2,0,L|345:242,1,37.5000014305115,0|0,0:0|0:0,0:0:0:0:
400,244,46011,2,0,L|355:251,1,37.5000014305115,0|0,0:0|0:0,0:0:0:0:
400,244,46099,2,0,L|365:257,1,37.5000014305115,0|0,0:0|0:0,0:0:0:0:
285,272,46188,1,0,0:0:0:0:
453,86,46541,6,0,P|441:58|425:45,3,37.5000014305115,0|0|0|0,0:0|0:0|0:0|0:0,0:0:0:0:
360,100,46894,2,0,P|309:98|276:83,1,75.0000028610231,0|0,0:0|0:0,0:0:0:0:
154,46,47070,5,0,0:0:0:0:
162,52,47159,1,0,0:0:0:0:
215,120,47247,1,0,0:0:0:0:
225,155,47335,1,0,0:0:0:0:
215,191,47423,1,0,0:0:0:0:
188,216,47511,1,0,0:0:0:0:
152,222,47600,2,0,P|110:230|78:263,1,75.0000028610231,0|0,0:0|0:0,0:0:0:0:
368,309,47776,5,0,0:0:0:0:
368,309,47864,2,0,L|349:216,1,75.0000028610231,0|0,0:0|0:0,0:0:0:0:
477,72,48129,5,0,0:0:0:0:
477,72,48217,2,0,L|458:165,1,75.0000028610231,0|0,0:0|0:0,0:0:0:0:
274,109,48482,5,0,0:0:0:0:
317,103,48570,1,0,0:0:0:0:
274,103,48659,1,0,0:0:0:0:
317,109,48747,1,0,0:0:0:0:
298,157,48835,1,0,0:0:0:0:
269,181,48923,1,0,0:0:0:0:
234,192,49011,2,0,P|172:210|155:232,1,75.0000028610231,0|0,0:0|0:0,0:0:0:0:
230,345,49188,5,0,0:0:0:0:
230,345,49276,2,0,L|225:262,1,75.0000028610231,0|0,0:0|0:0,0:0:0:0:
135,57,49541,5,0,0:0:0:0:
135,57,49629,2,0,L|130:140,1,75.0000028610231,0|0,0:0|0:0,0:0:0:0:
40,345,49894,5,0,0:0:0:0:
40,345,49982,2,0,L|35:262,1,75.0000028610231,0|0,0:0|0:0,0:0:0:0:
177,218,50247,6,0,P|203:219|227:230,1,50,0|0,0:0|0:0,0:0:0:0:
229,242,50335,2,0,P|251:252|276:253,1,50,0|0,0:0|0:0,0:0:0:0:
286,244,50423,2,0,P|330:234|393:276,1,100,0|0,0:0|0:0,0:0:0:0:
492,188,50600,5,0,0:0:0:0:
455,146,50688,1,0,0:0:0:0:
402,129,50776,1,0,0:0:0:0:
254,332,50953,6,0,P|318:316|337:297,1,75.0000028610231,0|0,0:0|0:0,0:0:0:0:
378,255,51129,1,0,0:0:0:0:
365,232,51217,2,0,P|329:208|296:194,1,75.0000028610231,0|0,0:0|0:0,0:0:0:0:
112,254,51394,2,0,P|148:230|181:216,1,75.0000028610231,0|0,0:0|0:0,0:0:0:0:
228,133,51570,1,0,0:0:0:0:
212,87,51658,1,0,0:0:0:0:
166,76,51746,1,0,0:0:0:0:
131,109,51834,1,0,0:0:0:0:
274,256,52011,6,0,L|329:268,1,37.5000014305115
285,250,52100,2,0,L|340:262,1,37.5000014305115,0|0,0:0|0:0,0:0:0:0:
297,242,52188,2,0,B|329:220|329:220|447:252,1,150.000005722046,0|0,0:0|0:0,0:0:0:0:
478,193,52453,2,0,L|462:146,1,37.5000014305115,0|0,0:0|0:0,0:0:0:0:
460,145,52541,2,0,B|445:110|445:110|384:101|384:101|344:43,1,150.000005722046,0|0,0:0|0:0,0:0:0:0:
257,58,52806,5,0,0:0:0:0:
242,74,52894,2,0,L|191:152,1,75.0000028610231,0|0,0:0|0:0,0:0:0:0:
258,361,53070,2,0,L|207:283,1,75.0000028610231,0|0,0:0|0:0,0:0:0:0:
95,229,53247,5,0,0:0:0:0:
132,165,53335,1,0,0:0:0:0:
200,136,53423,1,0,0:0:0:0:
272,153,53511,1,0,0:0:0:0:
319,209,53599,5,0,0:0:0:0:
366,153,53688,1,0,0:0:0:0:
319,97,53776,1,0,0:0:0:0:
366,41,53865,1,0,0:0:0:0:
413,97,53953,6,0,P|439:146|430:190,1,75.0000028610231,0|0,0:0|0:0,0:0:0:0:
250,242,54129,2,0,P|194:240|160:210,1,75.0000028610231,0|0,0:0|0:0,0:0:0:0:
29,343,54306,2,0,P|-1:290|9:259,1,37.5000014305115,0|0,0:0|0:0,0:0:0:0:
29,343,54394,2,0,P|17:301|36:274,1,37.5000014305115,0|0,0:0|0:0,0:0:0:0:
29,343,54482,2,0,P|37:314|94:291,1,75.0000028610231,0|0,0:0|0:0,0:0:0:0:
179,230,54659,6,0,P|212:205|229:160,1,75.0000028610231,0|0,0:0|0:0,0:0:0:0:
103,68,54835,2,0,P|123:114|169:177,1,100,0|0,0:0|0:0,0:0:0:0:
284,328,55011,2,0,B|315:324|329:281|329:281|358:278|358:278|362:252|362:252|406:239|443:183,1,200,0|0,0:0|0:0,0:0:0:0:
429,134,55276,1,0,0:0:0:0:
429,134,55364,2,0,L|338:134,1,75.0000028610231,0|0,0:0|0:0,0:0:0:0:
150,155,55541,2,0,L|241:155,1,75.0000028610231,0|0,0:0|0:0,0:0:0:0:
347,49,55717,2,0,P|231:28|178:51,1,150.000005722046,0|0,0:0|0:0,0:0:0:0:
82,95,55982,1,0,0:0:0:0:
65,121,56070,6,0,P|58:154|59:165,1,37.5000014305115,0|0,0:0|0:0,0:0:0:0:
59,194,56159,2,0,P|78:216|87:237,1,37.5000014305115,0|0,0:0|0:0,0:0:0:0:
95,259,56247,2,0,P|124:285|133:289,1,37.5000014305115,0|0,0:0|0:0,0:0:0:0:
161,292,56335,2,0,P|191:286|209:287,1,37.5000014305115,0|0,0:0|0:0,0:0:0:0:
234,284,56423,6,0,L|178:282,1,37.5000014305115,0|0,0:0|0:0,0:0:0:0:
236,273,56511,2,0,L|292:270,1,37.5000014305115,0|0,0:0|0:0,0:0:0:0:
241,223,56600,1,0,0:0:0:0:
251,198,56688,1,0,0:0:0:0:
261,181,56776,2,0,P|294:172|343:177,1,75.0000028610231,0|0,0:0|0:0,0:0:0:0:
433,286,56953,5,0,0:0:0:0:
433,286,57041,1,0,0:0:0:0:
433,286,57129,1,0,0:0:0:0:
462,262,57217,1,0,0:0:0:0:
480,230,57306,2,0,P|474:187|453:154,1,75.0000028610231,0|0,0:0|0:0,0:0:0:0:
343,25,57482,5,0,0:0:0:0:
343,25,57570,1,0,0:0:0:0:
343,25,57659,2,0,L|267:40,1,75.0000028610231,0|0,0:0|0:0,0:0:0:0:
100,129,57835,1,0,0:0:0:0:
100,129,57923,1,0,0:0:0:0:
100,129,58011,2,0,L|176:144,1,75.0000028610231,0|0,0:0|0:0,0:0:0:0:
343,233,58187,5,0,0:0:0:0:
343,233,58275,1,0,0:0:0:0:
343,233,58364,2,0,L|267:248,1,75.0000028610231,0|0,0:0|0:0,0:0:0:0:
100,337,58540,1,0,0:0:0:0:
100,337,58628,1,0,0:0:0:0:
100,337,58717,2,0,L|176:352,1,75.0000028610231,0|0,0:0|0:0,0:0:0:0:
419,379,58894,5,0,0:0:0:0:
419,379,58982,1,0,0:0:0:0:
419,379,59070,2,0,P|429:313|418:280,1,75.0000028610231,0|0,0:0|0:0,0:0:0:0:
201,292,59247,1,0,0:0:0:0:
201,292,59335,1,0,0:0:0:0:
201,292,59423,2,0,P|191:226|202:193,1,75.0000028610231,0|0,0:0|0:0,0:0:0:0:
419,205,59600,5,0,0:0:0:0:
419,205,59688,1,0,0:0:0:0:
419,205,59776,2,0,P|429:139|418:106,1,75.0000028610231,0|0,0:0|0:0,0:0:0:0:
201,118,59953,1,0,0:0:0:0:
201,118,60041,1,0,0:0:0:0:
201,118,60129,2,0,P|191:52|202:19,1,75.0000028610231,0|0,0:0|0:0,0:0:0:0:
456,44,60306,5,0,0:0:0:0:
456,44,60394,1,0,0:0:0:0:
456,44,60482,2,0,B|472:81|472:81|465:136,1,75.0000028610231,0|0,0:0|0:0,0:0:0:0:
435,236,60659,1,0,0:0:0:0:
435,236,60747,1,0,0:0:0:0:
435,236,60835,2,0,B|420:273|420:273|376:307,1,75.0000028610231,0|0,0:0|0:0,0:0:0:0:
284,356,61012,5,0,0:0:0:0:
284,356,61100,1,0,0:0:0:0:
284,356,61188,2,0,B|247:372|247:372|192:365,1,75.0000028610231,0|0,0:0|0:0,0:0:0:0:
92,334,61365,1,0,0:0:0:0:
92,334,61453,1,0,0:0:0:0:
92,334,61541,2,0,B|54:319|54:319|20:275,1,75.0000028610231,0|0,0:0|0:0,0:0:0:0:
49,162,61717,5,0,0:0:0:0:
49,162,61806,1,0,0:0:0:0:
49,162,61894,2,0,P|91:145|127:154,1,75.0000028610231,0|0,0:0|0:0,0:0:0:0:
255,194,62070,1,0,0:0:0:0:
255,194,62159,1,0,0:0:0:0:
255,194,62247,2,0,P|213:211|177:202,1,75.0000028610231,0|0,0:0|0:0,0:0:0:0:
61,54,62423,5,0,0:0:0:0:
61,54,62512,1,0,0:0:0:0:
61,54,62600,2,0,P|105:60|132:86,1,75.0000028610231,0|0,0:0|0:0,0:0:0:0:
243,302,62776,1,0,0:0:0:0:
243,302,62865,1,0,0:0:0:0:
243,302,62953,2,0,P|198:295|171:269,1,75.0000028610231,0|0,0:0|0:0,0:0:0:0:
269,82,63129,5,0,0:0:0:0:
269,82,63218,1,0,0:0:0:0:
269,82,63306,2,0,L|341:115,1,75.0000028610231,0|0,0:0|0:0,0:0:0:0:
243,302,63482,1,0,0:0:0:0:
243,302,63571,1,0,0:0:0:0:
243,302,63659,2,0,L|171:269,1,75.0000028610231,0|0,0:0|0:0,0:0:0:0:
366,205,63835,5,0,0:0:0:0:
366,205,63924,1,0,0:0:0:0:
366,205,64012,2,0,L|333:277,1,75.0000028610231,0|0,0:0|0:0,0:0:0:0:
146,178,64188,1,0,0:0:0:0:
146,178,64277,1,0,0:0:0:0:
146,178,64365,2,0,L|179:107,1,75.0000028610231,0|0,0:0|0:0,0:0:0:0:
348,94,64541,5,0,0:0:0:0:
348,94,64629,1,0,0:0:0:0:
348,94,64717,2,0,P|393:85|424:49,1,75.0000028610231,0|0,0:0|0:0,0:0:0:0:
366,205,64894,1,0,0:0:0:0:
366,205,64982,1,0,0:0:0:0:
366,205,65070,2,0,P|375:250|411:281,1,75.0000028610231,0|0,0:0|0:0,0:0:0:0:
255,223,65247,5,0,0:0:0:0:
255,223,65335,1,0,0:0:0:0:
255,223,65423,2,0,P|210:232|179:268,1,75.0000028610231,0|0,0:0|0:0,0:0:0:0:
237,112,65600,1,0,0:0:0:0:
237,112,65688,1,0,0:0:0:0:
237,112,65776,2,0,P|228:67|192:36,1,75.0000028610231,0|0,0:0|0:0,0:0:0:0:
36,145,65953,5,0,0:0:0:0:
26,168,66041,1,0,0:0:0:0:
24,193,66129,2,0,P|27:225|48:265,1,75.0000028610231,0|0,0:0|0:0,0:0:0:0:
136,223,66306,1,0,0:0:0:0:
145,246,66394,1,0,0:0:0:0:
161,265,66482,2,0,P|185:285|228:298,1,75.0000028610231,0|0,0:0|0:0,0:0:0:0:
261,207,66659,5,0,0:0:0:0:
284,217,66747,1,0,0:0:0:0:
309,219,66835,2,0,P|341:215|381:195,1,75.0000028610231,0|0,0:0|0:0,0:0:0:0:
339,108,67012,1,0,0:0:0:0:
362,99,67100,1,0,0:0:0:0:
381,82,67188,2,0,P|401:57|414:14,1,75.0000028610231,0|0,0:0|0:0,0:0:0:0:
114,170,67364,5,0,0:0:0:0:
104,147,67452,1,0,0:0:0:0:
102,122,67540,2,0,P|105:89|126:49,1,75.0000028610231,0|0,0:0|0:0,0:0:0:0:
214,92,67717,1,0,0:0:0:0:
223,69,67805,1,0,0:0:0:0:
239,50,67893,2,0,P|263:29|306:16,1,75.0000028610231,0|0,0:0|0:0,0:0:0:0:
339,108,68070,5,0,0:0:0:0:
362,98,68158,1,0,0:0:0:0:
387,96,68246,2,0,P|419:99|459:119,1,75.0000028610231,0|0,0:0|0:0,0:0:0:0:
417,207,68423,1,0,0:0:0:0:
440,216,68511,1,0,0:0:0:0:
459,233,68599,2,0,P|479:257|492:300,1,75.0000028610231,0|0,0:0|0:0,0:0:0:0:
373,349,68776,5,0,0:0:0:0:
335,349,68864,1,0,0:0:0:0:
304,330,68952,1,0,0:0:0:0:
270,286,69041,1,0,0:0:0:0:
218,266,69129,1,0,0:0:0:0:
163,274,69217,1,0,0:0:0:0:
121,310,69305,1,0,0:0:0:0:
84,305,69394,1,0,0:0:0:0:
55,282,69482,5,0,0:0:0:0:
42,248,69570,1,0,0:0:0:0:
48,211,69658,1,0,0:0:0:0:
75,162,69747,1,0,0:0:0:0:
119,128,69835,1,0,0:0:0:0:
174,114,69923,1,0,0:0:0:0:
229,122,70011,1,0,0:0:0:0:
265,130,70099,1,0,0:0:0:0:
302,125,70187,5,0,0:0:0:0:
335,107,70275,1,0,0:0:0:0:
359,79,70364,1,0,0:0:0:0:
352,134,70452,1,0,0:0:0:0:
372,186,70540,1,0,0:0:0:0:
415,222,70628,1,0,0:0:0:0:
469,232,70716,1,0,0:0:0:0:
499,210,70805,1,0,0:0:0:0:
505,174,70893,5,0,0:0:0:0:
484,145,70981,1,0,0:0:0:0:
448,139,71069,1,0,0:0:0:0:
395,157,71158,1,0,0:0:0:0:
349,189,71246,1,0,0:0:0:0:
313,233,71334,1,0,0:0:0:0:
290,284,71422,1,0,0:0:0:0:
262,309,71511,1,0,0:0:0:0:
226,318,71599,5,0,0:0:0:0:
181,299,71688,1,0,0:0:0:0:
156,257,71776,1,0,0:0:0:0:
155,192,71864,1,0,0:0:0:0:
124,135,71952,1,0,0:0:0:0:
70,100,72040,1,0,0:0:0:0:
5,95,72129,1,0,0:0:0:0:
0,141,72217,1,0,0:0:0:0:
9,187,72305,5,0,0:0:0:0:
33,227,72393,1,0,0:0:0:0:
68,257,72481,1,0,0:0:0:0:
132,273,72570,1,0,0:0:0:0:
195,259,72658,1,0,0:0:0:0:
246,219,72746,1,0,0:0:0:0:
274,160,72834,1,0,0:0:0:0:
298,121,72923,1,0,0:0:0:0:
341,105,73011,5,0,0:0:0:0:
385,119,73099,1,0,0:0:0:0:
411,157,73187,1,0,0:0:0:0:
417,221,73276,1,0,0:0:0:0:
378,272,73364,1,0,0:0:0:0:
315,284,73452,1,0,0:0:0:0:
260,251,73540,1,0,0:0:0:0:
218,232,73629,1,0,0:0:0:0:
171,233,73717,5,0,0:0:0:0:
130,254,73805,1,0,0:0:0:0:
102,291,73894,1,0,0:0:0:0:
139,342,73982,1,0,0:0:0:0:
202,342,74070,1,0,0:0:0:0:
239,291,74158,1,0,0:0:0:0:
218,232,74247,1,0,0:0:0:0:
215,185,74335,1,0,0:0:0:0:
234,143,74423,5,0,0:0:0:0:
284,118,74511,1,0,0:0:0:0:
339,124,74600,1,0,0:0:0:0:
368,191,74688,1,0,0:0:0:0:
343,260,74776,1,0,0:0:0:0:
278,294,74864,1,0,0:0:0:0:
208,276,74952,1,0,0:0:0:0:
158,250,75041,1,0,0:0:0:0:
102,244,75129,5,0,0:0:0:0:
48,258,75217,1,0,0:0:0:0:
3,291,75305,1,0,0:0:0:0:
58,242,75394,1,0,0:0:0:0:
82,172,75482,1,0,0:0:0:0:
68,99,75570,1,0,0:0:0:0:
19,43,75658,1,0,0:0:0:0:
74,34,75747,1,0,0:0:0:0:
130,38,75835,5,0,0:0:0:0:
183,58,75923,1,0,0:0:0:0:
229,89,76011,1,0,0:0:0:0:
297,121,76099,1,0,0:0:0:0:
371,126,76187,1,0,0:0:0:0:
442,102,76275,1,0,0:0:0:0:
498,53,76363,1,0,0:0:0:0:
448,28,76452,1,0,0:0:0:0:
393,18,76540,5,0,0:0:0:0:
337,23,76628,1,0,0:0:0:0:
285,44,76716,1,0,0:0:0:0:
235,99,76805,1,0,0:0:0:0:
220,171,76893,1,0,0:0:0:0:
245,241,76981,1,0,0:0:0:0:
303,288,77069,1,0,0:0:0:0:
357,295,77158,1,0,0:0:0:0:
397,258,77246,5,0,0:0:0:0:
397,204,77334,1,0,0:0:0:0:
356,168,77423,2,0,P|300:163|272:178,1,75.0000028610231,0|0,0:0|0:0,0:0:0:0:
129,221,77600,5,0,0:0:0:0:
121,238,77688,1,0,0:0:0:0:
120,259,77776,2,0,P|140:306|173:328,1,62.5,0|0,0:0|0:0,0:0:0:0:
258,340,77953,5,0,0:0:0:0:
269,338,78041,1,0,0:0:0:0:
282,332,78129,2,0,P|302:304|304:278,1,50,0|0,0:0|0:0,0:0:0:0:
259,213,78306,5,0,0:0:0:0:
253,207,78394,1,0,0:0:0:0:
246,201,78482,2,0,P|223:198|207:206,1,33.3000008129883,0|0,0:0|0:0,0:0:0:0:
51,235,78659,5,0,0:0:0:0:
51,235,78835,2,0,B|63:196|63:196|52:156|52:156|80:134|80:134|88:105|88:105|127:95|156:106|156:106|205:60|260:127|307:74,1,366.300008942871
329,56,79894,1,0,0:0:0:0:
382,104,79982,1,0,0:0:0:0:
388,113,80070,6,0,P|405:141|412:173,1,66.6000016259766
400,172,80335,2,0,P|382:200|375:232,1,66.6000016259766
377,246,80600,1,0,0:0:0:0:
256,252,80776,6,0,P|220:232|184:227,1,66.6000016259766
197,239,81041,2,0,P|161:259|125:264,1,66.6000016259766
123,263,81306,1,0,0:0:0:0:
56,156,81482,5,0,0:0:0:0:
167,62,81659,1,0,0:0:0:0:
167,62,81747,1,0,0:0:0:0:
303,111,81923,1,0,0:0:0:0:
303,111,82012,1,0,0:0:0:0:
328,254,82188,5,0,0:0:0:0:
218,347,82365,1,0,0:0:0:0:
218,347,82453,1,0,0:0:0:0:
82,298,82629,1,0,0:0:0:0:
82,298,82717,1,0,0:0:0:0:
56,156,82894,6,0,P|98:153|122:138,1,66.6000016259766
121,150,83159,2,0,P|150:164|183:164,1,66.6000016259766
189,156,83423,6,0,P|214:123|261:112,2,66.6000016259766
183,164,83864,2,0,P|181:196|196:226,1,66.6000016259766
202,232,84129,6,0,P|234:233|264:218,2,66.6000016259766
196,226,84570,2,0,P|163:224|133:239,1,66.6000016259766
124,235,84835,6,0,P|115:203|91:179,2,66.6000016259766
122,248,85276,2,0,L|108:313,1,66.6000016259766
106,323,85541,1,0,0:0:0:0:
23,263,85717,6,0,L|15:179,1,66.6000016259766
16,181,85982,1,0,0:0:0:0:
16,13,86159,5,0,0:0:0:0:
27,13,86247,2,0,L|111:5,1,66.6000016259766
270,44,86600,1,0,0:0:0:0:
259,44,86688,2,0,L|175:52,1,66.6000016259766
183,50,86953,1,0,0:0:0:0:
190,183,87129,5,0,0:0:0:0:
278,245,87306,1,0,0:0:0:0:
265,247,87394,1,0,0:0:0:0:
366,307,87571,1,0,0:0:0:0:
353,309,87659,1,0,0:0:0:0:
353,181,87835,5,0,0:0:0:0:
265,243,88012,1,0,0:0:0:0:
278,245,88100,1,0,0:0:0:0:
177,305,88277,1,0,0:0:0:0:
190,307,88365,1,0,0:0:0:0:
94,247,88541,6,0,L|11:236,1,66.6000016259766
33,195,88806,2,0,L|99:203,1,66.6000016259766
88,290,89070,1,0,0:0:0:0:
233,358,89247,6,0,L|244:275,1,66.6000016259766
285,297,89512,2,0,L|276:363,1,66.6000016259766
190,352,89776,1,0,0:0:0:0:
352,152,89953,6,0,L|269:141,1,66.6000016259766
291,100,90218,2,0,L|357:108,1,66.6000016259766
346,195,90482,1,0,0:0:0:0:
146,33,90658,6,0,L|135:116,1,66.6000016259766
94,94,90923,2,0,L|102:27,1,66.6000016259766
189,39,91187,1,0,0:0:0:0:
188,202,91364,6,0,P|182:225|198:254,1,37.5000014305115
198,253,91541,2,0,P|244:281|277:272,1,75.0000028610231
350,250,91806,1,0,0:0:0:0:
360,260,91894,2,0,L|391:184,1,75.0000028610231
309,115,92247,1,0,0:0:0:0:
303,107,92335,1,0,0:0:0:0:
197,124,92511,1,0,0:0:0:0:
191,116,92599,1,0,0:0:0:0:
184,105,92688,1,0,0:0:0:0:
162,86,92776,6,0,L|91:133,1,75.0000028610231
114,174,93041,2,0,L|43:221,1,75.0000028610231
83,298,93306,1,0,0:0:0:0:
83,298,93394,2,0,P|108:298|128:303,1,37.5000014305115
205,235,93570,2,0,P|180:235|160:240,1,37.5000014305115
448,331,93835,2,0,L|453:287,1,37.5000014305115
359,248,94011,1,0,0:0:0:0:
359,227,94100,1,0,0:0:0:0:
367,205,94188,6,0,P|387:175|429:154,1,75.0000028610231
398,148,94453,1,0,0:0:0:0:
385,151,94541,2,0,P|355:131|334:89,1,75.0000028610231
244,163,94894,2,0,L|247:212,1,37.5000014305115
180,255,95070,2,0,L|177:217,1,37.5000014305115
174,142,95247,1,0,0:0:0:0:
141,116,95335,1,0,0:0:0:0:
118,116,95423,1,0,0:0:0:0:
100,128,95511,1,0,0:0:0:0:
83,145,95600,6,0,P|67:200|79:229,1,75.0000028610231
46,228,95864,2,0,P|62:283|50:312,1,75.0000028610231
31,326,96129,1,0,0:0:0:0:
235,298,96306,2,0,P|251:243|239:214,1,75.0000028610231
272,215,96570,2,0,P|256:160|268:131,1,75.0000028610231
287,117,96835,1,0,0:0:0:0:
472,154,97011,6,0,L|471:202,1,37.5000014305115
434,132,97188,2,0,L|434:94,1,37.5000014305115
396,154,97364,1,0,0:0:0:0:
311,298,97541,2,0,L|310:260,1,37.5000014305115
273,320,97718,2,0,L|273:357,1,37.5000014305115
235,298,97894,1,0,0:0:0:0:
190,86,98070,1,0,0:0:0:0:
396,154,98247,1,0,0:0:0:0:
212,191,98423,6,0,P|181:184|161:176,1,37.5000014305115
137,226,98600,2,0,P|106:233|86:241,1,37.5000014305115
81,296,98776,1,0,0:0:0:0:
231,341,98953,1,0,0:0:0:0:
231,341,99041,1,0,0:0:0:0:
231,341,99129,2,0,P|260:330|271:320,1,37.5000014305115
319,258,99306,1,0,0:0:0:0:
427,350,99482,1,0,0:0:0:0:
453,211,99659,6,0,P|454:181|462:168,1,37.5000014305115
364,98,99835,2,0,L|348:82,4,18.7500007152558
277,113,100100,2,0,P|254:163|253:190,1,75.0000028610231
260,204,100364,1,0,0:0:0:0:
100,258,100541,6,0,P|77:259|57:252,1,37.5000014305115
33,153,100717,2,0,L|61:145,4,18.7500007152558
127,84,100982,1,0,0:0:0:0:
133,100,101070,2,0,L|175:92,1,37.5000014305115
277,75,101247,6,0,B|314:130|274:172|278:159|232:205|260:250|260:250|307:208|365:225,1,300.000011444092
276,355,102129,6,0,P|280:330|292:318,1,37.5000014305115
304,307,102306,2,0,P|324:292|341:292,1,37.5000014305115
357,292,102482,2,0,P|382:296|394:308,1,37.5000014305115
478,353,102659,6,0,L|485:285,1,50
497,178,102835,2,0,L|450:130,1,50
368,72,103011,1,0,0:0:0:0:
258,353,103188,2,0,L|252:299,1,50
239,178,103364,2,0,L|282:133,1,50
368,72,103540,1,0,0:0:0:0:
402,288,103718,1,0,0:0:0:0:
368,284,103806,1,0,0:0:0:0:
334,280,103894,1,0,0:0:0:0:
153,187,104070,6,0,P|155:223|162:247,1,50
107,116,104247,2,0,P|105:80|98:56,1,50
61,187,104423,1,0,0:0:0:0:
51,200,104511,1,0,0:0:0:0:
44,214,104600,2,0,P|42:178|35:154,1,50
90,285,104777,2,0,P|92:321|99:345,1,50
136,214,104953,5,0,0:0:0:0:
146,201,105041,1,0,0:0:0:0:
157,187,105129,2,0,P|194:170|232:177,1,50
316,226,105306,2,0,P|292:192|256:179,1,50
260,294,105482,6,0,L|303:326,1,50
396,328,105659,2,0,L|436:298,1,50
456,201,105835,5,0,0:0:0:0:
447,192,105923,1,0,0:0:0:0:
440,181,106011,2,0,P|437:145|449:114,1,50
398,30,106188,1,0,0:0:0:0:
394,42,106276,1,0,0:0:0:0:
388,53,106364,2,0,P|358:73|325:78,1,50
202,45,106541,1,0,0:0:0:0:
219,269,106717,1,0,0:0:0:0:
39,153,106894,6,0,L|29:210,1,50
90,301,107070,1,0,0:0:0:0:
93,308,107159,2,0,L|147:288,1,50
207,180,107335,1,0,0:0:0:0:
201,184,107423,2,0,L|156:146,1,50
240,42,107600,6,0,P|259:32|251:63,1,50
305,163,107776,2,0,P|316:199|342:223,1,50
444,159,107953,1,0,0:0:0:0:
395,152,108041,1,0,0:0:0:0:
377,281,108129,1,0,0:0:0:0:
408,242,108218,1,0,0:0:0:0:
305,163,108306,6,0,P|294:199|268:223,1,50
182,229,108482,2,0,P|193:192|219:168,1,50
317,245,108659,2,0,P|299:278|270:297,1,50
170,146,108835,2,0,P|187:112|216:93,1,50
315,327,109011,2,0,P|292:357|259:370,1,50
184,60,109188,2,0,P|206:29|239:16,1,50
337,199,109364,2,0,P|314:168|281:155,1,50
149,192,109541,2,0,P|171:222|204:235,1,50
384,182,109717,6,0,L|305:209,1,50
134,212,109894,2,0,L|213:239,1,50
427,207,110070,2,0,L|372:216,1,50
90,238,110247,2,0,L|144:246,1,50
483,222,110423,2,0,L|409:233,1,50
34,253,110600,2,0,L|107:264,1,50
240,312,110776,2,0,L|215:359,1,50
355,304,110953,2,0,L|378:259,1,50
205,245,111128,5,0,0:0:0:0:
177,204,111217,1,0,0:0:0:0:
180,155,111305,1,0,0:0:0:0:
214,120,111393,1,0,0:0:0:0:
278,162,111482,5,0,0:0:0:0:
310,144,111570,1,0,0:0:0:0:
348,145,111658,1,0,0:0:0:0:
379,164,111746,1,0,0:0:0:0:
452,216,111835,5,0,0:0:0:0:
462,234,111923,1,0,0:0:0:0:
464,255,112011,1,0,0:0:0:0:
458,276,112099,1,0,0:0:0:0:
448,295,112187,1,0,0:0:0:0:
441,315,112276,1,0,0:0:0:0:
440,336,112364,1,0,0:0:0:0:
445,357,112452,1,0,0:0:0:0:
359,349,112541,6,0,L|302:372,1,50
304,189,112717,2,0,L|289:211,1,25
287,185,112806,2,0,L|256:229,1,50
134,286,112982,2,0,L|162:278,1,25
139,299,113070,2,0,L|167:306,1,25,0|0,2:0|2:0,2:0:0:0:
136,312,113159,2,0,L|156:332,1,25,0|0,2:0|2:0,2:0:0:0:
68,328,113247,6,0,P|49:308|35:285,1,50
118,162,113423,2,0,P|104:141|87:123,1,50
12,212,113600,1,0,0:0:0:0:
258,226,113776,1,0,0:0:0:0:
137,43,113953,6,0,P|202:37|247:55,1,100
384,177,114129,1,0,0:0:0:0:
403,198,114217,1,0,0:0:0:0:
408,277,114306,1,0,0:0:0:0:
413,304,114394,1,0,0:0:0:0:
328,343,114482,1,0,0:0:0:0:
230,329,114570,1,0,0:0:0:0:
231,297,114659,6,0,B|195:258|195:258|141:269,1,100
8,240,114835,1,0,0:0:0:0:
22,216,114923,1,0,0:0:0:0:
62,172,115011,1,0,0:0:0:0:
121,142,115099,1,0,0:0:0:0:
186,149,115187,1,0,0:0:0:0:
282,161,115276,1,0,0:0:0:0:
367,112,115364,6,0,P|451:94|511:123,1,116.500004666329
499,249,115541,1,0,0:0:0:0:
472,196,115629,1,0,0:0:0:0:
364,235,115717,1,0,0:0:0:0:
337,288,115806,1,0,0:0:0:0:
222,287,115894,1,0,0:0:0:0:
162,228,115982,1,0,0:0:0:0:
186,149,116070,6,0,B|191:98|191:98|163:28,1,116.500004666329
62,172,116247,2,0,P|28:206|14:287,1,100
187,314,116423,1,0,0:0:0:0:
261,319,116511,1,0,0:0:0:0:
336,318,116599,1,0,0:0:0:0:
411,312,116687,1,0,0:0:0:0:
485,299,116776,6,0,B|463:344|463:344|461:160,1,200
373,69,117041,1,0,0:0:0:0:
290,106,117129,2,0,L|147:82,1,100
157,257,117306,1,0,0:0:0:0:
218,240,117394,1,0,0:0:0:0:
236,179,117482,1,0,0:0:0:0:
191,89,117570,2,0,B|139:93|139:93|74:132,1,100
71,246,117747,2,0,B|62:285|62:285|116:339,1,100
275,348,117923,5,0,0:0:0:0:
321,334,118011,1,0,0:0:0:0:
339,289,118099,1,0,0:0:0:0:
337,199,118188,1,0,0:0:0:0:
349,183,118276,2,0,P|411:194|469:225,1,100
480,60,118453,2,0,P|430:67|384:85,1,100
236,177,118629,5,0,0:0:0:0:
200,141,118717,1,0,0:0:0:0:
236,106,118805,1,0,0:0:0:0:
271,141,118894,1,0,0:0:0:0:
306,176,118982,2,0,P|318:230|296:272,1,100
38,299,119159,2,0,P|78:261|126:259,1,100
298,269,119335,5,0,0:0:0:0:
343,247,119423,1,0,0:0:0:0:
372,206,119511,1,0,0:0:0:0:
404,120,119600,6,0,B|441:140|441:140|467:194,1,100
471,327,119776,1,0,0:0:0:0:
422,316,119864,1,0,0:0:0:0:
372,319,119952,1,0,0:0:0:0:
325,335,120040,1,0,0:0:0:0:
246,355,120129,1,0,0:0:0:0:
168,348,120217,1,0,0:0:0:0:
147,276,120306,6,0,B|120:220|120:220|64:201,1,100
87,96,120482,1,0,0:0:0:0:
131,80,120570,1,0,0:0:0:0:
202,79,120659,1,0,0:0:0:0:
276,124,120747,1,0,0:0:0:0:
370,150,120835,2,0,P|440:122|471:86,1,100
384,299,121011,6,0,P|360:363|313:370,1,100
242,290,121188,1,0,0:0:0:0:
263,269,121276,1,0,0:0:0:0:
287,245,121364,1,0,0:0:0:0:
274,195,121452,1,0,0:0:0:0:
206,159,121540,1,0,0:0:0:0:
130,161,121628,1,0,0:0:0:0:
64,200,121717,6,0,P|124:242|176:267,1,119.999996337891
384,299,121894,2,0,P|335:263|282:236,1,119.999996337891
201,86,122070,1,0,0:0:0:0:
207,73,122158,1,0,0:0:0:0:
232,61,122247,1,0,0:0:0:0:
276,67,122335,1,0,0:0:0:0:
327,105,122423,6,0,P|412:138|474:130,1,119.999996337891
485,232,122600,1,0,0:0:0:0:
426,219,122688,1,0,0:0:0:0:
373,282,122776,1,0,0:0:0:0:
293,288,122864,1,0,0:0:0:0:
231,250,122952,1,0,0:0:0:0:
215,178,123040,1,0,0:0:0:0:
255,118,123129,6,0,B|280:102|280:102|171:58,1,119.999996337891
22,194,123306,2,0,B|-3:178|-3:178|106:134,1,119.999996337891
146,240,123482,1,0,0:0:0:0:
137,247,123570,1,0,0:0:0:0:
132,290,123658,1,0,0:0:0:0:
153,329,123746,1,0,0:0:0:0:
194,347,123835,6,0,P|276:332|322:299,1,119.999996337891
329,116,124011,1,0,0:0:0:0:
292,142,124100,2,0,P|263:220|269:276,1,119.999996337891
425,374,124275,1,0,0:0:0:0:
421,329,124364,2,0,P|367:265|315:242,1,119.999996337891
469,172,124541,6,0,P|386:165|333:185,1,119.999996337891
393,27,124717,2,0,P|329:80|306:132,1,119.999996337891
42,172,124894,2,0,P|125:165|178:185,1,119.999996337891
199,112,125070,1,0,0:0:0:0:
167,62,125158,1,0,0:0:0:0:
147,53,125247,6,0,L|129:179,1,119.999996337891
292,142,125423,1,0,0:0:0:0:
312,132,125512,2,0,L|330:258,1,119.999996337891
186,319,125688,1,0,0:0:0:0:
161,290,125776,1,0,0:0:0:0:
239,247,125864,1,0,0:0:0:0:
328,250,125953,6,0,P|443:265|480:254,1,119.999996337891
312,132,126129,2,0,P|254:115|194:117,1,119.999996337891
60,243,126306,1,0,0:0:0:0:
69,166,126394,1,0,0:0:0:0:
110,149,126482,1,0,0:0:0:0:
152,133,126570,1,0,0:0:0:0:
194,117,126659,6,0,B|254:115|254:115|312:132,1,119.999996337891
411,204,126835,1,0,0:0:0:0:
416,215,126923,1,0,0:0:0:0:
422,234,127011,1,0,0:0:0:0:
410,272,127099,1,0,0:0:0:0:
386,304,127187,1,0,0:0:0:0:
321,313,127276,1,0,0:0:0:0:
248,265,127364,6,0,P|256:202|329:197,1,119.999996337891
221,354,127541,2,0,P|153:316|145:256,1,119.999996337891
185,134,127717,1,0,0:0:0:0:
172,76,127805,1,0,0:0:0:0:
109,36,127893,1,0,0:0:0:0:
50,30,127981,1,0,0:0:0:0:
0,61,128070,6,0,P|-8:117|11:198,1,119.999996337891
65,298,128247,1,0,0:0:0:0:
76,305,128335,1,0,0:0:0:0:
86,307,128423,2,0,P|151:294|187:248,1,119.999996337891
252,92,128600,1,0,0:0:0:0:
252,92,128688,1,0,0:0:0:0:
269,109,128776,5,0,0:0:0:0:
262,139,128864,1,0,0:0:0:0:
330,180,128953,1,0,0:0:0:0:
337,210,129041,1,0,0:0:0:0:
411,307,129129,2,0,B|427:274|427:274|407:224|407:224|420:183,1,119.999996337891
441,34,129306,1,0,0:0:0:0:
414,42,129394,1,0,0:0:0:0:
366,56,129482,6,0,L|246:93,1,119.999996337891
91,243,129659,1,0,0:0:0:0:
89,307,129747,2,0,P|128:349|226:321,1,119.999996337891
333,258,129923,1,0,0:0:0:0:
293,190,130011,1,0,0:0:0:0:
220,159,130099,1,0,0:0:0:0:
144,179,130187,1,0,0:0:0:0:
131,159,130276,1,0,0:0:0:0:
133,118,130364,1,0,0:0:0:0:
168,69,130453,1,0,0:0:0:0:
167,57,130541,2,0,P|220:52|287:24,1,119.999996337891
487,58,130717,1,0,0:0:0:0:
479,87,130805,1,0,0:0:0:0:
472,116,130894,6,0,B|468:147|455:172|455:172|452:170|452:170|455:171|455:171|448:202|453:230,1,119.999996337891
360,327,131070,1,0,0:0:0:0:
400,349,131159,2,0,L|259:372,1,119.999996337891
152,318,131335,1,0,0:0:0:0:
132,287,131423,1,0,0:0:0:0:
147,262,131511,1,0,0:0:0:0:
136,249,131600,1,0,0:0:0:0:
191,188,131688,6,0,B|197:134|197:134|175:63,1,119.999996337891
51,305,131864,2,0,B|45:251|45:251|67:180,1,119.999996337891
177,71,132041,1,0,0:0:0:0:
256,80,132129,1,0,0:0:0:0:
335,89,132217,1,0,0:0:0:0:
415,98,132305,5,0,0:0:0:0:
458,156,132394,1,0,0:0:0:0:
454,230,132482,1,0,0:0:0:0:
402,282,132570,1,0,0:0:0:0:
329,289,132659,1,0,0:0:0:0:
280,259,132747,1,0,0:0:0:0:
275,201,132835,1,0,0:0:0:0:
317,162,132923,1,0,0:0:0:0:
374,171,133011,6,0,B|395:169|395:169|262:115,1,119.999996337891
143,165,133188,2,0,B|155:148|155:148|22:204,1,119.999996337891
225,299,133364,1,0,0:0:0:0:
218,274,133453,1,0,0:0:0:0:
191,292,133541,1,0,0:0:0:0:
212,365,133629,1,0,0:0:0:0:
286,381,133717,6,0,P|316:356|313:264,1,119.999996337891
250,44,133894,1,0,0:0:0:0:
234,34,133982,2,0,P|204:59|207:151,1,119.999996337891
333,229,134159,1,0,0:0:0:0:
401,267,134247,1,0,0:0:0:0:
411,210,134335,1,0,0:0:0:0:
377,163,134423,6,0,P|331:150|260:195,1,119.999996337891
441,344,134600,2,0,P|475:310|471:226,1,119.999996337891
241,343,134776,1,0,0:0:0:0:
296,361,134864,1,0,0:0:0:0:
347,334,134952,1,0,0:0:0:0:
363,278,135040,1,0,0:0:0:0:
332,228,135129,6,0,B|256:170|234:127|234:127|203:95|108:116|157:256|263:187|234:127|234:127|208:86|228:34|297:2|374:66|359:141|291:274|167:354,1,839.999974365235
69,344,135835,5,0,0:0:0:0:
64,335,135923,1,0,0:0:0:0:
56,323,136011,1,0,0:0:0:0:
42,280,136099,1,0,0:0:0:0:
48,236,136187,1,0,0:0:0:0:
73,199,136275,1,0,0:0:0:0:
111,176,136363,1,0,0:0:0:0:
148,161,136452,1,0,0:0:0:0:
170,128,136541,6,0,P|169:166|124:216,1,75.0000028610231
342,256,136717,2,0,P|342:217|388:168,1,75.0000028610231
231,91,136894,1,0,0:0:0:0:
219,105,136982,1,0,0:0:0:0:
204,117,137070,1,0,0:0:0:0:
187,124,137158,1,0,0:0:0:0:
152,197,137246,5,0,0:0:0:0:
185,241,137335,1,0,0:0:0:0:
233,269,137423,1,0,0:0:0:0:
289,274,137511,1,0,0:0:0:0:
342,256,137600,2,0,P|342:217|388:168,1,75.0000028610231
469,257,137776,5,0,0:0:0:0:
476,260,137864,1,0,0:0:0:0:
482,266,137953,2,0,P|481:304|436:354,1,75.0000028610231
335,343,138129,1,0,0:0:0:0:
317,338,138217,1,0,0:0:0:0:
298,337,138306,2,0,P|240:343|204:359,1,75.0000028610231
75,294,138482,2,0,P|133:300|169:316,1,75.0000028610231
342,256,138659,5,0,0:0:0:0:
371,233,138747,1,0,0:0:0:0:
385,199,138835,1,0,0:0:0:0:
379,162,138923,1,0,0:0:0:0:
317,106,139011,2,0,P|298:45|308:0,1,100
105,103,139188,1,0,0:0:0:0:
317,106,139364,6,0,P|261:165|205:183,1,119.999996337891
23,201,139541,1,0,0:0:0:0:
32,239,139629,1,0,0:0:0:0:
55,272,139717,1,0,0:0:0:0:
109,246,139805,1,0,0:0:0:0:
185,241,139893,1,0,0:0:0:0:
282,268,139981,1,0,0:0:0:0:
347,337,140070,6,0,P|409:373|509:364,1,119.999996337891
371,259,140247,1,0,0:0:0:0:
394,284,140335,1,0,0:0:0:0:
436,285,140423,1,0,0:0:0:0:
481,247,140511,1,0,0:0:0:0:
495,190,140599,1,0,0:0:0:0:
445,129,140688,1,0,0:0:0:0:
369,111,140776,6,0,B|304:112|304:112|200:125,1,119.999996337891
106,257,140953,1,0,0:0:0:0:
144,253,141041,1,0,0:0:0:0:
246,306,141129,1,0,0:0:0:0:
208,310,141218,1,0,0:0:0:0:
209,251,141306,1,0,0:0:0:0:
248,206,141394,1,0,0:0:0:0:
306,196,141482,5,0,0:0:0:0:
357,225,141571,1,0,0:0:0:0:
373,237,141659,2,0,P|369:289|302:274,1,119.999996337891
301,75,141835,2,0,P|353:79|338:146,1,119.999996337891
139,147,142011,1,0,0:0:0:0:
149,89,142099,1,0,0:0:0:0:
193,49,142188,6,0,P|129:105|77:114,1,119.999996337891
86,252,142364,1,0,0:0:0:0:
107,230,142453,1,0,0:0:0:0:
154,236,142541,1,0,0:0:0:0:
213,300,142629,1,0,0:0:0:0:
261,239,142718,1,0,0:0:0:0:
315,214,142806,1,0,0:0:0:0:
389,208,142894,6,0,B|426:223|426:223|449:262|449:262|445:328,1,119.999996337891
213,300,143070,2,0,B|176:285|176:285|153:246|153:246|157:180,1,119.999996337891
206,110,143247,1,0,0:0:0:0:
298,93,143335,1,0,0:0:0:0:
293,83,143423,1,0,0:0:0:0:
291,73,143511,1,0,0:0:0:0:
379,67,143600,6,0,P|420:76|478:146,1,119.999996337891
446,296,143776,2,0,P|417:327|328:342,1,119.999996337891
159,253,143953,1,0,0:0:0:0:
147,244,144041,1,0,0:0:0:0:
195,211,144129,1,0,0:0:0:0:
253,222,144217,1,0,0:0:0:0:
233,303,144306,6,0,P|296:336|375:345,1,119.999996337891
362,225,144482,1,0,0:0:0:0:
358,193,144570,1,0,0:0:0:0:
434,136,144659,1,0,0:0:0:0:
390,95,144747,1,0,0:0:0:0:
335,71,144835,1,0,0:0:0:0:
275,66,144923,1,0,0:0:0:0:
218,81,145011,6,0,P|167:91|86:63,1,119.999996337891
33,186,145188,1,0,0:0:0:0:
38,195,145276,1,0,0:0:0:0:
44,205,145364,5,0,0:0:0:0:
56,232,145452,1,0,0:0:0:0:
62,261,145540,1,0,0:0:0:0:
62,291,145628,1,0,0:0:0:0:
55,320,145716,5,0,0:0:0:0:
80,290,145805,1,0,0:0:0:0:
114,269,145893,1,0,0:0:0:0:
153,261,145981,1,0,0:0:0:0:
193,266,146069,1,0,0:0:0:0:
251,280,146158,1,0,0:0:0:0:
311,276,146247,6,0,B|334:274|349:269|349:269|332:305|327:369,1,119.999996337891
456,314,146423,1,0,0:0:0:0:
477,229,146511,1,0,0:0:0:0:
441,199,146600,1,0,0:0:0:0:
422,175,146688,1,0,0:0:0:0:
412,147,146776,5,0,0:0:0:0:
356,166,146864,1,0,0:0:0:0:
296,164,146953,2,0,P|241:140|214:84,1,119.999996337891
91,154,147129,1,0,0:0:0:0:
113,170,147217,2,0,P|109:244|139:312,1,119.999996337891
230,298,147394,1,0,0:0:0:0:
254,289,147482,5,0,0:0:0:0:
284,319,147570,1,0,0:0:0:0:
329,334,147658,1,0,0:0:0:0:
368,275,147746,1,0,0:0:0:0:
413,261,147835,6,0,B|464:299|464:299|487:365,1,119.999996337891
324,294,148011,1,0,0:0:0:0:
305,258,148099,1,0,0:0:0:0:
302,219,148187,1,0,0:0:0:0:
315,181,148275,5,0,0:0:0:0:
290,164,148364,1,0,0:0:0:0:
266,147,148452,1,0,0:0:0:0:
230,134,148541,2,0,L|115:180,1,119.999996337891
20,304,148717,5,0,0:0:0:0:
57,288,148805,1,0,0:0:0:0:
94,273,148894,1,0,0:0:0:0:
149,250,148982,1,0,0:0:0:0:
204,227,149070,1,0,0:0:0:0:
260,204,149158,1,0,0:0:0:0:
315,181,149247,6,0,B|347:190|347:190|357:244|309:314,1,119.999996337891
440,341,149423,1,0,0:0:0:0:
473,263,149511,2,0,P|476:229|373:221,1,119.999996337891
221,331,149688,1,0,0:0:0:0:
182,340,149776,1,0,0:0:0:0:
143,349,149865,1,0,0:0:0:0:
71,295,149953,5,0,0:0:0:0:
43,243,150041,1,0,0:0:0:0:
57,185,150129,1,0,0:0:0:0:
104,151,150217,1,0,0:0:0:0:
228,181,150306,5,0,0:0:0:0:
304,183,150394,1,0,0:0:0:0:
342,117,150482,1,0,0:0:0:0:
331,108,150570,1,0,0:0:0:0:
318,101,150659,6,0,P|342:89|451:135,1,119.999996337891
396,262,150835,1,0,0:0:0:0:
404,257,150923,2,0,P|380:245|271:291,1,119.999996337891
177,329,151100,5,0,0:0:0:0:
177,329,151188,1,0,0:0:0:0:
151,329,151276,1,0,0:0:0:0:
106,333,151364,1,0,0:0:0:0:
67,323,151452,1,0,0:0:0:0:
41,293,151540,1,0,0:0:0:0:
35,254,151628,1,0,0:0:0:0:
127,231,151717,6,0,P|148:154|117:97,1,119.999996337891
292,262,151894,2,0,P|278:319|300:374,1,119.999996337891
460,247,152070,6,0,L|480:86,1,119.999996337891
352,110,152247,1,0,0:0:0:0:
346,123,152335,1,0,0:0:0:0:
343,135,152423,1,0,0:0:0:0:
309,86,152511,1,0,0:0:0:0:
253,66,152599,1,0,0:0:0:0:
196,82,152687,1,0,0:0:0:0:
202,196,152776,5,0,0:0:0:0:
244,255,152865,1,0,0:0:0:0:
313,232,152953,1,0,0:0:0:0:
313,160,153041,1,0,0:0:0:0:
244,138,153129,1,0,0:0:0:0:
202,196,153217,1,0,0:0:0:0:
172,271,153306,2,0,B|135:285|135:285|115:287|115:287|100:303|100:303|40:331,1,119.999996337891
104,175,153482,6,0,B|118:138|136:163|158:121,1,75.0000028610231
244,89,153659,1,0,0:0:0:0:
282,91,153747,1,0,0:0:0:0:
316,107,153835,1,0,0:0:0:0:
335,159,153923,1,0,0:0:0:0:
372,201,154011,1,0,0:0:0:0:
421,229,154099,1,0,0:0:0:0:
476,239,154188,6,0,P|435:275|412:346,1,75.0000028610231
285,336,154364,1,0,0:0:0:0:
242,332,154453,1,0,0:0:0:0:
169,314,154541,1,0,0:0:0:0:
207,292,154629,1,0,0:0:0:0:
224,251,154717,1,0,0:0:0:0:
212,208,154805,1,0,0:0:0:0:
176,182,154894,6,0,P|170:153|222:163,1,75.0000028610231
167,245,155070,1,0,0:0:0:0:
149,247,155159,1,0,0:0:0:0:
100,220,155247,1,0,0:0:0:0:
72,172,155335,1,0,0:0:0:0:
73,116,155423,1,0,0:0:0:0:
103,70,155511,1,0,0:0:0:0:
189,97,155600,6,0,B|236:101|236:101|194:60,1,75.0000028610231
321,67,155776,1,0,0:0:0:0:
318,51,155864,1,0,0:0:0:0:
369,36,155953,1,0,0:0:0:0:
421,54,156041,1,0,0:0:0:0:
457,96,156129,1,0,0:0:0:0:
468,151,156217,1,0,0:0:0:0:
450,203,156306,6,0,P|419:258|439:303,1,75.0000028610231
317,350,156482,2,0,B|324:302|324:302|298:204,1,100
187,122,156659,2,0,B|180:170|180:170|206:268,1,100
97,344,156835,2,0,P|131:331|156:303,1,75.0000028610231
280,151,157011,5,0,0:0:0:0:
284,167,157100,1,0,0:0:0:0:
300,190,157188,1,0,0:0:0:0:
344,188,157276,1,0,0:0:0:0:
381,163,157364,1,0,0:0:0:0:
401,124,157452,1,0,0:0:0:0:
300,49,157541,1,0,0:0:0:0:
220,53,157629,1,0,0:0:0:0:
140,57,157717,6,0,P|120:100|117:172,1,75.0000028610231
156,314,157894,1,0,0:0:0:0:
140,332,157982,1,0,0:0:0:0:
72,284,158070,1,0,0:0:0:0:
105,240,158158,1,0,0:0:0:0:
159,224,158246,1,0,0:0:0:0:
211,243,158334,1,0,0:0:0:0:
253,307,158423,6,0,P|282:345|336:352,1,75.0000028610231
428,280,158600,2,0,P|409:324|359:344,1,75.0000028610231
333,258,158776,1,0,0:0:0:0:
326,240,158864,1,0,0:0:0:0:
320,222,158952,1,0,0:0:0:0:
314,205,159040,1,0,0:0:0:0:
308,193,159129,6,0,P|327:141|381:137,1,75.0000028610231
510,42,159306,2,0,P|491:94|437:98,1,75.0000028610231
327,52,159482,1,0,0:0:0:0:
272,41,159570,1,0,0:0:0:0:
217,52,159658,1,0,0:0:0:0:
170,83,159746,1,0,0:0:0:0:
139,130,159835,6,0,L|107:216,1,75.0000028610231
178,359,160011,2,0,L|204:288,1,75.0000028610231
251,199,160188,1,0,0:0:0:0:
277,191,160276,1,0,0:0:0:0:
283,173,160364,1,0,0:0:0:0:
289,155,160452,1,0,0:0:0:0:
314,136,160541,1,0,0:0:0:0:
400,174,160629,6,0,P|395:198|380:219,1,37.5000014305115
417,170,160717,2,0,P|424:193|422:218,1,37.5000014305115
429,158,160806,2,0,P|447:174|457:197,1,37.5000014305115
436,139,160894,5,0,0:0:0:0:
435,129,160982,1,0,0:0:0:0:
434,120,161070,1,0,0:0:0:0:
413,108,161158,1,0,0:0:0:0:
372,105,161247,6,0,L|314:25,1,75.0000028610231
165,136,161423,1,0,0:0:0:0:
165,136,161511,1,0,0:0:0:0:
165,136,161600,2,0,P|233:210|226:290,1,150.000005722046
186,339,161864,1,0,0:0:0:0:
145,235,161953,5,0,0:0:0:0:
