osu file format v14

[General]
AudioFilename: 01. lapix - Foolish Hero (PLight Remix).mp3
AudioLeadIn: 0
PreviewTime: 181711
Countdown: 0
SampleSet: Soft
StackLeniency: 0.4
Mode: 0
LetterboxInBreaks: 0
WidescreenStoryboard: 1

[Editor]
DistanceSpacing: 0.4
BeatDivisor: 4
GridSize: 32
TimelineZoom: 4.499998

[Metadata]
Title:Foolish Hero (P*Light Remix)
TitleUnicode:Foolish Hero (P*Light Remix)
Artist:lapix
ArtistUnicode:lapix
Creator:Cassu2
Version:Irrationality 2.0
Source:
Tags:thank mr akali perfect comes hitech edm
BeatmapID:1454407
BeatmapSetID:551111

[Difficulty]
HPDrainRate:5.5
CircleSize:4
OverallDifficulty:8
ApproachRate:9.6
SliderMultiplier:1.8
SliderTickRate:1

[Events]
//Background and Video events
0,0,"Konachan.com - 226979 bubbles computer food gray_hair magatan original paper seifuku water.jpg",0,0
//Break Periods
//Storyboard Layer 0 (Background)
//Storyboard Layer 1 (Fail)
//Storyboard Layer 2 (Pass)
//Storyboard Layer 3 (Foreground)
//Storyboard Sound Samples

[TimingPoints]
300,352.941176470588,4,2,0,80,1,0
652,-142.857142857143,4,2,0,80,0,0
2417,352.941176470588,4,2,0,80,1,0
2417,-142.857142857143,4,2,0,80,0,0
5946,-55.5555555555556,4,2,0,80,0,0
6299,-166.666666666667,4,2,0,80,0,0
6652,-125,4,2,0,80,0,0
11858,-125,4,2,0,5,0,0
11946,-166.666666666667,4,2,0,80,0,0
12299,-100,4,2,0,80,0,0
17152,-100,4,2,0,35,0,0
17240,-83.3333333333333,4,2,0,80,0,0
17505,-83.3333333333333,4,2,0,5,0,0
17593,-58.8235294117647,4,2,0,80,0,0
17858,-58.8235294117647,4,2,0,5,0,0
17946,-90.9090909090909,4,2,0,80,0,0
18652,-76.9230769230769,4,2,0,80,0,0
19358,-71.4285714285714,4,2,0,80,0,0
20064,-66.6666666666667,4,2,0,80,0,0
22181,-142.857142857143,4,2,0,80,0,0
22622,-83.3333333333333,4,2,0,80,0,0
23240,-71.4285714285714,4,2,0,80,0,0
23593,-71.4285714285714,4,2,0,60,0,0
23681,-133.333333333333,4,2,0,50,0,0
31269,-133.333333333333,4,2,0,5,0,0
31358,-133.333333333333,4,2,0,50,0,0
34446,-133.333333333333,4,2,0,5,0,0
34534,-200,4,2,0,50,0,0
34799,-200,4,2,0,5,0,0
34887,-83.3333333333333,4,2,0,80,0,0
35064,-83.3333333333333,4,2,0,5,0,0
35152,-83.3333333333333,4,2,0,80,0,0
35328,-83.3333333333333,4,2,0,5,0,0
35416,-83.3333333333333,4,2,0,80,0,0
35593,-83.3333333333333,4,2,0,5,0,0
35681,-83.3333333333333,4,2,0,80,0,0
35858,-83.3333333333333,4,2,0,5,0,0
35946,-200,4,2,0,80,0,0
36916,-200,4,2,0,5,0,0
37005,-83.3333333333333,4,2,0,80,0,0
37887,-83.3333333333333,4,2,0,5,0,0
37975,-83.3333333333333,4,2,0,80,0,0
38152,-83.3333333333333,4,2,0,5,0,0
38240,-83.3333333333333,4,2,0,80,0,0
38416,-83.3333333333333,4,2,0,5,0,0
38505,-83.3333333333333,4,2,0,80,0,0
38681,-83.3333333333333,4,2,0,5,0,0
38769,-200,4,2,0,80,0,0
39740,-200,4,2,0,5,0,0
39828,-83.3333333333333,4,2,0,80,0,0
40181,-133.333333333333,4,2,0,80,0,0
40446,-133.333333333333,4,2,0,5,0,0
40534,-83.3333333333333,4,2,0,80,0,0
40711,-83.3333333333333,4,2,0,5,0,0
40799,-83.3333333333333,4,2,0,80,0,0
40975,-83.3333333333333,4,2,0,5,0,0
41064,-83.3333333333333,4,2,0,80,0,0
41240,-83.3333333333333,4,2,0,5,0,0
41328,-83.3333333333333,4,2,0,80,0,0
41505,-83.3333333333333,4,2,0,5,0,0
41593,-200,4,2,0,80,0,0
42564,-200,4,2,0,5,0,0
42652,-83.3333333333333,4,2,0,80,0,0
43534,-83.3333333333333,4,2,0,5,0,0
43622,-83.3333333333333,4,2,0,80,0,0
43799,-83.3333333333333,4,2,0,5,0,0
43887,-83.3333333333333,4,2,0,80,0,0
44064,-83.3333333333333,4,2,0,5,0,0
44152,-83.3333333333333,4,2,0,80,0,0
44328,-83.3333333333333,4,2,0,5,0,0
44416,-200,4,2,0,80,0,0
45740,-200,4,2,0,5,0,0
45828,-133.333333333333,4,2,0,80,0,0
46093,-133.333333333333,4,2,0,5,0,0
46181,-100,4,2,0,40,0,0
49005,-100,4,2,0,50,0,0
50416,-100,4,2,0,60,0,0
51828,-100,4,2,0,70,0,0
54652,-100,4,2,0,80,0,0
57122,-166.666666666667,4,2,0,55,0,0
57387,-166.666666666667,4,2,0,5,0,0
57475,-83.3333333333333,4,2,0,80,0,0
62769,-62.5,4,2,0,80,0,0
63122,-83.3333333333333,4,2,0,80,0,0
65946,-133.333333333333,4,2,0,80,0,0
66211,-133.333333333333,4,2,0,5,0,0
66299,-105.263157894737,4,2,0,80,0,0
66564,-105.263157894737,4,2,0,5,0,0
66652,-62.5,4,2,0,80,0,0
67005,-55.5555555555556,4,2,0,80,0,0
67269,-55.5555555555556,4,2,0,5,0,0
67358,-100,4,2,0,80,0,0
68416,-71.4285714285714,4,2,0,80,0,0
68769,-58.8235294117647,4,2,0,80,0,0
69034,-58.8235294117647,4,2,0,5,0,0
69122,-76.9230769230769,4,2,0,80,0,0
73005,-100,4,2,0,80,0,0
73269,-100,4,2,0,5,0,0
73358,-76.9230769230769,4,2,0,80,0,0
73711,-100,4,2,0,80,0,0
73975,-100,4,2,0,5,0,0
74064,-62.5,4,2,0,80,0,0
74328,-62.5,4,2,0,5,0,0
74416,-76.9230769230769,4,2,0,80,0,0
74681,-76.9230769230769,4,2,0,5,0,0
74769,-76.9230769230769,4,2,0,80,0,0
76887,-66.6666666666667,4,2,0,80,0,0
77240,-76.9230769230769,4,2,0,80,0,0
78916,-76.9230769230769,4,2,0,5,0,0
79005,-71.4285714285714,4,2,0,80,0,0
79269,-71.4285714285714,4,2,0,5,0,0
79358,-66.6666666666667,4,2,0,80,0,0
79711,-58.8235294117647,4,2,0,80,0,0
79975,-58.8235294117647,4,2,0,5,0,0
80064,-66.6666666666667,4,2,0,80,0,0
85269,-66.6666666666667,4,2,0,5,0,0
85358,-133.333333333333,4,2,0,80,0,0
85622,-100,4,2,0,5,0,0
85711,-66.6666666666667,4,2,0,80,0,0
89946,-83.3333333333333,4,2,0,80,0,0
90211,-83.3333333333333,4,2,0,5,0,0
90299,-83.3333333333333,4,2,0,80,0,0
91005,-55.5555555555556,4,2,0,80,0,0
91358,-66.6666666666667,4,2,0,80,0,0
95593,-55.5555555555556,4,2,0,80,0,0
97005,-66.6666666666667,4,2,0,80,0,0
113593,-133.333333333333,4,2,0,80,0,0
113858,-133.333333333333,4,2,0,5,0,0
113946,-133.333333333333,4,2,0,80,0,0
115358,-133.333333333333,4,2,0,20,0,0
116064,-133.333333333333,4,2,0,80,0,0
118181,-133.333333333333,4,2,0,20,0,0
118887,-133.333333333333,4,2,0,80,0,0
121005,-133.333333333333,4,2,0,20,0,0
121711,-133.333333333333,4,2,0,80,0,0
123475,-200,4,2,0,80,0,0
123564,-200,4,2,0,20,0,0
124799,-200,4,2,0,5,0,0
124887,-133.333333333333,4,2,0,80,0,0
125152,-133.333333333333,4,2,0,5,0,0
125240,-100,4,2,0,80,0,0
130799,-100,4,2,0,5,0,0
130887,-83.3333333333333,4,2,0,80,0,0
134769,-200,4,2,0,80,0,0
136446,-200,4,2,0,5,0,0
136534,-200,4,2,0,80,0,0
138564,-200,4,2,0,5,0,0
138652,-200,4,2,0,80,0,0
141387,-200,4,2,0,5,0,0
141475,-200,4,2,0,80,0,0
141916,-200,4,2,0,30,0,0
142093,-200,4,2,0,5,0,0
142181,-200,4,2,0,80,0,0
144211,-200,4,2,0,5,0,0
144299,-200,4,2,0,80,0,0
147387,-200,4,2,0,5,0,0
147475,-200,4,2,0,80,0,0
147740,-200,4,2,0,5,0,0
147828,-125,4,2,0,80,0,0
153387,-125,4,2,0,5,0,0
153475,-83.3333333333333,4,2,0,80,0,0
156299,-66.6666666666667,4,2,0,80,0,0
157711,-100,4,2,0,80,0,0
157887,-100,4,2,0,5,0,0
158064,-83.3333333333333,4,2,0,80,0,0
158240,-83.3333333333333,4,2,0,5,0,0
158416,-71.4285714285714,4,2,0,80,0,0
158769,-55.5555555555556,4,2,0,80,0,0
159122,-83.3333333333333,4,2,0,80,0,0
164416,-133.333333333333,4,2,0,80,0,0
164681,-133.333333333333,4,2,0,5,0,0
164769,-83.3333333333333,4,2,0,80,0,0
169711,-133.333333333333,4,2,0,80,0,0
169975,-133.333333333333,4,2,0,5,0,0
170064,-66.6666666666667,4,2,0,80,0,0
170328,-133.333333333333,4,2,0,5,0,0
170416,-83.3333333333333,4,2,0,80,0,0
175711,-133.333333333333,4,2,0,80,0,0
175975,-133.333333333333,4,2,0,5,0,0
176064,-76.9230769230769,4,2,0,80,0,0
181358,-55.5555555555556,4,2,0,80,0,0
181711,-66.6666666666667,4,2,0,80,0,0
185946,-58.8235294117647,4,2,0,80,0,0
187358,-66.6666666666667,4,2,0,80,0,0
197240,-55.5555555555556,4,2,0,80,0,0
203946,-100,4,2,0,80,0,0
204211,-100,4,2,0,5,0,0
204299,-55.5555555555556,4,2,0,80,0,0
204564,-55.5555555555556,4,2,0,5,0,0
204652,-76.9230769230769,4,2,0,80,0,0
208799,-76.9230769230769,4,2,0,5,0,0
208887,-76.9230769230769,4,2,0,80,0,0
209505,-76.9230769230769,4,2,0,5,0,0
209593,-133.333333333333,4,2,0,80,0,0
209858,-133.333333333333,4,2,0,5,0,0
209946,-55.5555555555556,4,2,0,80,0,0
210211,-55.5555555555556,4,2,0,5,0,0
210299,-76.9230769230769,4,2,0,80,0,0
214446,-76.9230769230769,4,2,0,5,0,0
214534,-71.4285714285714,4,2,0,80,0,0
214799,-71.4285714285714,4,2,0,5,0,0
214887,-66.6666666666667,4,2,0,80,0,0
215240,-52.6315789473684,4,2,0,80,0,0
215505,-52.6315789473684,4,2,0,5,0,0
215593,-71.4285714285714,4,2,0,80,0,0
219828,-62.5,4,2,0,80,0,0
220093,-62.5,4,2,0,5,0,0
220181,-71.4285714285714,4,2,0,80,0,0
220799,-71.4285714285714,4,2,0,5,0,0
220887,-133.333333333333,4,2,0,80,0,0
221152,-100,4,2,0,5,0,0
221240,-76.9230769230769,4,2,0,80,0,0
225475,-100,4,2,0,80,0,0
225740,-100,4,2,0,5,0,0
225828,-100,4,2,0,80,0,0
226887,-66.6666666666667,4,2,0,80,0,0
227152,-66.6666666666667,4,2,0,5,0,0
227240,-76.9230769230769,4,2,0,80,0,0
232534,-100,4,2,0,80,0,0
232887,-76.9230769230769,4,2,0,80,0,0
237740,-76.9230769230769,4,2,0,5,0,0
237828,-133.333333333333,4,2,0,80,0,0
238093,-100,4,2,0,5,0,0
238181,-66.6666666666667,4,2,0,80,0,0
238446,-66.6666666666667,4,2,0,5,0,0
238534,-76.9230769230769,4,2,0,80,0,0
248064,-100,4,2,0,80,0,0
248416,-76.9230769230769,4,2,0,80,0,0
249122,-58.8235294117647,4,2,0,80,0,0
249475,-200,4,2,0,80,0,0
249740,-200,4,2,0,5,0,0

[HitObjects]
90,344,1005,6,0,L|83:225,1,94.499997116089,4|0,3:0|0:0,0:0:0:0:
80,176,1358,1,0,3:0:0:0:
202,356,1535,1,2,0:0:0:0:
80,176,1711,5,0,3:0:0:0:
86,154,1799,2,0,L|142:148,1,31.4999990386963,0|2,0:0|0:0,0:0:0:0:
271,229,2064,6,0,P|221:233|152:214,1,94.499997116089,0|0,3:0|0:0,0:0:0:0:
177,224,2417,6,0,P|185:263|179:298,1,62.9999980773926,0|0,3:0|0:0,0:0:0:0:
291,152,2681,1,0,0:0:0:0:
275,167,2769,2,0,P|267:205|273:240,1,62.9999980773926,0|2,3:0|0:0,0:0:0:0:
124,48,3122,1,0,3:0:0:0:
134,67,3211,2,0,P|124:107|116:118,1,31.4999990386963,0|2,0:0|0:0,0:0:0:0:
177,358,3475,6,0,P|205:316|164:283,1,94.499997116089,0|0,3:0|0:0,0:0:0:0:
182,286,3828,6,0,L|273:282,1,62.9999980773926,0|0,3:0|0:0,0:0:0:0:
69,205,4093,1,0,0:0:0:0:
84,220,4181,2,0,L|170:192,1,62.9999980773926,0|0,3:0|0:0,0:0:0:0:
320,285,4534,1,0,3:0:0:0:
305,300,4622,2,0,L|248:284,1,31.4999990386963,0|2,0:0|0:0,0:0:0:0:
383,59,4887,6,0,L|373:164,1,94.499997116089,0|0,3:0|0:0,0:0:0:0:
374,153,5240,2,0,L|463:148,1,62.9999980773926,0|0,3:0|0:0,0:0:0:0:
296,75,5505,1,0,0:0:0:0:
304,54,5593,2,0,L|366:57,1,62.9999980773926,0|2,3:0|0:0,0:0:0:0:
259,228,5946,6,0,P|234:191|274:204,1,80.9999975280763,0|0,1:0|0:0,0:0:0:0:
443,104,6122,6,0,P|466:130|436:148,1,80.9999975280763,0|0,1:0|0:0,0:0:0:0:
143,109,6299,6,0,B|176:107|176:107|194:114|194:114|242:111,1,80.9999975280763,0|0,3:0|0:0,0:0:0:0:
143,178,6652,6,0,P|135:133|148:98,1,72,4|0,3:0|0:0,0:0:0:0:
32,262,6916,1,0,0:0:0:0:
52,246,7005,2,0,P|60:201|47:166,1,72,2|2,1:0|0:0,0:0:0:0:
185,345,7358,2,0,L|234:333,2,36,0|0|2,3:0|0:0|0:0,0:0:0:0:
52,246,7711,6,0,L|162:255,1,108,2|0,1:0|0:0,0:0:0:0:
159,254,8064,2,0,L|241:252,1,72,0|0,3:0|0:0,0:0:0:0:
162,155,8328,1,0,0:0:0:0:
160,180,8416,1,2,1:0:0:0:
159,329,8593,1,0,0:0:0:0:
162,80,8769,6,0,L|158:36,2,36,0|0|2,3:0|0:0|0:0,0:0:0:0:
45,356,9122,2,0,L|58:255,1,72,2|0,1:0|0:0,0:0:0:0:
307,301,9475,2,0,P|270:324|223:317,1,72,0|0,3:0|0:0,0:0:0:0:
246,224,9740,1,0,0:0:0:0:
251,248,9828,1,2,1:0:0:0:
96,217,10005,1,2,0:0:0:0:
320,116,10181,1,0,3:0:0:0:
315,140,10269,1,0,0:0:0:0:
310,164,10358,1,2,0:0:0:0:
96,68,10534,6,0,P|146:55|198:70,1,108,2|0,1:0|0:0,0:0:0:0:
198,70,10887,6,0,L|185:183,1,108,0|0,3:0|0:0,0:0:0:0:
215,93,11240,6,0,L|205:181,1,72,2|0,1:0|0:0,0:0:0:0:
64,296,11593,1,2,3:0:0:0:
87,288,11681,6,0,L|95:216,1,72,0|0,0:0|0:0,0:0:0:0:
254,239,11946,6,0,P|213:252|158:241,1,80.9999975280763,0|0,0:0|0:0,0:0:0:0:
206,164,12299,5,0,3:0:0:0:
420,240,12475,1,0,0:0:0:0:
259,328,12652,2,0,L|253:222,1,90,0|0,3:0|0:0,0:0:0:0:
284,244,12916,1,0,0:0:0:0:
314,249,13005,1,0,3:0:0:0:
117,354,13181,1,0,0:0:0:0:
349,323,13358,5,0,3:0:0:0:
383,295,13446,1,0,0:0:0:0:
399,253,13534,1,2,0:0:0:0:
390,209,13622,1,0,0:0:0:0:
360,176,13711,6,0,L|302:179,1,45,0|0,3:0|0:0,0:0:0:0:
198,149,13887,2,0,L|256:151,1,45,0|0,0:0|0:0,0:0:0:0:
399,63,14064,5,0,3:0:0:0:
385,91,14152,2,0,L|326:93,1,45,0|2,0:0|0:0,0:0:0:0:
208,35,14328,1,0,0:0:0:0:
222,63,14416,2,0,L|280:65,1,45,0|0,3:0|0:0,0:0:0:0:
450,151,14593,5,0,0:0:0:0:
155,217,14769,2,0,B|112:219|112:219|69:211|69:211|18:214,1,135,0|0,3:0|0:0,0:0:0:0:
155,217,15122,6,0,L|264:212,1,90,0|0,3:0|0:0,0:0:0:0:
248,244,15387,1,0,0:0:0:0:
251,275,15475,1,0,3:0:0:0:
20,213,15652,2,0,L|27:163,1,45,0|0,0:0|0:0,0:0:0:0:
87,81,15828,2,0,L|93:125,1,45,0|0,3:0|0:0,0:0:0:0:
124,349,16005,1,2,0:0:0:0:
256,87,16181,6,0,L|131:103,1,90,0|0,3:0|0:0,0:0:0:0:
169,130,16446,1,0,0:0:0:0:
171,161,16534,1,0,3:0:0:0:
386,73,16711,1,2,0:0:0:0:
125,13,16887,1,0,3:0:0:0:
430,69,17064,6,0,L|379:73,1,45,0|0,0:0|0:0,0:0:0:0:
101,170,17240,6,0,B|152:179|166:213|166:213|193:179|254:180,1,161.999995056153,0|2,3:0|0:0,0:0:0:0:
233,260,17593,6,0,P|211:269|252:203,1,229.500004377365,0|0,3:0|0:0,0:0:0:0:
234,288,17946,6,0,P|189:302|181:300,1,49.5000015106202,0|0,3:0|0:0,0:0:0:0:
64,132,18122,1,0,0:0:0:0:
85,88,18210,1,0,0:0:0:0:
127,62,18298,1,0,3:0:0:0:
176,62,18386,1,0,0:0:0:0:
217,87,18474,1,0,0:0:0:0:
240,131,18563,1,0,0:0:0:0:
236,179,18652,6,0,P|273:183|304:171,3,58.4999973220826,0|0|0|0,3:0|0:0|0:0|0:0,0:0:0:0:
363,131,19005,6,0,P|399:127|430:139,3,58.4999973220826,0|0|0|0,3:0|0:0|0:0|0:0,0:0:0:0:
512,209,19358,6,0,P|483:215|445:206,1,62.9999980773926,0|0,3:0|0:0,0:0:0:0:
232,121,19534,1,0,0:0:0:0:
188,135,19622,1,0,0:0:0:0:
165,174,19710,1,0,3:0:0:0:
173,219,19798,1,0,0:0:0:0:
208,249,19886,1,0,0:0:0:0:
253,248,19975,1,0,0:0:0:0:
288,218,20064,6,0,L|299:294,3,67.5000025749208,0|0|0|0,3:0|0:0|0:0|0:0,0:0:0:0:
232,121,20416,6,0,L|161:92,3,67.5000025749208,0|0|0|0,3:0|0:0|0:0|0:0,0:0:0:0:
344,121,20769,6,0,L|403:74,1,67.5000025749208,0|0,3:0|0:0,0:0:0:0:
428,324,20946,1,0,0:0:0:0:
386,349,21034,1,0,0:0:0:0:
338,340,21122,1,0,3:0:0:0:
308,302,21210,1,0,0:0:0:0:
311,253,21298,1,0,0:0:0:0:
345,219,21387,1,0,0:0:0:0:
394,216,21475,5,0,3:0:0:0:
368,179,21563,1,0,0:0:0:0:
366,135,21651,1,0,0:0:0:0:
390,97,21739,1,0,0:0:0:0:
452,50,21828,5,0,3:0:0:0:
377,70,21916,1,0,0:0:0:0:
299,57,22005,1,0,0:0:0:0:
239,6,22093,1,0,0:0:0:0:
150,28,22181,6,0,P|156:42|158:74,1,31.4999990386963,0|0,3:0|0:0,0:0:0:0:
290,211,22358,2,0,P|286:173|292:136,1,62.9999980773926,0|2,1:0|0:0,0:0:0:0:
421,173,22622,6,0,L|358:180,1,53.9999983520508,2|2,0:0|0:0,0:0:0:0:
128,183,22799,1,8,0:0:0:0:
167,112,22887,6,0,P|204:156|179:244,1,107.999996704102,0|0,3:0|1:0,0:0:0:0:
120,48,23152,1,0,1:0:0:0:
292,106,23240,6,0,B|247:105|247:105|213:113|213:113|150:111,1,125.999996154785,2|2,0:0|0:0,0:0:0:0:
91,290,23505,1,0,3:0:0:0:
172,274,23593,5,4,3:0:0:0:
256,192,23681,12,0,29240,0:0:0:0:
333,320,29505,5,0,0:0:0:0:
202,68,29769,1,0,0:0:0:0:
129,237,30034,1,0,0:0:0:0:
393,104,30299,5,0,0:0:0:0:
382,86,30387,2,0,B|309:83|294:123|294:123|213:117|218:71|218:71|271:101|239:159|239:159|222:154|203:160|203:160,1,337.500012874604,0|0,0:0|0:0,0:0:0:0:
136,148,31358,5,2,0:0:0:0:
118,127,31446,1,2,0:0:0:0:
108,103,31534,1,2,0:0:0:0:
107,76,31622,1,2,0:0:0:0:
115,50,31710,5,2,0:0:0:0:
185,87,31799,2,0,L|274:93,1,67.5000025749208,2|2,0:0|0:0,0:0:0:0:
398,143,32064,2,0,L|270:151,1,101.250003862381,2|0,0:0|0:0,0:0:0:0:
380,363,32593,5,2,0:0:0:0:
296,149,32858,1,0,0:0:0:0:
160,359,33122,5,2,0:0:0:0:
175,345,33211,2,0,B|168:283|189:246|189:246|141:190|100:228|100:228|146:247|187:152|187:152|100:117|44:178,1,472.500018024445,0|0,0:0|0:0,0:0:0:0:
83,291,34534,6,0,P|99:254|98:211,1,67.5,0|0,1:0|0:0,0:0:0:0:
56,165,34887,6,0,P|62:97|109:50,1,107.999996704102,2|0,3:0|0:0,0:0:0:0:
200,202,35152,6,0,P|138:230|73:213,1,107.999996704102,2|0,3:0|0:0,0:0:0:0:
161,59,35416,6,0,P|216:98|234:162,1,107.999996704102,2|0,3:0|0:0,0:0:0:0:
192,307,35681,6,0,B|211:273|174:231|208:187,1,107.999996704102,2|0,3:0|0:0,0:0:0:0:
324,11,35946,6,0,B|348:74|314:132|314:132|283:192|301:258,1,247.5,2|0,3:0|0:0,0:0:0:0:
365,332,37005,6,0,L|424:324,1,53.9999983520508,8|0,3:0|0:0,0:0:0:0:
299,250,37181,2,0,L|240:242,1,53.9999983520508,8|0,3:0|0:0,0:0:0:0:
416,186,37358,1,0,3:0:0:0:
424,154,37446,1,0,3:0:0:0:
423,122,37534,1,0,3:0:0:0:
414,91,37622,1,0,3:0:0:0:
333,139,37711,6,0,B|310:144|281:139|281:139|247:131|183:157,1,107.999996704102,2|0,3:0|0:0,0:0:0:0:
23,248,37975,6,0,B|46:253|75:248|75:248|109:240|173:266,1,107.999996704102,2|0,3:0|0:0,0:0:0:0:
298,330,38240,6,0,B|306:294|306:294|306:267|306:267|316:222,1,107.999996704102,2|0,3:0|0:0,0:0:0:0:
208,36,38505,6,0,B|216:72|216:72|216:99|216:99|225:142,1,107.999996704102,2|0,3:0|0:0,0:0:0:0:
100,312,38769,6,0,B|116:259|116:259|101:191|101:191|138:55,1,247.5,2|0,3:0|0:0,0:0:0:0:
303,31,39828,5,2,0:0:0:0:
273,43,39916,1,2,0:0:0:0:
240,44,40005,1,2,0:0:0:0:
208,36,40093,1,2,0:0:0:0:
133,72,40181,6,0,P|92:73|38:109,1,101.250003862381,0|0,3:0|0:0,0:0:0:0:
30,241,40534,6,0,L|161:220,1,107.999996704102,2|0,3:0|0:0,0:0:0:0:
360,142,40799,6,0,L|229:121,1,107.999996704102,2|0,3:0|0:0,0:0:0:0:
20,67,41064,6,0,P|38:123|87:152,1,107.999996704102,2|0,3:0|0:0,0:0:0:0:
271,339,41328,6,0,P|228:307|213:256,1,107.999996704102,2|0,3:0|0:0,0:0:0:0:
270,41,41593,6,0,B|262:100|324:139|324:139|292:172|297:205|297:205|286:230|300:260,1,247.5,0|0,3:0|0:0,0:0:0:0:
403,158,42652,6,0,P|404:123|400:103,1,53.9999983520508,0|8,3:0|3:0,0:0:0:0:
270,41,42828,2,0,P|265:67|267:94,1,53.9999983520508,0|0,3:0|3:0,0:0:0:0:
393,276,43005,5,8,3:0:0:0:
402,306,43093,2,0,L|310:317,1,53.9999983520508,0|0,3:0|3:0,0:0:0:0:
218,154,43269,1,0,3:0:0:0:
294,158,43358,6,0,B|289:202|292:214|292:214|284:234|279:268,1,107.999996704102,2|0,3:0|0:0,0:0:0:0:
145,170,43622,6,0,B|141:140|133:120|133:120|136:108|131:64,1,107.999996704102,2|0,3:0|0:0,0:0:0:0:
311,52,43887,6,0,B|307:95|307:95|298:117|298:117|292:178,1,107.999996704102,2|0,3:0|0:0,0:0:0:0:
162,276,44152,6,0,B|157:235|157:235|148:213|148:213|144:170,1,107.999996704102,2|0,3:0|0:0,0:0:0:0:
293,157,44416,6,0,B|375:88|441:161|441:161|453:224|410:251|410:251|366:231|368:196,1,337.5,0|0,3:0|0:0,0:0:0:0:
292,156,45828,6,0,P|297:106|324:64,1,101.250003862381,2|0,1:0|0:0,0:0:0:0:
368,202,46181,6,0,P|375:233|370:258,3,45,0|0|0|0,3:0|0:0|0:0|0:0,0:0:0:0:
320,302,46534,2,0,P|313:333|318:358,3,45,0|0|0|0,3:0|0:0|0:0|0:0,0:0:0:0:
239,238,46887,6,0,L|188:241,3,45,0|0|0|0,3:0|0:0|0:0|0:0,0:0:0:0:
247,153,47240,2,0,L|298:156,3,45,0|0|0|0,3:0|0:0|0:0|0:0,0:0:0:0:
133,149,47593,6,0,L|127:83,3,45,0|0|0|0,3:0|0:0|0:0|0:0,0:0:0:0:
73,255,47946,2,0,L|79:189,1,45,0|2,3:0|0:0,0:0:0:0:
100,31,48122,2,0,L|103:3,2,22.5,2|0|0,0:0|0:0|0:0,0:0:0:0:
128,104,48299,6,0,P|177:113|225:97,1,90,0|0,3:0|0:0,0:0:0:0:
276,56,48564,1,2,0:0:0:0:
297,50,48652,2,0,P|333:48|351:53,1,45,0|0,3:0|0:0,0:0:0:0:
453,87,48828,2,0,P|430:89|408:86,1,45,2|0,0:0|0:0,0:0:0:0:
215,102,49005,6,0,L|159:98,3,45,0|0|0|0,3:0|0:0|0:0|0:0,0:0:0:0:
296,170,49358,2,0,L|352:166,3,45,0|0|0|0,3:0|0:0|0:0|0:0,0:0:0:0:
125,204,49711,6,0,L|179:200,3,45,0|0|0|0,3:0|0:0|0:0|0:0,0:0:0:0:
332,286,50064,2,0,L|277:282,3,45,0|0|0|0,3:0|0:0|0:0|0:0,0:0:0:0:
157,370,50416,5,0,3:0:0:0:
155,356,50505,1,0,0:0:0:0:
153,342,50593,1,0,0:0:0:0:
151,328,50681,1,0,0:0:0:0:
100,274,50769,5,0,3:0:0:0:
98,260,50858,1,0,0:0:0:0:
96,246,50946,1,0,0:0:0:0:
94,232,51034,1,0,0:0:0:0:
43,178,51122,5,0,3:0:0:0:
41,164,51211,1,0,0:0:0:0:
39,150,51299,1,0,0:0:0:0:
37,136,51387,1,0,0:0:0:0:
88,82,51475,5,0,3:0:0:0:
117,94,51564,1,0,0:0:0:0:
148,91,51652,1,0,0:0:0:0:
176,78,51740,1,0,0:0:0:0:
230,21,51828,6,0,P|278:11|321:24,1,90,2|0,3:0|0:0,0:0:0:0:
452,43,52093,1,0,0:0:0:0:
430,49,52181,2,0,P|407:53|385:49,1,45,4|0,3:0|0:0,0:0:0:0:
272,94,52358,5,0,0:0:0:0:
272,116,52446,1,0,0:0:0:0:
280,136,52534,2,0,P|303:140|325:136,1,45,0|0,3:0|0:0,0:0:0:0:
400,125,52711,2,0,P|423:121|445:125,1,45,8|0,0:0|0:0,0:0:0:0:
330,319,52887,5,4,3:0:0:0:
321,298,52975,1,0,0:0:0:0:
317,275,53063,1,0,0:0:0:0:
318,253,53151,1,0,0:0:0:0:
399,270,53240,6,0,L|451:272,3,45,0|0|0|0,3:0|0:0|0:0|0:0,0:0:0:0:
318,253,53593,6,0,L|266:255,1,45,4|0,3:0|0:0,0:0:0:0:
78,263,53769,2,0,L|54:264,2,22.5,2|0|2,0:0|0:0|0:0,0:0:0:0:
77,351,53946,6,0,P|85:306|77:261,1,90,0|0,3:0|0:0,0:0:0:0:
56,188,54211,1,0,0:0:0:0:
47,167,54299,2,0,P|44:130|46:118,1,45,4|0,3:0|0:0,0:0:0:0:
64,48,54475,2,0,P|79:14|87:5,1,45,2|0,0:0|0:0,0:0:0:0:
126,147,54652,5,0,3:0:0:0:
166,166,54740,1,0,0:0:0:0:
211,168,54828,1,0,0:0:0:0:
252,152,54916,1,0,0:0:0:0:
285,122,55005,2,0,L|288:54,1,45,4|0,3:0|0:0,0:0:0:0:
194,42,55181,2,0,L|196:110,1,45,0|0,0:0|0:0,0:0:0:0:
373,139,55358,5,0,3:0:0:0:
416,147,55446,1,0,0:0:0:0:
455,127,55534,1,0,0:0:0:0:
473,87,55622,1,0,0:0:0:0:
462,44,55710,1,4,3:0:0:0:
427,17,55799,1,0,0:0:0:0:
383,18,55887,1,0,0:0:0:0:
349,47,55975,1,0,0:0:0:0:
373,139,56064,6,0,L|385:208,1,45,0|0,3:0|0:0,0:0:0:0:
471,258,56240,2,0,L|455:215,1,45,0|0,0:0|0:0,0:0:0:0:
301,245,56416,6,0,L|330:308,1,45,4|0,3:0|0:0,0:0:0:0:
426,334,56592,2,0,L|400:297,1,45,0|0,0:0|0:0,0:0:0:0:
246,141,56769,5,0,3:0:0:0:
214,143,56858,1,0,0:0:0:0:
182,145,56946,1,0,0:0:0:0:
150,147,57034,1,0,0:0:0:0:
220,239,57122,6,0,L|316:245,1,80.9999975280763,2|0,1:0|0:0,0:0:0:0:
172,348,57475,6,0,L|163:274,1,53.9999983520508,0|0,1:0|0:0,0:0:0:0:
252,87,57652,2,0,L|245:140,1,53.9999983520508,0|0,0:0|0:0,0:0:0:0:
43,204,57828,6,0,L|117:195,1,53.9999983520508,0|0,1:0|0:0,0:0:0:0:
354,250,58005,2,0,L|300:243,1,53.9999983520508,0|0,0:0|0:0,0:0:0:0:
0,105,58181,6,0,B|37:110|37:110|63:107|63:107|124:114,1,107.999996704102,0|0,1:0|0:0,0:0:0:0:
278,79,58446,1,0,0:0:0:0:
252,87,58534,2,0,L|186:84,1,53.9999983520508,0|0,1:0|0:0,0:0:0:0:
43,204,58711,2,0,L|48:243,2,26.9999991760254,2|2|2,0:0|0:0|0:0,0:0:0:0:
58,308,58887,5,0,1:0:0:0:
84,316,58975,2,0,L|150:313,1,53.9999983520508,0|0,0:0|0:0,0:0:0:0:
226,255,59152,1,0,0:0:0:0:
252,247,59240,2,0,L|318:250,1,53.9999983520508,0|0,1:0|0:0,0:0:0:0:
496,281,59416,1,0,0:0:0:0:
500,307,59505,1,0,0:0:0:0:
417,305,59593,6,0,P|416:264|435:154,1,107.999996704102,0|0,1:0|0:0,0:0:0:0:
337,72,59858,1,2,0:0:0:0:
356,90,59946,2,0,P|366:120|369:155,1,53.9999983520508,0|0,1:0|0:0,0:0:0:0:
252,247,60122,2,0,P|255:220|264:194,1,53.9999983520508,2|0,0:0|0:0,0:0:0:0:
441,52,60299,6,0,P|395:69|324:70,1,107.999996704102,0|0,1:0|0:0,0:0:0:0:
205,28,60564,1,0,0:0:0:0:
178,25,60652,2,0,P|142:30|123:37,1,53.9999983520508,0|0,1:0|0:0,0:0:0:0:
180,148,60828,2,0,P|153:172|141:189,1,53.9999983520508,0|0,0:0|0:0,0:0:0:0:
252,247,61005,6,0,B|251:248|290:257|290:257|321:248|321:248|368:259,1,107.999996704102,0|0,1:0|0:0,0:0:0:0:
491,160,61269,1,0,0:0:0:0:
470,177,61358,2,0,L|411:185,1,53.9999983520508,0|0,1:0|0:0,0:0:0:0:
252,247,61534,2,0,L|220:240,2,26.9999991760254,2|2|2,0:0|0:0|0:0,0:0:0:0:
356,256,61711,6,0,P|354:227|342:192,1,53.9999983520508,0|0,1:0|0:0,0:0:0:0:
269,40,61887,2,0,P|261:65|260:92,1,53.9999983520508,0|0,0:0|0:0,0:0:0:0:
160,219,62064,6,0,L|101:221,1,53.9999983520508,0|0,1:0|0:0,0:0:0:0:
146,234,62240,2,0,L|87:236,1,53.9999983520508,0|0,0:0|0:0,0:0:0:0:
347,203,62416,6,0,L|400:201,1,53.9999983520508,0|0,1:0|0:0,0:0:0:0:
361,188,62592,2,0,L|414:186,1,53.9999983520508,0|0,0:0|0:0,0:0:0:0:
137,146,62769,6,0,P|159:120|168:154,1,72,0|0,3:0|0:0,0:0:0:0:
323,279,62946,6,0,P|345:305|354:271,1,72,0|0,3:0|0:0,0:0:0:0:
246,40,63122,6,0,P|238:65|237:92,1,53.9999983520508,2|0,1:0|1:0,0:0:0:0:
479,268,63299,1,0,1:0:0:0:
497,241,63387,1,0,1:0:0:0:
503,209,63475,1,0,1:0:0:0:
496,178,63563,1,0,1:0:0:0:
476,153,63652,1,0,1:0:0:0:
444,133,63740,1,0,1:0:0:0:
470,104,63828,1,0,1:0:0:0:
462,66,63916,1,0,1:0:0:0:
426,51,64004,1,0,1:0:0:0:
393,72,64092,1,0,1:0:0:0:
349,143,64181,5,0,1:0:0:0:
326,127,64269,1,0,1:0:0:0:
312,103,64358,2,0,L|313:63,2,26.9999991760254,0|0|0,1:0|0:0|1:0,0:0:0:0:
223,40,64534,6,0,P|215:65|214:92,1,53.9999983520508,2|0,1:0|1:0,0:0:0:0:
296,279,64711,1,0,1:0:0:0:
292,305,64799,1,0,1:0:0:0:
213,315,64887,6,0,L|153:308,1,53.9999983520508,0|0,1:0|1:0,0:0:0:0:
235,195,65064,2,0,L|288:201,1,53.9999983520508,0|0,1:0|1:0,0:0:0:0:
95,204,65240,6,0,L|148:197,1,53.9999983520508,0|0,1:0|1:0,0:0:0:0:
225,85,65417,2,0,L|171:91,1,53.9999983520508,0|0,1:0|1:0,0:0:0:0:
371,165,65593,6,0,L|424:171,1,53.9999983520508,0|0,1:0|1:0,0:0:0:0:
349,285,65769,2,0,L|295:278,1,53.9999983520508,0|0,1:0|1:0,0:0:0:0:
128,112,65946,6,0,P|170:88|209:117,1,101.250003862381,0|0,3:0|0:0,0:0:0:0:
115,74,66299,6,0,P|172:51|225:85,1,128.249996575356,0|0,0:0|0:0,0:0:0:0:
106,45,66652,6,0,P|138:25|178:21,1,72,0|0,3:0|0:0,0:0:0:0:
236,44,66828,2,0,P|206:25|171:20,1,72,0|0,3:0|0:0,0:0:0:0:
49,131,67005,6,0,B|-2:210|81:265|81:265|124:223|106:190,1,242.999992584229,2|0,1:0|0:0,0:0:0:0:
31,325,67358,6,0,P|80:343|141:313,1,90,0|0,3:0|0:0,0:0:0:0:
251,299,67711,6,0,P|217:309|189:304,1,45,0|0,0:0|0:0,0:0:0:0:
25,249,67887,2,0,P|47:250|68:258,1,45,0|8,0:0|0:0,0:0:0:0:
215,229,68064,6,0,L|208:121,1,90,0|8,1:0|0:0,0:0:0:0:
293,197,68328,1,8,0:0:0:0:
195,219,68416,6,0,L|190:128,1,62.9999980773926,2|0,0:0|0:0,0:0:0:0:
307,117,68593,2,0,L|312:208,1,62.9999980773926,0|0,3:0|0:0,0:0:0:0:
73,134,68769,6,0,B|17:123|2:93|2:93|-3:40|49:21|49:21|83:29|74:85,1,229.500004377365,4|0,3:0|0:0,0:0:0:0:
36,205,69122,6,0,P|21:267|48:330,1,116.999994644165,0|0,1:0|0:0,0:0:0:0:
250,273,69387,1,0,0:0:0:0:
226,255,69475,2,0,B|179:253|179:253|152:264|152:264|103:262,1,116.999994644165,0|0,3:0|0:0,0:0:0:0:
303,148,69740,1,0,0:0:0:0:
288,173,69828,2,0,L|229:172,1,58.4999973220826,0|2,3:0|0:0,0:0:0:0:
51,261,70005,2,0,L|111:262,1,58.4999973220826,0|2,0:0|0:0,0:0:0:0:
352,258,70181,5,0,3:0:0:0:
380,261,70269,2,0,B|405:171|405:171|373:184,1,116.999994644165,2|0,0:0|0:0,0:0:0:0:
410,350,70534,1,0,3:0:0:0:
483,367,70622,5,2,0:0:0:0:
485,349,70711,1,2,0:0:0:0:
482,331,70799,1,2,0:0:0:0:
410,350,70887,6,0,L|329:355,1,58.4999973220826,0|8,3:0|0:0,0:0:0:0:
283,318,71064,2,0,L|202:323,1,58.4999973220826,0|8,0:0|0:0,0:0:0:0:
85,275,71240,5,0,3:0:0:0:
91,303,71328,1,0,0:0:0:0:
162,277,71416,2,0,L|168:230,2,29.2499986610413,0|0|0,1:0|1:0|1:0,0:0:0:0:
212,184,71593,6,0,P|178:172|135:176,1,58.4999973220826,0|2,3:0|0:0,0:0:0:0:
32,213,71769,2,0,P|61:192|104:185,1,58.4999973220826,0|2,0:0|0:0,0:0:0:0:
235,62,71946,6,0,P|267:77|295:110,1,58.4999973220826,0|2,3:0|0:0,0:0:0:0:
341,208,72122,2,0,P|334:172|309:137,1,58.4999973220826,0|2,0:0|0:0,0:0:0:0:
116,154,72299,6,0,L|105:27,1,116.999994644165,0|2,3:0|0:0,0:0:0:0:
186,269,72564,1,0,0:0:0:0:
211,255,72652,6,0,L|220:147,1,58.4999973220826,0|0,3:0|0:0,0:0:0:0:
235,62,72828,2,0,L|230:120,1,58.4999973220826,2|0,0:0|0:0,0:0:0:0:
242,339,73005,6,0,B|290:329|290:329|331:337|331:337|402:325,1,135,2|0,3:0|0:0,0:0:0:0:
449,314,73358,2,0,P|432:280|412:263,1,58.4999973220826,0|8,3:0|0:0,0:0:0:0:
166,274,73534,1,0,0:0:0:0:
171,302,73622,1,8,0:0:0:0:
241,354,73711,6,0,B|289:344|289:344|330:352|330:352|401:340,1,135,0|0,3:0|0:0,0:0:0:0:
171,302,74064,6,0,B|102:280|65:313|65:313|33:302|10:327|10:327|-19:299|-55:295,1,216,2|0,1:0|0:0,0:0:0:0:
182,199,74416,6,0,P|233:239|136:274,1,175.499991966248,0|0,3:0|0:0,0:0:0:0:
102,223,74769,2,0,P|104:167|112:155,1,58.4999973220826,0|0,3:0|0:0,0:0:0:0:
249,40,74946,1,0,0:0:0:0:
259,44,75034,1,0,0:0:0:0:
265,53,75122,1,0,3:0:0:0:
269,109,75210,1,2,0:0:0:0:
227,146,75298,1,2,0:0:0:0:
172,136,75386,1,2,0:0:0:0:
122,45,75475,5,0,3:0:0:0:
150,51,75564,1,2,0:0:0:0:
91,126,75652,5,2,0:0:0:0:
63,132,75741,1,2,0:0:0:0:
122,207,75828,5,0,3:0:0:0:
150,213,75916,2,0,B|145:315|145:315|112:287,1,116.999994644165,0|0,0:0|0:0,0:0:0:0:
63,132,76181,5,0,3:0:0:0:
114,105,76269,1,2,0:0:0:0:
172,103,76357,1,0,0:0:0:0:
225,126,76445,1,2,0:0:0:0:
263,170,76534,2,0,P|284:116|350:116,1,116.999994644165,0|0,3:0|0:0,0:0:0:0:
343,196,76799,5,0,0:0:0:0:
244,174,76887,2,0,P|254:118|270:102,1,67.5000025749208,0|0,3:0|0:0,0:0:0:0:
366,53,77064,2,0,P|366:86|350:115,1,67.5000025749208,0|0,0:0|0:0,0:0:0:0:
95,197,77240,6,0,L|173:205,1,58.4999973220826,0|0,3:0|0:0,0:0:0:0:
211,294,77416,2,0,L|152:288,1,58.4999973220826,0|0,0:0|0:0,0:0:0:0:
417,197,77593,6,0,L|339:205,1,58.4999973220826,0|0,3:0|0:0,0:0:0:0:
301,294,77769,2,0,L|359:288,1,58.4999973220826,0|0,0:0|0:0,0:0:0:0:
153,202,77946,6,0,L|10:189,1,116.999994644165,0|2,3:0|0:0,0:0:0:0:
206,47,78211,1,0,0:0:0:0:
193,73,78299,2,0,P|186:111|198:154,1,58.4999973220826,0|0,3:0|0:0,0:0:0:0:
228,240,78475,2,0,P|235:278|223:321,1,58.4999973220826,2|0,0:0|0:0,0:0:0:0:
372,121,78652,6,0,P|319:83|323:166,1,175.499991966248,0|0,3:0|0:0,0:0:0:0:
372,121,79005,6,0,P|310:81|319:165,1,188.999994232178,0|0,3:0|0:0,0:0:0:0:
372,121,79358,6,0,P|303:79|319:165,1,202.500007724762,0|2,3:0|0:0,0:0:0:0:
249,29,79711,6,0,B|221:46|188:31|188:31|151:49|151:49|107:43|107:43|78:65|15:68,1,229.500004377365,2|0,3:0|0:0,0:0:0:0:
81,133,80064,6,0,P|119:72|78:-1,1,135.000005149842,4|2,3:0|0:0,0:0:0:0:
122,19,80416,6,0,P|138:82|101:135,1,135.000005149842,2|2,1:0|0:0,0:0:0:0:
31,66,80681,1,0,0:0:0:0:
100,16,80769,2,0,L|172:19,1,67.5000025749208,0|0,3:0|0:0,0:0:0:0:
195,102,80946,2,0,L|262:99,1,67.5000025749208,2|0,0:0|0:0,0:0:0:0:
428,84,81122,5,0,3:0:0:0:
408,92,81211,1,2,0:0:0:0:
404,180,81299,5,0,0:0:0:0:
424,188,81388,1,2,0:0:0:0:
400,268,81475,5,0,3:0:0:0:
380,276,81564,2,0,B|360:279|344:295|344:295|318:277|318:277|300:298|229:288,1,135.000005149842,0|0,0:0|0:0,0:0:0:0:
109,290,81828,5,0,3:0:0:0:
173,240,81916,1,2,0:0:0:0:
123,176,82005,1,2,0:0:0:0:
59,226,82093,1,2,0:0:0:0:
173,240,82181,6,0,L|251:233,1,67.5000025749208,0|8,3:0|0:0,0:0:0:0:
109,290,82358,2,0,L|41:296,1,67.5000025749208,8|8,0:0|0:0,0:0:0:0:
63,39,82534,5,0,3:0:0:0:
120,87,82622,1,0,0:0:0:0:
50,112,82711,2,0,L|-2:107,2,33.7500012874604,0|0|0,1:0|1:0|1:0,0:0:0:0:
120,87,82887,6,0,L|203:92,1,67.5000025749208,0|0,3:0|0:0,0:0:0:0:
122,244,83064,2,0,B|118:195|118:195|134:214,1,67.5000025749208,2|0,0:0|0:0,0:0:0:0:
313,182,83240,6,0,L|230:187,1,67.5000025749208,0|0,3:0|0:0,0:0:0:0:
311,339,83417,2,0,B|315:290|315:290|299:309,1,67.5000025749208,2|0,0:0|0:0,0:0:0:0:
308,49,83593,6,0,B|304:99|304:99|316:133|316:133|312:184,1,135.000005149842,0|2,3:0|0:0,0:0:0:0:
393,86,83858,1,0,0:0:0:0:
308,34,83946,6,0,L|228:36,1,67.5000025749208,0|0,3:0|0:0,0:0:0:0:
312,195,84122,2,0,L|392:197,1,67.5000025749208,2|0,0:0|0:0,0:0:0:0:
162,112,84299,6,0,P|91:64|164:40,1,202.500007724762,0|0,3:0|0:0,0:0:0:0:
234,148,84652,5,0,3:0:0:0:
229,174,84740,1,8,0:0:0:0:
162,229,84828,5,2,0:0:0:0:
167,255,84916,1,8,0:0:0:0:
234,310,85005,6,0,B|262:331|262:351|262:351|263:324|279:308|279:308|241:280|251:236|274:221|313:212,1,202.500007724762,0|0,3:0|0:0,0:0:0:0:
186,370,85358,6,0,L|84:361,1,101.250003862381,4|0,3:0|0:0,0:0:0:0:
234,310,85711,6,0,L|311:318,1,67.5000025749208,2|0,1:0|1:0,0:0:0:0:
350,215,85887,2,0,L|273:223,1,67.5000025749208,0|0,1:0|1:0,0:0:0:0:
246,324,86064,6,0,L|323:332,1,67.5000025749208,8|0,1:0|1:0,0:0:0:0:
362,229,86240,2,0,L|285:237,1,67.5000025749208,0|0,1:0|1:0,0:0:0:0:
107,264,86416,5,8,1:0:0:0:
88,191,86505,1,0,1:0:0:0:
97,117,86593,1,0,1:0:0:0:
137,54,86681,1,0,1:0:0:0:
191,105,86769,5,8,1:0:0:0:
169,118,86857,1,0,1:0:0:0:
145,125,86945,1,0,1:0:0:0:
120,124,87033,1,0,1:0:0:0:
97,117,87122,6,0,P|61:105|9:117,1,67.5000025749208,8|0,1:0|1:0,0:0:0:0:
107,264,87299,2,0,P|135:238|151:187,1,67.5000025749208,0|0,1:0|1:0,0:0:0:0:
287,42,87475,5,8,1:0:0:0:
314,45,87564,1,0,1:0:0:0:
317,126,87652,5,0,1:0:0:0:
290,129,87741,1,0,1:0:0:0:
293,210,87828,6,0,L|380:214,1,67.5000025749208,8|0,1:0|1:0,0:0:0:0:
432,239,88005,2,0,L|364:235,1,67.5000025749208,0|0,1:0|1:0,0:0:0:0:
107,264,88181,5,8,1:0:0:0:
104,290,88269,2,0,L|115:369,2,67.5000025749208,0|0|0,1:0|1:0|1:0,0:0:0:0:
128,188,88534,5,8,1:0:0:0:
131,161,88622,1,0,1:0:0:0:
143,136,88711,1,0,1:0:0:0:
146,109,88799,1,0,1:0:0:0:
231,112,88887,5,8,1:0:0:0:
234,85,88975,1,0,1:0:0:0:
246,60,89064,1,0,1:0:0:0:
249,33,89152,1,0,1:0:0:0:
334,36,89240,6,0,L|426:43,1,67.5000025749208,8|0,1:0|1:0,0:0:0:0:
146,109,89416,2,0,L|54:116,1,67.5000025749208,0|0,1:0|1:0,0:0:0:0:
264,227,89593,1,8,1:0:0:0:
260,267,89681,1,0,1:0:0:0:
256,307,89769,1,0,1:0:0:0:
252,347,89858,1,0,1:0:0:0:
345,255,89946,6,0,B|331:230|357:206|357:206|360:238|378:260|378:260|358:287|360:313,1,161.999995056153,0|0,3:0|0:0,0:0:0:0:
439,203,90299,6,0,L|445:133,1,53.9999983520508,0|0,0:0|0:0,0:0:0:0:
264,227,90475,2,0,L|270:157,1,53.9999983520508,0|0,0:0|1:0,0:0:0:0:
451,41,90652,6,0,L|440:193,1,107.999996704102,0|0,3:0|0:0,0:0:0:0:
364,98,90916,1,0,1:0:0:0:
476,50,91005,6,0,B|488:119|488:119|440:194|440:194|457:318,1,242.999992584229,2|0,0:0|0:0,0:0:0:0:
418,197,91358,6,0,P|386:186|309:214,1,67.5000025749208,4|0,3:0|0:0,0:0:0:0:
301,310,91534,2,0,P|334:311|366:300,1,67.5000025749208,0|0,0:0|0:0,0:0:0:0:
402,67,91711,2,0,P|371:106|352:187,1,135.000005149842,0|0,3:0|0:0,0:0:0:0:
253,92,91975,1,0,0:0:0:0:
241,108,92064,2,0,P|248:142|273:172,1,67.5000025749208,0|0,3:0|0:0,0:0:0:0:
464,130,92240,2,0,P|484:103|490:70,1,67.5000025749208,0|0,0:0|0:0,0:0:0:0:
253,92,92416,5,0,3:0:0:0:
193,138,92505,1,0,0:0:0:0:
120,154,92593,1,0,0:0:0:0:
48,133,92681,1,0,0:0:0:0:
2,74,92769,6,0,L|22:7,1,67.5000025749208,0|0,3:0|0:0,0:0:0:0:
233,27,92946,2,0,L|253:94,1,67.5000025749208,0|0,0:0|0:0,0:0:0:0:
130,285,93122,2,0,B|118:240|118:240|129:202|129:202|115:128,1,135.000005149842,0|0,3:0|0:0,0:0:0:0:
211,243,93387,1,0,0:0:0:0:
128,308,93475,6,0,L|55:293,1,67.5000025749208,0|0,3:0|0:0,0:0:0:0:
207,148,93652,2,0,L|273:161,1,67.5000025749208,0|0,0:0|0:0,0:0:0:0:
417,350,93828,6,0,P|377:301|390:214,1,135.000005149842,0|0,3:0|0:0,0:0:0:0:
512,232,94093,1,0,0:0:0:0:
510,252,94181,2,0,P|493:267|445:273,1,67.5000025749208,0|0,3:0|0:0,0:0:0:0:
275,234,94358,2,0,P|241:236|214:256,1,67.5000025749208,0|0,0:0|0:0,0:0:0:0:
362,104,94534,6,0,B|390:166|390:166|375:255,1,135.000005149842,0|0,3:0|0:0,0:0:0:0:
406,31,94799,1,0,0:0:0:0:
387,22,94887,2,0,L|304:29,1,67.5000025749208,0|0,3:0|0:0,0:0:0:0:
422,163,95064,2,0,L|489:157,1,67.5000025749208,0|0,0:0|0:0,0:0:0:0:
258,74,95240,5,0,3:0:0:0:
184,85,95328,1,0,0:0:0:0:
110,96,95416,1,0,0:0:0:0:
36,107,95505,1,0,0:0:0:0:
81,194,95593,6,0,B|144:221|191:189|191:189|159:182|144:154,1,161.999995056153,2|0,3:0|0:0,0:0:0:0:
211,110,95858,1,0,0:0:0:0:
201,29,95946,6,0,B|264:2|311:34|311:34|279:41|264:69,1,161.999995056153,2|0,3:0|0:0,0:0:0:0:
331,109,96211,1,0,0:0:0:0:
321,194,96299,6,0,B|384:221|431:189|431:189|399:182|384:154,1,161.999995056153,2|0,3:0|0:0,0:0:0:0:
451,114,96564,1,0,0:0:0:0:
433,36,96652,6,0,P|373:101|433:191,1,161.999995056153,2|0,3:0|0:0,0:0:0:0:
390,164,97005,5,0,3:0:0:0:
383,237,97093,1,0,0:0:0:0:
376,310,97181,1,0,0:0:0:0:
369,383,97269,1,0,0:0:0:0:
436,353,97358,2,0,L|509:363,1,67.5000025749208,0|0,3:0|0:0,0:0:0:0:
390,164,97534,2,0,L|317:174,1,67.5000025749208,0|0,0:0|0:0,0:0:0:0:
116,194,97711,5,0,3:0:0:0:
90,267,97799,1,0,0:0:0:0:
125,336,97887,1,0,0:0:0:0:
200,359,97975,1,0,0:0:0:0:
246,255,98064,6,0,L|173:265,1,67.5000025749208,0|0,3:0|0:0,0:0:0:0:
28,109,98240,2,0,L|101:119,1,67.5000025749208,0|0,0:0|0:0,0:0:0:0:
246,255,98416,5,0,3:0:0:0:
317,214,98505,1,0,0:0:0:0:
366,149,98593,1,0,0:0:0:0:
373,68,98681,1,0,0:0:0:0:
361,51,98769,6,0,B|426:71|426:71|495:45,1,135.000005149842,0|0,3:0|0:0,0:0:0:0:
295,0,99034,1,0,0:0:0:0:
282,16,99122,2,0,P|277:67|284:84,1,67.5000025749208,0|0,3:0|0:0,0:0:0:0:
468,211,99299,1,0,0:0:0:0:
447,282,99387,1,0,0:0:0:0:
426,353,99475,2,0,B|380:357|380:357|337:333|337:333|259:340,1,135.000005149842,0|0,3:0|0:0,0:0:0:0:
192,288,99740,1,0,0:0:0:0:
293,314,99828,6,0,L|362:310,1,67.5000025749208,0|0,3:0|0:0,0:0:0:0:
187,265,100005,2,0,L|119:268,1,67.5000025749208,0|0,0:0|0:0,0:0:0:0:
294,179,100181,6,0,L|292:327,1,135.000005149842,0|0,3:0|0:0,0:0:0:0:
208,154,100446,1,0,0:0:0:0:
285,174,100534,2,0,P|283:134|271:105,1,67.5000025749208,0|0,3:0|0:0,0:0:0:0:
223,0,100711,2,0,P|212:30|212:64,1,67.5000025749208,0|0,0:0|0:0,0:0:0:0:
165,293,100887,5,0,3:0:0:0:
93,275,100975,1,0,0:0:0:0:
64,205,101064,1,0,0:0:0:0:
100,140,101152,1,0,0:0:0:0:
150,208,101240,6,0,B|187:206|206:215|206:215|236:203|285:210,1,135.000005149842,0|0,3:0|0:0,0:0:0:0:
335,315,101505,1,0,0:0:0:0:
265,354,101593,2,0,P|257:316|260:284,1,67.5000025749208,0|0,3:0|0:0,0:0:0:0:
344,38,101769,1,0,0:0:0:0:
399,88,101858,1,0,0:0:0:0:
414,160,101946,2,0,P|385:185|355:199,1,67.5000025749208,0|0,3:0|0:0,0:0:0:0:
172,128,102122,2,0,P|208:140|235:158,1,67.5000025749208,0|0,0:0|0:0,0:0:0:0:
399,350,102299,6,0,L|227:355,1,135.000005149842,2|2,0:0|0:0,0:0:0:0:
264,353,102652,6,0,L|271:274,1,67.5000025749208,0|0,3:0|0:0,0:0:0:0:
284,145,102828,2,0,L|279:213,1,67.5000025749208,0|0,0:0|0:0,0:0:0:0:
116,243,103005,6,0,B|149:233|149:233|194:237,1,67.5000025749208,0|0,3:0|0:0,0:0:0:0:
181,235,103181,2,0,B|148:245|148:245|103:241,1,67.5000025749208,0|0,0:0|0:0,0:0:0:0:
2,109,103358,5,0,3:0:0:0:
73,89,103446,1,0,0:0:0:0:
145,104,103534,1,0,0:0:0:0:
216,84,103622,1,0,0:0:0:0:
289,96,103711,6,0,L|368:102,1,67.5000025749208,0|0,3:0|0:0,0:0:0:0:
497,116,103887,2,0,L|429:110,1,67.5000025749208,0|0,0:0|0:0,0:0:0:0:
384,270,104064,6,0,B|374:237|374:237|378:192,1,67.5000025749208,0|0,3:0|0:0,0:0:0:0:
376,205,104240,2,0,B|386:238|386:238|382:283,1,67.5000025749208,0|0,0:0|0:0,0:0:0:0:
237,353,104416,5,0,3:0:0:0:
166,330,104505,1,0,0:0:0:0:
166,255,104593,1,0,0:0:0:0:
237,232,104681,1,0,0:0:0:0:
280,292,104769,2,0,B|326:311|326:311|364:289|364:289|416:310,1,135.000005149842,0|0,3:0|0:0,0:0:0:0:
468,339,105034,1,0,0:0:0:0:
450,264,105122,6,0,P|396:247|402:304,1,135.000005149842,0|0,3:0|0:0,0:0:0:0:
305,206,105387,1,0,0:0:0:0:
322,196,105475,2,0,P|348:221|358:259,1,67.5000025749208,0|0,3:0|0:0,0:0:0:0:
378,377,105652,2,0,P|354:354|343:323,1,67.5000025749208,0|0,0:0|0:0,0:0:0:0:
395,140,105828,6,0,P|346:158|259:111,1,135.000005149842,0|0,3:0|0:0,0:0:0:0:
219,75,106093,1,0,0:0:0:0:
293,66,106181,2,0,P|287:103|270:131,1,67.5000025749208,0|0,3:0|0:0,0:0:0:0:
193,236,106358,2,0,P|196:203|213:174,1,67.5000025749208,0|0,0:0|0:0,0:0:0:0:
395,140,106534,5,0,3:0:0:0:
466,117,106623,1,0,0:0:0:0:
466,42,106711,1,0,0:0:0:0:
395,19,106799,1,0,0:0:0:0:
352,79,106887,6,0,B|325:88|308:81|308:81|275:96|275:96|251:87|216:97,1,135.000005149842,2|0,3:0|0:0,0:0:0:0:
131,224,107152,1,0,0:0:0:0:
26,131,107240,6,0,B|53:140|70:133|70:133|103:148|103:148|127:139|162:149,1,135.000005149842,2|0,3:0|0:0,0:0:0:0:
242,281,107505,1,0,0:0:0:0:
347,188,107593,6,0,B|320:197|303:190|303:190|270:205|270:205|246:196|211:206,1,135.000005149842,2|0,3:0|0:0,0:0:0:0:
196,372,107858,1,0,0:0:0:0:
112,313,107946,6,0,B|154:298|154:298|176:299|176:299|195:288|195:288|241:280,1,135.000005149842,2|0,3:0|0:0,0:0:0:0:
242,281,108299,5,8,1:0:0:0:
233,262,108387,1,0,1:0:0:0:
228,242,108475,1,0,1:0:0:0:
228,221,108564,1,0,1:0:0:0:
232,201,108652,1,8,1:0:0:0:
241,183,108740,1,0,1:0:0:0:
252,166,108828,1,0,1:0:0:0:
270,156,108916,1,0,1:0:0:0:
353,149,109005,5,8,1:0:0:0:
321,138,109093,1,0,1:0:0:0:
293,118,109181,1,0,1:0:0:0:
273,90,109269,1,0,1:0:0:0:
353,62,109358,5,8,1:0:0:0:
377,73,109446,1,0,1:0:0:0:
405,75,109534,1,0,1:0:0:0:
432,70,109622,1,0,1:0:0:0:
498,30,109711,5,8,1:0:0:0:
489,48,109799,1,0,1:0:0:0:
486,68,109887,1,0,1:0:0:0:
485,88,109975,1,0,1:0:0:0:
499,161,110064,5,8,1:0:0:0:
508,179,110152,1,0,1:0:0:0:
511,199,110240,1,0,1:0:0:0:
512,219,110328,1,0,1:0:0:0:
429,210,110416,5,8,1:0:0:0:
402,216,110505,1,0,1:0:0:0:
379,230,110593,1,0,1:0:0:0:
361,250,110681,1,0,1:0:0:0:
438,297,110769,6,0,L|515:305,1,67.5000025749208,8|0,1:0|1:0,0:0:0:0:
504,325,110946,2,0,L|436:318,1,67.5000025749208,0|0,1:0|1:0,0:0:0:0:
315,166,111122,5,8,1:0:0:0:
297,146,111210,1,0,1:0:0:0:
274,132,111298,1,0,1:0:0:0:
247,126,111387,1,0,1:0:0:0:
183,221,111475,5,8,1:0:0:0:
201,209,111563,1,0,1:0:0:0:
221,203,111651,1,0,1:0:0:0:
243,204,111740,1,0,1:0:0:0:
279,308,111828,5,8,1:0:0:0:
267,294,111916,1,0,1:0:0:0:
252,285,112004,1,0,1:0:0:0:
235,282,112093,1,0,1:0:0:0:
182,371,112181,5,8,1:0:0:0:
194,362,112269,1,0,1:0:0:0:
208,359,112357,1,0,1:0:0:0:
222,359,112446,1,0,1:0:0:0:
301,372,112534,5,8,1:0:0:0:
313,381,112622,1,0,1:0:0:0:
327,384,112710,1,0,1:0:0:0:
341,384,112799,1,0,1:0:0:0:
409,346,112887,5,8,1:0:0:0:
402,326,112975,1,0,1:0:0:0:
435,260,113064,5,0,1:0:0:0:
428,240,113152,1,0,1:0:0:0:
351,267,113240,6,0,L|328:201,1,67.5000025749208,8|0,1:0|1:0,0:0:0:0:
483,321,113416,2,0,L|505:384,1,67.5000025749208,0|0,1:0|1:0,0:0:0:0:
386,115,113593,6,0,L|425:230,1,101.250003862381,0|0,3:0|0:0,0:0:0:0:
364,121,113946,5,2,3:0:0:0:
462,332,114211,1,0,0:0:0:0:
328,44,114475,5,2,0:0:0:0:
426,255,114740,1,0,0:0:0:0:
328,44,115005,6,0,B|294:30|294:30|263:37|263:37|229:23|183:38,1,135.000005149842,2|0,0:0|0:0,0:0:0:0:
197,33,116064,5,2,0:0:0:0:
202,48,116152,1,2,0:0:0:0:
207,63,116240,1,2,0:0:0:0:
305,274,116416,1,0,0:0:0:0:
12,158,116593,5,2,0:0:0:0:
27,153,116681,1,2,0:0:0:0:
42,148,116769,1,2,0:0:0:0:
305,274,117034,1,0,0:0:0:0:
35,50,117299,5,2,0:0:0:0:
385,217,117564,1,0,0:0:0:0:
49,246,117828,6,0,B|100:252|100:252|133:244|133:244|209:250,1,135.000005149842,2|0,0:0|0:0,0:0:0:0:
182,247,118887,5,2,0:0:0:0:
153,237,118975,1,2,0:0:0:0:
78,256,119064,1,2,0:0:0:0:
49,246,119152,1,2,0:0:0:0:
97,179,119240,5,2,0:0:0:0:
339,93,119593,5,2,0:0:0:0:
97,179,119858,1,0,0:0:0:0:
417,294,120122,1,2,0:0:0:0:
14,167,120387,5,0,0:0:0:0:
316,53,120652,2,0,L|462:65,1,135.000005149842,2|0,0:0|0:0,0:0:0:0:
450,64,121711,5,2,0:0:0:0:
420,72,121799,1,2,0:0:0:0:
346,45,121887,1,2,0:0:0:0:
316,53,121975,1,2,0:0:0:0:
242,26,122064,1,2,0:0:0:0:
212,34,122152,1,2,0:0:0:0:
450,64,122328,1,0,0:0:0:0:
420,72,122416,6,0,L|431:186,1,101.250003862381,2|0,0:0|0:0,0:0:0:0:
429,172,122946,6,0,L|420:72,1,101.250003862381,2|0,0:0|0:0,0:0:0:0:
420,71,123475,6,0,B|430:180|430:180|397:223|389:269|389:269|375:234|350:215|350:215|325:245|288:232,1,337.5,2|0,0:0|0:0,0:0:0:0:
389,268,124887,6,0,L|499:277,1,101.250003862381,8|0,0:0|0:0,0:0:0:0:
481,289,125240,6,0,L|384:281,1,90,0|0,1:0|0:0,0:0:0:0:
205,226,125593,2,0,L|294:233,1,90,0|2,1:0|0:0,0:0:0:0:
493,165,125946,6,0,L|373:174,1,90,0|0,1:0|0:0,0:0:0:0:
146,327,126299,2,0,L|274:316,1,90,0|0,1:0|0:0,0:0:0:0:
372,77,126652,6,0,L|462:70,1,90,0|0,1:0|0:0,0:0:0:0:
205,226,127005,2,0,L|115:233,1,90,0|0,1:0|0:0,0:0:0:0:
388,362,127358,6,0,L|394:307,1,45,0|2,1:0|0:0,0:0:0:0:
396,290,127534,1,2,0:0:0:0:
275,130,127711,2,0,L|282:219,1,90,0|2,1:0|0:0,0:0:0:0:
309,216,127975,1,2,0:0:0:0:
335,212,128064,1,0,1:0:0:0:
239,20,128240,6,0,L|234:64,1,45,0|0,0:0|0:0,0:0:0:0:
282,219,128416,2,0,L|275:130,1,90,0|2,1:0|0:0,0:0:0:0:
452,14,128769,2,0,L|445:103,1,90,0|0,1:0|0:0,0:0:0:0:
189,111,129122,6,0,B|237:111|237:111|283:133,1,90,0|0,1:0|0:0,0:0:0:0:
302,212,129475,2,0,B|278:170|278:170|274:119,1,90,0|0,1:0|0:0,0:0:0:0:
333,63,129828,2,0,B|309:104|309:104|266:133,1,90,0|0,1:0|0:0,0:0:0:0:
110,119,130181,6,0,B|132:113|132:113|167:113,1,45,0|2,1:0|0:0,0:0:0:0:
274,128,130358,2,0,B|251:128|251:128|229:122,1,45,2|2,0:0|0:0,0:0:0:0:
24,137,130534,6,0,B|72:137|72:137|118:115,1,90,0|0,1:0|0:0,0:0:0:0:
109,118,130887,6,0,P|109:146|120:182,1,53.9999983520508,4|0,3:0|1:0,0:0:0:0:
145,318,131064,1,0,1:0:0:0:
155,298,131152,1,0,1:0:0:0:
162,277,131240,1,0,1:0:0:0:
165,255,131328,1,0,1:0:0:0:
166,233,131416,1,0,1:0:0:0:
163,211,131505,1,0,1:0:0:0:
160,189,131593,1,0,1:0:0:0:
152,168,131681,1,0,1:0:0:0:
140,149,131769,1,0,1:0:0:0:
126,132,131858,1,0,1:0:0:0:
109,118,131946,6,0,P|108:145|119:181,1,53.9999983520508,4|0,3:0|1:0,0:0:0:0:
145,318,132122,1,0,1:0:0:0:
179,335,132211,1,0,1:0:0:0:
216,334,132299,1,0,1:0:0:0:
251,320,132387,1,0,1:0:0:0:
278,294,132475,1,0,1:0:0:0:
311,276,132564,1,0,1:0:0:0:
348,269,132652,1,0,1:0:0:0:
384,279,132740,1,0,1:0:0:0:
417,297,132828,1,0,1:0:0:0:
438,327,132916,1,0,1:0:0:0:
434,365,133005,6,0,L|378:354,1,53.9999983520508,2|2,0:0|0:0,0:0:0:0:
328,344,133181,2,0,L|380:354,1,53.9999983520508,2|2,0:0|0:0,0:0:0:0:
489,191,133358,1,2,0:0:0:0:
497,216,133446,6,0,L|444:226,1,53.9999983520508,2|2,0:0|0:0,0:0:0:0:
237,211,133623,1,2,0:0:0:0:
241,184,133711,6,0,L|406:153,1,161.999995056153,4|2,3:0|0:0,0:0:0:0:
473,139,134240,5,0,0:0:0:0:
96,214,134505,1,2,0:0:0:0:
473,139,134769,6,0,B|377:53|282:138|282:138|380:223|473:139,1,427.5,2|0,0:0|0:0,0:0:0:0:
473,139,136534,6,0,P|461:181|466:209,1,67.5,0|0,3:0|0:0,0:0:0:0:
274,73,137064,2,0,P|273:116|285:142,1,67.5,2|0,0:0|0:0,0:0:0:0:
464,334,137593,1,0,0:0:0:0:
470,310,137681,2,0,B|416:294|365:321|365:321|312:347|247:320,1,225,2|0,0:0|0:0,0:0:0:0:
124,280,138652,5,0,0:0:0:0:
146,290,138740,1,0,0:0:0:0:
168,300,138828,1,0,0:0:0:0:
60,361,139005,6,0,L|53:317,1,45,0|0,0:0|0:0,0:0:0:0:
124,280,139269,1,0,0:0:0:0:
146,290,139358,2,0,L|155:205,1,67.5,2|0,0:0|0:0,0:0:0:0:
0,79,139887,2,0,L|7:147,1,67.5,2|0,0:0|0:0,0:0:0:0:
228,259,140416,5,0,0:0:0:0:
244,240,140505,2,0,B|322:227|322:227|380:256|380:256|469:244,1,225,2|0,0:0|0:0,0:0:0:0:
418,170,141475,5,2,0:0:0:0:
395,181,141564,1,2,0:0:0:0:
384,158,141652,1,2,0:0:0:0:
407,147,141740,1,2,0:0:0:0:
364,71,141828,6,0,B|331:81|331:81|293:66,1,67.5,2|0,0:0|0:0,0:0:0:0:
237,43,142181,6,0,L|317:76,1,67.5,0|0,0:0|0:0,0:0:0:0:
469,172,142711,2,0,L|406:146,1,67.5,2|0,0:0|0:0,0:0:0:0:
204,203,143240,1,0,0:0:0:0:
227,194,143328,2,0,P|266:187|216:274,1,225,2|0,0:0|0:0,0:0:0:0:
126,246,144299,6,0,L|163:242,1,22.5,2|2,0:0|0:0,0:0:0:0:
117,326,144475,2,0,L|80:322,1,22.5,2|2,0:0|0:0,0:0:0:0:
0,181,144652,1,2,0:0:0:0:
9,203,144740,2,0,L|70:199,1,45,2|2,0:0|0:0,0:0:0:0:
126,246,145005,6,0,P|122:216|142:181,1,67.5,2|0,0:0|0:0,0:0:0:0:
230,346,145534,2,0,P|218:318|228:279,1,67.5,2|0,0:0|0:0,0:0:0:0:
404,320,146064,1,0,0:0:0:0:
389,299,146152,2,0,B|375:253|376:201|458:174|458:174|472:209|496:209|496:209|490:240|502:266|502:266|473:261|449:263,1,315,2|0,0:0|0:0,0:0:0:0:
389,299,147475,6,0,P|353:297|318:304,1,67.5,0|0,3:0|0:0,0:0:0:0:
250,299,147828,6,0,P|283:304|320:302,1,72,0|0,1:0|0:0,0:0:0:0:
302,145,148181,1,0,1:0:0:0:
290,223,148358,1,0,0:0:0:0:
222,101,148534,6,0,P|216:134|218:171,1,72,0|0,1:0|0:0,0:0:0:0:
373,148,148887,2,0,P|339:142|302:144,1,72,0|0,1:0|0:0,0:0:0:0:
110,234,149240,2,0,P|143:239|180:237,1,72,0|0,1:0|0:0,0:0:0:0:
134,79,149593,1,0,1:0:0:0:
146,157,149770,1,0,0:0:0:0:
321,47,149946,6,0,L|276:46,1,36,0|2,1:0|0:0,0:0:0:0:
211,44,150122,1,2,0:0:0:0:
395,49,150299,6,0,L|389:145,1,72,0|2,1:0|0:0,0:0:0:0:
412,119,150564,1,2,0:0:0:0:
433,117,150652,1,0,1:0:0:0:
321,47,150828,1,0,0:0:0:0:
334,239,151005,6,0,L|329:167,1,72,0|0,1:0|0:0,0:0:0:0:
443,353,151358,2,0,L|447:281,1,72,0|0,1:0|0:0,0:0:0:0:
238,327,151711,1,0,1:0:0:0:
339,362,151887,1,0,0:0:0:0:
140,282,152064,5,0,1:0:0:0:
241,317,152240,1,0,0:0:0:0:
36,257,152416,5,0,1:0:0:0:
137,292,152592,1,0,0:0:0:0:
342,352,152769,5,0,1:0:0:0:
338,312,152858,1,2,0:0:0:0:
237,277,152946,5,2,0:0:0:0:
241,317,153035,1,2,0:0:0:0:
289,203,153122,6,0,P|254:190|183:207,1,108,0|0,1:0|0:0,0:0:0:0:
289,203,153475,6,0,P|300:172|300:138,1,53.9999983520508,4|0,3:0|1:0,0:0:0:0:
133,63,153652,1,0,1:0:0:0:
136,78,153740,1,0,1:0:0:0:
142,92,153828,1,0,1:0:0:0:
150,105,153916,1,0,1:0:0:0:
160,117,154005,1,0,1:0:0:0:
170,129,154093,1,0,1:0:0:0:
182,139,154181,1,0,1:0:0:0:
195,147,154269,1,0,1:0:0:0:
209,155,154358,1,0,1:0:0:0:
223,161,154446,1,0,1:0:0:0:
289,203,154534,6,0,P|300:172|300:138,1,53.9999983520508,4|0,3:0|1:0,0:0:0:0:
66,119,154711,1,0,1:0:0:0:
77,154,154799,1,0,1:0:0:0:
99,183,154887,1,0,1:0:0:0:
128,206,154975,1,0,1:0:0:0:
157,230,155064,1,0,1:0:0:0:
175,262,155152,1,0,1:0:0:0:
176,299,155240,1,0,1:0:0:0:
159,332,155328,1,0,1:0:0:0:
133,359,155416,5,0,1:0:0:0:
102,336,155505,1,0,1:0:0:0:
84,302,155593,1,0,1:0:0:0:
79,264,155681,1,0,1:0:0:0:
88,227,155769,1,0,1:0:0:0:
111,196,155858,1,0,1:0:0:0:
140,172,155946,1,0,1:0:0:0:
160,140,156034,1,0,1:0:0:0:
163,102,156122,1,0,1:0:0:0:
148,66,156211,1,0,1:0:0:0:
121,27,156299,6,0,L|39:42,1,67.5000025749208,0|0,3:0|0:0,0:0:0:0:
227,354,156475,2,0,L|255:275,1,67.5000025749208,0|0,3:0|0:0,0:0:0:0:
0,217,156652,2,0,L|53:280,1,67.5000025749208,0|0,3:0|0:0,0:0:0:0:
348,48,156828,6,0,P|311:33|265:42,1,67.5000025749208,0|0,3:0|0:0,0:0:0:0:
227,354,157005,2,0,P|260:354|290:340,1,67.5000025749208,0|0,3:0|0:0,0:0:0:0:
478,163,157181,6,0,B|445:152|445:152|381:159,1,67.5000025749208,0|0,3:0|0:0,0:0:0:0:
43,268,157358,2,0,B|76:279|76:279|140:272,1,67.5000025749208,0|0,3:0|0:0,0:0:0:0:
284,34,157534,5,0,3:0:0:0:
263,32,157622,1,0,0:0:0:0:
225,97,157711,6,0,B|272:111|272:111|329:98,1,90,0|0,0:0|0:0,0:0:0:0:
215,115,158064,6,0,B|270:129|270:129|326:120,1,107.999996704102,0|0,0:0|0:0,0:0:0:0:
206,139,158416,6,0,L|273:154,1,62.9999980773926,0|0,3:0|0:0,0:0:0:0:
330,145,158593,2,0,L|261:153,1,62.9999980773926,0|0,3:0|0:0,0:0:0:0:
274,17,158769,6,0,B|309:102|266:152|266:152|208:117|247:55,1,242.999992584229,2|0,1:0|0:0,0:0:0:0:
362,64,159122,6,0,B|403:64|403:64|428:54|428:54|489:55,1,107.999996704102,0|0,3:0|0:0,0:0:0:0:
468,54,159387,1,0,0:0:0:0:
468,54,159475,1,2,3:0:0:0:
266,152,159652,1,0,0:0:0:0:
502,239,159828,6,0,B|461:239|461:239|436:229|436:229|375:230,1,107.999996704102,0|0,3:0|0:0,0:0:0:0:
175,221,160181,1,2,3:0:0:0:
386,145,160358,1,0,0:0:0:0:
126,146,160534,5,0,3:0:0:0:
395,229,160711,1,0,0:0:0:0:
89,226,160887,5,2,3:0:0:0:
319,196,161064,1,0,0:0:0:0:
109,41,161240,6,0,L|118:107,1,53.9999983520508,0|2,3:0|0:0,0:0:0:0:
123,126,161416,1,2,0:0:0:0:
353,65,161593,2,0,P|306:45|216:61,1,107.999996704102,2|2,3:0|0:0,0:0:0:0:
238,57,161858,1,2,0:0:0:0:
226,68,161946,1,0,3:0:0:0:
278,270,162122,1,0,0:0:0:0:
19,144,162299,6,0,P|66:124|156:140,1,107.999996704102,2|0,3:0|0:0,0:0:0:0:
213,348,162652,1,0,3:0:0:0:
89,206,162828,1,0,0:0:0:0:
131,365,163005,5,2,3:0:0:0:
155,131,163181,1,0,0:0:0:0:
89,206,163358,1,0,3:0:0:0:
279,273,163534,5,0,0:0:0:0:
237,114,163711,1,2,3:0:0:0:
213,348,163887,1,0,0:0:0:0:
30,129,164064,6,0,B|59:125|59:125|106:132,1,53.9999983520508,0|2,3:0|0:0,0:0:0:0:
361,204,164240,1,2,0:0:0:0:
382,137,164328,1,2,0:0:0:0:
314,153,164416,6,0,B|277:153|277:153|259:165|259:165|205:166,1,101.250003862381,0|0,3:0|0:0,0:0:0:0:
382,137,164769,6,0,L|502:138,1,107.999996704102,0|0,3:0|0:0,0:0:0:0:
489,137,165034,1,0,0:0:0:0:
489,137,165122,1,2,3:0:0:0:
331,319,165299,1,0,0:0:0:0:
242,182,165475,1,0,3:0:0:0:
444,266,165652,5,0,0:0:0:0:
134,186,165828,2,0,L|241:181,1,107.999996704102,2|0,3:0|0:0,0:0:0:0:
424,22,166181,2,0,L|316:17,1,107.999996704102,0|0,3:0|0:0,0:0:0:0:
134,186,166534,5,2,3:0:0:0:
241,181,166711,1,0,0:0:0:0:
427,24,166887,5,0,3:0:0:0:
406,29,166975,1,2,0:0:0:0:
337,12,167064,1,2,0:0:0:0:
316,17,167152,1,2,0:0:0:0:
247,0,167240,1,2,3:0:0:0:
226,5,167328,2,0,B|229:48|229:48|236:72|236:72|239:131,1,107.999996704102,2|2,0:0|0:0,0:0:0:0:
205,10,167593,6,0,B|208:53|208:53|215:77|215:77|205:131|205:131|265:95,1,161.999995056153,0|0,3:0|0:0,0:0:0:0:
137,89,167946,1,2,3:0:0:0:
317,112,168122,1,0,0:0:0:0:
106,157,168299,5,0,3:0:0:0:
286,44,168475,1,0,0:0:0:0:
106,21,168652,1,2,3:0:0:0:
317,112,168828,1,0,0:0:0:0:
484,28,169005,6,0,P|459:64|448:134,1,107.999996704102,0|0,3:0|0:0,0:0:0:0:
163,190,169358,6,0,P|139:142|137:89,1,107.999996704102,2|0,3:0|0:0,0:0:0:0:
495,38,169711,6,0,P|487:91|459:132,1,101.250003862381,0|0,3:0|0:0,0:0:0:0:
367,205,170064,6,0,P|445:200|382:155,1,202.500007724762,4|0,3:0|0:0,0:0:0:0:
288,230,170416,6,0,P|260:272|263:381,1,161.999995056153,0|0,3:0|0:0,0:0:0:0:
262,380,170769,1,2,3:0:0:0:
382,154,170946,1,0,0:0:0:0:
458,329,171122,1,0,3:0:0:0:
288,230,171299,1,0,0:0:0:0:
462,31,171475,6,0,L|450:169,1,107.999996704102,2|0,3:0|0:0,0:0:0:0:
189,366,171828,2,0,L|179:258,1,107.999996704102,0|0,3:0|0:0,0:0:0:0:
371,13,172181,6,0,L|359:151,1,107.999996704102,2|0,3:0|0:0,0:0:0:0:
97,383,172534,2,0,L|88:281,1,53.9999983520508,0|2,3:0|0:0,0:0:0:0:
84,252,172711,1,2,0:0:0:0:
296,356,172887,6,0,L|188:365,1,107.999996704102,2|2,3:0|0:0,0:0:0:0:
193,344,173152,1,2,0:0:0:0:
197,322,173240,1,0,3:0:0:0:
369,327,173416,1,0,0:0:0:0:
159,241,173593,5,2,3:0:0:0:
371,209,173769,1,0,0:0:0:0:
121,160,173946,5,0,3:0:0:0:
374,73,174122,1,0,0:0:0:0:
83,79,174299,5,2,3:0:0:0:
371,209,174475,1,0,0:0:0:0:
114,267,174652,6,0,L|121:143,1,107.999996704102,0|0,3:0|0:0,0:0:0:0:
449,20,175005,2,0,L|456:144,1,107.999996704102,2|0,3:0|0:0,0:0:0:0:
83,79,175358,5,0,3:0:0:0:
157,90,175446,1,2,0:0:0:0:
146,164,175534,1,2,0:0:0:0:
72,153,175622,1,2,0:0:0:0:
116,120,175711,6,0,B|234:135,1,101.250003862381,0|0,0:0|0:0,0:0:0:0:
286,85,176064,6,0,P|298:139|295:153,1,58.4999973220826,8|0,1:0|1:0,0:0:0:0:
212,321,176240,1,0,1:0:0:0:
196,296,176328,1,0,1:0:0:0:
195,266,176416,2,0,P|195:236|206:209,1,58.4999973220826,8|0,1:0|1:0,0:0:0:0:
397,192,176593,1,0,1:0:0:0:
367,193,176681,1,0,1:0:0:0:
340,179,176769,2,0,P|315:163|297:140,1,58.4999973220826,8|0,1:0|1:0,0:0:0:0:
125,97,176946,5,0,1:0:0:0:
133,125,177034,1,0,1:0:0:0:
141,153,177122,1,8,1:0:0:0:
111,148,177211,1,0,1:0:0:0:
103,120,177299,1,0,1:0:0:0:
95,92,177387,1,0,1:0:0:0:
125,97,177475,6,0,L|144:163,1,58.4999973220826,8|0,1:0|1:0,0:0:0:0:
73,330,177652,1,0,1:0:0:0:
81,358,177740,1,0,1:0:0:0:
51,353,177828,6,0,L|32:287,1,58.4999973220826,8|0,1:0|1:0,0:0:0:0:
247,73,178005,1,0,1:0:0:0:
255,45,178093,1,0,1:0:0:0:
225,50,178181,6,0,L|206:116,1,58.4999973220826,8|2,1:0|1:0,0:0:0:0:
169,233,178358,6,0,L|185:176,1,58.4999973220826,0|2,1:0|1:0,0:0:0:0:
361,61,178534,1,8,1:0:0:0:
353,89,178622,6,0,B|373:162|373:162|400:120,1,116.999994644165,0|0,1:0|1:0,0:0:0:0:
282,139,178887,2,0,L|218:136,1,58.4999973220826,8|0,1:0|1:0,0:0:0:0:
369,33,179064,2,0,L|433:30,1,58.4999973220826,0|0,1:0|1:0,0:0:0:0:
409,301,179240,5,8,1:0:0:0:
416,260,179328,1,0,1:0:0:0:
423,219,179416,1,0,1:0:0:0:
430,178,179505,1,0,1:0:0:0:
352,180,179593,5,8,1:0:0:0:
347,211,179682,1,0,1:0:0:0:
342,241,179770,1,0,1:0:0:0:
337,272,179858,1,0,1:0:0:0:
265,243,179946,5,8,1:0:0:0:
268,220,180034,1,0,1:0:0:0:
272,198,180122,1,0,1:0:0:0:
275,176,180211,1,0,1:0:0:0:
201,166,180299,5,8,1:0:0:0:
199,182,180388,1,0,1:0:0:0:
196,197,180476,1,0,1:0:0:0:
193,214,180564,1,0,1:0:0:0:
121,185,180652,5,8,1:0:0:0:
123,172,180740,1,0,1:0:0:0:
125,161,180828,1,0,1:0:0:0:
126,150,180917,1,0,1:0:0:0:
49,156,181005,5,8,1:0:0:0:
50,146,181093,1,0,1:0:0:0:
51,138,181181,1,0,1:0:0:0:
52,130,181270,1,0,1:0:0:0:
121,185,181358,6,0,B|190:228|190:228|268:207|268:207|381:266,1,242.999992584229,0|0,3:0|0:0,0:0:0:0:
265,360,181711,6,0,L|263:282,1,67.5000025749208,4|0,3:0|0:0,0:0:0:0:
341,176,181887,2,0,L|339:243,1,67.5000025749208,0|0,0:0|0:0,0:0:0:0:
181,328,182064,6,0,B|116:348|116:348|8:335,1,135.000005149842,0|0,3:0|0:0,0:0:0:0:
104,187,182328,1,0,0:0:0:0:
75,261,182416,2,0,B|109:267|109:267|146:255,1,67.5000025749208,0|0,3:0|0:0,0:0:0:0:
341,176,182593,2,0,B|307:170|307:170|270:182,1,67.5000025749208,0|0,0:0|0:0,0:0:0:0:
104,187,182769,5,0,3:0:0:0:
33,164,182857,1,0,0:0:0:0:
33,89,182945,1,0,0:0:0:0:
104,66,183033,1,0,0:0:0:0:
147,126,183122,5,0,3:0:0:0:
221,129,183211,1,0,0:0:0:0:
289,101,183299,1,0,0:0:0:0:
359,76,183387,1,0,0:0:0:0:
432,87,183475,2,0,L|448:246,1,135.000005149842,0|0,3:0|0:0,0:0:0:0:
345,149,183740,1,0,0:0:0:0:
461,103,183828,6,0,L|466:170,1,67.5000025749208,0|0,3:0|0:0,0:0:0:0:
354,306,184005,2,0,L|358:238,1,67.5000025749208,0|0,0:0|0:0,0:0:0:0:
251,60,184181,6,0,B|197:61|197:61|171:79|171:79|61:82,1,135.000005149842,0|0,3:0|0:0,0:0:0:0:
233,147,184446,1,0,0:0:0:0:
258,37,184534,2,0,L|188:39,1,67.5000025749208,0|0,3:0|0:0,0:0:0:0:
90,168,184711,2,0,L|20:176,1,67.5000025749208,0|0,0:0|0:0,0:0:0:0:
220,330,184887,2,0,L|35:368,1,135.000005149842,0|0,3:0|0:0,0:0:0:0:
220,187,185152,1,0,0:0:0:0:
242,257,185240,6,0,L|312:265,1,67.5000025749208,0|0,3:0|0:0,0:0:0:0:
437,215,185416,2,0,L|369:222,1,67.5000025749208,0|0,0:0|0:0,0:0:0:0:
220,330,185593,5,0,3:0:0:0:
146,321,185681,1,0,0:0:0:0:
72,312,185769,1,0,0:0:0:0:
116,252,185858,1,0,0:0:0:0:
190,261,185946,6,0,B|228:245|268:268|268:268|275:253|299:244|299:244|259:237|224:212,1,153.000002918243,2|0,3:0|0:0,0:0:0:0:
160,192,186211,1,0,0:0:0:0:
86,183,186299,6,0,B|48:199|8:176|8:176|1:191|-23:200|-23:200|17:207|52:232,1,153.000002918243,2|0,3:0|0:0,0:0:0:0:
117,272,186564,1,0,0:0:0:0:
190,261,186652,6,0,B|222:235|267:247|267:247|270:231|290:216|290:216|250:219|210:204,1,153.000002918243,2|0,3:0|0:0,0:0:0:0:
143,202,186917,1,0,0:0:0:0:
70,213,187005,6,0,B|37:238|-7:226|-7:226|-10:242|-30:257|-30:257|9:254|49:269,1,153.000002918243,2|0,3:0|0:0,0:0:0:0:
2,257,187358,6,0,P|48:247|93:226,1,67.5000025749208,0|0,3:0|0:0,0:0:0:0:
323,232,187534,2,0,P|291:220|258:214,1,67.5000025749208,0|0,0:0|0:0,0:0:0:0:
11,163,187711,2,0,P|-7:110|-1:23,1,135.000005149842,0|0,3:0|0:0,0:0:0:0:
149,81,187975,1,0,0:0:0:0:
69,58,188064,6,0,P|72:104|87:152,1,67.5000025749208,0|0,3:0|0:0,0:0:0:0:
134,268,188240,2,0,P|140:234|142:201,1,67.5000025749208,0|0,0:0|0:0,0:0:0:0:
149,81,188416,5,0,3:0:0:0:
211,39,188505,1,0,0:0:0:0:
285,41,188593,1,0,0:0:0:0:
342,87,188681,1,0,0:0:0:0:
319,157,188769,5,0,3:0:0:0:
381,199,188858,1,0,0:0:0:0:
455,197,188946,1,0,0:0:0:0:
512,151,189034,1,0,0:0:0:0:
506,123,189122,6,0,B|456:112|456:112|420:121|420:121|362:106,1,135.000005149842,0|0,3:0|0:0,0:0:0:0:
189,174,189387,1,0,0:0:0:0:
249,216,189475,2,0,B|283:213|283:213|310:189,1,67.5000025749208,0|0,3:0|0:0,0:0:0:0:
394,20,189652,2,0,B|360:23|360:23|333:47,1,67.5000025749208,0|0,0:0|0:0,0:0:0:0:
249,216,189828,6,0,B|267:317|267:317|305:278,1,135.000005149842,0|0,3:0|0:0,0:0:0:0:
150,275,190093,1,0,0:0:0:0:
201,327,190181,2,0,P|235:326|273:313,1,67.5000025749208,0|0,3:0|0:0,0:0:0:0:
370,243,190358,2,0,P|404:244|442:257,1,67.5000025749208,0|0,0:0|0:0,0:0:0:0:
249,216,190534,6,0,L|226:61,1,135.000005149842,0|0,3:0|0:0,0:0:0:0:
339,137,190799,1,0,0:0:0:0:
215,210,190887,2,0,L|203:135,1,67.5000025749208,0|0,3:0|0:0,0:0:0:0:
193,76,191064,2,0,L|203:142,1,67.5000025749208,0|0,0:0|0:0,0:0:0:0:
229,317,191240,5,0,3:0:0:0:
160,345,191328,1,0,0:0:0:0:
86,339,191416,1,0,0:0:0:0:
21,300,191505,1,0,0:0:0:0:
13,275,191593,6,0,L|5:192,2,67.5000025749208,0|0|0,3:0|0:0|0:0,0:0:0:0:
63,147,191858,1,0,0:0:0:0:
71,122,191946,6,0,L|79:39,1,67.5000025749208,0|0,3:0|0:0,0:0:0:0:
153,277,192122,2,0,L|159:344,1,67.5000025749208,0|0,0:0|0:0,0:0:0:0:
212,81,192299,5,0,3:0:0:0:
281,53,192387,1,0,0:0:0:0:
355,59,192475,1,0,0:0:0:0:
420,98,192564,1,0,0:0:0:0:
462,158,192652,6,0,L|474:10,1,135.000005149842,2|2,0:0|0:0,0:0:0:0:
472,23,193005,6,0,L|467:109,1,67.5000025749208,0|0,3:0|0:0,0:0:0:0:
456,242,193181,2,0,L|460:174,1,67.5000025749208,0|0,0:0|0:0,0:0:0:0:
344,13,193358,6,0,B|344:47|344:47|363:87,1,67.5000025749208,0|0,3:0|0:0,0:0:0:0:
345,254,193534,2,0,B|345:219|345:219|364:179,1,67.5000025749208,0|0,0:0|0:0,0:0:0:0:
193,24,193711,6,0,P|208:60|237:92,1,67.5000025749208,0|0,3:0|0:0,0:0:0:0:
207,277,193887,2,0,P|222:241|251:209,1,67.5000025749208,0|0,0:0|0:0,0:0:0:0:
468,90,194064,5,0,3:0:0:0:
471,163,194152,1,0,0:0:0:0:
474,236,194240,1,0,0:0:0:0:
477,309,194328,1,0,0:0:0:0:
480,382,194416,6,0,L|376:360,1,67.5000025749208,0|0,3:0|0:0,0:0:0:0:
407,222,194593,2,0,L|474:236,1,67.5000025749208,0|0,0:0|0:0,0:0:0:0:
249,308,194769,6,0,L|353:286,1,67.5000025749208,0|0,3:0|0:0,0:0:0:0:
321,148,194946,2,0,L|254:161,1,67.5000025749208,0|0,0:0|0:0,0:0:0:0:
480,382,195122,6,0,L|474:245,1,135.000005149842,0|0,3:0|0:0,0:0:0:0:
372,89,195387,1,0,0:0:0:0:
321,148,195475,6,0,B|271:150|271:150|243:134|243:134|155:138,1,135.000005149842,0|0,3:0|0:0,0:0:0:0:
78,250,195740,1,0,0:0:0:0:
138,292,195828,6,0,P|151:257|142:209,1,67.5000025749208,0|0,3:0|0:0,0:0:0:0:
179,71,196005,2,0,P|177:104|190:135,1,67.5000025749208,0|0,0:0|0:0,0:0:0:0:
364,256,196181,2,0,P|314:218|234:215,1,135.000005149842,0|0,3:0|0:0,0:0:0:0:
78,334,196446,1,0,0:0:0:0:
138,292,196534,6,0,P|151:327|142:375,1,67.5000025749208,0|0,3:0|0:0,0:0:0:0:
29,175,196711,1,0,0:0:0:0:
42,102,196799,1,0,0:0:0:0:
55,29,196887,6,0,L|128:37,1,67.5000025749208,0|0,3:0|0:0,0:0:0:0:
267,52,197064,2,0,L|199:44,1,67.5000025749208,0|0,0:0|0:0,0:0:0:0:
29,175,197240,6,0,B|79:171|79:171|109:180|109:180|132:172|132:172|199:170,1,161.999995056153,2|0,3:0|0:0,0:0:0:0:
271,87,197505,1,0,0:0:0:0:
183,10,197593,6,0,B|185:67|185:67|193:90|193:90|184:120|184:120|188:170,1,161.999995056153,2|0,3:0|0:0,0:0:0:0:
105,252,197858,1,0,0:0:0:0:
192,329,197946,6,0,B|190:272|190:272|182:249|182:249|191:219|191:219|187:169,1,161.999995056153,2|0,3:0|0:0,0:0:0:0:
271,87,198211,1,0,0:0:0:0:
346,174,198299,6,0,B|296:170|296:170|266:179|266:179|243:171|243:171|176:169,1,161.999995056153,2|0,3:0|0:0,0:0:0:0:
186,169,198652,6,0,L|277:172,1,80.9999975280763,8|0,1:0|1:0,0:0:0:0:
426,176,198828,2,0,L|345:173,1,80.9999975280763,0|0,1:0|1:0,0:0:0:0:
183,249,199005,5,8,1:0:0:0:
230,260,199093,1,0,1:0:0:0:
277,267,199181,1,0,1:0:0:0:
325,261,199269,1,0,1:0:0:0:
372,247,199358,5,8,1:0:0:0:
365,215,199446,1,0,1:0:0:0:
372,183,199534,1,0,1:0:0:0:
379,151,199622,1,0,1:0:0:0:
372,119,199711,6,0,B|347:153|347:153|383:193,1,80.9999975280763,8|0,1:0|1:0,0:0:0:0:
365,341,199887,2,0,B|390:307|390:307|354:267,1,80.9999975280763,0|0,1:0|1:0,0:0:0:0:
256,84,200064,6,0,L|269:180,1,80.9999975280763,8|0,1:0|1:0,0:0:0:0:
242,369,200240,2,0,L|252:288,1,80.9999975280763,0|0,1:0|1:0,0:0:0:0:
172,146,200416,2,0,L|91:156,1,80.9999975280763,8|0,1:0|1:0,0:0:0:0:
89,304,200593,2,0,L|169:314,1,80.9999975280763,0|0,1:0|1:0,0:0:0:0:
256,84,200769,5,8,1:0:0:0:
293,66,200858,1,0,1:0:0:0:
333,61,200946,1,0,1:0:0:0:
373,66,201034,1,0,1:0:0:0:
410,79,201122,5,8,1:0:0:0:
352,80,201211,1,0,1:0:0:0:
300,102,201299,1,0,1:0:0:0:
258,140,201387,1,0,1:0:0:0:
226,211,201475,6,0,L|320:216,1,80.9999975280763,8|0,1:0|1:0,0:0:0:0:
387,242,201652,2,0,L|467:246,1,80.9999975280763,0|0,1:0|1:0,0:0:0:0:
224,255,201828,6,0,L|317:243,1,80.9999975280763,8|0,1:0|1:0,0:0:0:0:
387,256,202005,2,0,L|467:246,1,80.9999975280763,0|0,1:0|1:0,0:0:0:0:
258,140,202181,5,8,1:0:0:0:
201,147,202269,1,0,1:0:0:0:
144,154,202358,1,0,1:0:0:0:
87,161,202446,1,0,1:0:0:0:
108,100,202534,5,8,1:0:0:0:
115,157,202622,1,0,1:0:0:0:
122,214,202711,1,0,1:0:0:0:
129,271,202799,1,0,1:0:0:0:
50,336,202887,6,0,L|130:344,1,80.9999975280763,8|0,1:0|1:0,0:0:0:0:
275,223,203064,2,0,L|194:231,1,80.9999975280763,0|0,1:0|1:0,0:0:0:0:
55,349,203240,6,0,L|135:357,1,80.9999975280763,0|0,1:0|1:0,0:0:0:0:
280,236,203417,2,0,L|199:244,1,80.9999975280763,0|0,1:0|1:0,0:0:0:0:
36,94,203593,5,0,1:0:0:0:
108,100,203681,1,0,1:0:0:0:
180,106,203769,1,0,1:0:0:0:
252,112,203858,1,0,1:0:0:0:
349,118,203946,6,0,B|383:103|413:126|413:126|430:95|491:97,1,135,2|0,1:0|0:0,0:0:0:0:
413,126,204299,6,0,P|455:195|452:96,1,242.999992584229,4|0,3:0|0:0,0:0:0:0:
326,94,204652,5,0,3:0:0:0:
316,115,204740,2,0,B|269:114|269:114|240:105|240:105|182:106,1,116.999994644165,0|0,0:0|0:0,0:0:0:0:
124,126,205005,6,0,P|172:82|169:17,1,116.999994644165,0|0,3:0|0:0,0:0:0:0:
17,48,205269,1,0,0:0:0:0:
37,59,205358,2,0,L|113:52,1,58.4999973220826,0|8,3:0|0:0,0:0:0:0:
316,115,205534,2,0,L|240:108,1,58.4999973220826,0|8,0:0|0:0,0:0:0:0:
52,171,205711,5,0,3:0:0:0:
73,181,205799,2,0,L|62:322,1,116.999994644165,2|2,0:0|0:0,0:0:0:0:
144,244,206064,5,0,3:0:0:0:
166,238,206152,1,2,0:0:0:0:
207,169,206240,5,0,0:0:0:0:
229,163,206328,1,2,0:0:0:0:
270,232,206416,6,0,L|333:220,1,58.4999973220826,0|0,3:0|0:0,0:0:0:0:
333,235,206593,2,0,L|275:245,1,58.4999973220826,0|8,0:0|0:0,0:0:0:0:
92,354,206769,5,0,3:0:0:0:
75,285,206858,1,8,0:0:0:0:
143,304,206946,2,0,L|190:309,2,29.2499986610413,0|0|0,1:0|1:0|1:0,0:0:0:0:
240,326,207122,6,0,L|249:241,1,58.4999973220826,0|0,3:0|0:0,0:0:0:0:
135,219,207299,2,0,L|144:134,1,58.4999973220826,0|0,0:0|0:0,0:0:0:0:
370,223,207475,6,0,L|377:165,1,58.4999973220826,0|0,3:0|0:0,0:0:0:0:
265,116,207652,2,0,L|272:58,1,58.4999973220826,0|0,0:0|0:0,0:0:0:0:
74,125,207828,6,0,P|132:142|225:106,1,116.999994644165,0|2,3:0|0:0,0:0:0:0:
137,48,208093,1,2,0:0:0:0:
64,141,208181,6,0,P|105:156|135:156,1,58.4999973220826,0|0,3:0|0:0,0:0:0:0:
265,116,208358,2,0,P|283:112|309:112,2,29.2499986610413,8|8|8,0:0|0:0|0:0,0:0:0:0:
288,190,208534,6,0,B|300:232|284:274|284:274|268:316|288:378,1,175.499991966248,0|0,3:0|0:0,0:0:0:0:
415,320,208887,2,0,P|381:315|351:316,1,58.4999973220826,0|2,3:0|0:0,0:0:0:0:
192,229,209064,1,0,0:0:0:0:
215,225,209152,1,2,0:0:0:0:
301,191,209240,6,0,B|313:233|297:275|297:275|281:317|301:379,1,175.499991966248,0|0,3:0|0:0,0:0:0:0:
469,335,209593,6,0,P|414:317|366:316,1,101.250003862381,2|0,1:0|0:0,0:0:0:0:
296,363,209946,6,0,P|219:364|299:296,1,242.999992584229,0|0,3:0|0:0,0:0:0:0:
370,315,210299,5,0,3:0:0:0:
396,276,210387,1,0,0:0:0:0:
406,230,210475,1,0,0:0:0:0:
403,182,210564,1,0,0:0:0:0:
387,137,210652,5,0,3:0:0:0:
358,143,210740,1,2,0:0:0:0:
307,70,210828,5,2,0:0:0:0:
336,64,210916,1,2,0:0:0:0:
416,131,211005,5,0,3:0:0:0:
434,182,211093,1,2,0:0:0:0:
437,237,211182,1,2,0:0:0:0:
426,290,211270,1,2,0:0:0:0:
396,335,211358,5,0,3:0:0:0:
329,368,211446,2,0,B|295:354|268:357|268:357|239:363|165:344,1,116.999994644165,0|0,0:0|0:0,0:0:0:0:
215,274,211711,5,0,3:0:0:0:
218,245,211799,1,2,0:0:0:0:
247,248,211887,1,0,0:0:0:0:
244,277,211975,1,2,0:0:0:0:
134,257,212064,6,0,B|120:216|120:216|151:100,1,116.999994644165,0|2,3:0|0:0,0:0:0:0:
12,240,212328,1,0,0:0:0:0:
39,230,212416,2,0,B|45:200|45:200|38:173,1,58.4999973220826,0|0,3:0|0:0,0:0:0:0:
74,20,212593,2,0,B|68:50|68:50|75:77,1,58.4999973220826,2|0,0:0|0:0,0:0:0:0:
189,244,212769,6,0,P|163:255|134:257,1,58.4999973220826,0|0,3:0|0:0,0:0:0:0:
78,269,212946,2,0,P|104:257|133:256,1,58.4999973220826,0|0,0:0|0:0,0:0:0:0:
372,313,213122,6,0,P|345:301|316:300,1,58.4999973220826,0|0,3:0|0:0,0:0:0:0:
260,288,213299,2,0,P|286:299|315:300,1,58.4999973220826,0|0,0:0|0:0,0:0:0:0:
419,190,213475,6,0,P|346:198|292:235,1,116.999994644165,0|2,3:0|0:0,0:0:0:0:
470,265,213740,1,2,0:0:0:0:
491,245,213828,2,0,P|505:211|497:157,1,58.4999973220826,0|0,3:0|0:0,0:0:0:0:
411,109,214005,2,0,P|410:80|415:72,2,29.2499986610413,0|0|0,0:0|0:0|0:0,0:0:0:0:
419,190,214181,6,0,P|319:195|256:132,1,175.499991966248,0|0,3:0|0:0,0:0:0:0:
415,228,214534,6,0,P|313:214|265:150,1,188.999994232178,0|0,3:0|0:0,0:0:0:0:
406,257,214887,6,0,P|291:217|265:130,1,202.500007724762,0|2,3:0|0:0,0:0:0:0:
261,69,215240,6,0,B|265:148|265:148|219:222|219:222|225:340,1,256.499993150711,2|0,3:0|0:0,0:0:0:0:
125,336,215593,6,0,P|156:262|220:331,1,188.999994232178,0|0,3:0|0:0,0:0:0:0:
300,335,215946,6,0,L|379:325,1,62.9999980773926,0|0,3:0|0:0,0:0:0:0:
369,303,216122,2,0,L|448:293,1,62.9999980773926,2|0,0:0|0:0,0:0:0:0:
223,311,216299,2,0,L|79:288,1,125.999996154785,0|0,3:0|0:0,0:0:0:0:
25,158,216564,1,0,0:0:0:0:
56,156,216652,2,0,P|65:187|59:222,1,62.9999980773926,0|2,3:0|0:0,0:0:0:0:
223,311,216828,2,0,P|218:279|202:253,1,62.9999980773926,0|2,0:0|0:0,0:0:0:0:
89,82,217005,5,0,3:0:0:0:
112,61,217093,2,0,B|157:69|157:69|189:63|189:63|277:75,1,125.999996154785,0|0,0:0|0:0,0:0:0:0:
315,72,217358,5,0,3:0:0:0:
381,107,217446,1,2,0:0:0:0:
346,173,217534,1,0,0:0:0:0:
280,138,217622,1,2,0:0:0:0:
236,69,217711,6,0,L|148:76,1,62.9999980773926,0|0,3:0|0:0,0:0:0:0:
381,107,217887,2,0,L|469:114,1,62.9999980773926,0|0,0:0|0:0,0:0:0:0:
260,288,218064,1,0,3:0:0:0:
191,257,218152,1,0,0:0:0:0:
252,212,218240,2,0,L|308:209,2,31.4999990386963,8|8|8,0:0|0:0|0:0,0:0:0:0:
191,257,218416,6,0,L|118:247,1,62.9999980773926,0|2,3:0|0:0,0:0:0:0:
151,107,218593,2,0,L|178:175,1,62.9999980773926,0|2,0:0|0:0,0:0:0:0:
321,257,218769,6,0,L|394:247,1,62.9999980773926,0|2,3:0|0:0,0:0:0:0:
361,107,218946,2,0,L|333:175,1,62.9999980773926,0|2,0:0|0:0,0:0:0:0:
208,381,219122,6,0,L|189:246,1,125.999996154785,0|2,3:0|0:0,0:0:0:0:
110,330,219387,1,2,0:0:0:0:
226,347,219475,6,0,B|229:316|229:316|214:261,1,62.9999980773926,0|0,3:0|0:0,0:0:0:0:
131,146,219652,2,0,B|122:176|122:176|125:207,1,62.9999980773926,0|0,0:0|0:0,0:0:0:0:
306,302,219828,6,0,B|372:311|372:311|399:255|399:255|361:207|361:207|297:236,1,216,0|0,3:0|0:0,0:0:0:0:
233,291,220181,5,0,3:0:0:0:
257,294,220269,1,2,0:0:0:0:
281,298,220358,1,0,0:0:0:0:
306,302,220446,1,2,0:0:0:0:
337,217,220534,6,0,B|355:175|314:147|314:147|336:116|336:116|294:75|322:29,1,188.999994232178,0|0,3:0|0:0,0:0:0:0:
389,56,220887,6,0,B|472:63|472:63|437:81,1,101.250003862381,2|0,3:0|0:0,0:0:0:0:
311,53,221240,6,0,L|232:46,1,58.4999973220826,8|0,1:0|1:0,0:0:0:0:
414,153,221416,2,0,L|472:147,1,58.4999973220826,0|0,1:0|1:0,0:0:0:0:
294,129,221593,6,0,L|289:187,1,58.4999973220826,8|0,1:0|1:0,0:0:0:0:
456,71,221769,2,0,L|451:12,1,58.4999973220826,0|0,1:0|1:0,0:0:0:0:
208,112,221946,5,8,1:0:0:0:
132,104,222034,1,0,1:0:0:0:
140,28,222122,1,0,1:0:0:0:
216,36,222211,1,0,1:0:0:0:
208,112,222299,5,8,1:0:0:0:
184,120,222387,1,0,1:0:0:0:
156,120,222475,1,0,1:0:0:0:
132,104,222564,1,0,1:0:0:0:
140,28,222652,6,0,L|224:35,3,58.4999973220826,8|0|0|0,1:0|1:0|1:0|1:0,0:0:0:0:
281,75,223005,2,0,L|339:70,3,58.4999973220826,8|0|0|0,1:0|1:0|1:0|1:0,0:0:0:0:
422,112,223358,6,0,P|427:79|426:50,1,58.4999973220826,8|0,1:0|1:0,0:0:0:0:
276,16,223534,2,2,P|275:45|280:74,1,58.4999973220826,0|0,1:0|1:0,0:0:0:0:
417,190,223711,5,8,1:0:0:0:
422,218,223799,1,0,1:0:0:0:
420,247,223887,1,0,1:0:0:0:
412,275,223975,1,0,1:0:0:0:
396,300,224064,2,0,L|314:288,1,58.4999973220826,8|0,1:0|1:0,0:0:0:0:
217,267,224240,2,0,L|135:255,1,58.4999973220826,0|0,1:0|1:0,0:0:0:0:
243,79,224416,6,0,L|325:91,1,58.4999973220826,8|0,1:0|1:0,0:0:0:0:
422,112,224592,2,0,L|504:124,1,58.4999973220826,0|0,1:0|1:0,0:0:0:0:
221,173,224769,5,8,1:0:0:0:
191,167,224858,1,0,1:0:0:0:
161,161,224946,1,0,1:0:0:0:
131,155,225034,1,0,1:0:0:0:
101,149,225122,5,8,1:0:0:0:
112,128,225211,1,0,1:0:0:0:
101,107,225299,1,0,1:0:0:0:
112,86,225387,1,0,1:0:0:0:
101,65,225475,6,0,B|107:119|107:119|97:149|97:149|106:239,1,135,0|0,3:0|0:0,0:0:0:0:
95,327,225828,5,0,0:0:0:0:
110,317,225916,2,0,L|105:241,1,45,0|0,0:0|0:0,0:0:0:0:
25,172,226093,1,8,0:0:0:0:
19,189,226181,2,0,P|76:208|115:188,1,90,0|8,1:0|0:0,0:0:0:0:
193,93,226446,1,0,0:0:0:0:
199,110,226534,2,0,B|159:132|159:132|103:109,1,90,2|0,0:0|0:0,0:0:0:0:
17,24,226887,6,0,B|79:34|79:34|139:12|139:12|256:26,1,202.500007724762,0|0,3:0|0:0,0:0:0:0:
295,80,227240,5,2,1:0:0:0:
311,96,227328,2,0,L|434:83,1,116.999994644165,0|0,0:0|0:0,0:0:0:0:
504,80,227593,2,0,P|457:124|462:222,1,116.999994644165,0|0,3:0|0:0,0:0:0:0:
422,312,227858,1,0,0:0:0:0:
445,310,227946,2,0,P|456:269|450:240,1,58.4999973220826,0|0,3:0|0:0,0:0:0:0:
333,173,228122,1,0,0:0:0:0:
171,337,228299,6,0,L|287:349,1,116.999994644165,0|0,3:0|0:0,0:0:0:0:
343,152,228652,1,0,3:0:0:0:
333,173,228740,2,0,L|216:185,1,116.999994644165,0|0,0:0|0:0,0:0:0:0:
123,151,229005,6,0,B|172:144|172:144|196:151|196:151|266:141,1,116.999994644165,0|0,3:0|0:0,0:0:0:0:
237,9,229269,1,0,0:0:0:0:
214,16,229358,2,0,L|198:102,1,58.4999973220826,0|0,3:0|0:0,0:0:0:0:
123,151,229534,2,0,L|139:237,1,58.4999973220826,0|0,0:0|0:0,0:0:0:0:
252,326,229711,6,0,P|256:261|184:308,1,175.499991966248,0|0,3:0|0:0,0:0:0:0:
332,352,230064,1,0,3:0:0:0:
353,361,230152,2,0,P|368:298|352:224,1,116.999994644165,0|0,0:0|0:0,0:0:0:0:
253,155,230416,1,0,3:0:0:0:
232,164,230504,2,0,P|217:101|233:27,1,116.999994644165,0|0,0:0|0:0,0:0:0:0:
309,101,230769,6,0,L|370:97,1,58.4999973220826,0|0,3:0|0:0,0:0:0:0:
425,93,230946,2,0,L|366:96,1,58.4999973220826,0|0,0:0|0:0,0:0:0:0:
223,49,231122,6,0,L|76:42,1,116.999994644165,0|0,3:0|0:0,0:0:0:0:
86,166,231475,1,0,3:0:0:0:
105,152,231564,2,0,P|122:78|95:31,1,116.999994644165,0|0,0:0|0:0,0:0:0:0:
3,105,231828,6,0,L|8:221,1,116.999994644165,0|0,3:0|0:0,0:0:0:0:
14,338,232093,2,0,L|8:221,1,116.999994644165,0|0,0:0|0:0,0:0:0:0:
0,46,232358,2,0,L|3:105,1,58.4999973220826,0|0,0:0|0:0,0:0:0:0:
13,338,232534,6,0,B|57:330|73:343|73:343|93:328|93:328|120:336|156:325,1,135,0|0,3:0|0:0,0:0:0:0:
196,274,232887,6,0,L|266:279,1,58.4999973220826,4|0,3:0|0:0,0:0:0:0:
271,294,233064,2,0,L|329:289,1,58.4999973220826,0|0,0:0|0:0,0:0:0:0:
422,260,233240,6,0,P|350:242|322:199,1,116.999994644165,0|0,3:0|0:0,0:0:0:0:
376,108,233505,1,0,0:0:0:0:
398,114,233593,2,0,P|407:150|400:184,1,58.4999973220826,0|0,3:0|0:0,0:0:0:0:
271,294,233769,1,0,0:0:0:0:
125,144,233946,6,0,L|258:142,1,116.999994644165,0|0,3:0|0:0,0:0:0:0:
0,330,234299,1,0,3:0:0:0:
9,308,234387,6,0,L|120:310,1,58.4999973220826,0|0,0:0|0:0,0:0:0:0:
250,164,234564,1,0,0:0:0:0:
241,142,234652,2,0,L|125:144,1,116.999994644165,0|0,3:0|0:0,0:0:0:0:
158,294,234916,1,0,0:0:0:0:
180,285,235005,2,0,L|187:188,1,58.4999973220826,0|0,3:0|0:0,0:0:0:0:
120,85,235181,2,0,L|124:143,1,58.4999973220826,0|0,0:0|0:0,0:0:0:0:
323,184,235358,6,0,P|332:113|302:68,1,116.999994644165,0|0,3:0|0:0,0:0:0:0:
453,293,235711,1,0,3:0:0:0:
432,282,235799,2,0,P|423:211|453:166,1,116.999994644165,0|0,0:0|0:0,0:0:0:0:
502,118,236064,2,0,B|456:119|456:119|429:114|429:114|341:120,1,116.999994644165,0|0,3:0|0:0,0:0:0:0:
257,164,236328,1,0,0:0:0:0:
264,186,236416,2,0,L|341:183,1,58.4999973220826,0|0,3:0|0:0,0:0:0:0:
470,97,236593,2,0,L|393:94,1,58.4999973220826,0|0,0:0|0:0,0:0:0:0:
167,29,236769,6,0,P|149:81|174:176,1,116.999994644165,0|0,3:0|0:0,0:0:0:0:
155,141,237122,6,0,P|173:89|148:-6,1,116.999994644165,0|0,3:0|0:0,0:0:0:0:
167,29,237475,6,0,P|105:82|165:141,1,175.499991966248,0|0,3:0|0:0,0:0:0:0:
253,133,237828,6,0,B|201:127|201:127|144:143,1,101.250003862381,2|0,1:0|0:0,0:0:0:0:
245,257,238181,6,0,P|313:181|251:132,1,202.500007724762,0|0,3:0|0:0,0:0:0:0:
153,140,238534,5,0,3:0:0:0:
139,158,238622,2,0,B|188:162|188:162|213:146|213:146|266:151,1,116.999994644165,0|0,0:0|0:0,0:0:0:0:
400,71,238887,2,0,P|380:124|330:152,1,116.999994644165,0|0,3:0|0:0,0:0:0:0:
228,62,239152,1,0,0:0:0:0:
251,61,239240,2,0,L|321:72,1,58.4999973220826,0|2,3:0|0:0,0:0:0:0:
473,145,239416,2,0,L|403:156,1,58.4999973220826,0|2,0:0|0:0,0:0:0:0:
282,242,239593,6,0,L|303:364,1,116.999994644165,0|0,3:0|0:0,0:0:0:0:
139,158,239946,1,0,3:0:0:0:
157,171,240034,2,0,L|136:293,1,116.999994644165,0|0,0:0|0:0,0:0:0:0:
45,168,240299,6,0,P|112:155|170:181,1,116.999994644165,0|0,3:0|0:0,0:0:0:0:
263,230,240564,1,0,0:0:0:0:
282,242,240652,2,0,P|319:241|355:233,1,58.4999973220826,0|2,3:0|0:0,0:0:0:0:
476,212,240828,2,0,P|447:207|417:207,1,58.4999973220826,0|2,0:0|0:0,0:0:0:0:
237,309,241005,6,0,P|181:325|125:311,1,116.999994644165,0|0,3:0|0:0,0:0:0:0:
325,116,241358,1,0,3:0:0:0:
351,123,241446,2,0,B|349:173|349:173|338:191|338:191|340:256,1,116.999994644165,0|0,0:0|0:0,0:0:0:0:
366,352,241711,6,0,L|361:227,1,116.999994644165,0|0,3:0|0:0,0:0:0:0:
363,47,241975,1,0,0:0:0:0:
347,64,242064,2,0,L|353:161,1,58.4999973220826,0|2,0:0|0:0,0:0:0:0:
453,198,242240,2,0,L|447:295,1,58.4999973220826,0|2,0:0|0:0,0:0:0:0:
252,233,242416,6,0,P|291:217|363:236,1,116.999994644165,0|0,3:0|0:0,0:0:0:0:
133,358,242769,1,0,3:0:0:0:
120,338,242858,2,0,B|122:293|122:293|127:267|127:267|131:199,1,116.999994644165,0|0,0:0|0:0,0:0:0:0:
135,143,243122,6,0,P|88:184|31:185,1,116.999994644165,0|2,3:0|0:0,0:0:0:0:
28,38,243387,1,2,0:0:0:0:
48,49,243475,2,0,P|61:75|54:123,1,58.4999973220826,0|2,0:0|0:0,0:0:0:0:
22,241,243652,2,0,P|22:211|35:186,1,58.4999973220826,0|0,0:0|0:0,0:0:0:0:
151,63,243828,6,0,L|227:67,3,58.4999973220826,0|0|0|0,1:0|1:0|1:0|1:0,0:0:0:0:
330,142,244181,2,0,L|254:146,3,58.4999973220826,0|0|0|0,1:0|1:0|1:0|1:0,0:0:0:0:
172,218,244534,5,0,1:0:0:0:
178,246,244622,1,0,1:0:0:0:
193,271,244711,1,0,1:0:0:0:
214,290,244799,1,0,1:0:0:0:
241,300,244887,1,0,1:0:0:0:
270,302,244975,1,0,1:0:0:0:
299,297,245064,1,0,1:0:0:0:
325,284,245152,1,0,1:0:0:0:
345,263,245240,5,0,1:0:0:0:
314,246,245328,1,0,1:0:0:0:
279,242,245416,1,0,1:0:0:0:
244,250,245505,1,0,1:0:0:0:
213,267,245593,1,0,1:0:0:0:
186,290,245681,1,0,1:0:0:0:
154,305,245769,1,0,1:0:0:0:
118,308,245858,1,0,1:0:0:0:
84,299,245946,5,0,1:0:0:0:
105,263,246034,1,0,1:0:0:0:
134,235,246122,1,0,1:0:0:0:
171,218,246211,1,0,1:0:0:0:
211,212,246299,1,0,1:0:0:0:
250,220,246387,1,0,1:0:0:0:
284,241,246475,1,0,1:0:0:0:
313,270,246564,1,0,1:0:0:0:
335,304,246652,5,0,1:0:0:0:
284,288,246740,1,0,1:0:0:0:
247,250,246828,1,0,1:0:0:0:
225,201,246916,1,0,1:0:0:0:
218,148,247005,1,0,1:0:0:0:
223,95,247093,1,0,1:0:0:0:
248,49,247181,1,0,1:0:0:0:
290,18,247269,1,0,1:0:0:0:
360,12,247358,5,0,1:0:0:0:
377,85,247446,1,0,1:0:0:0:
379,166,247534,1,0,1:0:0:0:
353,249,247622,1,0,1:0:0:0:
286,315,247711,1,0,1:0:0:0:
187,323,247799,1,0,1:0:0:0:
95,271,247887,1,0,1:0:0:0:
79,161,247975,1,0,1:0:0:0:
136,42,248064,6,0,B|176:61|181:78|181:78|217:105|219:186,1,135,0|0,3:0|0:0,0:0:0:0:
175,296,248416,1,2,0:0:0:0:
169,273,248505,2,0,P|166:240|178:202,1,58.4999973220826,0|2,0:0|0:0,0:0:0:0:
330,77,248681,1,0,1:0:0:0:
364,148,248769,6,0,L|280:151,1,58.4999973220826,0|0,3:0|0:0,0:0:0:0:
69,142,248946,2,0,L|153:145,1,58.4999973220826,8|8,0:0|0:0,0:0:0:0:
334,269,249122,6,0,B|412:280|412:280|455:263|455:263|534:271|534:271|491:212,1,229.500004377365,0|0,1:0|0:0,0:0:0:0:
364,148,249475,6,0,L|279:151,1,67.5,4|0,3:0|0:0,0:0:0:0:
